  0
SECTION
  2
HEADER
  9
$ACADVER
  1
AC1009
  9
$DWGCODEPAGE
  3
ansi_1252
  9
$INSBASE
 10
0.0
 20
0.0
 30
0.0
  9
$EXTMIN
 10
0.0
 20
0.0
 30
0.0
  9
$EXTMAX
 10
297.0
 20
210.0
 30
0.0
  9
$LIMMIN
 10
0.0
 20
0.0
  9
$LIMMAX
 10
297.0
 20
210.0
  9
$ORTHOMODE
 70
     0
  9
$REGENMODE
 70
     1
  9
$FILLMODE
 70
     1
  9
$QTEXTMODE
 70
     0
  9
$MIRRTEXT
 70
     1
  9
$DRAGMODE
 70
     2
  9
$LTSCALE
 40
1.0
  9
$OSMODE
 70
    37
  9
$ATTMODE
 70
     1
  9
$TEXTSIZE
 40
3.0
  9
$TRACEWID
 40
1.0
  9
$TEXTSTYLE
  7
STANDARD
  9
$CLAYER
  8
0
  9
$CELTYPE
  6
BYLAYER
  9
$CECOLOR
 62
   256
  9
$DIMSCALE
 40
1.0
  9
$DIMASZ
 40
3.0
  9
$DIMEXO
 40
1.0
  9
$DIMDLI
 40
3.75
  9
$DIMRND
 40
0.0
  9
$DIMDLE
 40
0.0
  9
$DIMEXE
 40
1.0
  9
$DIMTP
 40
0.0
  9
$DIMTM
 40
0.0
  9
$DIMTXT
 40
3.0
  9
$DIMCEN
 40
2.5
  9
$DIMTSZ
 40
0.0
  9
$DIMTOL
 70
     0
  9
$DIMLIM
 70
     0
  9
$DIMTIH
 70
     1
  9
$DIMTOH
 70
     1
  9
$DIMSE1
 70
     0
  9
$DIMSE2
 70
     0
  9
$DIMTAD
 70
     1
  9
$DIMZIN
 70
     0
  9
$DIMBLK
  1

  9
$DIMASO
 70
     1
  9
$DIMSHO
 70
     1
  9
$DIMPOST
  1

  9
$DIMAPOST
  1

  9
$DIMALT
 70
     0
  9
$DIMALTD
 70
     3
  9
$DIMALTF
 40
0.0393700787
  9
$DIMLFAC
 40
1.0
  9
$DIMTOFL
 70
     1
  9
$DIMTVP
 40
0.0
  9
$DIMTIX
 70
     0
  9
$DIMSOXD
 70
     0
  9
$DIMSAH
 70
     0
  9
$DIMBLK1
  1

  9
$DIMBLK2
  1

  9
$DIMSTYLE
  2
ISO-25
  9
$DIMCLRD
 70
     0
  9
$DIMCLRE
 70
     0
  9
$DIMCLRT
 70
     0
  9
$DIMTFAC
 40
1.0
  9
$DIMGAP
 40
2.0
  9
$LUNITS
 70
     2
  9
$LUPREC
 70
     3
  9
$SKETCHINC
 40
1.0
  9
$FILLETRAD
 40
10.0
  9
$AUNITS
 70
     0
  9
$AUPREC
 70
     0
  9
$MENU
  1
.
  9
$ELEVATION
 40
0.0
  9
$PELEVATION
 40
0.0
  9
$THICKNESS
 40
0.0
  9
$LIMCHECK
 70
     0
  9
$CHAMFERA
 40
10.0
  9
$CHAMFERB
 40
10.0
  9
$SKPOLY
 70
     0
  9
$TDCREATE
 40
2454557.552487292
  9
$TDUPDATE
 40
2454557.552487303
  9
$TDINDWG
 40
0.0000000116
  9
$TDUSRTIMER
 40
0.0000000116
  9
$USRTIMER
 70
     1
  9
$ANGBASE
 50
0.0
  9
$ANGDIR
 70
     0
  9
$PDMODE
 70
     0
  9
$PDSIZE
 40
-1.0
  9
$PLINEWID
 40
0.0
  9
$COORDS
 70
     1
  9
$SPLFRAME
 70
     0
  9
$SPLINETYPE
 70
     6
  9
$SPLINESEGS
 70
     8
  9
$ATTDIA
 70
     0
  9
$ATTREQ
 70
     1
  9
$HANDLING
 70
     1
  9
$HANDSEED
  5
422
  9
$SURFTAB1
 70
     6
  9
$SURFTAB2
 70
     6
  9
$SURFTYPE
 70
     6
  9
$SURFU
 70
     6
  9
$SURFV
 70
     6
  9
$UCSNAME
  2

  9
$UCSORG
 10
0.0
 20
0.0
 30
0.0
  9
$UCSXDIR
 10
1.0
 20
0.0
 30
0.0
  9
$UCSYDIR
 10
0.0
 20
1.0
 30
0.0
  9
$PUCSNAME
  2

  9
$PUCSORG
 10
0.0
 20
0.0
 30
0.0
  9
$PUCSXDIR
 10
1.0
 20
0.0
 30
0.0
  9
$PUCSYDIR
 10
0.0
 20
1.0
 30
0.0
  9
$USERI1
 70
     0
  9
$USERI2
 70
     0
  9
$USERI3
 70
     0
  9
$USERI4
 70
     0
  9
$USERI5
 70
     0
  9
$USERR1
 40
0.0
  9
$USERR2
 40
0.0
  9
$USERR3
 40
0.0
  9
$USERR4
 40
0.0
  9
$USERR5
 40
0.0
  9
$WORLDVIEW
 70
     1
  9
$SHADEDGE
 70
     3
  9
$SHADEDIF
 70
    70
  9
$TILEMODE
 70
     1
  9
$MAXACTVP
 70
    64
  9
$PLIMCHECK
 70
     0
  9
$PEXTMIN
 10
1.0000000000E+20
 20
1.0000000000E+20
 30
1.0000000000E+20
  9
$PEXTMAX
 10
-1.0000000000E+20
 20
-1.0000000000E+20
 30
-1.0000000000E+20
  9
$PLIMMIN
 10
0.0
 20
0.0
  9
$PLIMMAX
 10
420.0
 20
297.0
  9
$UNITMODE
 70
     0
  9
$VISRETAIN
 70
     1
  9
$PLINEGEN
 70
     0
  9
$PSLTSCALE
 70
     1
  0
ENDSEC
  0
SECTION
  2
TABLES
  0
TABLE
  2
VPORT
 70
     1
  0
VPORT
  2
*ACTIVE
 70
     0
 10
0.0
 20
0.0
 11
1.0
 21
1.0
 12
148.5
 22
105.0
 13
0.0
 23
0.0
 14
10.0
 24
10.0
 15
10.0
 25
10.0
 16
0.0
 26
0.0
 36
1.0
 17
0.0
 27
0.0
 37
0.0
 40
210.0
 41
1.4142857143
 42
50.0
 43
0.0
 44
0.0
 50
0.0
 51
0.0
 71
     0
 72
  2000
 73
     1
 74
     3
 75
     0
 76
     0
 77
     0
 78
     0
  0
ENDTAB
  0
TABLE
  2
LTYPE
 70
     6
  0
LTYPE
  2
CONTINUOUS
 70
     0
  3
Solid line
 72
    65
 73
     0
 40
0.0
  0
LTYPE
  2
HIDDEN
 70
     0
  3
Hidden __ __ __ __ __ __ __ __ __ __ __ __ __ __
 72
    65
 73
     2
 40
1.905
 49
1.27
 49
-0.635
  0
LTYPE
  2
PHANTOM
 70
     0
  3
Phantom ______  __  __  ______  __  __  ______
 72
    65
 73
     6
 40
12.7
 49
6.35
 49
-1.27
 49
1.27
 49
-1.27
 49
1.27
 49
-1.27
  0
LTYPE
  2
CENTER
 70
     0
  3
Center ____ _ ____ _ ____ _ ____ _ ____ _ ____
 72
    65
 73
     4
 40
10.16
 49
6.35
 49
-1.27
 49
1.27
 49
-1.27
  0
LTYPE
  2
CENTERX2
 70
     0
  3
Center (2x) ________  __  ________  __  _____
 72
    65
 73
     4
 40
20.32
 49
12.7
 49
-2.54
 49
2.54
 49
-2.54
  0
LTYPE
  2
DOT2
 70
     0
  3
Dot (.5x) ........................................
 72
    65
 73
     2
 40
0.635
 49
0.0
 49
-0.635
  0
ENDTAB
  0
TABLE
  2
LAYER
 70
     2
  0
LAYER
  2
0
 70
     0
 62
     7
  6
CONTINUOUS
  0
LAYER
  2
DÜNNE_LINIE
 70
     0
 62
     7
  6
CONTINUOUS
  0
ENDTAB
  0
TABLE
  2
STYLE
 70
     1
  0
STYLE
  2
STANDARD
 70
     0
 40
0.0
 41
1.0
 50
0.0
 71
     0
 42
2.5
  3
txt
  4

  0
ENDTAB
  0
TABLE
  2
VIEW
 70
     0
  0
ENDTAB
  0
TABLE
  2
UCS
 70
     0
  0
ENDTAB
  0
TABLE
  2
APPID
 70
     1
  0
APPID
  2
ACAD
 70
     0
  0
ENDTAB
  0
TABLE
  2
DIMSTYLE
 70
     6
  0
DIMSTYLE
  2
ISO-25
 70
     0
  3

  4

  5

  6

  7

 40
1.0
 41
2.5
 42
0.625
 43
3.75
 44
1.25
 45
0.0
 46
0.0
 47
0.0
 48
0.0
140
2.5
141
2.5
142
0.0
143
0.0393700787
144
1.0
145
0.0
146
1.0
147
0.625
 71
     0
 72
     0
 73
     0
 74
     0
 75
     0
 76
     0
 77
     1
 78
     8
170
     0
171
     3
172
     1
173
     0
174
     0
175
     0
176
     0
177
     0
178
     0
  0
DIMSTYLE
  2
SLDDIMSTYLE0
 70
     0
  3

  4

  5

  6

  7

 40
1.0
 41
3.0
 42
0.0625
 43
0.38
 44
0.0
 45
0.000000001
 46
0.0
 47
0.0
 48
0.0
140
3.0
141
0.09
142
0.0
143
25.4
144
1.0
145
0.0
146
1.0
147
0.75
 71
     0
 72
     0
 73
     0
 74
     0
 75
     0
 76
     0
 77
     1
 78
    12
170
     0
171
     2
172
     0
173
     1
174
     0
175
     0
176
     0
177
     0
178
     0
  0
DIMSTYLE
  2
SLDDIMSTYLE1
 70
     0
  3

  4

  5

  6

  7

 40
1.0
 41
3.0
 42
0.0625
 43
0.38
 44
0.0
 45
0.0
 46
0.0
 47
0.0
 48
0.0
140
3.0
141
0.09
142
0.0
143
25.4
144
1.0
145
0.0
146
1.0
147
0.75
 71
     0
 72
     0
 73
     0
 74
     0
 75
     0
 76
     0
 77
     1
 78
    12
170
     0
171
     2
172
     0
173
     1
174
     0
175
     0
176
     0
177
     0
178
     0
  0
DIMSTYLE
  2
SLDDIMSTYLE2
 70
     0
  3

  4

  5

  6

  7

 40
1.0
 41
3.0
 42
0.0625
 43
0.38
 44
0.0
 45
0.000000001
 46
0.0
 47
0.0
 48
0.0
140
3.0
141
0.09
142
0.0
143
25.4
144
1.0
145
0.0
146
1.0
147
0.75
 71
     0
 72
     0
 73
     0
 74
     0
 75
     0
 76
     0
 77
     1
 78
    12
170
     0
171
     2
172
     0
173
     1
174
     0
175
     0
176
     0
177
     0
178
     0
  0
DIMSTYLE
  2
SLDDIMSTYLE3
 70
     0
  3

  4

  5

  6

  7

 40
1.0
 41
3.0
 42
0.0625
 43
0.38
 44
0.0
 45
0.000000001
 46
0.0
 47
0.0
 48
0.0
140
2.9104166667
141
0.09
142
0.0
143
25.4
144
1.0
145
0.0
146
1.0
147
0.7276041667
 71
     0
 72
     0
 73
     0
 74
     0
 75
     0
 76
     0
 77
     1
 78
    12
170
     0
171
     2
172
     0
173
     1
174
     0
175
     0
176
     0
177
     0
178
     0
  0
DIMSTYLE
  2
SLDDIMSTYLE4
 70
     0
  3

  4

  5

  6

  7

 40
1.0
 41
3.0
 42
0.0625
 43
0.38
 44
0.0
 45
0.000000001
 46
0.0
 47
0.0
 48
0.0
140
3.0
141
0.09
142
0.0
143
25.4
144
1.0
145
0.0
146
1.0
147
0.75
 71
     0
 72
     0
 73
     0
 74
     0
 75
     0
 76
     0
 77
     1
 78
    12
170
     0
171
     2
172
     0
173
     1
174
     0
175
     0
176
     0
177
     0
178
     0
  0
ENDTAB
  0
ENDSEC
  0
SECTION
  2
BLOCKS
  0
BLOCK
  8
0
  2
$MODEL_SPACE
 70
     0
 10
0.0
 20
0.0
 30
0.0
  3
$MODEL_SPACE
  1

  0
ENDBLK
  5
21
  8
0
  0
BLOCK
 67
     1
  8
0
  2
$PAPER_SPACE
 70
     0
 10
0.0
 20
0.0
 30
0.0
  3
$PAPER_SPACE
  1

  0
ENDBLK
  5
1D
 67
     1
  8
0
  0
BLOCK
  8
0
  2
SW_NOTE_0
 70
     0
 10
0.0
 20
0.0
 30
0.0
  3
SW_NOTE_0
  1

  0
LINE
  5
90
  8
0
  6
CONTINUOUS
 62
     0
 10
0.0
 20
0.0
 30
0.0
 11
0.0
 21
-3.5260412179
 31
0.0
  0
LINE
  5
91
  8
0
  6
CONTINUOUS
 62
     0
 10
0.0
 20
-3.5260412179
 30
0.0
 11
3.8605049348
 21
-3.5260412179
 31
0.0
  0
LINE
  5
92
  8
0
  6
CONTINUOUS
 62
     0
 10
3.8605049348
 20
-3.5260412179
 30
0.0
 11
3.8605049348
 21
0.0
 31
0.0
  0
LINE
  5
93
  8
0
  6
CONTINUOUS
 62
     0
 10
3.8605049348
 20
0.0
 30
0.0
 11
0.0
 21
0.0
 31
0.0
  0
LINE
  5
94
  8
0
  6
CONTINUOUS
 62
     0
 10
0.0
 20
0.0
 30
0.0
 11
3.8605049348
 21
-3.5260412179
 31
0.0
  0
LINE
  5
95
  8
0
  6
CONTINUOUS
 62
     0
 10
0.0
 20
-3.5260412179
 30
0.0
 11
3.8605049348
 21
0.0
 31
0.0
  0
ENDBLK
  5
8F
  8
0
  0
BLOCK
  8
0
  2
SW_NOTE_1
 70
     0
 10
0.0
 20
0.0
 30
0.0
  3
SW_NOTE_1
  1

  0
LINE
  5
A8
  8
0
  6
CONTINUOUS
 62
     0
 10
0.0
 20
0.0
 30
0.0
 11
0.0
 21
-6.3491417429
 31
0.0
  0
LINE
  5
A9
  8
0
  6
CONTINUOUS
 62
     0
 10
0.0
 20
-6.3491417429
 30
0.0
 11
6.9472082196
 21
-6.3491417429
 31
0.0
  0
LINE
  5
AA
  8
0
  6
CONTINUOUS
 62
     0
 10
6.9472082196
 20
-6.3491417429
 30
0.0
 11
6.9472082196
 21
0.0
 31
0.0
  0
LINE
  5
AB
  8
0
  6
CONTINUOUS
 62
     0
 10
6.9472082196
 20
0.0
 30
0.0
 11
0.0
 21
0.0
 31
0.0
  0
LINE
  5
AC
  8
0
  6
CONTINUOUS
 62
     0
 10
0.0
 20
0.0
 30
0.0
 11
6.9472082196
 21
-6.3491417429
 31
0.0
  0
LINE
  5
AD
  8
0
  6
CONTINUOUS
 62
     0
 10
0.0
 20
-6.3491417429
 30
0.0
 11
6.9472082196
 21
0.0
 31
0.0
  0
ENDBLK
  5
A7
  8
0
  0
BLOCK
  8
0
  2
SW_NOTE_2
 70
     0
 10
0.0
 20
0.0
 30
0.0
  3
SW_NOTE_2
  1

  0
TEXT
  5
107
  8
DÜNNE_LINIE
 62
     0
 10
-53.7184151055
 20
16.7373340081
 30
0.0
 40
3.0
  1
Kühlmittelbohrung 
 41
0.7
 11
-53.7184151055
 21
15.6775538223
 31
0.0
 73
     1
  0
LINE
  5
108
  8
DÜNNE_LINIE
 62
     0
 10
-17.8368986172
 20
11.6766441674
 30
0.0
 11
0.0
 21
0.0
 31
0.0
  0
SOLID
  5
109
  8
DÜNNE_LINIE
 62
     0
 10
0.0
 20
0.0
 30
0.0
 11
-2.0992190819
 21
2.2706341067
 31
0.0
 12
-2.9207858283
 22
1.0156328791
 32
0.0
 13
-2.9207858283
 23
1.0156328791
 33
0.0
  0
ENDBLK
  5
106
  8
0
  0
BLOCK
  8
0
  2
*D4
 70
     1
 10
0.0
 20
0.0
 30
0.0
  3
*D4
  1

  0
SOLID
  5
1FC
  8
DÜNNE_LINIE
 62
     7
 10
71.9059996121
 20
72.9910809207
 30
0.0
 11
74.9059996121
 21
72.2410809207
 31
0.0
 12
74.9059996121
 22
73.7410809207
 32
0.0
 13
74.9059996121
 23
73.7410809207
 33
0.0
  0
SOLID
  5
1FD
  8
DÜNNE_LINIE
 62
     7
 10
171.8847379853
 20
72.9910809207
 30
0.0
 11
168.8847379853
 21
73.7410809207
 31
0.0
 12
168.8847379853
 22
72.2410809207
 32
0.0
 13
168.8847379853
 23
72.2410809207
 33
0.0
  0
LINE
  5
1FE
  8
DÜNNE_LINIE
 62
     7
 10
71.9059996121
 20
101.5187302176
 30
0.0
 11
71.9059996121
 21
96.9994708597
 31
0.0
  0
LINE
  5
1FF
  8
DÜNNE_LINIE
 62
     7
 10
71.9059996121
 20
94.9994708597
 30
0.0
 11
71.9059996121
 21
71.9910809207
 31
0.0
  0
LINE
  5
200
  8
DÜNNE_LINIE
 62
     7
 10
171.8847379853
 20
94.3684612338
 30
0.0
 11
171.8847379853
 21
71.9910809207
 31
0.0
  0
LINE
  5
201
  8
DÜNNE_LINIE
 62
     7
 10
71.9059996121
 20
72.9910809207
 30
0.0
 11
171.8847379853
 21
72.9910809207
 31
0.0
  0
TEXT
  5
202
  8
DÜNNE_LINIE
 62
     7
 10
118.5705726985
 20
74.0508612229
 30
0.0
 40
3.0
  1
100
 50
0.0
 41
0.7
 11
118.5705726985
 21
72.9910810371
 31
0.0
 73
     1
  0
ENDBLK
  5
1FB
  8
0
  0
BLOCK
  8
0
  2
*D5
 70
     1
 10
0.0
 20
0.0
 30
0.0
  3
*D5
  1

  0
ARC
  5
208
  8
DÜNNE_LINIE
 62
     7
 10
71.9059996121
 20
103.2644471699
 30
0.0
 40
16.99433461765003
 50
270.0
 51
330.0
  0
SOLID
  5
209
  8
DÜNNE_LINIE
 62
     7
 10
71.9059996121
 20
86.2701125523
 30
0.0
 11
74.9599981744
 21
85.7847335447
 31
0.0
 12
74.8291178765
 22
87.2790127514
 32
0.0
 13
74.8291178765
 23
87.2790127514
 33
0.0
  0
SOLID
  5
20A
  8
DÜNNE_LINIE
 62
     7
 10
86.6235251114
 20
94.7672798611
 30
0.0
 11
84.2882327768
 21
92.7402352854
 31
0.0
 12
85.5168763812
 22
91.8797500192
 32
0.0
 13
85.5168763812
 23
91.8797500192
 33
0.0
  0
LINE
  5
20B
  8
DÜNNE_LINIE
 62
     7
 10
71.9059996121
 20
101.5187302176
 30
0.0
 11
71.9059996121
 21
96.9994708597
 31
0.0
  0
LINE
  5
20C
  8
DÜNNE_LINIE
 62
     7
 10
71.9059996121
 20
94.9994708597
 30
0.0
 11
71.9059996121
 21
85.2701125523
 31
0.0
  0
LINE
  5
20D
  8
DÜNNE_LINIE
 62
     7
 10
85.0984835813
 20
95.647762999
 30
0.0
 11
87.4895505151
 21
94.2672798611
 31
0.0
  0
TEXT
  5
20E
  8
DÜNNE_LINIE
 62
     7
 10
77.2614807
 20
87.9567971708
 30
0.0
 40
3.0
  1
60°
 50
30.0
 41
0.7
 11
77.7913707929
 21
87.0390006075
 31
0.0
 73
     1
  0
ENDBLK
  5
207
  8
0
  0
BLOCK
  8
0
  2
*D6
 70
     1
 10
0.0
 20
0.0
 30
0.0
  3
*D6
  1

  0
SOLID
  5
214
  8
DÜNNE_LINIE
 62
     7
 10
113.9564660974
 20
80.1122297068
 30
0.0
 11
110.9564660974
 21
80.8622297068
 31
0.0
 12
110.9564660974
 22
79.3622297068
 32
0.0
 13
110.9564660974
 23
79.3622297068
 33
0.0
  0
SOLID
  5
215
  8
DÜNNE_LINIE
 62
     7
 10
71.9059996121
 20
80.1122297068
 30
0.0
 11
74.9059996121
 21
79.3622297068
 31
0.0
 12
74.9059996121
 22
80.8622297068
 32
0.0
 13
74.9059996121
 23
80.8622297068
 33
0.0
  0
LINE
  5
216
  8
DÜNNE_LINIE
 62
     7
 10
113.9564660974
 20
95.3684612338
 30
0.0
 11
113.9564660974
 21
79.1122297068
 31
0.0
  0
LINE
  5
217
  8
DÜNNE_LINIE
 62
     7
 10
71.9059996121
 20
101.5187302176
 30
0.0
 11
71.9059996121
 21
96.9994708597
 31
0.0
  0
LINE
  5
218
  8
DÜNNE_LINIE
 62
     7
 10
71.9059996121
 20
94.9994708597
 30
0.0
 11
71.9059996121
 21
79.1122297068
 31
0.0
  0
LINE
  5
219
  8
DÜNNE_LINIE
 62
     7
 10
113.9564660974
 20
80.1122297068
 30
0.0
 11
71.9059996121
 21
80.1122297068
 31
0.0
  0
TEXT
  5
21A
  8
DÜNNE_LINIE
 62
     7
 10
90.7147021213
 20
81.1720100089
 30
0.0
 40
3.0
  1
40
 50
0.0
 41
0.7
 11
90.7147021213
 21
80.1122298232
 31
0.0
 73
     1
  0
ENDBLK
  5
213
  8
0
  0
BLOCK
  8
0
  2
*D7
 70
     1
 10
0.0
 20
0.0
 30
0.0
  3
*D7
  1

  0
SOLID
  5
220
  8
DÜNNE_LINIE
 62
     7
 10
185.7790298992
 20
120.3684612338
 30
0.0
 11
185.0290298992
 21
117.3684612338
 31
0.0
 12
186.5290298992
 22
117.3684612338
 32
0.0
 13
186.5290298992
 23
117.3684612338
 33
0.0
  0
SOLID
  5
221
  8
DÜNNE_LINIE
 62
     7
 10
185.7790298992
 20
95.3684612338
 30
0.0
 11
186.5290298992
 21
98.3684612338
 31
0.0
 12
185.0290298992
 22
98.3684612338
 32
0.0
 13
185.0290298992
 23
98.3684612338
 33
0.0
  0
LINE
  5
222
  8
DÜNNE_LINIE
 62
     7
 10
170.6347379853
 20
120.3684612338
 30
0.0
 11
186.7790298992
 21
120.3684612338
 31
0.0
  0
LINE
  5
223
  8
DÜNNE_LINIE
 62
     7
 10
170.6347379853
 20
95.3684612338
 30
0.0
 11
186.7790298992
 21
95.3684612338
 31
0.0
  0
LINE
  5
224
  8
DÜNNE_LINIE
 62
     7
 10
185.7790298992
 20
120.3684612338
 30
0.0
 11
185.7790298992
 21
95.3684612338
 31
0.0
  0
TEXT
  5
225
  8
DÜNNE_LINIE
 62
     7
 10
184.7508959273
 20
103.3387721664
 30
0.0
 40
2.9104166667
  1
%%c
 50
90.0
 41
0.7
 11
185.7790298992
 21
103.3387721664
 31
0.0
 73
     1
  0
TEXT
  5
226
  8
DÜNNE_LINIE
 62
     7
 10
184.7508959273
 20
107.7293170592
 30
0.0
 40
2.9104166667
  1
25
 50
90.0
 41
0.7
 11
185.7790298992
 21
107.7293170592
 31
0.0
 73
     1
  0
ENDBLK
  5
21F
  8
0
  0
BLOCK
  8
0
  2
*D8
 70
     1
 10
0.0
 20
0.0
 30
0.0
  3
*D8
  1

  0
SOLID
  5
22C
  8
DÜNNE_LINIE
 10
64.2026719404
 20
95.9994708597
 30
0.0
 11
64.9526719404
 21
98.9994708597
 31
0.0
 12
63.4526719404
 22
98.9994708597
 32
0.0
 13
63.4526719404
 23
98.9994708597
 33
0.0
  0
LINE
  5
22D
  8
DÜNNE_LINIE
 10
83.5992894355
 20
95.9994708597
 30
0.0
 11
63.2026719404
 21
95.9994708597
 31
0.0
  0
LINE
  5
22E
  8
DÜNNE_LINIE
 10
64.2026719404
 20
95.9994708597
 30
0.0
 11
64.2026719404
 21
115.4122765762
 31
0.0
  0
TEXT
  5
22F
  8
DÜNNE_LINIE
 10
63.142891289
 20
101.5431555173
 30
0.0
 40
3.0
  1
%%c
 50
90.0
 41
0.7
 11
64.2026714748
 21
101.5431555173
 31
0.0
 73
     1
  0
TEXT
  5
230
  8
DÜNNE_LINIE
 10
63.0970579947
 20
106.0675303636
 30
0.0
 40
3.0
  1
23,6
 50
90.0
 41
0.7
 11
64.1568381805
 21
106.0675303636
 31
0.0
 73
     1
  0
ENDBLK
  5
22B
  8
0
  0
BLOCK
  8
0
  2
SW_CENTERMARKSYMBOL_0
 70
     0
 10
0.0
 20
0.0
 30
0.0
  3
SW_CENTERMARKSYMBOL_0
  1

  0
LINE
  5
274
  8
DÜNNE_LINIE
 62
     0
 10
0.0
 20
0.0
 30
0.0
 11
0.0
 21
2.5
 31
0.0
  0
LINE
  5
275
  8
DÜNNE_LINIE
 62
     0
 10
0.0
 20
0.0
 30
0.0
 11
-2.5
 21
0.0
 31
0.0
  0
LINE
  5
276
  8
DÜNNE_LINIE
 62
     0
 10
0.0
 20
0.0
 30
0.0
 11
0.0
 21
-2.5
 31
0.0
  0
LINE
  5
277
  8
DÜNNE_LINIE
 62
     0
 10
0.0
 20
0.0
 30
0.0
 11
2.5
 21
0.0
 31
0.0
  0
LINE
  5
278
  8
DÜNNE_LINIE
 62
     0
 10
0.0
 20
5.0
 30
0.0
 11
0.0
 21
15.0
 31
0.0
  0
LINE
  5
279
  8
DÜNNE_LINIE
 62
     0
 10
-5.0
 20
0.0
 30
0.0
 11
-15.0
 21
0.0
 31
0.0
  0
LINE
  5
27A
  8
DÜNNE_LINIE
 62
     0
 10
0.0
 20
-5.0
 30
0.0
 11
0.0
 21
-15.0
 31
0.0
  0
LINE
  5
27B
  8
DÜNNE_LINIE
 62
     0
 10
5.0
 20
0.0
 30
0.0
 11
15.0
 21
0.0
 31
0.0
  0
ENDBLK
  5
273
  8
0
  0
ENDSEC
  0
SECTION
  2
ENTITIES
  0
LINE
  5
63
  8
0
  6
CONTINUOUS
 62
     7
 10
5.0
 20
205.0
 30
0.0
 11
5.0
 21
5.0
 31
0.0
  0
LINE
  5
64
  8
0
  6
CONTINUOUS
 62
     7
 10
292.0
 20
5.0
 30
0.0
 11
5.0
 21
5.0
 31
0.0
  0
LINE
  5
65
  8
0
  6
CONTINUOUS
 62
     7
 10
292.0
 20
5.0
 30
0.0
 11
292.0
 21
205.0
 31
0.0
  0
LINE
  5
66
  8
0
  6
CONTINUOUS
 62
     7
 10
292.0
 20
205.0
 30
0.0
 11
5.0
 21
205.0
 31
0.0
  0
LINE
  5
67
  8
0
  6
CONTINUOUS
 62
     7
 10
102.7819935278
 20
53.9144842386
 30
0.0
 11
292.0013304903
 21
53.9144842387
 31
0.0
  0
LINE
  5
68
  8
0
  6
CONTINUOUS
 62
     7
 10
292.0
 20
205.0
 30
0.0
 11
5.0
 21
205.0
 31
0.0
  0
LINE
  5
69
  8
0
  6
CONTINUOUS
 62
     7
 10
175.8125484429
 20
43.1361759878
 30
0.0
 11
175.8125484429
 21
53.9144842387
 31
0.0
  0
LINE
  5
6A
  8
0
  6
CONTINUOUS
 62
     7
 10
5.0
 20
205.0
 30
0.0
 11
5.0
 21
5.0
 31
0.0
  0
LINE
  5
6B
  8
0
  6
CONTINUOUS
 62
     7
 10
200.6976954322
 20
53.9144842387
 30
0.0
 11
200.6976954322
 21
5.0
 31
0.0
  0
LINE
  5
6C
  8
0
  6
CONTINUOUS
 62
     7
 10
150.8190477733
 20
27.1634571761
 30
0.0
 11
200.6976954322
 21
27.1634571761
 31
0.0
  0
LINE
  5
6D
  8
0
  6
CONTINUOUS
 62
     7
 10
200.6976954322
 20
21.0187207229
 30
0.0
 11
292.0013304903
 21
21.0187207229
 31
0.0
  0
LINE
  5
6E
  8
0
  6
CONTINUOUS
 62
     7
 10
200.6976954322
 20
37.1634571761
 30
0.0
 11
150.8190477733
 21
37.1634571761
 31
0.0
  0
LINE
  5
6F
  8
0
  6
CONTINUOUS
 62
     7
 10
200.6976954322
 20
45.809460615
 30
0.0
 11
292.0013304903
 21
45.809460615
 31
0.0
  0
LINE
  5
70
  8
0
  6
CONTINUOUS
 62
     7
 10
150.8190477733
 20
53.9144842387
 30
0.0
 11
150.8190477733
 21
5.0
 31
0.0
  0
LINE
  5
71
  8
0
  6
CONTINUOUS
 62
     7
 10
114.8190477733
 20
53.9144842387
 30
0.0
 11
114.8190477733
 21
5.0
 31
0.0
  0
LINE
  5
72
  8
0
  6
CONTINUOUS
 62
     7
 10
102.8190477733
 20
13.2144842387
 30
0.0
 11
150.8190477733
 21
13.2144842387
 31
0.0
  0
LINE
  5
73
  8
0
  6
CONTINUOUS
 62
     7
 10
102.8190477733
 20
16.9144842387
 30
0.0
 11
150.8190477733
 21
16.9144842387
 31
0.0
  0
LINE
  5
74
  8
0
  6
CONTINUOUS
 62
     7
 10
102.8190477733
 20
20.6144842386
 30
0.0
 11
150.8190477733
 21
20.6144842386
 31
0.0
  0
LINE
  5
75
  8
0
  6
CONTINUOUS
 62
     7
 10
292.0
 20
5.0
 30
0.0
 11
292.0
 21
205.0
 31
0.0
  0
LINE
  5
76
  8
0
  6
CONTINUOUS
 62
     7
 10
236.5806965716
 20
21.0187207229
 30
0.0
 11
236.5806965716
 21
5.0
 31
0.0
  0
LINE
  5
77
  8
0
  6
CONTINUOUS
 62
     7
 10
159.9396073631
 20
43.1361759878
 30
0.0
 11
159.9396073631
 21
27.1634571761
 31
0.0
  0
LINE
  5
78
  8
0
  6
CONTINUOUS
 62
     7
 10
200.6976954322
 20
43.1361759878
 30
0.0
 11
150.8190477733
 21
43.1361759878
 31
0.0
  0
LINE
  5
79
  8
0
  6
CONTINUOUS
 62
     7
 10
175.8125484429
 20
5.0
 30
0.0
 11
175.8125484429
 21
27.1634571761
 31
0.0
  0
LINE
  5
7A
  8
0
  6
CONTINUOUS
 62
     7
 10
200.6976954322
 20
32.1634571761
 30
0.0
 11
150.8190477733
 21
32.1634571761
 31
0.0
  0
LINE
  5
7B
  8
0
  6
CONTINUOUS
 62
     7
 10
175.8125484429
 20
16.7095485925
 30
0.0
 11
150.8190477733
 21
16.7095485925
 31
0.0
  0
LINE
  5
7C
  8
0
  6
CONTINUOUS
 62
     7
 10
175.8125484429
 20
43.1361759878
 30
0.0
 11
175.8125484429
 21
27.1634571761
 31
0.0
  0
LINE
  5
7D
  8
0
  6
CONTINUOUS
 62
     7
 10
126.8190477733
 20
5.0
 30
0.0
 11
126.8190477733
 21
53.9144842387
 31
0.0
  0
LINE
  5
7E
  8
0
  6
CONTINUOUS
 62
     7
 10
102.8190477733
 20
9.5144842387
 30
0.0
 11
150.8190477733
 21
9.5144842387
 31
0.0
  0
LINE
  5
7F
  8
0
  6
CONTINUOUS
 62
     7
 10
102.8190477733
 20
24.3144842387
 30
0.0
 11
150.8190477733
 21
24.3144842387
 31
0.0
  0
LINE
  5
80
  8
0
  6
CONTINUOUS
 62
     7
 10
102.8190477733
 20
28.0144842387
 30
0.0
 11
150.8190477733
 21
28.0144842387
 31
0.0
  0
LINE
  5
81
  8
0
  6
CONTINUOUS
 62
     7
 10
102.8190477733
 20
31.7144842387
 30
0.0
 11
150.8190477733
 21
31.7144842387
 31
0.0
  0
LINE
  5
82
  8
0
  6
CONTINUOUS
 62
     7
 10
102.8190477733
 20
35.4144842387
 30
0.0
 11
150.8190477733
 21
35.4144842387
 31
0.0
  0
LINE
  5
83
  8
0
  6
CONTINUOUS
 62
     7
 10
102.8190477733
 20
39.1144842387
 30
0.0
 11
150.8190477733
 21
39.1144842387
 31
0.0
  0
LINE
  5
84
  8
0
  6
CONTINUOUS
 62
     7
 10
102.8190477733
 20
42.8144842387
 30
0.0
 11
150.8190477733
 21
42.8144842387
 31
0.0
  0
LINE
  5
85
  8
0
  6
CONTINUOUS
 62
     7
 10
138.8190477733
 20
53.9144842386
 30
0.0
 11
138.8190477733
 21
5.0
 31
0.0
  0
LINE
  5
86
  8
0
  6
CONTINUOUS
 62
     7
 10
102.8190477733
 20
46.5144842387
 30
0.0
 11
150.8190477733
 21
46.5144842387
 31
0.0
  0
LINE
  5
87
  8
0
  6
CONTINUOUS
 62
     7
 10
102.8190477733
 20
50.2144842387
 30
0.0
 11
150.8190477733
 21
50.2144842387
 31
0.0
  0
LINE
  5
88
  8
0
  6
CONTINUOUS
 62
     7
 10
102.7819935278
 20
5.0
 30
0.0
 11
102.7819935278
 21
53.9144842386
 31
0.0
  0
TEXT
  5
89
  8
0
  6
CONTINUOUS
 62
     7
 10
140.9129920445
 20
6.1823707513
 30
0.0
 40
3.0
  1
Datum
 41
0.7
 11
140.9129920445
 21
5.1225905655
 31
0.0
 73
     1
  0
TEXT
  5
8A
  8
0
  6
CONTINUOUS
 62
     7
 10
130.4618513853
 20
6.2071061098
 30
0.0
 40
3.0
  1
Änd.
 41
0.7
 11
130.4618513853
 21
5.1473259241
 31
0.0
 73
     1
  0
TEXT
  5
8B
  8
0
  6
CONTINUOUS
 62
     7
 10
106.1726429163
 20
6.4953043056
 30
0.0
 40
3.0
  1
Änd.
 41
0.7
 11
106.1726429163
 21
5.4355241198
 31
0.0
 73
     1
  0
TEXT
  5
8C
  8
0
  6
CONTINUOUS
 62
     7
 10
116.689338899
 20
6.1875916252
 30
0.0
 40
3.0
  1
Datum
 41
0.7
 11
116.689338899
 21
5.1278114395
 31
0.0
 73
     1
  0
INSERT
  5
96
  8
0
  6
CONTINUOUS
 62
     7
  2
SW_NOTE_0
 10
162.5057161273
 20
31.2905105824
 30
0.0
  0
TEXT
  5
97
  8
0
  6
CONTINUOUS
 62
     7
 10
151.1894381685
 20
28.7893822556
 30
0.0
 40
3.0
  1
Geänd.
 41
0.7
 11
151.1894381685
 21
27.7296020698
 31
0.0
 73
     1
  0
TEXT
  5
98
  8
0
  6
CONTINUOUS
 62
     7
 10
151.4862639231
 20
33.8973794514
 30
0.0
 40
3.0
  1
Erst.
 41
0.7
 11
151.4862639231
 21
32.8375992656
 31
0.0
 73
     1
  0
TEXT
  5
99
  8
0
  6
CONTINUOUS
 62
     7
 10
161.6483926197
 20
33.4461620348
 30
0.0
 40
2.6458333333
  1
31.03.08
 41
0.7
 11
161.6483926197
 21
32.5114947876
 31
0.0
 73
     1
  0
TEXT
  5
9A
  8
0
  6
CONTINUOUS
 62
     7
 10
177.0309799669
 20
33.4755330021
 30
0.0
 40
2.6458333333
  1
Knüpper
 41
0.7
 11
177.0309799669
 21
32.540865755
 31
0.0
 73
     1
  0
TEXT
  5
9B
  8
0
  6
CONTINUOUS
 62
     7
 10
181.8566438833
 20
39.085144137
 30
0.0
 40
2.38125
  1
Name
 41
0.7
 11
181.8566438833
 21
38.2439436146
 31
0.0
 73
     1
  0
TEXT
  5
9C
  8
0
  6
CONTINUOUS
 62
     7
 10
164.0406979975
 20
39.064107003
 30
0.0
 40
2.38125
  1
Datum
 41
0.7
 11
164.0406979975
 21
38.2229064806
 31
0.0
 73
     1
  0
TEXT
  5
9D
  8
0
  6
CONTINUOUS
 62
     7
 10
177.1194690717
 20
51.1544689638
 30
0.0
 40
2.1
  1
Freimaßtoleranz:
 41
0.7
 11
177.1194690717
 21
50.4126228338
 31
0.0
 73
     1
  0
TEXT
  5
9E
  8
0
  6
CONTINUOUS
 62
     7
 10
203.2090940194
 20
24.9703226091
 30
0.0
 40
4.7625
  1
.
 41
0.7
 11
203.2090940194
 21
23.2879215642
 31
0.0
 73
     1
  0
TEXT
  5
9F
  8
0
  6
CONTINUOUS
 62
     7
 10
203.6185952657
 20
33.3234076597
 30
0.0
 40
4.7625
  1
Entgratfräser  EF-60-82
 41
0.6695652174
 11
203.6185952657
 21
31.6410066148
 31
0.0
 73
     1
  0
TEXT
  5
A0
  8
0
  6
CONTINUOUS
 62
     7
 10
203.0410791402
 20
41.9806443335
 30
0.0
 40
2.1
  1
Benennung:
 41
0.7
 11
203.0410791402
 21
41.2387982035
 31
0.0
 73
     1
  0
TEXT
  5
A1
  8
0
  6
CONTINUOUS
 62
     7
 10
183.607033728
 20
45.2483898701
 30
0.0
 40
4.2333333333
  1
±0,1
 41
0.7
 11
183.607033728
 21
43.7529222747
 31
0.0
 73
     1
  0
TEXT
  5
A2
  8
0
  6
CONTINUOUS
 62
     7
 10
158.9320032409
 20
45.878254709
 30
0.0
 40
5.5
  1
A4
 41
0.7
 11
158.9320032409
 21
43.9353243684
 31
0.0
 73
     1
  0
TEXT
  5
A3
  8
0
  6
CONTINUOUS
 62
     7
 10
154.8052276791
 20
51.0628798923
 30
0.0
 40
2.1
  1
Blattformat:
 41
0.7
 11
154.8052276791
 21
50.3210337623
 31
0.0
 73
     1
  0
TEXT
  5
A4
  8
0
  6
CONTINUOUS
 62
     7
 10
156.4644192784
 20
13.3893322279
 30
0.0
 40
2.1
  1
Material:
 41
0.7
 11
156.4644192784
 21
12.6474860979
 31
0.0
 73
     1
  0
INSERT
  5
AE
  8
0
  6
CONTINUOUS
 62
     7
  2
SW_NOTE_1
 10
156.6815752588
 20
11.2284404354
 30
0.0
  0
TEXT
  5
AF
  8
0
  6
CONTINUOUS
 62
     7
 10
252.9133153039
 20
10.0391127771
 30
0.0
 40
4.2333333333
  1
EF-60-82
 41
0.7
 11
252.9133153039
 21
8.5436451816
 31
0.0
 73
     1
  0
TEXT
  5
B0
  8
0
  6
CONTINUOUS
 62
     7
 10
237.0250958151
 20
18.39943777
 30
0.0
 40
2.1
  1
EDV-Nr.:
 41
0.7
 11
237.0250958151
 21
17.6575916399
 31
0.0
 73
     1
  0
TEXT
  5
B1
  8
0
  6
CONTINUOUS
 62
     7
 10
200.8976073226
 20
18.1363467848
 30
0.0
 40
2.1
  1
Verwendungsbereich:
 41
0.7
 11
200.8976073226
 21
17.3945006548
 31
0.0
 73
     1
  0
TEXT
  5
B2
  8
0
  6
CONTINUOUS
 62
     7
 10
211.0170603951
 20
10.0391127771
 30
0.0
 40
4.2333333333
  1
DXF
 41
0.7
 11
211.0170603951
 21
8.5436451816
 31
0.0
 73
     1
  0
TEXT
  5
B3
  8
0
  6
CONTINUOUS
 62
     7
 10
157.685843044
 20
17.9992133853
 30
0.0
 40
4.7625
  1
1:1
 41
0.7
 11
157.685843044
 21
16.3168123404
 31
0.0
 73
     1
  0
TEXT
  5
B4
  8
0
  6
CONTINUOUS
 62
     7
 10
155.9940381473
 20
24.1898027608
 30
0.0
 40
2.1
  1
Maßstab:
 41
0.7
 11
155.9940381473
 21
23.4479566308
 31
0.0
 73
     1
  0
TEXT
  5
B5
  8
0
  6
CONTINUOUS
 62
     7
 10
207.0294830973
 20
49.1049212226
 30
0.0
 40
3.0
  1
Jongen Werkzeugtechnik GmbH & Co. KG
 41
0.6513888889
 11
207.0294830973
 21
48.0451410369
 31
0.0
 73
     1
  0
LINE
  5
B6
  8
0
  6
CONTINUOUS
 62
     7
 10
115.7847681808
 20
173.7328626365
 30
0.0
 11
115.3708931899
 21
173.3188626365
 31
0.0
  0
LINE
  5
B7
  8
0
  6
CONTINUOUS
 62
     7
 10
115.3708931899
 20
149.1468626365
 30
0.0
 11
115.7847681808
 21
148.7328626365
 31
0.0
  0
LINE
  5
B8
  8
0
  6
CONTINUOUS
 62
     7
 10
115.7847681808
 20
148.7328626365
 30
0.0
 11
169.6347379853
 21
148.7328626365
 31
0.0
  0
LINE
  5
B9
  8
0
  6
CONTINUOUS
 62
     7
 10
131.0347379853
 20
173.7328626365
 30
0.0
 11
115.7847681808
 21
173.7328626365
 31
0.0
  0
LINE
  5
BA
  8
0
  6
CONTINUOUS
 62
     7
 10
152.0847379853
 20
173.7328626365
 30
0.0
 11
148.7347379853
 21
173.7328626365
 31
0.0
  0
LINE
  5
BB
  8
0
  6
CONTINUOUS
 62
     7
 10
169.6347379853
 20
148.7328626365
 30
0.0
 11
170.8847379853
 21
148.8328626365
 31
0.0
  0
LINE
  5
BC
  8
0
  6
CONTINUOUS
 62
     7
 10
170.8847379853
 20
148.8328626365
 30
0.0
 11
171.8847379853
 21
149.8328626365
 31
0.0
  0
ARC
  5
BD
  8
0
  6
CONTINUOUS
 62
     7
 10
113.9564660974
 20
147.7328626365
 30
0.0
 40
2.0
 50
44.9913483372
 51
90.0
  0
ARC
  5
BE
  8
0
  6
CONTINUOUS
 62
     7
 10
113.9564660974
 20
174.7328626365
 30
0.0
 40
2.0
 50
270.0
 51
315.0086516628
  0
LINE
  5
BF
  8
0
  6
CONTINUOUS
 62
     7
 10
84.6957379853
 20
149.7328626365
 30
0.0
 11
113.9564660974
 21
149.7328626365
 31
0.0
  0
LINE
  5
C0
  8
0
  6
CONTINUOUS
 62
     7
 10
113.9564660974
 20
172.7328626365
 30
0.0
 11
93.2322555347
 21
172.7328626365
 31
0.0
  0
LINE
  5
C1
  8
0
  6
CONTINUOUS
 62
     7
 10
73.1847379853
 20
156.3376621505
 30
0.0
 11
84.6957379853
 21
149.7328626365
 31
0.0
  0
ARC
  5
C2
  8
0
  6
CONTINUOUS
 62
     7
 10
71.9556269196
 20
161.8828626365
 30
0.0
 40
0.0500000000000114
 50
90.0
 51
187.0
  0
LINE
  5
C3
  8
0
  6
CONTINUOUS
 62
     7
 10
71.9059996121
 20
161.8767691693
 30
0.0
 11
72.2150070257
 21
159.360105744
 31
0.0
  0
LINE
  5
C4
  8
0
  6
CONTINUOUS
 62
     7
 10
79.0277304932
 20
154.8504052846
 30
0.0
 11
80.0783441778
 21
154.8504052846
 31
0.0
  0
LINE
  5
C5
  8
0
  6
CONTINUOUS
 62
     7
 10
78.7981979966
 20
154.8504052846
 30
0.0
 11
79.0277304932
 21
154.8504052846
 31
0.0
  0
LINE
  5
C6
  8
0
  6
CONTINUOUS
 62
     7
 10
115.7847681808
 20
173.7328626365
 30
0.0
 11
115.7847681808
 21
148.7328626365
 31
0.0
  0
LINE
  5
C7
  8
0
  6
CONTINUOUS
 62
     7
 10
154.8847379853
 20
170.9328626365
 30
0.0
 11
152.0847379853
 21
173.7328626365
 31
0.0
  0
LINE
  5
C8
  8
0
  6
CONTINUOUS
 62
     7
 10
169.6347379853
 20
170.9328626365
 30
0.0
 11
154.8847379853
 21
170.9328626365
 31
0.0
  0
LINE
  5
C9
  8
0
  6
CONTINUOUS
 62
     7
 10
169.6347379853
 20
148.7328626365
 30
0.0
 11
169.6347379853
 21
170.9328626365
 31
0.0
  0
LINE
  5
CA
  8
0
  6
CONTINUOUS
 62
     7
 10
133.8347379853
 20
170.9328626365
 30
0.0
 11
131.0347379853
 21
173.7328626365
 31
0.0
  0
LINE
  5
CB
  8
0
  6
CONTINUOUS
 62
     7
 10
145.9347379853
 20
170.9328626365
 30
0.0
 11
133.8347379853
 21
170.9328626365
 31
0.0
  0
LINE
  5
CC
  8
0
  6
CONTINUOUS
 62
     7
 10
148.7347379853
 20
173.7328626365
 30
0.0
 11
145.9347379853
 21
170.9328626365
 31
0.0
  0
LINE
  5
CD
  8
0
  6
CONTINUOUS
 62
     7
 10
170.8847379853
 20
170.9328626365
 30
0.0
 11
169.6347379853
 21
170.9328626365
 31
0.0
  0
LINE
  5
CE
  8
0
  6
CONTINUOUS
 62
     7
 10
170.8847379853
 20
148.8328626365
 30
0.0
 11
170.8847379853
 21
170.9328626365
 31
0.0
  0
LINE
  5
CF
  8
0
  6
CONTINUOUS
 62
     7
 10
171.8847379853
 20
169.9328626365
 30
0.0
 11
170.8847379853
 21
170.9328626365
 31
0.0
  0
LINE
  5
D0
  8
0
  6
CONTINUOUS
 62
     7
 10
171.8847379853
 20
149.8328626365
 30
0.0
 11
171.8847379853
 21
169.9328626365
 31
0.0
  0
POLYLINE
  5
D1
  8
0
  6
CONTINUOUS
 62
     7
 66
     1
 10
0.0
 20
0.0
 30
0.0
  0
VERTEX
  5
284
  8
0
  6
CONTINUOUS
 62
     7
 10
84.6957379853
 20
171.8024308152
 30
0.0
  0
VERTEX
  5
285
  8
0
  6
CONTINUOUS
 62
     7
 10
85.2548493028
 20
171.8581437404
 30
0.0
  0
VERTEX
  5
286
  8
0
  6
CONTINUOUS
 62
     7
 10
85.8093897932
 20
171.9190182756
 30
0.0
  0
VERTEX
  5
287
  8
0
  6
CONTINUOUS
 62
     7
 10
86.3586030169
 20
171.9840735167
 30
0.0
  0
VERTEX
  5
288
  8
0
  6
CONTINUOUS
 62
     7
 10
86.901732534
 20
172.0523285596
 30
0.0
  0
VERTEX
  5
289
  8
0
  6
CONTINUOUS
 62
     7
 10
87.4380219049
 20
172.1228025005
 30
0.0
  0
VERTEX
  5
28A
  8
0
  6
CONTINUOUS
 62
     7
 10
87.9813746393
 20
172.1964569597
 30
0.0
  0
VERTEX
  5
28B
  8
0
  6
CONTINUOUS
 62
     7
 10
88.5175168198
 20
172.270283595
 30
0.0
  0
VERTEX
  5
28C
  8
0
  6
CONTINUOUS
 62
     7
 10
89.0457234104
 20
172.3430053539
 30
0.0
  0
VERTEX
  5
28D
  8
0
  6
CONTINUOUS
 62
     7
 10
89.5652693753
 20
172.4133451843
 30
0.0
  0
VERTEX
  5
28E
  8
0
  6
CONTINUOUS
 62
     7
 10
90.0754296787
 20
172.4800260339
 30
0.0
  0
VERTEX
  5
28F
  8
0
  6
CONTINUOUS
 62
     7
 10
90.5038041968
 20
172.5331725164
 30
0.0
  0
VERTEX
  5
290
  8
0
  6
CONTINUOUS
 62
     7
 10
90.925273163
 20
172.581934362
 30
0.0
  0
VERTEX
  5
291
  8
0
  6
CONTINUOUS
 62
     7
 10
91.3393071254
 20
172.6254256611
 30
0.0
  0
VERTEX
  5
292
  8
0
  6
CONTINUOUS
 62
     7
 10
91.7453766325
 20
172.6627605041
 30
0.0
  0
VERTEX
  5
293
  8
0
  6
CONTINUOUS
 62
     7
 10
92.1429522324
 20
172.6930529816
 30
0.0
  0
VERTEX
  5
294
  8
0
  6
CONTINUOUS
 62
     7
 10
92.5419226096
 20
172.715888654
 30
0.0
  0
VERTEX
  5
295
  8
0
  6
CONTINUOUS
 62
     7
 10
92.9317728974
 20
172.7294046069
 30
0.0
  0
VERTEX
  5
296
  8
0
  6
CONTINUOUS
 62
     7
 10
93.3117834981
 20
172.7325904635
 30
0.0
  0
VERTEX
  5
297
  8
0
  6
CONTINUOUS
 62
     7
 10
93.681234814
 20
172.7244358473
 30
0.0
  0
VERTEX
  5
298
  8
0
  6
CONTINUOUS
 62
     7
 10
94.0394072475
 20
172.7039303815
 30
0.0
  0
VERTEX
  5
299
  8
0
  6
CONTINUOUS
 62
     7
 10
94.3642921623
 20
172.6726079314
 30
0.0
  0
VERTEX
  5
29A
  8
0
  6
CONTINUOUS
 62
     7
 10
94.6789597983
 20
172.6287221374
 30
0.0
  0
VERTEX
  5
29B
  8
0
  6
CONTINUOUS
 62
     7
 10
94.9827580846
 20
172.5715228178
 30
0.0
  0
VERTEX
  5
29C
  8
0
  6
CONTINUOUS
 62
     7
 10
95.2750349505
 20
172.5002597906
 30
0.0
  0
VERTEX
  5
29D
  8
0
  6
CONTINUOUS
 62
     7
 10
95.5062766822
 20
172.4306077853
 30
0.0
  0
VERTEX
  5
29E
  8
0
  6
CONTINUOUS
 62
     7
 10
95.7296024871
 20
172.3504671402
 30
0.0
  0
VERTEX
  5
29F
  8
0
  6
CONTINUOUS
 62
     7
 10
95.9446987324
 20
172.2595686408
 30
0.0
  0
VERTEX
  5
2A0
  8
0
  6
CONTINUOUS
 62
     7
 10
96.1512517848
 20
172.1576430725
 30
0.0
  0
VERTEX
  5
2A1
  8
0
  6
CONTINUOUS
 62
     7
 10
96.3489480113
 20
172.0444212208
 30
0.0
  0
VERTEX
  5
2A2
  8
0
  6
CONTINUOUS
 62
     7
 10
96.5332824554
 20
171.9226670551
 30
0.0
  0
VERTEX
  5
2A3
  8
0
  6
CONTINUOUS
 62
     7
 10
96.709313003
 20
171.7894955225
 30
0.0
  0
VERTEX
  5
2A4
  8
0
  6
CONTINUOUS
 62
     7
 10
96.8768895702
 20
171.6448970785
 30
0.0
  0
VERTEX
  5
2A5
  8
0
  6
CONTINUOUS
 62
     7
 10
97.0358620731
 20
171.4888621788
 30
0.0
  0
VERTEX
  5
2A6
  8
0
  6
CONTINUOUS
 62
     7
 10
97.1860804275
 20
171.3213812789
 30
0.0
  0
VERTEX
  5
2A7
  8
0
  6
CONTINUOUS
 62
     7
 10
97.332693203
 20
171.1354078627
 30
0.0
  0
VERTEX
  5
2A8
  8
0
  6
CONTINUOUS
 62
     7
 10
97.4703402731
 20
170.9367542678
 30
0.0
  0
VERTEX
  5
2A9
  8
0
  6
CONTINUOUS
 62
     7
 10
97.5990824096
 20
170.725721461
 30
0.0
  0
VERTEX
  5
2AA
  8
0
  6
CONTINUOUS
 62
     7
 10
97.7189803847
 20
170.502610409
 30
0.0
  0
VERTEX
  5
2AB
  8
0
  6
CONTINUOUS
 62
     7
 10
97.8300949702
 20
170.2677220788
 30
0.0
  0
VERTEX
  5
2AC
  8
0
  6
CONTINUOUS
 62
     7
 10
97.9404531433
 20
170.0011279001
 30
0.0
  0
VERTEX
  5
2AD
  8
0
  6
CONTINUOUS
 62
     7
 10
98.0414868148
 20
169.7209438267
 30
0.0
  0
VERTEX
  5
2AE
  8
0
  6
CONTINUOUS
 62
     7
 10
98.1335110109
 20
169.4278383242
 30
0.0
  0
VERTEX
  5
2AF
  8
0
  6
CONTINUOUS
 62
     7
 10
98.2168407583
 20
169.1224798583
 30
0.0
  0
VERTEX
  5
2B0
  8
0
  6
CONTINUOUS
 62
     7
 10
98.2940021283
 20
168.7957611786
 30
0.0
  0
VERTEX
  5
2B1
  8
0
  6
CONTINUOUS
 62
     7
 10
98.363091949
 20
168.4565716573
 30
0.0
  0
VERTEX
  5
2B2
  8
0
  6
CONTINUOUS
 62
     7
 10
98.4245830098
 20
168.1058057556
 30
0.0
  0
VERTEX
  5
2B3
  8
0
  6
CONTINUOUS
 62
     7
 10
98.4789481003
 20
167.7443579348
 30
0.0
  0
VERTEX
  5
2B4
  8
0
  6
CONTINUOUS
 62
     7
 10
98.5259429779
 20
167.3794395215
 30
0.0
  0
VERTEX
  5
2B5
  8
0
  6
CONTINUOUS
 62
     7
 10
98.5671805655
 20
167.004840291
 30
0.0
  0
VERTEX
  5
2B6
  8
0
  6
CONTINUOUS
 62
     7
 10
98.6031171909
 20
166.6214752336
 30
0.0
  0
VERTEX
  5
2B7
  8
0
  6
CONTINUOUS
 62
     7
 10
98.6342091822
 20
166.2302593392
 30
0.0
  0
VERTEX
  5
2B8
  8
0
  6
CONTINUOUS
 62
     7
 10
98.6615987891
 20
165.8210177017
 30
0.0
  0
VERTEX
  5
2B9
  8
0
  6
CONTINUOUS
 62
     7
 10
98.684895252
 20
165.4041955136
 30
0.0
  0
VERTEX
  5
2BA
  8
0
  6
CONTINUOUS
 62
     7
 10
98.7045055859
 20
164.9808118904
 30
0.0
  0
VERTEX
  5
2BB
  8
0
  6
CONTINUOUS
 62
     7
 10
98.7208368055
 20
164.5518859477
 30
0.0
  0
VERTEX
  5
2BC
  8
0
  6
CONTINUOUS
 62
     7
 10
98.7320092817
 20
164.1983768793
 30
0.0
  0
VERTEX
  5
2BD
  8
0
  6
CONTINUOUS
 62
     7
 10
98.7414474008
 20
163.8416066179
 30
0.0
  0
VERTEX
  5
2BE
  8
0
  6
CONTINUOUS
 62
     7
 10
98.7492989694
 20
163.4821362325
 30
0.0
  0
VERTEX
  5
2BF
  8
0
  6
CONTINUOUS
 62
     7
 10
98.755711794
 20
163.1205267922
 30
0.0
  0
VERTEX
  5
2C0
  8
0
  6
CONTINUOUS
 62
     7
 10
98.7609047777
 20
162.7507414526
 30
0.0
  0
VERTEX
  5
2C1
  8
0
  6
CONTINUOUS
 62
     7
 10
98.7648492893
 20
162.3791382923
 30
0.0
  0
VERTEX
  5
2C2
  8
0
  6
CONTINUOUS
 62
     7
 10
98.7676158272
 20
162.0063133431
 30
0.0
  0
VERTEX
  5
2C3
  8
0
  6
CONTINUOUS
 62
     7
 10
98.7692748899
 20
161.6328626365
 30
0.0
  0
SEQEND
  5
283
  8
0
  6
CONTINUOUS
 62
     7
  0
ARC
  5
D2
  8
0
  6
CONTINUOUS
 62
     7
 10
-19.8989488164
 20
316.4693058872
 30
0.0
 40
178.5176552899845
 50
304.3529862575
 51
305.8670686788
  0
POLYLINE
  5
D3
  8
0
  6
CONTINUOUS
 62
     7
 66
     1
 10
0.0
 20
0.0
 30
0.0
  0
VERTEX
  5
2C5
  8
0
  6
CONTINUOUS
 62
     7
 10
95.7651437953
 20
163.3433910027
 30
0.0
  0
VERTEX
  5
2C6
  8
0
  6
CONTINUOUS
 62
     7
 10
95.7598464828
 20
163.5097616937
 30
0.0
  0
VERTEX
  5
2C7
  8
0
  6
CONTINUOUS
 62
     7
 10
95.7441101153
 20
163.6745559738
 30
0.0
  0
VERTEX
  5
2C8
  8
0
  6
CONTINUOUS
 62
     7
 10
95.7181680476
 20
163.8346701861
 30
0.0
  0
VERTEX
  5
2C9
  8
0
  6
CONTINUOUS
 62
     7
 10
95.6820450523
 20
163.9884840062
 30
0.0
  0
VERTEX
  5
2CA
  8
0
  6
CONTINUOUS
 62
     7
 10
95.6360737179
 20
164.1346780983
 30
0.0
  0
VERTEX
  5
2CB
  8
0
  6
CONTINUOUS
 62
     7
 10
95.5809594911
 20
164.2705478109
 30
0.0
  0
VERTEX
  5
2CC
  8
0
  6
CONTINUOUS
 62
     7
 10
95.5167049103
 20
164.3950876004
 30
0.0
  0
VERTEX
  5
2CD
  8
0
  6
CONTINUOUS
 62
     7
 10
95.4440268247
 20
164.5068988519
 30
0.0
  0
VERTEX
  5
2CE
  8
0
  6
CONTINUOUS
 62
     7
 10
95.3640964551
 20
164.6040097906
 30
0.0
  0
VERTEX
  5
2CF
  8
0
  6
CONTINUOUS
 62
     7
 10
95.2763716355
 20
164.6862513441
 30
0.0
  0
VERTEX
  5
2D0
  8
0
  6
CONTINUOUS
 62
     7
 10
95.1824932494
 20
164.7520322588
 30
0.0
  0
VERTEX
  5
2D1
  8
0
  6
CONTINUOUS
 62
     7
 10
95.0840443741
 20
164.8003145813
 30
0.0
  0
VERTEX
  5
2D2
  8
0
  6
CONTINUOUS
 62
     7
 10
94.9796393706
 20
164.8310160331
 30
0.0
  0
VERTEX
  5
2D3
  8
0
  6
CONTINUOUS
 62
     7
 10
94.8721990972
 20
164.8430978218
 30
0.0
  0
VERTEX
  5
2D4
  8
0
  6
CONTINUOUS
 62
     7
 10
94.7636208281
 20
164.8364905214
 30
0.0
  0
VERTEX
  5
2D5
  8
0
  6
CONTINUOUS
 62
     7
 10
94.6521193807
 20
164.8102581408
 30
0.0
  0
VERTEX
  5
2D6
  8
0
  6
CONTINUOUS
 62
     7
 10
94.5415307277
 20
164.7648757934
 30
0.0
  0
VERTEX
  5
2D7
  8
0
  6
CONTINUOUS
 62
     7
 10
94.4339769044
 20
164.7011825224
 30
0.0
  0
VERTEX
  5
2D8
  8
0
  6
CONTINUOUS
 62
     7
 10
94.3548365912
 20
164.6405585597
 30
0.0
  0
VERTEX
  5
2D9
  8
0
  6
CONTINUOUS
 62
     7
 10
94.2785044637
 20
164.5697399803
 30
0.0
  0
VERTEX
  5
2DA
  8
0
  6
CONTINUOUS
 62
     7
 10
94.2059137707
 20
164.4894705772
 30
0.0
  0
VERTEX
  5
2DB
  8
0
  6
CONTINUOUS
 62
     7
 10
94.1379977609
 20
164.4004941432
 30
0.0
  0
VERTEX
  5
2DC
  8
0
  6
CONTINUOUS
 62
     7
 10
94.0759413026
 20
164.3041526389
 30
0.0
  0
VERTEX
  5
2DD
  8
0
  6
CONTINUOUS
 62
     7
 10
94.0192510362
 20
164.1998007423
 30
0.0
  0
VERTEX
  5
2DE
  8
0
  6
CONTINUOUS
 62
     7
 10
93.9687232956
 20
164.0885961916
 30
0.0
  0
VERTEX
  5
2DF
  8
0
  6
CONTINUOUS
 62
     7
 10
93.9251544149
 20
163.9716967255
 30
0.0
  0
VERTEX
  5
2E0
  8
0
  6
CONTINUOUS
 62
     7
 10
93.8903914129
 20
163.8547306939
 30
0.0
  0
VERTEX
  5
2E1
  8
0
  6
CONTINUOUS
 62
     7
 10
93.8626142679
 20
163.7333154106
 30
0.0
  0
VERTEX
  5
2E2
  8
0
  6
CONTINUOUS
 62
     7
 10
93.8422121527
 20
163.6088580633
 30
0.0
  0
VERTEX
  5
2E3
  8
0
  6
CONTINUOUS
 62
     7
 10
93.8295742404
 20
163.4827658397
 30
0.0
  0
VERTEX
  5
2E4
  8
0
  6
CONTINUOUS
 62
     7
 10
93.825053329
 20
163.3208234564
 30
0.0
  0
VERTEX
  5
2E5
  8
0
  6
CONTINUOUS
 62
     7
 10
93.8332789504
 20
163.1586486848
 30
0.0
  0
VERTEX
  5
2E6
  8
0
  6
CONTINUOUS
 62
     7
 10
93.8540266423
 20
162.9993715667
 30
0.0
  0
VERTEX
  5
2E7
  8
0
  6
CONTINUOUS
 62
     7
 10
93.8865756816
 20
162.8467789282
 30
0.0
  0
VERTEX
  5
2E8
  8
0
  6
CONTINUOUS
 62
     7
 10
93.9304157971
 20
162.6997978727
 30
0.0
  0
VERTEX
  5
2E9
  8
0
  6
CONTINUOUS
 62
     7
 10
93.984491946
 20
162.5609413424
 30
0.0
  0
VERTEX
  5
2EA
  8
0
  6
CONTINUOUS
 62
     7
 10
94.0500291665
 20
162.4280077262
 30
0.0
  0
VERTEX
  5
2EB
  8
0
  6
CONTINUOUS
 62
     7
 10
94.1246507275
 20
162.3057848044
 30
0.0
  0
VERTEX
  5
2EC
  8
0
  6
CONTINUOUS
 62
     7
 10
94.2067709941
 20
162.1961782155
 30
0.0
  0
VERTEX
  5
2ED
  8
0
  6
CONTINUOUS
 62
     7
 10
94.2998915628
 20
162.0958355315
 30
0.0
  0
VERTEX
  5
2EE
  8
0
  6
CONTINUOUS
 62
     7
 10
94.399086214
 20
162.0108835856
 30
0.0
  0
VERTEX
  5
2EF
  8
0
  6
CONTINUOUS
 62
     7
 10
94.5024028879
 20
161.9426800262
 30
0.0
  0
VERTEX
  5
2F0
  8
0
  6
CONTINUOUS
 62
     7
 10
94.5848792875
 20
161.9017299666
 30
0.0
  0
VERTEX
  5
2F1
  8
0
  6
CONTINUOUS
 62
     7
 10
94.668860982
 20
161.8713926601
 30
0.0
  0
VERTEX
  5
2F2
  8
0
  6
CONTINUOUS
 62
     7
 10
94.7534343903
 20
161.8519512235
 30
0.0
  0
VERTEX
  5
2F3
  8
0
  6
CONTINUOUS
 62
     7
 10
94.8376859314
 20
161.8436887736
 30
0.0
  0
VERTEX
  5
2F4
  8
0
  6
CONTINUOUS
 62
     7
 10
94.9218279914
 20
161.8468750267
 30
0.0
  0
VERTEX
  5
2F5
  8
0
  6
CONTINUOUS
 62
     7
 10
95.0050253447
 20
161.8615255126
 30
0.0
  0
VERTEX
  5
2F6
  8
0
  6
CONTINUOUS
 62
     7
 10
95.0863943004
 20
161.8874927872
 30
0.0
  0
VERTEX
  5
2F7
  8
0
  6
CONTINUOUS
 62
     7
 10
95.1650511678
 20
161.9246294062
 30
0.0
  0
VERTEX
  5
2F8
  8
0
  6
CONTINUOUS
 62
     7
 10
95.2393014982
 20
161.9720100839
 30
0.0
  0
VERTEX
  5
2F9
  8
0
  6
CONTINUOUS
 62
     7
 10
95.3104633746
 20
162.0299869221
 30
0.0
  0
VERTEX
  5
2FA
  8
0
  6
CONTINUOUS
 62
     7
 10
95.3778263986
 20
162.0979205454
 30
0.0
  0
VERTEX
  5
2FB
  8
0
  6
CONTINUOUS
 62
     7
 10
95.4406801716
 20
162.1751715783
 30
0.0
  0
VERTEX
  5
2FC
  8
0
  6
CONTINUOUS
 62
     7
 10
95.5152803934
 20
162.2892563753
 30
0.0
  0
VERTEX
  5
2FD
  8
0
  6
CONTINUOUS
 62
     7
 10
95.5814672747
 20
162.4175633949
 30
0.0
  0
VERTEX
  5
2FE
  8
0
  6
CONTINUOUS
 62
     7
 10
95.6381309913
 20
162.5576499064
 30
0.0
  0
VERTEX
  5
2FF
  8
0
  6
CONTINUOUS
 62
     7
 10
95.6839826928
 20
162.7054479129
 30
0.0
  0
VERTEX
  5
300
  8
0
  6
CONTINUOUS
 62
     7
 10
95.72001178
 20
162.8619069887
 30
0.0
  0
VERTEX
  5
301
  8
0
  6
CONTINUOUS
 62
     7
 10
95.7456614153
 20
163.0240420038
 30
0.0
  0
VERTEX
  5
302
  8
0
  6
CONTINUOUS
 62
     7
 10
95.7602507838
 20
163.1827732288
 30
0.0
  0
VERTEX
  5
303
  8
0
  6
CONTINUOUS
 62
     7
 10
95.7651437953
 20
163.3433910027
 30
0.0
  0
SEQEND
  5
2C4
  8
0
  6
CONTINUOUS
 62
     7
  0
LINE
  5
D4
  8
0
  6
CONTINUOUS
 62
     7
 10
84.6957379853
 20
149.7328626365
 30
0.0
 11
84.6957379853
 21
157.9628626365
 31
0.0
  0
LINE
  5
D5
  8
0
  6
CONTINUOUS
 62
     7
 10
85.1327379853
 20
157.9628626365
 30
0.0
 11
84.6957379853
 21
157.9628626365
 31
0.0
  0
LINE
  5
D6
  8
0
  6
CONTINUOUS
 62
     7
 10
85.1327379853
 20
157.9628626365
 30
0.0
 11
85.1327379853
 21
159.7978626365
 31
0.0
  0
LINE
  5
D7
  8
0
  6
CONTINUOUS
 62
     7
 10
85.3526313023
 20
161.6328626365
 30
0.0
 11
85.1327379853
 21
159.7978626365
 31
0.0
  0
LINE
  5
D8
  8
0
  6
CONTINUOUS
 62
     7
 10
98.7692748899
 20
161.6328626365
 30
0.0
 11
85.3526313023
 21
161.6328626365
 31
0.0
  0
POLYLINE
  5
D9
  8
0
  6
CONTINUOUS
 62
     7
 66
     1
 10
0.0
 20
0.0
 30
0.0
  0
VERTEX
  5
305
  8
0
  6
CONTINUOUS
 62
     7
 10
82.359171877
 20
151.6642951006
 30
0.0
  0
VERTEX
  5
306
  8
0
  6
CONTINUOUS
 62
     7
 10
82.4009242371
 20
151.6792161317
 30
0.0
  0
VERTEX
  5
307
  8
0
  6
CONTINUOUS
 62
     7
 10
82.4344257565
 20
151.7012709485
 30
0.0
  0
VERTEX
  5
308
  8
0
  6
CONTINUOUS
 62
     7
 10
82.4596191367
 20
151.7300514306
 30
0.0
  0
VERTEX
  5
309
  8
0
  6
CONTINUOUS
 62
     7
 10
82.4764470795
 20
151.7651494577
 30
0.0
  0
VERTEX
  5
30A
  8
0
  6
CONTINUOUS
 62
     7
 10
82.4862937638
 20
151.8209968922
 30
0.0
  0
VERTEX
  5
30B
  8
0
  6
CONTINUOUS
 62
     7
 10
82.483025564
 20
151.8863536672
 30
0.0
  0
VERTEX
  5
30C
  8
0
  6
CONTINUOUS
 62
     7
 10
82.4676971336
 20
151.9597075696
 30
0.0
  0
VERTEX
  5
30D
  8
0
  6
CONTINUOUS
 62
     7
 10
82.4390695299
 20
152.0459609998
 30
0.0
  0
VERTEX
  5
30E
  8
0
  6
CONTINUOUS
 62
     7
 10
82.3990014688
 20
152.1392915896
 30
0.0
  0
VERTEX
  5
30F
  8
0
  6
CONTINUOUS
 62
     7
 10
82.3487607395
 20
152.238318191
 30
0.0
  0
VERTEX
  5
310
  8
0
  6
CONTINUOUS
 62
     7
 10
82.2896151309
 20
152.3416596562
 30
0.0
  0
VERTEX
  5
311
  8
0
  6
CONTINUOUS
 62
     7
 10
82.2164144867
 20
152.4578031066
 30
0.0
  0
VERTEX
  5
312
  8
0
  6
CONTINUOUS
 62
     7
 10
82.1343580058
 20
152.5778172456
 30
0.0
  0
VERTEX
  5
313
  8
0
  6
CONTINUOUS
 62
     7
 10
82.0442937238
 20
152.7007021963
 30
0.0
  0
VERTEX
  5
314
  8
0
  6
CONTINUOUS
 62
     7
 10
81.9470696763
 20
152.8254580824
 30
0.0
  0
VERTEX
  5
315
  8
0
  6
CONTINUOUS
 62
     7
 10
81.8435338989
 20
152.951085027
 30
0.0
  0
VERTEX
  5
316
  8
0
  6
CONTINUOUS
 62
     7
 10
81.7023287671
 20
153.1124594555
 30
0.0
  0
VERTEX
  5
317
  8
0
  6
CONTINUOUS
 62
     7
 10
81.5510988603
 20
153.2741058606
 30
0.0
  0
VERTEX
  5
318
  8
0
  6
CONTINUOUS
 62
     7
 10
81.3906813067
 20
153.4340818254
 30
0.0
  0
VERTEX
  5
319
  8
0
  6
CONTINUOUS
 62
     7
 10
81.2219132343
 20
153.5904449333
 30
0.0
  0
VERTEX
  5
31A
  8
0
  6
CONTINUOUS
 62
     7
 10
81.0902427393
 20
153.7041923746
 30
0.0
  0
VERTEX
  5
31B
  8
0
  6
CONTINUOUS
 62
     7
 10
80.9534962417
 20
153.814573149
 30
0.0
  0
VERTEX
  5
31C
  8
0
  6
CONTINUOUS
 62
     7
 10
80.8123306722
 20
153.9200270807
 30
0.0
  0
VERTEX
  5
31D
  8
0
  6
CONTINUOUS
 62
     7
 10
80.6674029616
 20
154.0189939941
 30
0.0
  0
VERTEX
  5
31E
  8
0
  6
CONTINUOUS
 62
     7
 10
80.5600527652
 20
154.0859142952
 30
0.0
  0
VERTEX
  5
31F
  8
0
  6
CONTINUOUS
 62
     7
 10
80.4508006854
 20
154.1481708752
 30
0.0
  0
VERTEX
  5
320
  8
0
  6
CONTINUOUS
 62
     7
 10
80.3405610108
 20
154.2047177499
 30
0.0
  0
VERTEX
  5
321
  8
0
  6
CONTINUOUS
 62
     7
 10
80.2302480297
 20
154.2545089352
 30
0.0
  0
VERTEX
  5
322
  8
0
  6
CONTINUOUS
 62
     7
 10
80.110190476
 20
154.3001869766
 30
0.0
  0
VERTEX
  5
323
  8
0
  6
CONTINUOUS
 62
     7
 10
79.9917451606
 20
154.3359463293
 30
0.0
  0
VERTEX
  5
324
  8
0
  6
CONTINUOUS
 62
     7
 10
79.8772870808
 20
154.3606609222
 30
0.0
  0
VERTEX
  5
325
  8
0
  6
CONTINUOUS
 62
     7
 10
79.7679426822
 20
154.3735926175
 30
0.0
  0
VERTEX
  5
326
  8
0
  6
CONTINUOUS
 62
     7
 10
79.665309597
 20
154.3749109751
 30
0.0
  0
VERTEX
  5
327
  8
0
  6
CONTINUOUS
 62
     7
 10
79.5715323114
 20
154.3650094046
 30
0.0
  0
VERTEX
  5
328
  8
0
  6
CONTINUOUS
 62
     7
 10
79.4914502319
 20
154.3456770372
 30
0.0
  0
VERTEX
  5
329
  8
0
  6
CONTINUOUS
 62
     7
 10
79.4204287573
 20
154.317733604
 30
0.0
  0
VERTEX
  5
32A
  8
0
  6
CONTINUOUS
 62
     7
 10
79.3590907891
 20
154.28232036
 30
0.0
  0
VERTEX
  5
32B
  8
0
  6
CONTINUOUS
 62
     7
 10
79.3055500136
 20
154.238456803
 30
0.0
  0
VERTEX
  5
32C
  8
0
  6
CONTINUOUS
 62
     7
 10
79.2621669221
 20
154.1883806828
 30
0.0
  0
VERTEX
  5
32D
  8
0
  6
CONTINUOUS
 62
     7
 10
79.228816083
 20
154.1331578681
 30
0.0
  0
VERTEX
  5
32E
  8
0
  6
CONTINUOUS
 62
     7
 10
79.2053720651
 20
154.0738542275
 30
0.0
  0
VERTEX
  5
32F
  8
0
  6
CONTINUOUS
 62
     7
 10
79.1895220388
 20
153.9950321666
 30
0.0
  0
VERTEX
  5
330
  8
0
  6
CONTINUOUS
 62
     7
 10
79.1878273433
 20
153.9115032722
 30
0.0
  0
VERTEX
  5
331
  8
0
  6
CONTINUOUS
 62
     7
 10
79.1997013043
 20
153.824382961
 30
0.0
  0
VERTEX
  5
332
  8
0
  6
CONTINUOUS
 62
     7
 10
79.2245572477
 20
153.7347866497
 30
0.0
  0
VERTEX
  5
333
  8
0
  6
CONTINUOUS
 62
     7
 10
79.2624397451
 20
153.6421465279
 30
0.0
  0
VERTEX
  5
334
  8
0
  6
CONTINUOUS
 62
     7
 10
79.3126359932
 20
153.5475037311
 30
0.0
  0
VERTEX
  5
335
  8
0
  6
CONTINUOUS
 62
     7
 10
79.3744198159
 20
153.45149312
 30
0.0
  0
VERTEX
  5
336
  8
0
  6
CONTINUOUS
 62
     7
 10
79.4470650372
 20
153.3547495557
 30
0.0
  0
VERTEX
  5
337
  8
0
  6
CONTINUOUS
 62
     7
 10
79.541082025
 20
153.2454024373
 30
0.0
  0
VERTEX
  5
338
  8
0
  6
CONTINUOUS
 62
     7
 10
79.6476780809
 20
153.1351333573
 30
0.0
  0
VERTEX
  5
339
  8
0
  6
CONTINUOUS
 62
     7
 10
79.765519973
 20
153.0246145002
 30
0.0
  0
VERTEX
  5
33A
  8
0
  6
CONTINUOUS
 62
     7
 10
79.8932744693
 20
152.9145180506
 30
0.0
  0
VERTEX
  5
33B
  8
0
  6
CONTINUOUS
 62
     7
 10
80.0358997193
 20
152.8005337584
 30
0.0
  0
VERTEX
  5
33C
  8
0
  6
CONTINUOUS
 62
     7
 10
80.187860147
 20
152.6869074791
 30
0.0
  0
VERTEX
  5
33D
  8
0
  6
CONTINUOUS
 62
     7
 10
80.3473176735
 20
152.5745137031
 30
0.0
  0
VERTEX
  5
33E
  8
0
  6
CONTINUOUS
 62
     7
 10
80.5124342195
 20
152.464226921
 30
0.0
  0
VERTEX
  5
33F
  8
0
  6
CONTINUOUS
 62
     7
 10
80.6460858164
 20
152.3788851199
 30
0.0
  0
VERTEX
  5
340
  8
0
  6
CONTINUOUS
 62
     7
 10
80.7826782829
 20
152.2949378331
 30
0.0
  0
VERTEX
  5
341
  8
0
  6
CONTINUOUS
 62
     7
 10
80.9210764079
 20
152.2130730899
 30
0.0
  0
VERTEX
  5
342
  8
0
  6
CONTINUOUS
 62
     7
 10
81.0601449801
 20
152.1339789195
 30
0.0
  0
VERTEX
  5
343
  8
0
  6
CONTINUOUS
 62
     7
 10
81.1987487884
 20
152.0583433515
 30
0.0
  0
VERTEX
  5
344
  8
0
  6
CONTINUOUS
 62
     7
 10
81.3268359592
 20
151.9914235332
 30
0.0
  0
VERTEX
  5
345
  8
0
  6
CONTINUOUS
 62
     7
 10
81.4538989678
 20
151.9281208163
 30
0.0
  0
VERTEX
  5
346
  8
0
  6
CONTINUOUS
 62
     7
 10
81.5786068823
 20
151.8693466476
 30
0.0
  0
VERTEX
  5
347
  8
0
  6
CONTINUOUS
 62
     7
 10
81.6996287704
 20
151.8160124736
 30
0.0
  0
VERTEX
  5
348
  8
0
  6
CONTINUOUS
 62
     7
 10
81.8291469468
 20
151.763877416
 30
0.0
  0
VERTEX
  5
349
  8
0
  6
CONTINUOUS
 62
     7
 10
81.9520297014
 20
151.7203727542
 30
0.0
  0
VERTEX
  5
34A
  8
0
  6
CONTINUOUS
 62
     7
 10
82.0657476421
 20
151.6870657789
 30
0.0
  0
VERTEX
  5
34B
  8
0
  6
CONTINUOUS
 62
     7
 10
82.157683019
 20
151.6671145746
 30
0.0
  0
VERTEX
  5
34C
  8
0
  6
CONTINUOUS
 62
     7
 10
82.2402311709
 20
151.656821451
 30
0.0
  0
VERTEX
  5
34D
  8
0
  6
CONTINUOUS
 62
     7
 10
82.3117322639
 20
151.6568398819
 30
0.0
  0
VERTEX
  5
34E
  8
0
  6
CONTINUOUS
 62
     7
 10
82.3591718611
 20
151.6642950913
 30
0.0
  0
SEQEND
  5
304
  8
0
  6
CONTINUOUS
 62
     7
  0
POLYLINE
  5
DA
  8
0
  6
CONTINUOUS
 62
     7
 66
     1
 10
0.0
 20
0.0
 30
0.0
  0
VERTEX
  5
350
  8
0
  6
CONTINUOUS
 62
     7
 10
73.3685400432
 20
161.937969255
 30
0.0
  0
VERTEX
  5
351
  8
0
  6
CONTINUOUS
 62
     7
 10
73.3815455086
 20
161.9935318717
 30
0.0
  0
VERTEX
  5
352
  8
0
  6
CONTINUOUS
 62
     7
 10
73.4335155658
 20
162.1700843395
 30
0.0
  0
VERTEX
  5
353
  8
0
  6
CONTINUOUS
 62
     7
 10
73.5154790366
 20
162.396698635
 30
0.0
  0
VERTEX
  5
354
  8
0
  6
CONTINUOUS
 62
     7
 10
73.6116933768
 20
162.6182052294
 30
0.0
  0
VERTEX
  5
355
  8
0
  6
CONTINUOUS
 62
     7
 10
73.7204867383
 20
162.8344136664
 30
0.0
  0
VERTEX
  5
356
  8
0
  6
CONTINUOUS
 62
     7
 10
73.8401872728
 20
163.0451334898
 30
0.0
  0
VERTEX
  5
357
  8
0
  6
CONTINUOUS
 62
     7
 10
73.9691231323
 20
163.2501742435
 30
0.0
  0
VERTEX
  5
358
  8
0
  6
CONTINUOUS
 62
     7
 10
74.1056224684
 20
163.4493454714
 30
0.0
  0
VERTEX
  5
359
  8
0
  6
CONTINUOUS
 62
     7
 10
74.3197786856
 20
163.7352701521
 30
0.0
  0
VERTEX
  5
35A
  8
0
  6
CONTINUOUS
 62
     7
 10
74.5464089486
 20
164.0117862913
 30
0.0
  0
VERTEX
  5
35B
  8
0
  6
CONTINUOUS
 62
     7
 10
74.7833468524
 20
164.2797245014
 30
0.0
  0
VERTEX
  5
35C
  8
0
  6
CONTINUOUS
 62
     7
 10
75.0284259923
 20
164.5399153945
 30
0.0
  0
VERTEX
  5
35D
  8
0
  6
CONTINUOUS
 62
     7
 10
75.3644708179
 20
164.8757218616
 30
0.0
  0
VERTEX
  5
35E
  8
0
  6
CONTINUOUS
 62
     7
 10
75.7104438275
 20
165.2014775037
 30
0.0
  0
VERTEX
  5
35F
  8
0
  6
CONTINUOUS
 62
     7
 10
76.0643486528
 20
165.5185174249
 30
0.0
  0
VERTEX
  5
360
  8
0
  6
CONTINUOUS
 62
     7
 10
76.4436045507
 20
165.8441939732
 30
0.0
  0
VERTEX
  5
361
  8
0
  6
CONTINUOUS
 62
     7
 10
76.8288842353
 20
166.1628024829
 30
0.0
  0
VERTEX
  5
362
  8
0
  6
CONTINUOUS
 62
     7
 10
77.2191470635
 20
166.4752485041
 30
0.0
  0
VERTEX
  5
363
  8
0
  6
CONTINUOUS
 62
     7
 10
77.9256388927
 20
167.0208492266
 30
0.0
  0
VERTEX
  5
364
  8
0
  6
CONTINUOUS
 62
     7
 10
78.6424522934
 20
167.5530397272
 30
0.0
  0
VERTEX
  5
365
  8
0
  6
CONTINUOUS
 62
     7
 10
79.3677788717
 20
168.0738321259
 30
0.0
  0
VERTEX
  5
366
  8
0
  6
CONTINUOUS
 62
     7
 10
80.0998102337
 20
168.5852385425
 30
0.0
  0
VERTEX
  5
367
  8
0
  6
CONTINUOUS
 62
     7
 10
80.8367379853
 20
169.0892710968
 30
0.0
  0
SEQEND
  5
34F
  8
0
  6
CONTINUOUS
 62
     7
  0
LINE
  5
DB
  8
0
  6
CONTINUOUS
 62
     7
 10
73.1847379853
 20
156.3376621505
 30
0.0
 11
73.1847379853
 21
157.9628626365
 31
0.0
  0
LINE
  5
DC
  8
0
  6
CONTINUOUS
 62
     7
 10
84.6957379853
 20
157.9628626365
 30
0.0
 11
84.2065681125
 21
157.9628626365
 31
0.0
  0
LINE
  5
DD
  8
0
  6
CONTINUOUS
 62
     7
 10
85.1327379853
 20
159.7978626365
 30
0.0
 11
85.1273216331
 21
159.7978626365
 31
0.0
  0
LINE
  5
DE
  8
0
  6
CONTINUOUS
 62
     7
 10
86.6076313023
 20
161.6328626365
 30
0.0
 11
85.3526313023
 21
161.6328626365
 31
0.0
  0
LINE
  5
DF
  8
0
  6
CONTINUOUS
 62
     7
 10
72.3224581776
 20
161.9328626365
 30
0.0
 11
84.2324581776
 21
161.9328626365
 31
0.0
  0
LINE
  5
E0
  8
0
  6
CONTINUOUS
 62
     7
 10
72.4120739964
 20
160.0128626365
 30
0.0
 11
84.3983604932
 21
158.7702553208
 31
0.0
  0
ARC
  5
E1
  8
0
  6
CONTINUOUS
 62
     7
 10
84.3501577247
 20
158.5429283829
 30
0.0
 40
0.2323812462206032
 50
40.6190377743
 51
78.0282324557
  0
LINE
  5
E2
  8
0
  6
CONTINUOUS
 62
     7
 10
84.5265478789
 20
158.6942147243
 30
0.0
 11
84.2040148067
 21
157.9628626365
 31
0.0
  0
LINE
  5
E3
  8
0
  6
CONTINUOUS
 62
     7
 10
73.0733563942
 20
157.9628626365
 30
0.0
 11
84.2040148067
 21
157.9628626365
 31
0.0
  0
LINE
  5
E4
  8
0
  6
CONTINUOUS
 62
     7
 10
73.0733563942
 20
157.9628626365
 30
0.0
 11
72.3916149893
 21
158.6942147243
 31
0.0
  0
POLYLINE
  5
E5
  8
0
  6
CONTINUOUS
 62
     7
 66
     1
 10
0.0
 20
0.0
 30
0.0
  0
VERTEX
  5
369
  8
0
  6
CONTINUOUS
 62
     7
 10
72.3916149893
 20
158.6942147243
 30
0.0
  0
VERTEX
  5
36A
  8
0
  6
CONTINUOUS
 62
     7
 10
72.3666042068
 20
158.7571911642
 30
0.0
  0
VERTEX
  5
36B
  8
0
  6
CONTINUOUS
 62
     7
 10
72.3429493642
 20
158.8217996366
 30
0.0
  0
VERTEX
  5
36C
  8
0
  6
CONTINUOUS
 62
     7
 10
72.3207729697
 20
158.8877055349
 30
0.0
  0
VERTEX
  5
36D
  8
0
  6
CONTINUOUS
 62
     7
 10
72.3001898745
 20
158.9545675335
 30
0.0
  0
VERTEX
  5
36E
  8
0
  6
CONTINUOUS
 62
     7
 10
72.2813066783
 20
159.0220393548
 30
0.0
  0
VERTEX
  5
36F
  8
0
  6
CONTINUOUS
 62
     7
 10
72.2642211768
 20
159.0897715634
 30
0.0
  0
VERTEX
  5
370
  8
0
  6
CONTINUOUS
 62
     7
 10
72.2490218556
 20
159.1574133748
 30
0.0
  0
VERTEX
  5
371
  8
0
  6
CONTINUOUS
 62
     7
 10
72.2357874318
 20
159.2246144731
 30
0.0
  0
VERTEX
  5
372
  8
0
  6
CONTINUOUS
 62
     7
 10
72.2245864463
 20
159.2910268247
 30
0.0
  0
VERTEX
  5
373
  8
0
  6
CONTINUOUS
 62
     7
 10
72.2154769089
 20
159.3563064809
 30
0.0
  0
VERTEX
  5
374
  8
0
  6
CONTINUOUS
 62
     7
 10
72.2085059977
 20
159.4201153592
 30
0.0
  0
VERTEX
  5
375
  8
0
  6
CONTINUOUS
 62
     7
 10
72.203709815
 20
159.4821229943
 30
0.0
  0
VERTEX
  5
376
  8
0
  6
CONTINUOUS
 62
     7
 10
72.2011132002
 20
159.5420082495
 30
0.0
  0
VERTEX
  5
377
  8
0
  6
CONTINUOUS
 62
     7
 10
72.2007296011
 20
159.5994609797
 30
0.0
  0
VERTEX
  5
378
  8
0
  6
CONTINUOUS
 62
     7
 10
72.2025610044
 20
159.6541836382
 30
0.0
  0
VERTEX
  5
379
  8
0
  6
CONTINUOUS
 62
     7
 10
72.2065979251
 20
159.7058928169
 30
0.0
  0
VERTEX
  5
37A
  8
0
  6
CONTINUOUS
 62
     7
 10
72.2128194563
 20
159.7543207147
 30
0.0
  0
VERTEX
  5
37B
  8
0
  6
CONTINUOUS
 62
     7
 10
72.2211933766
 20
159.7992165242
 30
0.0
  0
VERTEX
  5
37C
  8
0
  6
CONTINUOUS
 62
     7
 10
72.2316763177
 20
159.8403477306
 30
0.0
  0
VERTEX
  5
37D
  8
0
  6
CONTINUOUS
 62
     7
 10
72.2442139884
 20
159.8775013158
 30
0.0
  0
VERTEX
  5
37E
  8
0
  6
CONTINUOUS
 62
     7
 10
72.2587414565
 20
159.9104848621
 30
0.0
  0
VERTEX
  5
37F
  8
0
  6
CONTINUOUS
 62
     7
 10
72.2751834842
 20
159.9391275479
 30
0.0
  0
VERTEX
  5
380
  8
0
  6
CONTINUOUS
 62
     7
 10
72.2934549187
 20
159.9632810332
 30
0.0
  0
VERTEX
  5
381
  8
0
  6
CONTINUOUS
 62
     7
 10
72.3134611323
 20
159.9828202275
 30
0.0
  0
VERTEX
  5
382
  8
0
  6
CONTINUOUS
 62
     7
 10
72.3350985131
 20
159.9976439375
 30
0.0
  0
VERTEX
  5
383
  8
0
  6
CONTINUOUS
 62
     7
 10
72.3582550015
 20
160.0076753914
 30
0.0
  0
VERTEX
  5
384
  8
0
  6
CONTINUOUS
 62
     7
 10
72.3828106703
 20
160.0128626365
 30
0.0
  0
SEQEND
  5
368
  8
0
  6
CONTINUOUS
 62
     7
  0
LINE
  5
E6
  8
0
  6
CONTINUOUS
 62
     7
 10
72.4120739964
 20
160.0128626365
 30
0.0
 11
72.3828106703
 21
160.0128626365
 31
0.0
  0
LINE
  5
E7
  8
0
  6
CONTINUOUS
 62
     7
 10
79.1492008179
 20
162.0128626365
 30
0.0
 11
79.0260934764
 21
161.9328626365
 31
0.0
  0
LINE
  5
E8
  8
0
  6
CONTINUOUS
 62
     7
 10
84.2775465481
 20
161.9328626365
 30
0.0
 11
83.9974016091
 21
162.0128626365
 31
0.0
  0
LINE
  5
E9
  8
0
  6
CONTINUOUS
 62
     7
 10
79.1492008179
 20
162.0128626365
 30
0.0
 11
83.9974016091
 21
162.0128626365
 31
0.0
  0
ARC
  5
EA
  8
0
  6
CONTINUOUS
 62
     7
 10
85.3329519513
 20
161.8828626365
 30
0.0
 40
0.0500000000000114
 50
353.0
 51
90.0
  0
LINE
  5
EB
  8
0
  6
CONTINUOUS
 62
     7
 10
84.2324581776
 20
161.9328626365
 30
0.0
 11
85.3329519513
 21
161.9328626365
 31
0.0
  0
LINE
  5
EC
  8
0
  6
CONTINUOUS
 62
     7
 10
85.1526516416
 20
160.0128626365
 30
0.0
 11
85.1537203137
 21
160.0128626365
 31
0.0
  0
ARC
  5
ED
  8
0
  6
CONTINUOUS
 62
     7
 10
117.7237981023
 20
143.7398785634
 30
0.0
 40
36.41002049451665
 50
153.4526679927
 51
155.7499062485
  0
LINE
  5
EE
  8
0
  6
CONTINUOUS
 62
     7
 10
85.1537203137
 20
160.0128626365
 30
0.0
 11
85.3825792588
 21
161.8767691693
 31
0.0
  0
LINE
  5
EF
  8
0
  6
CONTINUOUS
 62
     7
 10
85.1537203137
 20
160.0128626365
 30
0.0
 11
85.00114732
 21
158.7702553208
 31
0.0
  0
ARC
  5
F0
  8
0
  6
CONTINUOUS
 62
     7
 10
84.1059966533
 20
159.0958687499
 30
0.0
 40
0.9525328452781506
 50
335.0599665781
 51
340.0110089987
  0
LINE
  5
F1
  8
0
  6
CONTINUOUS
 62
     7
 10
84.9697054382
 20
158.6942147243
 30
0.0
 11
84.6104971054
 21
157.9628626365
 31
0.0
  0
LINE
  5
F2
  8
0
  6
CONTINUOUS
 62
     7
 10
73.3327752101
 20
161.9328626365
 30
0.0
 11
73.8930650881
 21
162.0128626365
 31
0.0
  0
LINE
  5
F3
  8
0
  6
CONTINUOUS
 62
     7
 10
73.8930650881
 20
162.0128626365
 30
0.0
 11
79.1492008179
 21
162.0128626365
 31
0.0
  0
LINE
  5
F4
  8
0
  6
CONTINUOUS
 62
     7
 10
71.9556269196
 20
161.9328626365
 30
0.0
 11
72.3224581776
 21
161.9328626365
 31
0.0
  0
LINE
  5
F5
  8
0
  6
CONTINUOUS
 62
     7
 10
83.5894666706
 20
162.0128626365
 30
0.0
 11
83.9974016091
 21
162.0128626365
 31
0.0
  0
LINE
  5
F6
  8
0
  6
CONTINUOUS
 62
     7
 10
115.3708931899
 20
149.1468626365
 30
0.0
 11
115.3708931899
 21
173.3188626365
 31
0.0
  0
LINE
  5
F7
  8
0
  6
CONTINUOUS
 62
     7
 10
113.9564660974
 20
149.7328626365
 30
0.0
 11
113.9564660974
 21
172.7328626365
 31
0.0
  0
LINE
  5
F8
  8
0
  6
CONTINUOUS
 62
     7
 10
80.8367379853
 20
169.0892710968
 30
0.0
 11
80.8367379853
 21
162.0128626365
 31
0.0
  0
LINE
  5
F9
  8
0
  6
CONTINUOUS
 62
     7
 10
84.2076445238
 20
161.8767691693
 30
0.0
 11
72.2976445238
 21
161.8767691693
 31
0.0
  0
POLYLINE
  5
FA
  8
0
  6
CONTINUOUS
 62
     7
 66
     1
 10
0.0
 20
0.0
 30
0.0
  0
VERTEX
  5
386
  8
0
  6
CONTINUOUS
 62
     7
 10
72.2976445238
 20
161.8767691693
 30
0.0
  0
VERTEX
  5
387
  8
0
  6
CONTINUOUS
 62
     7
 10
72.297558123
 20
161.8873290812
 30
0.0
  0
VERTEX
  5
388
  8
0
  6
CONTINUOUS
 62
     7
 10
72.2985826789
 20
161.8976897153
 30
0.0
  0
VERTEX
  5
389
  8
0
  6
CONTINUOUS
 62
     7
 10
72.3006724794
 20
161.9073888149
 30
0.0
  0
VERTEX
  5
38A
  8
0
  6
CONTINUOUS
 62
     7
 10
72.3037342845
 20
161.9159936389
 30
0.0
  0
VERTEX
  5
38B
  8
0
  6
CONTINUOUS
 62
     7
 10
72.3076314868
 20
161.9231202689
 30
0.0
  0
VERTEX
  5
38C
  8
0
  6
CONTINUOUS
 62
     7
 10
72.3121902062
 20
161.9284507387
 30
0.0
  0
VERTEX
  5
38D
  8
0
  6
CONTINUOUS
 62
     7
 10
72.317207048
 20
161.9317472205
 30
0.0
  0
VERTEX
  5
38E
  8
0
  6
CONTINUOUS
 62
     7
 10
72.3224581776
 20
161.9328626365
 30
0.0
  0
SEQEND
  5
385
  8
0
  6
CONTINUOUS
 62
     7
  0
POLYLINE
  5
FB
  8
0
  6
CONTINUOUS
 62
     7
 66
     1
 10
0.0
 20
0.0
 30
0.0
  0
VERTEX
  5
390
  8
0
  6
CONTINUOUS
 62
     7
 10
84.2076445238
 20
161.8767691693
 30
0.0
  0
VERTEX
  5
391
  8
0
  6
CONTINUOUS
 62
     7
 10
84.207558123
 20
161.8873290812
 30
0.0
  0
VERTEX
  5
392
  8
0
  6
CONTINUOUS
 62
     7
 10
84.2085826789
 20
161.8976897153
 30
0.0
  0
VERTEX
  5
393
  8
0
  6
CONTINUOUS
 62
     7
 10
84.2106724794
 20
161.9073888149
 30
0.0
  0
VERTEX
  5
394
  8
0
  6
CONTINUOUS
 62
     7
 10
84.2137342845
 20
161.9159936389
 30
0.0
  0
VERTEX
  5
395
  8
0
  6
CONTINUOUS
 62
     7
 10
84.2176314868
 20
161.9231202689
 30
0.0
  0
VERTEX
  5
396
  8
0
  6
CONTINUOUS
 62
     7
 10
84.2221902062
 20
161.9284507387
 30
0.0
  0
VERTEX
  5
397
  8
0
  6
CONTINUOUS
 62
     7
 10
84.227207048
 20
161.9317472205
 30
0.0
  0
VERTEX
  5
398
  8
0
  6
CONTINUOUS
 62
     7
 10
84.2324581776
 20
161.9328626365
 30
0.0
  0
SEQEND
  5
38F
  8
0
  6
CONTINUOUS
 62
     7
  0
LINE
  5
FC
  8
0
  6
CONTINUOUS
 62
     7
 10
72.4120739964
 20
160.0128626365
 30
0.0
 11
72.2976445238
 21
161.8767691693
 31
0.0
  0
LINE
  5
FD
  8
0
  6
CONTINUOUS
 62
     7
 10
84.3983604932
 20
158.7702553208
 30
0.0
 11
84.2076445238
 21
161.8767691693
 31
0.0
  0
LINE
  5
FE
  8
0
  6
CONTINUOUS
 62
     7
 10
85.3825792588
 20
161.8767691693
 30
0.0
 11
84.2076445238
 21
161.8767691693
 31
0.0
  0
LINE
  5
FF
  8
0
  6
CONTINUOUS
 62
     7
 10
72.2976445238
 20
161.8767691693
 30
0.0
 11
71.9059996121
 21
161.8767691693
 31
0.0
  0
LINE
  5
100
  8
DÜNNE_LINIE
 62
     7
 10
68.941733785
 20
161.2328626365
 30
0.0
 11
134.1769064955
 21
161.2328626365
 31
0.0
  0
LINE
  5
101
  8
DÜNNE_LINIE
 10
84.3432676587
 20
157.9628626365
 30
0.0
 11
73.1847379853
 21
157.9628626365
 31
0.0
  0
LINE
  5
102
  8
DÜNNE_LINIE
 62
     7
 10
80.8367379853
 20
157.4252419174
 30
0.0
 11
80.8367379853
 21
150.4772638658
 31
0.0
  0
LINE
  5
103
  8
DÜNNE_LINIE
 62
     7
 10
139.6596170181
 20
161.2328626365
 30
0.0
 11
173.8429537821
 21
161.2328626365
 31
0.0
  0
INSERT
  5
10A
  8
DÜNNE_LINIE
 62
     7
  2
SW_NOTE_2
 10
93.0214979723
 20
164.7908825763
 30
0.0
  0
LINE
  5
10B
  8
0
  6
CONTINUOUS
 62
     7
 10
115.7847681808
 20
120.3684612338
 30
0.0
 11
115.3708931899
 21
119.9544612338
 31
0.0
  0
LINE
  5
10C
  8
0
  6
CONTINUOUS
 62
     7
 10
115.3708931899
 20
95.7824612338
 30
0.0
 11
115.7847681808
 21
95.3684612338
 31
0.0
  0
LINE
  5
10D
  8
0
  6
CONTINUOUS
 62
     7
 10
115.7847681808
 20
95.3684612338
 30
0.0
 11
169.6347379853
 21
95.3684612338
 31
0.0
  0
LINE
  5
10E
  8
0
  6
CONTINUOUS
 62
     7
 10
169.6347379853
 20
120.3684612338
 30
0.0
 11
115.7847681808
 21
120.3684612338
 31
0.0
  0
ARC
  5
10F
  8
0
  6
CONTINUOUS
 62
     7
 10
113.9564660974
 20
94.3684612338
 30
0.0
 40
2.0
 50
44.9913483372
 51
90.0
  0
ARC
  5
110
  8
0
  6
CONTINUOUS
 62
     7
 10
113.9564660974
 20
121.3684612338
 30
0.0
 40
2.000000000000014
 50
270.0
 51
315.0086516628
  0
LINE
  5
111
  8
0
  6
CONTINUOUS
 62
     7
 10
85.3046981542
 20
96.3684612338
 30
0.0
 11
113.9564660974
 21
96.3684612338
 31
0.0
  0
LINE
  5
112
  8
0
  6
CONTINUOUS
 62
     7
 10
113.9564660974
 20
119.3684612338
 30
0.0
 11
84.6957379853
 21
119.3684612338
 31
0.0
  0
LINE
  5
113
  8
0
  6
CONTINUOUS
 62
     7
 10
84.6957379853
 20
119.3684612338
 30
0.0
 11
73.1847379853
 21
112.7636617198
 31
0.0
  0
LINE
  5
114
  8
0
  6
CONTINUOUS
 62
     7
 10
169.6347379853
 20
95.3684612338
 30
0.0
 11
170.8847379853
 21
95.4684612338
 31
0.0
  0
LINE
  5
115
  8
0
  6
CONTINUOUS
 62
     7
 10
170.8847379853
 20
120.2684612338
 30
0.0
 11
169.6347379853
 21
120.3684612338
 31
0.0
  0
LINE
  5
116
  8
0
  6
CONTINUOUS
 62
     7
 10
170.8847379853
 20
95.4684612338
 30
0.0
 11
171.8847379853
 21
96.4684612338
 31
0.0
  0
LINE
  5
117
  8
0
  6
CONTINUOUS
 62
     7
 10
171.8847379853
 20
119.2684612338
 30
0.0
 11
170.8847379853
 21
120.2684612338
 31
0.0
  0
LINE
  5
118
  8
0
  6
CONTINUOUS
 62
     7
 10
84.2074581776
 20
111.2142884343
 30
0.0
 11
72.2974581776
 21
104.3380467282
 31
0.0
  0
ARC
  5
119
  8
0
  6
CONTINUOUS
 62
     7
 10
84.5992894355
 20
110.5356167876
 30
0.0
 40
0.7836625158097092
 50
0.0
 51
120.0
  0
LINE
  5
11A
  8
0
  6
CONTINUOUS
 62
     7
 10
85.3829519513
 20
96.7831333755
 30
0.0
 11
85.3829519513
 21
110.5356167876
 31
0.0
  0
LINE
  5
11B
  8
0
  6
CONTINUOUS
 62
     7
 10
72.2974581776
 20
102.9807034348
 30
0.0
 11
84.2074581776
 21
96.1044617288
 31
0.0
  0
ARC
  5
11C
  8
0
  6
CONTINUOUS
 62
     7
 10
72.6892894355
 20
103.6593750815
 30
0.0
 40
0.7836625158096711
 50
120.0
 51
240.0
  0
ARC
  5
11D
  8
0
  6
CONTINUOUS
 62
     7
 10
84.5992894355
 20
96.7831333755
 30
0.0
 40
0.7836625158096503
 50
240.0
 51
0.0
  0
ARC
  5
11E
  8
0
  6
CONTINUOUS
 62
     7
 10
81.1812130273
 20
104.946823767
 30
0.0
 40
0.249999999999986
 50
10.8228664706
 51
122.7679316042
  0
LINE
  5
11F
  8
0
  6
CONTINUOUS
 62
     7
 10
81.045903612
 20
105.1570411833
 30
0.0
 11
80.7389889609
 21
104.9594912243
 31
0.0
  0
ARC
  5
120
  8
0
  6
CONTINUOUS
 62
     7
 10
80.4142463642
 20
105.4640130235
 30
0.0
 40
0.6000000000000247
 50
250.8228664706
 51
302.7679316042
  0
LINE
  5
121
  8
0
  6
CONTINUOUS
 62
     7
 10
80.2171525295
 20
104.8973084971
 30
0.0
 11
79.8724103948
 21
105.0172061618
 31
0.0
  0
ARC
  5
122
  8
0
  6
CONTINUOUS
 62
     7
 10
79.7902879637
 20
104.7810792757
 30
0.0
 40
0.2499999999999784
 50
70.8228664706
 51
182.7679316042
  0
LINE
  5
123
  8
0
  6
CONTINUOUS
 62
     7
 10
81.4953027685
 20
104.6352628197
 30
0.0
 11
81.4267661247
 21
104.9937670984
 31
0.0
  0
ARC
  5
124
  8
0
  6
CONTINUOUS
 62
     7
 10
82.0846302022
 20
104.7479268151
 30
0.0
 40
0.6000000000000124
 50
190.8228664706
 51
242.7679316042
  0
LINE
  5
125
  8
0
  6
CONTINUOUS
 62
     7
 10
79.5405796332
 20
104.7690065929
 30
0.0
 11
79.5582055906
 21
104.4044357287
 31
0.0
  0
LINE
  5
126
  8
0
  6
CONTINUOUS
 62
     7
 10
82.1346134143
 20
104.0474096719
 30
0.0
 11
81.8100728057
 21
104.2144305771
 31
0.0
  0
ARC
  5
127
  8
0
  6
CONTINUOUS
 62
     7
 10
78.9589055974
 20
104.3754612899
 30
0.0
 40
0.6000000000000156
 50
310.8228664706
 51
2.7679316042
  0
ARC
  5
128
  8
0
  6
CONTINUOUS
 62
     7
 10
82.0202144991
 20
103.8251195728
 30
0.0
 40
0.2500000000000039
 50
310.8228664706
 51
62.7679316042
  0
LINE
  5
129
  8
0
  6
CONTINUOUS
 62
     7
 10
79.3511391964
 20
103.9214207589
 30
0.0
 11
79.0749337056
 21
103.6828141449
 31
0.0
  0
ARC
  5
12A
  8
0
  6
CONTINUOUS
 62
     7
 10
79.2383643719
 20
103.4936305903
 30
0.0
 40
0.2500000000000038
 50
130.8228664706
 51
242.7679316042
  0
LINE
  5
12B
  8
0
  6
CONTINUOUS
 62
     7
 10
81.9074396745
 20
103.3973294041
 30
0.0
 11
82.1836451653
 21
103.6359360182
 31
0.0
  0
ARC
  5
12C
  8
0
  6
CONTINUOUS
 62
     7
 10
82.2996732735
 20
102.9432888731
 30
0.0
 40
0.6000000000000064
 50
130.8228664706
 51
182.7679316042
  0
LINE
  5
12D
  8
0
  6
CONTINUOUS
 62
     7
 10
79.1239654566
 20
103.2713404911
 30
0.0
 11
79.4485060653
 21
103.1043195859
 31
0.0
  0
ARC
  5
12E
  8
0
  6
CONTINUOUS
 62
     7
 10
79.1739486687
 20
102.5708233479
 30
0.0
 40
0.6000000000000063
 50
10.8228664706
 51
62.7679316042
  0
LINE
  5
12F
  8
0
  6
CONTINUOUS
 62
     7
 10
81.7179992377
 20
102.5497435701
 30
0.0
 11
81.7003732803
 21
102.9143144344
 31
0.0
  0
LINE
  5
130
  8
0
  6
CONTINUOUS
 62
     7
 10
79.7632761024
 20
102.6834873434
 30
0.0
 11
79.8318127462
 21
102.3249830646
 31
0.0
  0
ARC
  5
131
  8
0
  6
CONTINUOUS
 62
     7
 10
81.4682909072
 20
102.5376708873
 30
0.0
 40
0.2499999999999649
 50
250.8228664706
 51
2.7679316042
  0
ARC
  5
132
  8
0
  6
CONTINUOUS
 62
     7
 10
80.8443325067
 20
101.8547371395
 30
0.0
 40
0.5999999999999922
 50
70.8228664706
 51
122.7679316042
  0
LINE
  5
133
  8
0
  6
CONTINUOUS
 62
     7
 10
81.0414263414
 20
102.421441666
 30
0.0
 11
81.3861684761
 21
102.3015440013
 31
0.0
  0
ARC
  5
134
  8
0
  6
CONTINUOUS
 62
     7
 10
80.0773658436
 20
102.3719263961
 30
0.0
 40
0.2500000000000022
 50
190.8228664707
 51
302.7679316042
  0
LINE
  5
135
  8
0
  6
CONTINUOUS
 62
     7
 10
80.2126752589
 20
102.1617089797
 30
0.0
 11
80.5195899101
 21
102.3592589388
 31
0.0
  0
CIRCLE
  5
136
  8
0
  6
CONTINUOUS
 62
     7
 10
80.6292894355
 20
103.6593750815
 30
0.0
 40
2.600000000000007
  0
LINE
  5
137
  8
0
  6
CONTINUOUS
 62
     7
 10
80.6292894355
 20
103.6593750815
 30
0.0
 11
80.0540744462
 21
104.4284095681
 31
0.0
  0
LINE
  5
138
  8
0
  6
CONTINUOUS
 62
     7
 10
80.6292894355
 20
103.6593750815
 30
0.0
 11
81.0076853426
 21
104.5420431182
 31
0.0
  0
LINE
  5
139
  8
0
  6
CONTINUOUS
 62
     7
 10
80.0540744462
 20
104.4284095681
 30
0.0
 11
79.7902879637
 21
104.7810792757
 31
0.0
  0
LINE
  5
13A
  8
0
  6
CONTINUOUS
 62
     7
 10
81.0076853426
 20
104.5420431182
 30
0.0
 11
81.1812130273
 21
104.946823767
 31
0.0
  0
LINE
  5
13B
  8
0
  6
CONTINUOUS
 62
     7
 10
80.6292894355
 20
103.6593750815
 30
0.0
 11
81.5829003318
 21
103.7730086316
 31
0.0
  0
LINE
  5
13C
  8
0
  6
CONTINUOUS
 62
     7
 10
79.6756785391
 20
103.5457415314
 30
0.0
 11
80.6292894355
 21
103.6593750815
 31
0.0
  0
LINE
  5
13D
  8
0
  6
CONTINUOUS
 62
     7
 10
81.5829003318
 20
103.7730086316
 30
0.0
 11
82.0202144991
 21
103.8251195728
 31
0.0
  0
LINE
  5
13E
  8
0
  6
CONTINUOUS
 62
     7
 10
81.2045044247
 20
102.890340595
 30
0.0
 11
80.6292894355
 21
103.6593750815
 31
0.0
  0
LINE
  5
13F
  8
0
  6
CONTINUOUS
 62
     7
 10
80.6292894355
 20
103.6593750815
 30
0.0
 11
80.2508935283
 21
102.7767070449
 31
0.0
  0
LINE
  5
140
  8
0
  6
CONTINUOUS
 62
     7
 10
79.6756785391
 20
103.5457415314
 30
0.0
 11
79.2383643719
 21
103.4936305903
 31
0.0
  0
LINE
  5
141
  8
0
  6
CONTINUOUS
 62
     7
 10
81.2045044247
 20
102.890340595
 30
0.0
 11
81.4682909072
 21
102.5376708873
 31
0.0
  0
LINE
  5
142
  8
0
  6
CONTINUOUS
 62
     7
 10
80.2508935283
 20
102.7767070449
 30
0.0
 11
80.0773658436
 21
102.3719263961
 31
0.0
  0
LINE
  5
143
  8
0
  6
CONTINUOUS
 62
     7
 10
115.7847681808
 20
120.3684612338
 30
0.0
 11
115.7847681808
 21
95.3684612338
 31
0.0
  0
LINE
  5
144
  8
0
  6
CONTINUOUS
 62
     7
 10
154.8847379853
 20
115.7526225716
 30
0.0
 11
169.6347379853
 21
115.7526225716
 31
0.0
  0
ARC
  5
145
  8
0
  6
CONTINUOUS
 62
     7
 10
164.5847379853
 20
107.8684612338
 30
0.0
 40
12.50000000000013
 50
140.8957841911
 51
219.1042158089
  0
LINE
  5
146
  8
0
  6
CONTINUOUS
 62
     7
 10
169.6347379853
 20
99.984299896
 30
0.0
 11
154.8847379853
 21
99.984299896
 31
0.0
  0
LINE
  5
147
  8
0
  6
CONTINUOUS
 62
     7
 10
169.6347379853
 20
115.7526225716
 30
0.0
 11
169.6347379853
 21
120.3684612338
 31
0.0
  0
LINE
  5
148
  8
0
  6
CONTINUOUS
 62
     7
 10
169.6347379853
 20
95.3684612338
 30
0.0
 11
169.6347379853
 21
99.984299896
 31
0.0
  0
LINE
  5
149
  8
0
  6
CONTINUOUS
 62
     7
 10
133.8347379853
 20
115.7526225716
 30
0.0
 11
145.9347379853
 21
115.7526225716
 31
0.0
  0
ARC
  5
14A
  8
0
  6
CONTINUOUS
 62
     7
 10
143.5347379853
 20
107.8684612338
 30
0.0
 40
12.50000000000016
 50
140.8957841911
 51
219.1042158089
  0
LINE
  5
14B
  8
0
  6
CONTINUOUS
 62
     7
 10
145.9347379853
 20
99.984299896
 30
0.0
 11
133.8347379853
 21
99.984299896
 31
0.0
  0
ARC
  5
14C
  8
0
  6
CONTINUOUS
 62
     7
 10
136.2347379853
 20
107.8684612338
 30
0.0
 40
12.50000000000001
 50
320.8957841911
 51
39.1042158089
  0
LINE
  5
14D
  8
0
  6
CONTINUOUS
 62
     7
 10
133.8347379853
 20
115.7526225716
 30
0.0
 11
133.8347379853
 21
99.984299896
 31
0.0
  0
LINE
  5
14E
  8
0
  6
CONTINUOUS
 62
     7
 10
145.9347379853
 20
115.7526225716
 30
0.0
 11
145.9347379853
 21
99.984299896
 31
0.0
  0
LINE
  5
14F
  8
0
  6
CONTINUOUS
 62
     7
 10
154.8847379853
 20
115.7526225716
 30
0.0
 11
154.8847379853
 21
99.984299896
 31
0.0
  0
ARC
  5
150
  8
0
  6
CONTINUOUS
 62
     7
 10
80.836733187
 20
94.8184570197
 30
0.0
 40
18.00000514488203
 50
4.9621661281
 51
77.6203107187
  0
LINE
  5
151
  8
0
  6
CONTINUOUS
 62
     7
 10
84.6957379853
 20
112.3999321336
 30
0.0
 11
84.6957379853
 21
119.3684612338
 31
0.0
  0
ARC
  5
152
  8
0
  6
CONTINUOUS
 62
     7
 10
85.3047668337
 20
96.5369276136
 30
0.0
 40
0.1684510657015253
 50
257.0182902172
 51
286.5077268324
  0
LINE
  5
153
  8
0
  6
CONTINUOUS
 62
     7
 10
98.7692748899
 20
96.3754198609
 30
0.0
 11
85.3526313023
 21
96.3754198609
 31
0.0
  0
LINE
  5
154
  8
0
  6
CONTINUOUS
 62
     7
 10
73.3083648801
 20
112.8184612338
 30
0.0
 11
80.8367379853
 21
112.8184612338
 31
0.0
  0
LINE
  5
155
  8
0
  6
CONTINUOUS
 62
     7
 10
73.1847379853
 20
112.7472918107
 30
0.0
 11
73.3083648801
 21
112.8184612338
 31
0.0
  0
LINE
  5
156
  8
0
  6
CONTINUOUS
 62
     7
 10
73.1847379853
 20
112.7472918107
 30
0.0
 11
73.1847379853
 21
112.7636617198
 31
0.0
  0
ARC
  5
157
  8
0
  6
CONTINUOUS
 62
     7
 10
80.8367379853
 20
94.8184612338
 30
0.0
 40
17.99999999999909
 50
77.6203227614
 51
90.0
  0
POLYLINE
  5
158
  8
0
  6
CONTINUOUS
 62
     7
 66
     1
 10
0.0
 20
0.0
 30
0.0
  0
VERTEX
  5
39A
  8
0
  6
CONTINUOUS
 62
     7
 10
170.8847379853
 20
100.1438253201
 30
0.0
  0
VERTEX
  5
39B
  8
0
  6
CONTINUOUS
 62
     7
 10
169.6841548514
 20
99.9905692634
 30
0.0
  0
VERTEX
  5
39C
  8
0
  6
CONTINUOUS
 62
     7
 10
169.6347379853
 20
99.984299896
 30
0.0
  0
SEQEND
  5
399
  8
0
  6
CONTINUOUS
 62
     7
  0
LINE
  5
159
  8
0
  6
CONTINUOUS
 62
     7
 10
170.8847379853
 20
115.5930971476
 30
0.0
 11
170.8847379853
 21
120.2684612338
 31
0.0
  0
LINE
  5
15A
  8
0
  6
CONTINUOUS
 62
     7
 10
170.8847379853
 20
95.4684612338
 30
0.0
 11
170.8847379853
 21
100.1438253201
 31
0.0
  0
POLYLINE
  5
15B
  8
0
  6
CONTINUOUS
 62
     7
 66
     1
 10
0.0
 20
0.0
 30
0.0
  0
VERTEX
  5
39E
  8
0
  6
CONTINUOUS
 62
     7
 10
169.6347379853
 20
115.7526225716
 30
0.0
  0
VERTEX
  5
39F
  8
0
  6
CONTINUOUS
 62
     7
 10
169.6841548514
 20
115.7463532042
 30
0.0
  0
VERTEX
  5
3A0
  8
0
  6
CONTINUOUS
 62
     7
 10
170.8847379853
 20
115.5930971476
 30
0.0
  0
SEQEND
  5
39D
  8
0
  6
CONTINUOUS
 62
     7
  0
LINE
  5
15C
  8
0
  6
CONTINUOUS
 62
     7
 10
171.8847379853
 20
100.5016437391
 30
0.0
 11
170.8847379853
 21
100.1438253201
 31
0.0
  0
LINE
  5
15D
  8
0
  6
CONTINUOUS
 62
     7
 10
171.8847379853
 20
115.2352787285
 30
0.0
 11
171.8847379853
 21
119.2684612338
 31
0.0
  0
LINE
  5
15E
  8
0
  6
CONTINUOUS
 62
     7
 10
171.8847379853
 20
96.4684612338
 30
0.0
 11
171.8847379853
 21
100.5016437391
 31
0.0
  0
LINE
  5
15F
  8
0
  6
CONTINUOUS
 62
     7
 10
170.8847379853
 20
115.5930971476
 30
0.0
 11
171.8847379853
 21
115.2352787285
 31
0.0
  0
LINE
  5
160
  8
0
  6
CONTINUOUS
 62
     7
 10
170.8847379853
 20
115.5930971476
 30
0.0
 11
170.8847379853
 21
100.1438253201
 31
0.0
  0
LINE
  5
161
  8
0
  6
CONTINUOUS
 62
     7
 10
171.8847379853
 20
115.2352787285
 30
0.0
 11
171.8847379853
 21
100.5016437391
 31
0.0
  0
LINE
  5
162
  8
0
  6
CONTINUOUS
 62
     7
 10
85.3526313023
 20
96.3754198609
 30
0.0
 11
85.3526313023
 21
96.5672561642
 31
0.0
  0
LINE
  5
163
  8
0
  6
CONTINUOUS
 62
     7
 10
85.3829519513
 20
106.4434773001
 30
0.0
 11
86.24281988
 21
107.933456447
 31
0.0
  0
ARC
  5
164
  8
0
  6
CONTINUOUS
 62
     7
 10
83.8827379853
 20
109.2954612338
 30
0.0
 40
2.724893316976202
 50
330.0107279107
 51
150.0107279107
  0
LINE
  5
165
  8
0
  6
CONTINUOUS
 62
     7
 10
81.5226560907
 20
110.6574660207
 30
0.0
 11
80.6630351418
 21
109.1679148404
 31
0.0
  0
LINE
  5
166
  8
0
  6
CONTINUOUS
 62
     7
 10
73.1847379853
 20
104.8503179641
 30
0.0
 11
73.1847379853
 21
112.7472918107
 31
0.0
  0
ARC
  5
167
  8
0
  6
CONTINUOUS
 62
     7
 10
83.8827379853
 20
109.2954612338
 30
0.0
 40
2.505000000000006
 50
330.0107279107
 51
150.0107279107
  0
LINE
  5
168
  8
0
  6
CONTINUOUS
 62
     7
 10
81.7131098721
 20
110.5475550203
 30
0.0
 11
81.043778069
 21
109.387736872
 31
0.0
  0
LINE
  5
169
  8
0
  6
CONTINUOUS
 62
     7
 10
85.3829519513
 20
106.8834066128
 30
0.0
 11
86.0523660986
 21
108.0433674473
 31
0.0
  0
LINE
  5
16A
  8
0
  6
CONTINUOUS
 62
     7
 10
79.1492008179
 20
106.2229637668
 30
0.0
 11
78.9029861349
 21
106.6494201073
 31
0.0
  0
LINE
  5
16B
  8
0
  6
CONTINUOUS
 62
     7
 10
84.5576914872
 20
110.4635670277
 30
0.0
 11
78.9029861349
 21
106.6494201073
 31
0.0
  0
LINE
  5
16C
  8
0
  6
CONTINUOUS
 62
     7
 10
84.5576914872
 20
110.4635670277
 30
0.0
 11
83.9974016091
 21
109.4931164919
 31
0.0
  0
LINE
  5
16D
  8
0
  6
CONTINUOUS
 62
     7
 10
83.9974016091
 20
109.4931164919
 30
0.0
 11
79.1492008179
 21
106.2229637668
 31
0.0
  0
LINE
  5
16E
  8
0
  6
CONTINUOUS
 62
     7
 10
83.5894666706
 20
103.6593750815
 30
0.0
 11
84.0818960365
 21
103.6593750815
 31
0.0
  0
LINE
  5
16F
  8
0
  6
CONTINUOUS
 62
     7
 10
83.5894666706
 20
103.6593750815
 30
0.0
 11
83.9974016091
 21
109.4931164919
 31
0.0
  0
LINE
  5
170
  8
0
  6
CONTINUOUS
 62
     7
 10
84.0818960365
 20
103.6593750815
 30
0.0
 11
84.5576914872
 21
110.4635670277
 31
0.0
  0
LINE
  5
171
  8
0
  6
CONTINUOUS
 62
     7
 10
79.1492008179
 20
106.2229637668
 30
0.0
 11
73.8930650881
 21
103.6593750815
 31
0.0
  0
LINE
  5
172
  8
0
  6
CONTINUOUS
 62
     7
 10
72.772485332
 20
103.6593750815
 30
0.0
 11
73.8930650881
 21
103.6593750815
 31
0.0
  0
LINE
  5
173
  8
0
  6
CONTINUOUS
 62
     7
 10
78.9029861349
 20
106.6494201073
 30
0.0
 11
72.772485332
 21
103.6593750815
 31
0.0
  0
LINE
  5
174
  8
0
  6
CONTINUOUS
 62
     7
 10
79.1492008179
 20
101.0957863962
 30
0.0
 11
78.9029861349
 21
100.6693300557
 31
0.0
  0
LINE
  5
175
  8
0
  6
CONTINUOUS
 62
     7
 10
72.772485332
 20
103.6593750815
 30
0.0
 11
78.9029861349
 21
100.6693300557
 31
0.0
  0
LINE
  5
176
  8
0
  6
CONTINUOUS
 62
     7
 10
73.8930650881
 20
103.6593750815
 30
0.0
 11
79.1492008179
 21
101.0957863962
 31
0.0
  0
LINE
  5
177
  8
0
  6
CONTINUOUS
 62
     7
 10
84.5576914872
 20
96.8551831354
 30
0.0
 11
84.0818960365
 21
103.6593750815
 31
0.0
  0
LINE
  5
178
  8
0
  6
CONTINUOUS
 62
     7
 10
84.5576914872
 20
96.8551831354
 30
0.0
 11
83.9974016091
 21
97.8256336712
 31
0.0
  0
LINE
  5
179
  8
0
  6
CONTINUOUS
 62
     7
 10
83.9974016091
 20
97.8256336712
 30
0.0
 11
83.5894666706
 21
103.6593750815
 31
0.0
  0
LINE
  5
17A
  8
0
  6
CONTINUOUS
 62
     7
 10
79.1492008179
 20
101.0957863962
 30
0.0
 11
83.9974016091
 21
97.8256336712
 31
0.0
  0
LINE
  5
17B
  8
0
  6
CONTINUOUS
 62
     7
 10
78.9029861349
 20
100.6693300557
 30
0.0
 11
84.5576914872
 21
96.8551831354
 31
0.0
  0
CIRCLE
  5
17C
  8
0
  6
CONTINUOUS
 62
     7
 10
80.6292894355
 20
103.6593750815
 30
0.0
 40
2.820952461695074
  0
CIRCLE
  5
17D
  8
0
  6
CONTINUOUS
 62
     7
 10
80.6292894355
 20
103.6593750815
 30
0.0
 40
2.800000000000011
  0
LINE
  5
17E
  8
0
  6
CONTINUOUS
 62
     7
 10
84.8507253709
 20
103.6593750815
 30
0.0
 11
84.9607622866
 21
110.5379244403
 31
0.0
  0
LINE
  5
17F
  8
0
  6
CONTINUOUS
 62
     7
 10
85.2592881562
 20
110.5355368174
 30
0.0
 11
84.9607622866
 21
110.5379244403
 31
0.0
  0
LINE
  5
180
  8
0
  6
CONTINUOUS
 62
     7
 10
85.1492894355
 20
103.6593750815
 30
0.0
 11
85.2592881562
 21
110.5355368174
 31
0.0
  0
LINE
  5
181
  8
0
  6
CONTINUOUS
 62
     7
 10
85.1492894355
 20
103.6593750815
 30
0.0
 11
84.8507253709
 21
103.6593750815
 31
0.0
  0
LINE
  5
182
  8
0
  6
CONTINUOUS
 62
     7
 10
84.4205514958
 20
110.8498152858
 30
0.0
 11
78.5185714678
 21
107.315245842
 31
0.0
  0
LINE
  5
183
  8
0
  6
CONTINUOUS
 62
     7
 10
78.3692894355
 20
107.5738099066
 30
0.0
 11
78.5185714678
 21
107.315245842
 31
0.0
  0
LINE
  5
184
  8
0
  6
CONTINUOUS
 62
     7
 10
84.2692208189
 20
111.1071524611
 30
0.0
 11
78.3692894355
 21
107.5738099066
 31
0.0
  0
LINE
  5
185
  8
0
  6
CONTINUOUS
 62
     7
 10
84.2692208189
 20
111.1071524611
 30
0.0
 11
84.4205514958
 21
110.8498152858
 31
0.0
  0
LINE
  5
186
  8
0
  6
CONTINUOUS
 62
     7
 10
72.506554524
 20
103.971265927
 30
0.0
 11
72.3593593313
 21
104.2309907252
 31
0.0
  0
LINE
  5
187
  8
0
  6
CONTINUOUS
 62
     7
 10
78.3692894355
 20
107.5738099066
 30
0.0
 11
72.3593593313
 21
104.2309907252
 31
0.0
  0
LINE
  5
188
  8
0
  6
CONTINUOUS
 62
     7
 10
78.5185714678
 20
107.315245842
 30
0.0
 11
72.506554524
 21
103.971265927
 31
0.0
  0
LINE
  5
189
  8
0
  6
CONTINUOUS
 62
     7
 10
72.506554524
 20
103.347484236
 30
0.0
 11
78.5185714678
 21
100.003504321
 31
0.0
  0
LINE
  5
18A
  8
0
  6
CONTINUOUS
 62
     7
 10
78.3692894355
 20
99.7449402564
 30
0.0
 11
78.5185714678
 21
100.003504321
 31
0.0
  0
LINE
  5
18B
  8
0
  6
CONTINUOUS
 62
     7
 10
72.3593593313
 20
103.0877594378
 30
0.0
 11
78.3692894355
 21
99.7449402564
 31
0.0
  0
LINE
  5
18C
  8
0
  6
CONTINUOUS
 62
     7
 10
72.3593593313
 20
103.0877594378
 30
0.0
 11
72.506554524
 21
103.347484236
 31
0.0
  0
LINE
  5
18D
  8
0
  6
CONTINUOUS
 62
     7
 10
84.9607622866
 20
96.7808257227
 30
0.0
 11
84.8507253709
 21
103.6593750815
 31
0.0
  0
LINE
  5
18E
  8
0
  6
CONTINUOUS
 62
     7
 10
85.2592881562
 20
96.7832133457
 30
0.0
 11
85.1492894355
 21
103.6593750815
 31
0.0
  0
LINE
  5
18F
  8
0
  6
CONTINUOUS
 62
     7
 10
85.2592881562
 20
96.7832133457
 30
0.0
 11
84.9607622866
 21
96.7808257227
 31
0.0
  0
LINE
  5
190
  8
0
  6
CONTINUOUS
 62
     7
 10
78.5185714678
 20
100.003504321
 30
0.0
 11
84.4205514958
 21
96.4689348772
 31
0.0
  0
LINE
  5
191
  8
0
  6
CONTINUOUS
 62
     7
 10
84.2692208189
 20
96.211597702
 30
0.0
 11
84.4205514958
 21
96.4689348772
 31
0.0
  0
LINE
  5
192
  8
0
  6
CONTINUOUS
 62
     7
 10
78.3692894355
 20
99.7449402564
 30
0.0
 11
84.2692208189
 21
96.211597702
 31
0.0
  0
ARC
  5
193
  8
0
  6
CONTINUOUS
 62
     7
 10
84.5992743122
 20
110.5355905933
 30
0.0
 40
0.3614955082897908
 50
0.3699091995
 51
119.6300908006
  0
ARC
  5
194
  8
0
  6
CONTINUOUS
 62
     7
 10
84.5992769719
 20
110.5355952001
 30
0.0
 40
0.6600111868020011
 50
359.9949317734
 51
120.0050682266
  0
ARC
  5
195
  8
0
  6
CONTINUOUS
 62
     7
 10
84.5992910124
 20
96.7831306441
 30
0.0
 40
0.3614786228256157
 50
240.3653415604
 51
359.6346584397
  0
ARC
  5
196
  8
0
  6
CONTINUOUS
 62
     7
 10
84.59929264
 20
96.7831278251
 30
0.0
 40
0.6599955217444501
 50
239.9925757562
 51
0.0074242439
  0
ARC
  5
197
  8
0
  6
CONTINUOUS
 62
     7
 10
72.6893199335
 20
103.6593750815
 30
0.0
 40
0.3614956354107294
 50
120.3699435826
 51
239.6300564175
  0
ARC
  5
198
  8
0
  6
CONTINUOUS
 62
     7
 10
72.6893123343
 20
103.6593750815
 30
0.0
 40
0.6600101728850325
 50
119.9947792892
 51
240.0052207108
  0
CIRCLE
  5
199
  8
0
  6
CONTINUOUS
 62
     7
 10
80.6292894355
 20
103.6593750815
 30
0.0
 40
1.920548829067115
  0
CIRCLE
  5
19A
  8
0
  6
CONTINUOUS
 62
     7
 10
80.6292894355
 20
103.6593750815
 30
0.0
 40
1.970548829067111
  0
ARC
  5
19B
  8
0
  6
CONTINUOUS
 62
     7
 10
80.8443325067
 20
101.8547371395
 30
0.0
 40
0.5000000000000077
 50
70.8228664706
 51
122.7679316042
  0
LINE
  5
19C
  8
0
  6
CONTINUOUS
 62
     7
 10
81.3533195036
 20
102.2070932469
 30
0.0
 11
81.008577369
 21
102.3269909116
 31
0.0
  0
ARC
  5
19D
  8
0
  6
CONTINUOUS
 62
     7
 10
81.4682909072
 20
102.5376708873
 30
0.0
 40
0.3499999999999818
 50
250.8228664706
 51
2.7679316042
  0
LINE
  5
19E
  8
0
  6
CONTINUOUS
 62
     7
 10
81.8002566125
 20
102.9191435075
 30
0.0
 11
81.8178825699
 21
102.5545726433
 31
0.0
  0
ARC
  5
19F
  8
0
  6
CONTINUOUS
 62
     7
 10
82.2996732735
 20
102.9432888731
 30
0.0
 40
0.5000000000000107
 50
130.8228664706
 51
182.7679316042
  0
LINE
  5
1A0
  8
0
  6
CONTINUOUS
 62
     7
 10
82.2490174318
 20
103.5602625963
 30
0.0
 11
81.972811941
 21
103.3216559823
 31
0.0
  0
ARC
  5
1A1
  8
0
  6
CONTINUOUS
 62
     7
 10
82.0202144991
 20
103.8251195728
 30
0.0
 40
0.350000000000009
 50
310.8228664706
 51
62.7679316042
  0
LINE
  5
1A2
  8
0
  6
CONTINUOUS
 62
     7
 10
81.8558323718
 20
104.3033466168
 30
0.0
 11
82.1803729804
 21
104.1363257116
 31
0.0
  0
ARC
  5
1A3
  8
0
  6
CONTINUOUS
 62
     7
 10
82.0846302022
 20
104.7479268151
 30
0.0
 40
0.4999999999999945
 50
190.8228664706
 51
242.7679316042
  0
LINE
  5
1A4
  8
0
  6
CONTINUOUS
 62
     7
 10
81.5249873636
 20
105.012544431
 30
0.0
 11
81.5935240075
 21
104.6540401523
 31
0.0
  0
ARC
  5
1A5
  8
0
  6
CONTINUOUS
 62
     7
 10
81.1812130273
 20
104.946823767
 30
0.0
 40
0.3499999999999883
 50
10.8228664706
 51
122.7679316042
  0
LINE
  5
1A6
  8
0
  6
CONTINUOUS
 62
     7
 10
80.6848651947
 20
105.0435781908
 30
0.0
 11
80.9917798459
 21
105.2411281499
 31
0.0
  0
ARC
  5
1A7
  8
0
  6
CONTINUOUS
 62
     7
 10
80.4142463642
 20
105.4640130235
 30
0.0
 40
0.5000000000000148
 50
250.8228664706
 51
302.7679316042
  0
LINE
  5
1A8
  8
0
  6
CONTINUOUS
 62
     7
 10
79.9052593673
 20
105.1116569162
 30
0.0
 11
80.250001502
 21
104.9917592515
 31
0.0
  0
ARC
  5
1A9
  8
0
  6
CONTINUOUS
 62
     7
 10
79.7902879637
 20
104.7810792757
 30
0.0
 40
0.3499999999999939
 50
70.8228664706
 51
182.7679316042
  0
LINE
  5
1AA
  8
0
  6
CONTINUOUS
 62
     7
 10
79.4583222584
 20
104.3996066555
 30
0.0
 11
79.440696301
 21
104.7641775198
 31
0.0
  0
ARC
  5
1AB
  8
0
  6
CONTINUOUS
 62
     7
 10
78.9589055974
 20
104.3754612899
 30
0.0
 40
0.50000000000002
 50
310.8228664706
 51
2.7679316042
  0
LINE
  5
1AC
  8
0
  6
CONTINUOUS
 62
     7
 10
79.0095614391
 20
103.7584875667
 30
0.0
 11
79.2857669299
 21
103.9970941807
 31
0.0
  0
ARC
  5
1AD
  8
0
  6
CONTINUOUS
 62
     7
 10
79.2383643719
 20
103.4936305903
 30
0.0
 40
0.3499999999999995
 50
130.8228664706
 51
242.7679316042
  0
LINE
  5
1AE
  8
0
  6
CONTINUOUS
 62
     7
 10
79.4027464992
 20
103.0154035462
 30
0.0
 11
79.0782058905
 21
103.1824244514
 31
0.0
  0
ARC
  5
1AF
  8
0
  6
CONTINUOUS
 62
     7
 10
79.1739486687
 20
102.5708233479
 30
0.0
 40
0.5000000000000079
 50
10.8228664706
 51
62.7679316042
  0
LINE
  5
1B0
  8
0
  6
CONTINUOUS
 62
     7
 10
79.7335915073
 20
102.306205732
 30
0.0
 11
79.6650548634
 21
102.6647100108
 31
0.0
  0
ARC
  5
1B1
  8
0
  6
CONTINUOUS
 62
     7
 10
80.0773658436
 20
102.3719263961
 30
0.0
 40
0.3500000000000403
 50
190.8228664707
 51
302.7679316042
  0
LINE
  5
1B2
  8
0
  6
CONTINUOUS
 62
     7
 10
80.5737136762
 20
102.2751719722
 30
0.0
 11
80.266799025
 21
102.0776220132
 31
0.0
  0
LINE
  5
1B3
  8
0
  6
CONTINUOUS
 62
     7
 10
81.045903612
 20
105.1570411833
 30
0.0
 11
80.9917798459
 21
105.2411281499
 31
0.0
  0
LINE
  5
1B4
  8
0
  6
CONTINUOUS
 62
     7
 10
81.5249873636
 20
105.012544431
 30
0.0
 11
81.4267661247
 21
104.9937670984
 31
0.0
  0
LINE
  5
1B5
  8
0
  6
CONTINUOUS
 62
     7
 10
80.7389889609
 20
104.9594912243
 30
0.0
 11
80.6848651947
 21
105.0435781908
 31
0.0
  0
LINE
  5
1B6
  8
0
  6
CONTINUOUS
 62
     7
 10
80.2171525295
 20
104.8973084971
 30
0.0
 11
80.250001502
 21
104.9917592515
 31
0.0
  0
LINE
  5
1B7
  8
0
  6
CONTINUOUS
 62
     7
 10
79.8724103948
 20
105.0172061618
 30
0.0
 11
79.9052593673
 21
105.1116569162
 31
0.0
  0
LINE
  5
1B8
  8
0
  6
CONTINUOUS
 62
     7
 10
79.5405796332
 20
104.7690065929
 30
0.0
 11
79.440696301
 21
104.7641775198
 31
0.0
  0
LINE
  5
1B9
  8
0
  6
CONTINUOUS
 62
     7
 10
81.5935240075
 20
104.6540401523
 30
0.0
 11
81.4953027685
 21
104.6352628197
 31
0.0
  0
LINE
  5
1BA
  8
0
  6
CONTINUOUS
 62
     7
 10
81.8558323718
 20
104.3033466168
 30
0.0
 11
81.8100728057
 21
104.2144305771
 31
0.0
  0
LINE
  5
1BB
  8
0
  6
CONTINUOUS
 62
     7
 10
79.5582055906
 20
104.4044357287
 30
0.0
 11
79.4583222584
 21
104.3996066555
 31
0.0
  0
LINE
  5
1BC
  8
0
  6
CONTINUOUS
 62
     7
 10
82.1803729804
 20
104.1363257116
 30
0.0
 11
82.1346134143
 21
104.0474096719
 31
0.0
  0
LINE
  5
1BD
  8
0
  6
CONTINUOUS
 62
     7
 10
79.3511391964
 20
103.9214207589
 30
0.0
 11
79.2857669299
 21
103.9970941807
 31
0.0
  0
LINE
  5
1BE
  8
0
  6
CONTINUOUS
 62
     7
 10
82.2490174318
 20
103.5602625963
 30
0.0
 11
82.1836451653
 21
103.6359360182
 31
0.0
  0
LINE
  5
1BF
  8
0
  6
CONTINUOUS
 62
     7
 10
79.0749337056
 20
103.6828141449
 30
0.0
 11
79.0095614391
 21
103.7584875667
 31
0.0
  0
LINE
  5
1C0
  8
0
  6
CONTINUOUS
 62
     7
 10
79.1239654566
 20
103.2713404911
 30
0.0
 11
79.0782058905
 21
103.1824244514
 31
0.0
  0
LINE
  5
1C1
  8
0
  6
CONTINUOUS
 62
     7
 10
81.972811941
 20
103.3216559823
 30
0.0
 11
81.9074396745
 21
103.3973294041
 31
0.0
  0
LINE
  5
1C2
  8
0
  6
CONTINUOUS
 62
     7
 10
81.8002566125
 20
102.9191435075
 30
0.0
 11
81.7003732803
 21
102.9143144344
 31
0.0
  0
LINE
  5
1C3
  8
0
  6
CONTINUOUS
 62
     7
 10
79.4485060653
 20
103.1043195859
 30
0.0
 11
79.4027464992
 21
103.0154035462
 31
0.0
  0
LINE
  5
1C4
  8
0
  6
CONTINUOUS
 62
     7
 10
79.7632761024
 20
102.6834873434
 30
0.0
 11
79.6650548634
 21
102.6647100108
 31
0.0
  0
LINE
  5
1C5
  8
0
  6
CONTINUOUS
 62
     7
 10
81.8178825699
 20
102.5545726433
 30
0.0
 11
81.7179992377
 21
102.5497435701
 31
0.0
  0
LINE
  5
1C6
  8
0
  6
CONTINUOUS
 62
     7
 10
79.8318127462
 20
102.3249830646
 30
0.0
 11
79.7335915073
 21
102.306205732
 31
0.0
  0
LINE
  5
1C7
  8
0
  6
CONTINUOUS
 62
     7
 10
81.3533195036
 20
102.2070932469
 30
0.0
 11
81.3861684761
 21
102.3015440013
 31
0.0
  0
LINE
  5
1C8
  8
0
  6
CONTINUOUS
 62
     7
 10
80.5737136762
 20
102.2751719722
 30
0.0
 11
80.5195899101
 21
102.3592589388
 31
0.0
  0
LINE
  5
1C9
  8
0
  6
CONTINUOUS
 62
     7
 10
81.008577369
 20
102.3269909116
 30
0.0
 11
81.0414263414
 21
102.421441666
 31
0.0
  0
LINE
  5
1CA
  8
0
  6
CONTINUOUS
 62
     7
 10
80.266799025
 20
102.0776220132
 30
0.0
 11
80.2126752589
 21
102.1617089797
 31
0.0
  0
LINE
  5
1CB
  8
0
  6
CONTINUOUS
 62
     7
 10
81.1812130273
 20
104.946823767
 30
0.0
 11
81.045903612
 21
105.1570411833
 31
0.0
  0
LINE
  5
1CC
  8
0
  6
CONTINUOUS
 62
     7
 10
81.1812130273
 20
104.946823767
 30
0.0
 11
81.4267661247
 21
104.9937670984
 31
0.0
  0
LINE
  5
1CD
  8
0
  6
CONTINUOUS
 62
     7
 10
80.0540744462
 20
104.4284095681
 30
0.0
 11
80.2171525295
 21
104.8973084971
 31
0.0
  0
LINE
  5
1CE
  8
0
  6
CONTINUOUS
 62
     7
 10
81.0076853426
 20
104.5420431182
 30
0.0
 11
80.7389889609
 21
104.9594912243
 31
0.0
  0
LINE
  5
1CF
  8
0
  6
CONTINUOUS
 62
     7
 10
79.7902879637
 20
104.7810792757
 30
0.0
 11
79.8724103948
 21
105.0172061618
 31
0.0
  0
LINE
  5
1D0
  8
0
  6
CONTINUOUS
 62
     7
 10
81.0076853426
 20
104.5420431182
 30
0.0
 11
81.4953027685
 21
104.6352628197
 31
0.0
  0
LINE
  5
1D1
  8
0
  6
CONTINUOUS
 62
     7
 10
79.7902879637
 20
104.7810792757
 30
0.0
 11
79.5405796332
 21
104.7690065929
 31
0.0
  0
LINE
  5
1D2
  8
0
  6
CONTINUOUS
 62
     7
 10
80.0540744462
 20
104.4284095681
 30
0.0
 11
79.5582055906
 21
104.4044357287
 31
0.0
  0
LINE
  5
1D3
  8
0
  6
CONTINUOUS
 62
     7
 10
81.5829003318
 20
103.7730086316
 30
0.0
 11
81.8100728057
 21
104.2144305771
 31
0.0
  0
LINE
  5
1D4
  8
0
  6
CONTINUOUS
 62
     7
 10
79.6756785391
 20
103.5457415314
 30
0.0
 11
79.3511391964
 21
103.9214207589
 31
0.0
  0
LINE
  5
1D5
  8
0
  6
CONTINUOUS
 62
     7
 10
82.0202144991
 20
103.8251195728
 30
0.0
 11
82.1346134143
 21
104.0474096719
 31
0.0
  0
LINE
  5
1D6
  8
0
  6
CONTINUOUS
 62
     7
 10
82.0202144991
 20
103.8251195728
 30
0.0
 11
82.1836451653
 21
103.6359360182
 31
0.0
  0
LINE
  5
1D7
  8
0
  6
CONTINUOUS
 62
     7
 10
81.5829003318
 20
103.7730086316
 30
0.0
 11
81.9074396745
 21
103.3973294041
 31
0.0
  0
LINE
  5
1D8
  8
0
  6
CONTINUOUS
 62
     7
 10
81.2045044247
 20
102.890340595
 30
0.0
 11
81.7003732803
 21
102.9143144344
 31
0.0
  0
LINE
  5
1D9
  8
0
  6
CONTINUOUS
 62
     7
 10
80.2508935283
 20
102.7767070449
 30
0.0
 11
79.7632761024
 21
102.6834873434
 31
0.0
  0
LINE
  5
1DA
  8
0
  6
CONTINUOUS
 62
     7
 10
79.6756785391
 20
103.5457415314
 30
0.0
 11
79.4485060653
 21
103.1043195859
 31
0.0
  0
LINE
  5
1DB
  8
0
  6
CONTINUOUS
 62
     7
 10
81.2045044247
 20
102.890340595
 30
0.0
 11
81.0414263414
 21
102.421441666
 31
0.0
  0
LINE
  5
1DC
  8
0
  6
CONTINUOUS
 62
     7
 10
80.2508935283
 20
102.7767070449
 30
0.0
 11
80.5195899101
 21
102.3592589388
 31
0.0
  0
LINE
  5
1DD
  8
0
  6
CONTINUOUS
 62
     7
 10
79.2383643719
 20
103.4936305903
 30
0.0
 11
79.0749337056
 21
103.6828141449
 31
0.0
  0
LINE
  5
1DE
  8
0
  6
CONTINUOUS
 62
     7
 10
79.2383643719
 20
103.4936305903
 30
0.0
 11
79.1239654566
 21
103.2713404911
 31
0.0
  0
LINE
  5
1DF
  8
0
  6
CONTINUOUS
 62
     7
 10
81.4682909072
 20
102.5376708873
 30
0.0
 11
81.7179992377
 21
102.5497435701
 31
0.0
  0
LINE
  5
1E0
  8
0
  6
CONTINUOUS
 62
     7
 10
80.0773658436
 20
102.3719263961
 30
0.0
 11
79.8318127462
 21
102.3249830646
 31
0.0
  0
LINE
  5
1E1
  8
0
  6
CONTINUOUS
 62
     7
 10
80.0773658436
 20
102.3719263961
 30
0.0
 11
80.2126752589
 21
102.1617089797
 31
0.0
  0
LINE
  5
1E2
  8
0
  6
CONTINUOUS
 62
     7
 10
81.4682909072
 20
102.5376708873
 30
0.0
 11
81.3861684761
 21
102.3015440013
 31
0.0
  0
LINE
  5
1E3
  8
0
  6
CONTINUOUS
 62
     7
 10
115.3708931899
 20
107.8684612338
 30
0.0
 11
115.3708931899
 21
119.9544612338
 31
0.0
  0
LINE
  5
1E4
  8
0
  6
CONTINUOUS
 62
     7
 10
115.3708931899
 20
95.7824612338
 30
0.0
 11
115.3708931899
 21
107.8684612338
 31
0.0
  0
LINE
  5
1E5
  8
0
  6
CONTINUOUS
 62
     7
 10
113.9564660974
 20
107.8684612338
 30
0.0
 11
113.9564660974
 21
119.3684612338
 31
0.0
  0
LINE
  5
1E6
  8
0
  6
CONTINUOUS
 62
     7
 10
113.9564660974
 20
96.3684612338
 30
0.0
 11
113.9564660974
 21
107.8684612338
 31
0.0
  0
LINE
  5
1E7
  8
0
  6
CONTINUOUS
 62
     7
 10
81.5226560907
 20
110.6574660207
 30
0.0
 11
81.7131098721
 21
110.5475550203
 31
0.0
  0
LINE
  5
1E8
  8
0
  6
CONTINUOUS
 62
     7
 10
86.24281988
 20
107.933456447
 30
0.0
 11
86.0523660986
 21
108.0433674473
 31
0.0
  0
ARC
  5
1E9
  8
0
  6
CONTINUOUS
 62
     7
 10
84.5992894355
 20
110.5356167876
 30
0.0
 40
0.7336625158097121
 50
0.0
 51
120.0
  0
LINE
  5
1EA
  8
0
  6
CONTINUOUS
 62
     7
 10
85.3329519513
 20
96.7831333755
 30
0.0
 11
85.3329519513
 21
110.5356167876
 31
0.0
  0
ARC
  5
1EB
  8
0
  6
CONTINUOUS
 62
     7
 10
84.5992894355
 20
96.7831333755
 30
0.0
 40
0.7336625158096753
 50
240.0
 51
0.0
  0
LINE
  5
1EC
  8
0
  6
CONTINUOUS
 62
     7
 10
72.3224581776
 20
103.024004705
 30
0.0
 11
84.2324581776
 21
96.147762999
 31
0.0
  0
ARC
  5
1ED
  8
0
  6
CONTINUOUS
 62
     7
 10
72.6892894355
 20
103.6593750815
 30
0.0
 40
0.7336625158096787
 50
120.0
 51
240.0
  0
LINE
  5
1EE
  8
0
  6
CONTINUOUS
 62
     7
 10
84.2324581776
 20
111.1709871641
 30
0.0
 11
72.3224581776
 21
104.294745458
 31
0.0
  0
LINE
  5
1EF
  8
0
  6
CONTINUOUS
 62
     7
 10
72.3224581776
 20
104.294745458
 30
0.0
 11
72.2974581776
 21
104.3380467282
 31
0.0
  0
LINE
  5
1F0
  8
0
  6
CONTINUOUS
 62
     7
 10
84.2324581776
 20
111.1709871641
 30
0.0
 11
84.2074581776
 21
111.2142884343
 31
0.0
  0
LINE
  5
1F1
  8
0
  6
CONTINUOUS
 62
     7
 10
85.3329519513
 20
110.5356167876
 30
0.0
 11
85.3829519513
 21
110.5356167876
 31
0.0
  0
LINE
  5
1F2
  8
0
  6
CONTINUOUS
 62
     7
 10
85.3829519513
 20
96.7831333755
 30
0.0
 11
85.3329519513
 21
96.7831333755
 31
0.0
  0
LINE
  5
1F3
  8
0
  6
CONTINUOUS
 62
     7
 10
72.2974581776
 20
102.9807034348
 30
0.0
 11
72.3224581776
 21
103.024004705
 31
0.0
  0
LINE
  5
1F4
  8
0
  6
CONTINUOUS
 62
     7
 10
84.2074581776
 20
96.1044617288
 30
0.0
 11
84.2324581776
 21
96.147762999
 31
0.0
  0
LINE
  5
1F5
  8
DÜNNE_LINIE
 62
     7
 10
70.6351183641
 20
107.8684612338
 30
0.0
 11
173.8429537821
 21
107.8684612338
 31
0.0
  0
LINE
  5
1F6
  8
DÜNNE_LINIE
 62
     7
 10
71.9059996121
 20
104.7510315702
 30
0.0
 11
71.9059996121
 21
102.5187302176
 31
0.0
  0
DIMENSION
  5
1F7
  8
DÜNNE_LINIE
 62
     7
  2
*D4
 10
171.8847379853
 20
72.9910809207
 30
0.0
 11
121.8953687987
 21
72.9910809207
 31
0.0
 70
   160
  3
SLDDIMSTYLE0
 13
71.9059996121
 23
102.5187302176
 33
0.0
 14
171.8847379853
 24
96.4684612338
 34
0.0
 50
0.0
  0
DIMENSION
  5
203
  8
DÜNNE_LINIE
 62
     7
  2
*D5
 10
72.3224581776
 20
103.024004705
 30
0.0
 11
80.4031669209
 21
88.5469216706
 31
0.0
 70
   162
  3
SLDDIMSTYLE1
 13
71.9059996121
 23
102.5187302176
 33
0.0
 14
71.9059996121
 24
104.7510315702
 34
0.0
 15
84.2324581776
 25
96.147762999
 35
0.0
 16
76.30445707
 26
86.8491804621
 36
0.0
  0
DIMENSION
  5
20F
  8
DÜNNE_LINIE
 62
     7
  2
*D6
 10
71.9059996121
 20
80.1122297068
 30
0.0
 11
92.9312328547
 21
80.1122297068
 31
0.0
 70
   160
  1
40
  3
SLDDIMSTYLE2
 13
113.9564660974
 23
96.3684612338
 33
0.0
 14
71.9059996121
 24
102.5187302176
 34
0.0
  0
DIMENSION
  5
21B
  8
DÜNNE_LINIE
 62
     7
  2
*D7
 10
185.7790298992
 20
95.3684612338
 30
0.0
 11
185.7790298992
 21
107.6839660467
 31
0.0
 70
   160
  1
%%c<>
  3
SLDDIMSTYLE3
 13
169.6347379853
 23
120.3684612338
 33
0.0
 14
169.6347379853
 24
95.3684612338
 34
0.0
 50
90.0
  0
DIMENSION
  5
227
  8
DÜNNE_LINIE
  2
*D8
 10
64.2026719404
 20
119.3684612338
 30
0.0
 11
64.2026719404
 21
107.6839660467
 31
0.0
 70
   160
  1
%%c23,6
  3
SLDDIMSTYLE4
 13
84.5992894355
 23
95.9994708597
 33
0.0
 14
84.6957379853
 24
119.3684612338
 34
0.0
 50
90.0
  0
LINE
  5
231
  8
0
  6
CONTINUOUS
 62
     7
 10
252.8384086003
 20
158.8518757361
 30
0.0
 11
253.2098188123
 21
161.8767691693
 31
0.0
  0
ARC
  5
232
  8
0
  6
CONTINUOUS
 62
     7
 10
253.1601915047
 20
161.8828626365
 30
0.0
 40
0.0500000000000175
 50
353.0
 51
90.0
  0
LINE
  5
233
  8
0
  6
CONTINUOUS
 62
     7
 10
237.8907557534
 20
161.8767691693
 30
0.0
 11
237.9207037099
 21
161.6328626365
 31
0.0
  0
ARC
  5
234
  8
0
  6
CONTINUOUS
 62
     7
 10
237.940383061
 20
161.8828626365
 30
0.0
 40
0.0500000000000114
 50
90.0
 51
187.0
  0
LINE
  5
235
  8
0
  6
CONTINUOUS
 62
     7
 10
246.7482058754
 20
154.8504052846
 30
0.0
 11
247.4729051136
 21
154.8504052846
 31
0.0
  0
LINE
  5
236
  8
0
  6
CONTINUOUS
 62
     7
 10
246.3547151183
 20
154.8504052846
 30
0.0
 11
246.7482058754
 21
154.8504052846
 31
0.0
  0
POLYLINE
  5
237
  8
0
  6
CONTINUOUS
 62
     7
 66
     1
 10
0.0
 20
0.0
 30
0.0
  0
VERTEX
  5
3A2
  8
0
  6
CONTINUOUS
 62
     7
 10
244.7550446209
 20
151.6642951006
 30
0.0
  0
VERTEX
  5
3A3
  8
0
  6
CONTINUOUS
 62
     7
 10
244.8663304767
 20
151.6792161317
 30
0.0
  0
VERTEX
  5
3A4
  8
0
  6
CONTINUOUS
 62
     7
 10
244.9797391935
 20
151.7012709485
 30
0.0
  0
VERTEX
  5
3A5
  8
0
  6
CONTINUOUS
 62
     7
 10
245.0938410513
 20
151.7300514306
 30
0.0
  0
VERTEX
  5
3A6
  8
0
  6
CONTINUOUS
 62
     7
 10
245.2072063302
 20
151.7651494577
 30
0.0
  0
VERTEX
  5
3A7
  8
0
  6
CONTINUOUS
 62
     7
 10
245.3556128896
 20
151.8209968922
 30
0.0
  0
VERTEX
  5
3A8
  8
0
  6
CONTINUOUS
 62
     7
 10
245.5009025331
 20
151.8863536672
 30
0.0
  0
VERTEX
  5
3A9
  8
0
  6
CONTINUOUS
 62
     7
 10
245.6411456376
 20
151.9597075696
 30
0.0
  0
VERTEX
  5
3AA
  8
0
  6
CONTINUOUS
 62
     7
 10
245.7848161425
 20
152.0459609998
 30
0.0
  0
VERTEX
  5
3AB
  8
0
  6
CONTINUOUS
 62
     7
 10
245.9218919584
 20
152.1392915896
 30
0.0
  0
VERTEX
  5
3AC
  8
0
  6
CONTINUOUS
 62
     7
 10
246.0516283072
 20
152.238318191
 30
0.0
  0
VERTEX
  5
3AD
  8
0
  6
CONTINUOUS
 62
     7
 10
246.1732804104
 20
152.3416596562
 30
0.0
  0
VERTEX
  5
3AE
  8
0
  6
CONTINUOUS
 62
     7
 10
246.2962142414
 20
152.4578031066
 30
0.0
  0
VERTEX
  5
3AF
  8
0
  6
CONTINUOUS
 62
     7
 10
246.4104064685
 20
152.5778172456
 30
0.0
  0
VERTEX
  5
3B0
  8
0
  6
CONTINUOUS
 62
     7
 10
246.5156473003
 20
152.7007021963
 30
0.0
  0
VERTEX
  5
3B1
  8
0
  6
CONTINUOUS
 62
     7
 10
246.6117269452
 20
152.8254580824
 30
0.0
  0
VERTEX
  5
3B2
  8
0
  6
CONTINUOUS
 62
     7
 10
246.6984356116
 20
152.951085027
 30
0.0
  0
VERTEX
  5
3B3
  8
0
  6
CONTINUOUS
 62
     7
 10
246.7959782683
 20
153.1124594555
 30
0.0
  0
VERTEX
  5
3B4
  8
0
  6
CONTINUOUS
 62
     7
 10
246.8786372309
 20
153.2741058606
 30
0.0
  0
VERTEX
  5
3B5
  8
0
  6
CONTINUOUS
 62
     7
 10
246.945489932
 20
153.4340818254
 30
0.0
  0
VERTEX
  5
3B6
  8
0
  6
CONTINUOUS
 62
     7
 10
246.9956138043
 20
153.5904449333
 30
0.0
  0
VERTEX
  5
3B7
  8
0
  6
CONTINUOUS
 62
     7
 10
247.0216198644
 20
153.7041923746
 30
0.0
  0
VERTEX
  5
3B8
  8
0
  6
CONTINUOUS
 62
     7
 10
247.0370876443
 20
153.814573149
 30
0.0
  0
VERTEX
  5
3B9
  8
0
  6
CONTINUOUS
 62
     7
 10
247.0410372862
 20
153.9200270807
 30
0.0
  0
VERTEX
  5
3BA
  8
0
  6
CONTINUOUS
 62
     7
 10
247.0324889328
 20
154.0189939941
 30
0.0
  0
VERTEX
  5
3BB
  8
0
  6
CONTINUOUS
 62
     7
 10
247.0178002944
 20
154.0859142952
 30
0.0
  0
VERTEX
  5
3BC
  8
0
  6
CONTINUOUS
 62
     7
 10
246.9953656812
 20
154.1481708752
 30
0.0
  0
VERTEX
  5
3BD
  8
0
  6
CONTINUOUS
 62
     7
 10
246.9647940883
 20
154.2047177499
 30
0.0
  0
VERTEX
  5
3BE
  8
0
  6
CONTINUOUS
 62
     7
 10
246.9256945107
 20
154.2545089352
 30
0.0
  0
VERTEX
  5
3BF
  8
0
  6
CONTINUOUS
 62
     7
 10
246.8725296567
 20
154.3001869766
 30
0.0
  0
VERTEX
  5
3C0
  8
0
  6
CONTINUOUS
 62
     7
 10
246.8083084549
 20
154.3359463293
 30
0.0
  0
VERTEX
  5
3C1
  8
0
  6
CONTINUOUS
 62
     7
 10
246.7335699181
 20
154.3606609222
 30
0.0
  0
VERTEX
  5
3C2
  8
0
  6
CONTINUOUS
 62
     7
 10
246.6480926798
 20
154.3735926175
 30
0.0
  0
VERTEX
  5
3C3
  8
0
  6
CONTINUOUS
 62
     7
 10
246.5530338655
 20
154.3749109751
 30
0.0
  0
VERTEX
  5
3C4
  8
0
  6
CONTINUOUS
 62
     7
 10
246.4503303024
 20
154.3650094046
 30
0.0
  0
VERTEX
  5
3C5
  8
0
  6
CONTINUOUS
 62
     7
 10
246.346453265
 20
154.3456770372
 30
0.0
  0
VERTEX
  5
3C6
  8
0
  6
CONTINUOUS
 62
     7
 10
246.2375894715
 20
154.317733604
 30
0.0
  0
VERTEX
  5
3C7
  8
0
  6
CONTINUOUS
 62
     7
 10
246.1254073436
 20
154.28232036
 30
0.0
  0
VERTEX
  5
3C8
  8
0
  6
CONTINUOUS
 62
     7
 10
246.0058399873
 20
154.238456803
 30
0.0
  0
VERTEX
  5
3C9
  8
0
  6
CONTINUOUS
 62
     7
 10
245.8840442041
 20
154.1883806828
 30
0.0
  0
VERTEX
  5
3CA
  8
0
  6
CONTINUOUS
 62
     7
 10
245.7611973434
 20
154.1331578681
 30
0.0
  0
VERTEX
  5
3CB
  8
0
  6
CONTINUOUS
 62
     7
 10
245.6384767546
 20
154.0738542275
 30
0.0
  0
VERTEX
  5
3CC
  8
0
  6
CONTINUOUS
 62
     7
 10
245.4859562201
 20
153.9950321666
 30
0.0
  0
VERTEX
  5
3CD
  8
0
  6
CONTINUOUS
 62
     7
 10
245.3344309502
 20
153.9115032722
 30
0.0
  0
VERTEX
  5
3CE
  8
0
  6
CONTINUOUS
 62
     7
 10
245.1852983485
 20
153.824382961
 30
0.0
  0
VERTEX
  5
3CF
  8
0
  6
CONTINUOUS
 62
     7
 10
245.0399558184
 20
153.7347866497
 30
0.0
  0
VERTEX
  5
3D0
  8
0
  6
CONTINUOUS
 62
     7
 10
244.8973586568
 20
153.6421465279
 30
0.0
  0
VERTEX
  5
3D1
  8
0
  6
CONTINUOUS
 62
     7
 10
244.7593439297
 20
153.5475037311
 30
0.0
  0
VERTEX
  5
3D2
  8
0
  6
CONTINUOUS
 62
     7
 10
244.6270575846
 20
153.45149312
 30
0.0
  0
VERTEX
  5
3D3
  8
0
  6
CONTINUOUS
 62
     7
 10
244.5016455689
 20
153.3547495557
 30
0.0
  0
VERTEX
  5
3D4
  8
0
  6
CONTINUOUS
 62
     7
 10
244.3697159071
 20
153.2454024373
 30
0.0
  0
VERTEX
  5
3D5
  8
0
  6
CONTINUOUS
 62
     7
 10
244.2475128237
 20
153.1351333573
 30
0.0
  0
VERTEX
  5
3D6
  8
0
  6
CONTINUOUS
 62
     7
 10
244.1363517396
 20
153.0246145002
 30
0.0
  0
VERTEX
  5
3D7
  8
0
  6
CONTINUOUS
 62
     7
 10
244.0375480753
 20
152.9145180506
 30
0.0
  0
VERTEX
  5
3D8
  8
0
  6
CONTINUOUS
 62
     7
 10
243.9487161074
 20
152.8005337584
 30
0.0
  0
VERTEX
  5
3D9
  8
0
  6
CONTINUOUS
 62
     7
 10
243.8743754171
 20
152.6869074791
 30
0.0
  0
VERTEX
  5
3DA
  8
0
  6
CONTINUOUS
 62
     7
 10
243.815580439
 20
152.5745137031
 30
0.0
  0
VERTEX
  5
3DB
  8
0
  6
CONTINUOUS
 62
     7
 10
243.7733856072
 20
152.464226921
 30
0.0
  0
VERTEX
  5
3DC
  8
0
  6
CONTINUOUS
 62
     7
 10
243.7523450112
 20
152.3788851199
 30
0.0
  0
VERTEX
  5
3DD
  8
0
  6
CONTINUOUS
 62
     7
 10
243.7422896093
 20
152.2949378331
 30
0.0
  0
VERTEX
  5
3DE
  8
0
  6
CONTINUOUS
 62
     7
 10
243.743556302
 20
152.2130730899
 30
0.0
  0
VERTEX
  5
3DF
  8
0
  6
CONTINUOUS
 62
     7
 10
243.7564819896
 20
152.1339789195
 30
0.0
  0
VERTEX
  5
3E0
  8
0
  6
CONTINUOUS
 62
     7
 10
243.7814035723
 20
152.0583433515
 30
0.0
  0
VERTEX
  5
3E1
  8
0
  6
CONTINUOUS
 62
     7
 10
243.8157383423
 20
151.9914235332
 30
0.0
  0
VERTEX
  5
3E2
  8
0
  6
CONTINUOUS
 62
     7
 10
243.8610943886
 20
151.9281208163
 30
0.0
  0
VERTEX
  5
3E3
  8
0
  6
CONTINUOUS
 62
     7
 10
243.9174581018
 20
151.8693466476
 30
0.0
  0
VERTEX
  5
3E4
  8
0
  6
CONTINUOUS
 62
     7
 10
243.9848158729
 20
151.8160124736
 30
0.0
  0
VERTEX
  5
3E5
  8
0
  6
CONTINUOUS
 62
     7
 10
244.0731376595
 20
151.763877416
 30
0.0
  0
VERTEX
  5
3E6
  8
0
  6
CONTINUOUS
 62
     7
 10
244.1753499313
 20
151.7203727542
 30
0.0
  0
VERTEX
  5
3E7
  8
0
  6
CONTINUOUS
 62
     7
 10
244.2902763995
 20
151.6870657789
 30
0.0
  0
VERTEX
  5
3E8
  8
0
  6
CONTINUOUS
 62
     7
 10
244.4026438956
 20
151.6671145746
 30
0.0
  0
VERTEX
  5
3E9
  8
0
  6
CONTINUOUS
 62
     7
 10
244.5238209458
 20
151.656821451
 30
0.0
  0
VERTEX
  5
3EA
  8
0
  6
CONTINUOUS
 62
     7
 10
244.651679746
 20
151.6568398819
 30
0.0
  0
VERTEX
  5
3EB
  8
0
  6
CONTINUOUS
 62
     7
 10
244.7550446293
 20
151.6642950913
 30
0.0
  0
SEQEND
  5
3A1
  8
0
  6
CONTINUOUS
 62
     7
  0
LINE
  5
238
  8
0
  6
CONTINUOUS
 62
     7
 10
252.3664947774
 20
157.9628626365
 30
0.0
 11
252.2138118839
 21
157.9628626365
 31
0.0
  0
ARC
  5
239
  8
0
  6
CONTINUOUS
 62
     7
 10
241.3412011305
 20
161.2328626365
 30
0.0
 40
11.50000000000002
 50
113.2061738491
 51
343.4801310318
  0
ARC
  5
23A
  8
0
  6
CONTINUOUS
 62
     7
 10
245.7227685571
 20
169.0386543251
 30
0.0
 40
9.33170470463022
 50
162.7722556397
 51
179.6892163115
  0
LINE
  5
23B
  8
0
  6
CONTINUOUS
 62
     7
 10
236.3912011305
 20
161.6328626365
 30
0.0
 11
236.3912011305
 21
169.0892710968
 31
0.0
  0
LINE
  5
23C
  8
0
  6
CONTINUOUS
 62
     7
 10
236.4623705536
 20
161.6328626365
 30
0.0
 11
236.3912011305
 21
161.6328626365
 31
0.0
  0
ARC
  5
23D
  8
0
  6
CONTINUOUS
 62
     7
 10
241.3412011305
 20
161.2328626365
 30
0.0
 40
4.895200486026723
 50
175.3129819851
 51
318.0870135611
  0
LINE
  5
23E
  8
0
  6
CONTINUOUS
 62
     7
 10
244.3943556699
 20
161.6328626365
 30
0.0
 11
236.4623705536
 21
161.6328626365
 31
0.0
  0
LINE
  5
23F
  8
0
  6
CONTINUOUS
 62
     7
 10
244.6484020872
 20
159.7978626365
 30
0.0
 11
244.3999113741
 21
161.5936770832
 31
0.0
  0
LINE
  5
240
  8
0
  6
CONTINUOUS
 62
     7
 10
244.6484020872
 20
159.7978626365
 30
0.0
 11
244.6484020872
 21
157.9628626365
 31
0.0
  0
LINE
  5
241
  8
0
  6
CONTINUOUS
 62
     7
 10
244.9840143015
 20
157.9628626365
 30
0.0
 11
244.6484020872
 21
157.9628626365
 31
0.0
  0
ARC
  5
242
  8
0
  6
CONTINUOUS
 62
     7
 10
241.3412847312
 20
161.2341206435
 30
0.0
 40
11.49887673104809
 50
3.4837878041
 51
113.2090266756
  0
POLYLINE
  5
243
  8
0
  6
CONTINUOUS
 62
     7
 66
     1
 10
0.0
 20
0.0
 30
0.0
  0
VERTEX
  5
3ED
  8
0
  6
CONTINUOUS
 62
     7
 10
244.3342284264
 20
163.3433910027
 30
0.0
  0
VERTEX
  5
3EE
  8
0
  6
CONTINUOUS
 62
     7
 10
244.3263537614
 20
163.5097616937
 30
0.0
  0
VERTEX
  5
3EF
  8
0
  6
CONTINUOUS
 62
     7
 10
244.3030610968
 20
163.6745559738
 30
0.0
  0
VERTEX
  5
3F0
  8
0
  6
CONTINUOUS
 62
     7
 10
244.2648474283
 20
163.8346701861
 30
0.0
  0
VERTEX
  5
3F1
  8
0
  6
CONTINUOUS
 62
     7
 10
244.2119594091
 20
163.9884840062
 30
0.0
  0
VERTEX
  5
3F2
  8
0
  6
CONTINUOUS
 62
     7
 10
244.1452385574
 20
164.1346780983
 30
0.0
  0
VERTEX
  5
3F3
  8
0
  6
CONTINUOUS
 62
     7
 10
244.0660894028
 20
164.2705478109
 30
0.0
  0
VERTEX
  5
3F4
  8
0
  6
CONTINUOUS
 62
     7
 10
243.9749474619
 20
164.3950876004
 30
0.0
  0
VERTEX
  5
3F5
  8
0
  6
CONTINUOUS
 62
     7
 10
243.8732705868
 20
164.5068988519
 30
0.0
  0
VERTEX
  5
3F6
  8
0
  6
CONTINUOUS
 62
     7
 10
243.7631318848
 20
164.6040097906
 30
0.0
  0
VERTEX
  5
3F7
  8
0
  6
CONTINUOUS
 62
     7
 10
243.6442739774
 20
164.6862513441
 30
0.0
  0
VERTEX
  5
3F8
  8
0
  6
CONTINUOUS
 62
     7
 10
243.5192760256
 20
164.7520322588
 30
0.0
  0
VERTEX
  5
3F9
  8
0
  6
CONTINUOUS
 62
     7
 10
243.3905529376
 20
164.8003145813
 30
0.0
  0
VERTEX
  5
3FA
  8
0
  6
CONTINUOUS
 62
     7
 10
243.256676533
 20
164.8310160331
 30
0.0
  0
VERTEX
  5
3FB
  8
0
  6
CONTINUOUS
 62
     7
 10
243.1215460207
 20
164.8430978218
 30
0.0
  0
VERTEX
  5
3FC
  8
0
  6
CONTINUOUS
 62
     7
 10
242.9876080878
 20
164.8364905214
 30
0.0
  0
VERTEX
  5
3FD
  8
0
  6
CONTINUOUS
 62
     7
 10
242.85280659
 20
164.8102581408
 30
0.0
  0
VERTEX
  5
3FE
  8
0
  6
CONTINUOUS
 62
     7
 10
242.7216691035
 20
164.7648757934
 30
0.0
  0
VERTEX
  5
3FF
  8
0
  6
CONTINUOUS
 62
     7
 10
242.5964949545
 20
164.7011825224
 30
0.0
  0
VERTEX
  5
400
  8
0
  6
CONTINUOUS
 62
     7
 10
242.505888056
 20
164.6405585597
 30
0.0
  0
VERTEX
  5
401
  8
0
  6
CONTINUOUS
 62
     7
 10
242.419637969
 20
164.5697399803
 30
0.0
  0
VERTEX
  5
402
  8
0
  6
CONTINUOUS
 62
     7
 10
242.3386155262
 20
164.4894705772
 30
0.0
  0
VERTEX
  5
403
  8
0
  6
CONTINUOUS
 62
     7
 10
242.26369156
 20
164.4004941432
 30
0.0
  0
VERTEX
  5
404
  8
0
  6
CONTINUOUS
 62
     7
 10
242.1959792221
 20
164.3041526389
 30
0.0
  0
VERTEX
  5
405
  8
0
  6
CONTINUOUS
 62
     7
 10
242.1347223614
 20
164.1998007423
 30
0.0
  0
VERTEX
  5
406
  8
0
  6
CONTINUOUS
 62
     7
 10
242.0805986714
 20
164.0885961916
 30
0.0
  0
VERTEX
  5
407
  8
0
  6
CONTINUOUS
 62
     7
 10
242.0342858453
 20
163.9716967255
 30
0.0
  0
VERTEX
  5
408
  8
0
  6
CONTINUOUS
 62
     7
 10
241.9975602937
 20
163.8547306939
 30
0.0
  0
VERTEX
  5
409
  8
0
  6
CONTINUOUS
 62
     7
 10
241.9683625413
 20
163.7333154106
 30
0.0
  0
VERTEX
  5
40A
  8
0
  6
CONTINUOUS
 62
     7
 10
241.9470113701
 20
163.6088580633
 30
0.0
  0
VERTEX
  5
40B
  8
0
  6
CONTINUOUS
 62
     7
 10
241.9338255622
 20
163.4827658397
 30
0.0
  0
VERTEX
  5
40C
  8
0
  6
CONTINUOUS
 62
     7
 10
241.9290987391
 20
163.3208234564
 30
0.0
  0
VERTEX
  5
40D
  8
0
  6
CONTINUOUS
 62
     7
 10
241.9376774957
 20
163.1586486848
 30
0.0
  0
VERTEX
  5
40E
  8
0
  6
CONTINUOUS
 62
     7
 10
241.9593792198
 20
162.9993715667
 30
0.0
  0
VERTEX
  5
40F
  8
0
  6
CONTINUOUS
 62
     7
 10
241.9935448353
 20
162.8467789282
 30
0.0
  0
VERTEX
  5
410
  8
0
  6
CONTINUOUS
 62
     7
 10
242.0398557586
 20
162.6997978727
 30
0.0
  0
VERTEX
  5
411
  8
0
  6
CONTINUOUS
 62
     7
 10
242.0974398757
 20
162.5609413424
 30
0.0
  0
VERTEX
  5
412
  8
0
  6
CONTINUOUS
 62
     7
 10
242.1679115046
 20
162.4280077262
 30
0.0
  0
VERTEX
  5
413
  8
0
  6
CONTINUOUS
 62
     7
 10
242.2490748699
 20
162.3057848044
 30
0.0
  0
VERTEX
  5
414
  8
0
  6
CONTINUOUS
 62
     7
 10
242.3395532206
 20
162.1961782155
 30
0.0
  0
VERTEX
  5
415
  8
0
  6
CONTINUOUS
 62
     7
 10
242.4436887752
 20
162.0958355315
 30
0.0
  0
VERTEX
  5
416
  8
0
  6
CONTINUOUS
 62
     7
 10
242.553785314
 20
162.0128626365
 30
0.0
  0
SEQEND
  5
3EC
  8
0
  6
CONTINUOUS
 62
     7
  0
ARC
  5
244
  8
0
  6
CONTINUOUS
 62
     7
 10
242.776616933
 20
163.2952670886
 30
0.0
 40
1.558354733472612
 50
304.6216202426
 51
1.7696456086
  0
LINE
  5
245
  8
0
  6
CONTINUOUS
 62
     7
 10
237.9207037099
 20
161.6328626365
 30
0.0
 11
237.1893078136
 21
161.6328626365
 31
0.0
  0
POLYLINE
  5
246
  8
0
  6
CONTINUOUS
 62
     7
 66
     1
 10
0.0
 20
0.0
 30
0.0
  0
VERTEX
  5
418
  8
0
  6
CONTINUOUS
 62
     7
 10
252.3664947774
 20
157.9628626365
 30
0.0
  0
VERTEX
  5
419
  8
0
  6
CONTINUOUS
 62
     7
 10
252.4309107015
 20
158.188467519
 30
0.0
  0
VERTEX
  5
41A
  8
0
  6
CONTINUOUS
 62
     7
 10
252.4478158056
 20
158.2507307716
 30
0.0
  0
SEQEND
  5
417
  8
0
  6
CONTINUOUS
 62
     7
  0
ARC
  5
247
  8
0
  6
CONTINUOUS
 62
     7
 10
241.5135356642
 20
161.7181003408
 30
0.0
 40
2.73575766335439
 50
67.2148887759
 51
74.7433380788
  0
ARC
  5
248
  8
0
  6
CONTINUOUS
 62
     7
 10
241.649552842
 20
163.1458288931
 30
0.0
 40
1.432071328911895
 50
308.41388563
 51
49.84531021
  0
CIRCLE
  5
249
  8
0
  6
CONTINUOUS
 62
     7
 10
241.3412011305
 20
161.2328626365
 30
0.0
 40
12.5
  0
LINE
  5
24A
  8
0
  6
CONTINUOUS
 62
     7
 10
244.9149169063
 20
161.9328626365
 30
0.0
 11
246.1856576593
 21
161.9328626365
 31
0.0
  0
LINE
  5
24B
  8
0
  6
CONTINUOUS
 62
     7
 10
246.030438508
 20
160.0128626365
 30
0.0
 11
246.0123093226
 21
160.0128626365
 31
0.0
  0
ARC
  5
24C
  8
0
  6
CONTINUOUS
 62
     7
 10
247.7619388055
 20
158.2056220812
 30
0.0
 40
2.515416814816546
 50
134.072054179
 51
168.7997146247
  0
ARC
  5
24D
  8
0
  6
CONTINUOUS
 62
     7
 10
245.1199479529
 20
158.5766114292
 30
0.0
 40
0.2104152346461558
 50
33.9804886601
 51
66.9691101517
  0
POLYLINE
  5
24E
  8
0
  6
CONTINUOUS
 62
     7
 66
     1
 10
0.0
 20
0.0
 30
0.0
  0
VERTEX
  5
41C
  8
0
  6
CONTINUOUS
 62
     7
 10
252.7745481256
 20
158.7702553208
 30
0.0
  0
VERTEX
  5
41D
  8
0
  6
CONTINUOUS
 62
     7
 10
252.786648952
 20
158.7652192143
 30
0.0
  0
VERTEX
  5
41E
  8
0
  6
CONTINUOUS
 62
     7
 10
252.7965366047
 20
158.7549993461
 30
0.0
  0
VERTEX
  5
41F
  8
0
  6
CONTINUOUS
 62
     7
 10
252.8041353388
 20
158.739674006
 30
0.0
  0
VERTEX
  5
420
  8
0
  6
CONTINUOUS
 62
     7
 10
252.8093869438
 20
158.7193605948
 30
0.0
  0
VERTEX
  5
421
  8
0
  6
CONTINUOUS
 62
     7
 10
252.8122511894
 20
158.6942147243
 30
0.0
  0
SEQEND
  5
41B
  8
0
  6
CONTINUOUS
 62
     7
  0
LINE
  5
24F
  8
0
  6
CONTINUOUS
 62
     7
 10
252.8122511894
 20
158.6942147243
 30
0.0
 11
252.2112585781
 21
157.9628626365
 31
0.0
  0
LINE
  5
250
  8
0
  6
CONTINUOUS
 62
     7
 10
245.3156046182
 20
157.9628626365
 30
0.0
 11
252.2112585781
 21
157.9628626365
 31
0.0
  0
LINE
  5
251
  8
0
  6
CONTINUOUS
 62
     7
 10
245.3156046182
 20
157.9628626365
 30
0.0
 11
245.2944301467
 21
158.6942147243
 31
0.0
  0
LINE
  5
252
  8
0
  6
CONTINUOUS
 62
     7
 10
246.030438508
 20
160.0128626365
 30
0.0
 11
252.7745481256
 21
158.7702553208
 31
0.0
  0
LINE
  5
253
  8
0
  6
CONTINUOUS
 62
     7
 10
246.1856576593
 20
161.9328626365
 30
0.0
 11
253.0618993654
 21
161.9328626365
 31
0.0
  0
LINE
  5
254
  8
0
  6
CONTINUOUS
 62
     7
 10
238.0386752003
 20
161.9328626365
 30
0.0
 11
244.9149169063
 21
161.9328626365
 31
0.0
  0
LINE
  5
255
  8
0
  6
CONTINUOUS
 62
     7
 10
244.6484020872
 20
158.8684575624
 30
0.0
 11
245.2022681461
 21
158.7702553208
 31
0.0
  0
LINE
  5
256
  8
0
  6
CONTINUOUS
 62
     7
 10
244.9840143015
 20
157.9628626365
 30
0.0
 11
245.3156046182
 21
157.9628626365
 31
0.0
  0
LINE
  5
257
  8
0
  6
CONTINUOUS
 62
     7
 10
248.1138759682
 20
162.0128626365
 30
0.0
 11
248.3271041384
 21
161.9328626365
 31
0.0
  0
LINE
  5
258
  8
0
  6
CONTINUOUS
 62
     7
 10
245.5502872828
 20
161.9328626365
 30
0.0
 11
245.5502872828
 21
162.0128626365
 31
0.0
  0
LINE
  5
259
  8
0
  6
CONTINUOUS
 62
     7
 10
245.5502872828
 20
162.0128626365
 30
0.0
 11
248.1138759682
 21
162.0128626365
 31
0.0
  0
LINE
  5
25A
  8
0
  6
CONTINUOUS
 62
     7
 10
242.9866985975
 20
162.0128626365
 30
0.0
 11
242.7734704273
 21
161.9328626365
 31
0.0
  0
LINE
  5
25B
  8
0
  6
CONTINUOUS
 62
     7
 10
242.9866985975
 20
162.0128626365
 30
0.0
 11
245.5502872828
 21
162.0128626365
 31
0.0
  0
LINE
  5
25C
  8
0
  6
CONTINUOUS
 62
     7
 10
239.2313206046
 20
161.9328626365
 30
0.0
 11
239.7165458725
 21
162.0128626365
 31
0.0
  0
LINE
  5
25D
  8
0
  6
CONTINUOUS
 62
     7
 10
239.7165458725
 20
162.0128626365
 30
0.0
 11
242.9866985975
 21
162.0128626365
 31
0.0
  0
LINE
  5
25E
  8
0
  6
CONTINUOUS
 62
     7
 10
251.8692539611
 20
161.9328626365
 30
0.0
 11
251.3840286932
 21
162.0128626365
 31
0.0
  0
LINE
  5
25F
  8
0
  6
CONTINUOUS
 62
     7
 10
248.1138759682
 20
162.0128626365
 30
0.0
 11
251.3840286932
 21
162.0128626365
 31
0.0
  0
ARC
  5
260
  8
0
  6
CONTINUOUS
 62
     7
 10
250.9904458042
 20
159.0774693654
 30
0.0
 40
1.861681761580926
 50
348.1198749243
 51
353.0399453743
  0
LINE
  5
261
  8
0
  6
CONTINUOUS
 62
     7
 10
253.0618993654
 20
161.9328626365
 30
0.0
 11
253.1601915047
 21
161.9328626365
 31
0.0
  0
LINE
  5
262
  8
0
  6
CONTINUOUS
 62
     7
 10
237.940383061
 20
161.9328626365
 30
0.0
 11
238.0386752003
 21
161.9328626365
 31
0.0
  0
CIRCLE
  5
263
  8
0
  6
CONTINUOUS
 62
     7
 10
241.3412011305
 20
161.2328626365
 30
0.0
 40
12.08600000000001
  0
ARC
  5
264
  8
0
  6
CONTINUOUS
 62
     7
 10
246.1814561475
 20
161.8851317777
 30
0.0
 40
0.0479154212044291
 50
349.9487770162
 51
84.969501515
  0
LINE
  5
265
  8
0
  6
CONTINUOUS
 62
     7
 10
246.2286361684
 20
161.8767691693
 30
0.0
 11
244.8719383972
 21
161.8767691693
 31
0.0
  0
ARC
  5
266
  8
0
  6
CONTINUOUS
 62
     7
 10
244.9191184181
 20
161.8851317777
 30
0.0
 40
0.0479154212044291
 50
95.030498485
 51
190.0512229838
  0
LINE
  5
267
  8
0
  6
CONTINUOUS
 62
     7
 10
245.2022681461
 20
158.7702553208
 30
0.0
 11
244.8719383972
 21
161.8767691693
 31
0.0
  0
LINE
  5
268
  8
0
  6
CONTINUOUS
 62
     7
 10
246.030438508
 20
160.0128626365
 30
0.0
 11
246.2286361684
 21
161.8767691693
 31
0.0
  0
LINE
  5
269
  8
0
  6
CONTINUOUS
 62
     7
 10
253.1048778745
 20
161.8767691693
 30
0.0
 11
246.2286361684
 21
161.8767691693
 31
0.0
  0
LINE
  5
26A
  8
0
  6
CONTINUOUS
 62
     7
 10
252.7745481256
 20
158.7702553208
 30
0.0
 11
253.1048778745
 21
161.8767691693
 31
0.0
  0
ARC
  5
26B
  8
0
  6
CONTINUOUS
 62
     7
 10
253.0576978536
 20
161.8851317777
 30
0.0
 40
0.0479154212045029
 50
349.9487770163
 51
84.9695015148
  0
LINE
  5
26C
  8
0
  6
CONTINUOUS
 62
     7
 10
244.8719383972
 20
161.8767691693
 30
0.0
 11
237.9956966912
 21
161.8767691693
 31
0.0
  0
ARC
  5
26D
  8
0
  6
CONTINUOUS
 62
     7
 10
238.0428767121
 20
161.8851317777
 30
0.0
 40
0.0479154212044291
 50
95.030498485
 51
190.0512229838
  0
LINE
  5
26E
  8
0
  6
CONTINUOUS
 62
     7
 10
238.0216323823
 20
161.6328626365
 30
0.0
 11
237.9956966912
 21
161.8767691693
 31
0.0
  0
LINE
  5
26F
  8
0
  6
CONTINUOUS
 62
     7
 10
253.2098188123
 20
161.8767691693
 30
0.0
 11
253.1048778745
 21
161.8767691693
 31
0.0
  0
LINE
  5
270
  8
0
  6
CONTINUOUS
 62
     7
 10
237.9956966912
 20
161.8767691693
 30
0.0
 11
237.8907557534
 21
161.8767691693
 31
0.0
  0
INSERT
  5
27C
  8
DÜNNE_LINIE
 62
     7
  2
SW_CENTERMARKSYMBOL_0
 10
241.3412011305
 20
161.2328626365
 30
0.0
  0
ENDSEC
  0
EOF
