  0
SECTION
  2
HEADER
  9
$ACADVER
  1
AC1009
  9
$DWGCODEPAGE
  3
ansi_1252
  9
$INSBASE
 10
0.0
 20
0.0
 30
0.0
  9
$EXTMIN
 10
0.0
 20
0.0
 30
0.0
  9
$EXTMAX
 10
297.0
 20
210.0
 30
0.0
  9
$LIMMIN
 10
0.0
 20
0.0
  9
$LIMMAX
 10
297.0
 20
210.0
  9
$ORTHOMODE
 70
     0
  9
$REGENMODE
 70
     1
  9
$FILLMODE
 70
     1
  9
$QTEXTMODE
 70
     0
  9
$MIRRTEXT
 70
     1
  9
$DRAGMODE
 70
     2
  9
$LTSCALE
 40
1.0
  9
$OSMODE
 70
    37
  9
$ATTMODE
 70
     1
  9
$TEXTSIZE
 40
3.5
  9
$TRACEWID
 40
1.0
  9
$TEXTSTYLE
  7
STANDARD
  9
$CLAYER
  8
0
  9
$CELTYPE
  6
BYLAYER
  9
$CECOLOR
 62
   256
  9
$DIMSCALE
 40
1.0
  9
$DIMASZ
 40
4.0
  9
$DIMEXO
 40
1.0
  9
$DIMDLI
 40
3.75
  9
$DIMRND
 40
0.0
  9
$DIMDLE
 40
0.0
  9
$DIMEXE
 40
1.0
  9
$DIMTP
 40
0.0
  9
$DIMTM
 40
0.0
  9
$DIMTXT
 40
3.8805555556
  9
$DIMCEN
 40
2.5
  9
$DIMTSZ
 40
0.0
  9
$DIMTOL
 70
     0
  9
$DIMLIM
 70
     0
  9
$DIMTIH
 70
     1
  9
$DIMTOH
 70
     1
  9
$DIMSE1
 70
     0
  9
$DIMSE2
 70
     0
  9
$DIMTAD
 70
     1
  9
$DIMZIN
 70
     0
  9
$DIMBLK
  1

  9
$DIMASO
 70
     1
  9
$DIMSHO
 70
     1
  9
$DIMPOST
  1

  9
$DIMAPOST
  1

  9
$DIMALT
 70
     0
  9
$DIMALTD
 70
     3
  9
$DIMALTF
 40
0.0393700787
  9
$DIMLFAC
 40
0.6666666667
  9
$DIMTOFL
 70
     1
  9
$DIMTVP
 40
0.0
  9
$DIMTIX
 70
     0
  9
$DIMSOXD
 70
     0
  9
$DIMSAH
 70
     0
  9
$DIMBLK1
  1

  9
$DIMBLK2
  1

  9
$DIMSTYLE
  2
ISO-25
  9
$DIMCLRD
 70
     0
  9
$DIMCLRE
 70
     0
  9
$DIMCLRT
 70
     0
  9
$DIMTFAC
 40
1.0
  9
$DIMGAP
 40
1.524
  9
$LUNITS
 70
     2
  9
$LUPREC
 70
     3
  9
$SKETCHINC
 40
1.0
  9
$FILLETRAD
 40
10.0
  9
$AUNITS
 70
     0
  9
$AUPREC
 70
     3
  9
$MENU
  1
.
  9
$ELEVATION
 40
0.0
  9
$PELEVATION
 40
0.0
  9
$THICKNESS
 40
0.0
  9
$LIMCHECK
 70
     0
  9
$CHAMFERA
 40
0.0
  9
$CHAMFERB
 40
0.0
  9
$SKPOLY
 70
     0
  9
$TDCREATE
 40
2457371.670405498
  9
$TDUPDATE
 40
2457371.670408021
  9
$TDINDWG
 40
0.0000000116
  9
$TDUSRTIMER
 40
0.0000000116
  9
$USRTIMER
 70
     1
  9
$ANGBASE
 50
0.0
  9
$ANGDIR
 70
     0
  9
$PDMODE
 70
     0
  9
$PDSIZE
 40
-1.0
  9
$PLINEWID
 40
0.0
  9
$COORDS
 70
     1
  9
$SPLFRAME
 70
     0
  9
$SPLINETYPE
 70
     6
  9
$SPLINESEGS
 70
     8
  9
$ATTDIA
 70
     0
  9
$ATTREQ
 70
     1
  9
$HANDLING
 70
     1
  9
$HANDSEED
  5
5FE
  9
$SURFTAB1
 70
     6
  9
$SURFTAB2
 70
     6
  9
$SURFTYPE
 70
     6
  9
$SURFU
 70
     6
  9
$SURFV
 70
     6
  9
$UCSNAME
  2

  9
$UCSORG
 10
0.0
 20
0.0
 30
0.0
  9
$UCSXDIR
 10
1.0
 20
0.0
 30
0.0
  9
$UCSYDIR
 10
0.0
 20
1.0
 30
0.0
  9
$PUCSNAME
  2

  9
$PUCSORG
 10
0.0
 20
0.0
 30
0.0
  9
$PUCSXDIR
 10
1.0
 20
0.0
 30
0.0
  9
$PUCSYDIR
 10
0.0
 20
1.0
 30
0.0
  9
$USERI1
 70
     0
  9
$USERI2
 70
     0
  9
$USERI3
 70
     0
  9
$USERI4
 70
     0
  9
$USERI5
 70
     0
  9
$USERR1
 40
0.0
  9
$USERR2
 40
0.0
  9
$USERR3
 40
0.0
  9
$USERR4
 40
0.0
  9
$USERR5
 40
0.0
  9
$WORLDVIEW
 70
     1
  9
$SHADEDGE
 70
     3
  9
$SHADEDIF
 70
    70
  9
$TILEMODE
 70
     1
  9
$MAXACTVP
 70
    64
  9
$PLIMCHECK
 70
     0
  9
$PEXTMIN
 10
1.0000000000E+20
 20
1.0000000000E+20
 30
1.0000000000E+20
  9
$PEXTMAX
 10
-1.0000000000E+20
 20
-1.0000000000E+20
 30
-1.0000000000E+20
  9
$PLIMMIN
 10
0.0
 20
0.0
  9
$PLIMMAX
 10
420.0
 20
297.0
  9
$UNITMODE
 70
     0
  9
$VISRETAIN
 70
     1
  9
$PLINEGEN
 70
     0
  9
$PSLTSCALE
 70
     1
  0
ENDSEC
  0
SECTION
  2
TABLES
  0
TABLE
  2
VPORT
 70
     1
  0
VPORT
  2
*ACTIVE
 70
     0
 10
0.0
 20
0.0
 11
1.0
 21
1.0
 12
148.5
 22
105.0
 13
0.0
 23
0.0
 14
10.0
 24
10.0
 15
10.0
 25
10.0
 16
0.0
 26
0.0
 36
1.0
 17
0.0
 27
0.0
 37
0.0
 40
210.0
 41
1.4142857143
 42
50.0
 43
0.0
 44
0.0
 50
0.0
 51
0.0
 71
     0
 72
  2000
 73
     1
 74
     3
 75
     0
 76
     0
 77
     0
 78
     0
  0
ENDTAB
  0
TABLE
  2
LTYPE
 70
     6
  0
LTYPE
  2
CONTINUOUS
 70
     0
  3
Solid line
 72
    65
 73
     0
 40
0.0
  0
LTYPE
  2
HIDDEN
 70
     0
  3
Hidden __ __ __ __ __ __ __ __ __ __ __ __ __ __
 72
    65
 73
     2
 40
1.905
 49
1.27
 49
-0.635
  0
LTYPE
  2
PHANTOM
 70
     0
  3
Phantom ______  __  __  ______  __  __  ______
 72
    65
 73
     6
 40
12.7
 49
6.35
 49
-1.27
 49
1.27
 49
-1.27
 49
1.27
 49
-1.27
  0
LTYPE
  2
CENTER
 70
     0
  3
Center ____ _ ____ _ ____ _ ____ _ ____ _ ____
 72
    65
 73
     4
 40
10.16
 49
6.35
 49
-1.27
 49
1.27
 49
-1.27
  0
LTYPE
  2
CENTERX2
 70
     0
  3
Center (2x) ________  __  ________  __  _____
 72
    65
 73
     4
 40
20.32
 49
12.7
 49
-2.54
 49
2.54
 49
-2.54
  0
LTYPE
  2
DOT2
 70
     0
  3
Dot (.5x) ........................................
 72
    65
 73
     2
 40
0.635
 49
0.0
 49
-0.635
  0
ENDTAB
  0
TABLE
  2
LAYER
 70
     1
  0
LAYER
  2
0
 70
     0
 62
     7
  6
CONTINUOUS
  0
ENDTAB
  0
TABLE
  2
STYLE
 70
     1
  0
STYLE
  2
STANDARD
 70
     0
 40
0.0
 41
1.0
 50
0.0
 71
     0
 42
3.5
  3
txt
  4

  0
ENDTAB
  0
TABLE
  2
VIEW
 70
     0
  0
ENDTAB
  0
TABLE
  2
UCS
 70
     0
  0
ENDTAB
  0
TABLE
  2
APPID
 70
     1
  0
APPID
  2
ACAD
 70
     0
  0
ENDTAB
  0
TABLE
  2
DIMSTYLE
 70
     2
  0
DIMSTYLE
  2
ISO-25
 70
     0
  3

  4

  5

  6

  7

 40
1.0
 41
2.5
 42
0.625
 43
3.75
 44
1.25
 45
0.0
 46
0.0
 47
0.0
 48
0.0
140
2.5
141
2.5
142
0.0
143
0.0393700787
144
1.0
145
0.0
146
1.0
147
0.625
 71
     0
 72
     0
 73
     0
 74
     0
 75
     0
 76
     0
 77
     1
 78
     8
170
     0
171
     3
172
     1
173
     0
174
     0
175
     0
176
     0
177
     0
178
     0
  0
DIMSTYLE
  2
SLDDIMSTYLE0
 70
     0
  3

  4

  5

  6

  7

 40
1.0
 41
4.0
 42
0.0625
 43
0.38
 44
0.0
 45
0.000000001
 46
0.0
 47
0.0
 48
0.0
140
2.9104166667
141
0.09
142
0.0
143
25.4
144
1.0
145
0.0
146
1.0
147
0.7276041667
 71
     0
 72
     0
 73
     0
 74
     0
 75
     0
 76
     0
 77
     1
 78
    12
170
     0
171
     2
172
     0
173
     1
174
     0
175
     0
176
     0
177
     0
178
     0
  0
ENDTAB
  0
ENDSEC
  0
SECTION
  2
BLOCKS
  0
BLOCK
  8
0
  2
$MODEL_SPACE
 70
     0
 10
0.0
 20
0.0
 30
0.0
  3
$MODEL_SPACE
  1

  0
ENDBLK
  5
21
  8
0
  0
BLOCK
 67
     1
  8
0
  2
$PAPER_SPACE
 70
     0
 10
0.0
 20
0.0
 30
0.0
  3
$PAPER_SPACE
  1

  0
ENDBLK
  5
1D
 67
     1
  8
0
  0
BLOCK
  8
0
  2
SW_NOTE_0
 70
     0
 10
0.0
 20
0.0
 30
0.0
  3
SW_NOTE_0
  1

  0
TEXT
  5
76
  8
0
  6
CONTINUOUS
 62
     0
 10
-0.9346672472
 20
0.0
 30
0.0
 40
2.6458333333
  1
Z=2
 50
90.0
 41
0.7
 11
0.0
 21
0.0
 31
0.0
 73
     1
  0
TEXT
  5
77
  8
0
  6
CONTINUOUS
 62
     0
 10
3.5931106519
 20
0.0
 30
0.0
 40
2.6458333333
  1
Zeff=1
 50
90.0
 41
0.7
 11
4.5277778991
 21
0.0
 31
0.0
 73
     1
  0
ENDBLK
  5
75
  8
0
  0
BLOCK
  8
0
  2
SW_NOTE_1
 70
     0
 10
0.0
 20
0.0
 30
0.0
  3
SW_NOTE_1
  1

  0
TEXT
  5
7C
  8
0
  6
CONTINUOUS
 62
     0
 10
0.0
 20
1.6824010449
 30
0.0
 40
4.7625
  1
Wendeplatte BP0602
 41
0.7
 11
0.0
 21
0.0
 31
0.0
 73
     1
  0
TEXT
  5
7D
  8
0
  6
CONTINUOUS
 62
     0
 10
0.0
 20
-5.6675990423
 30
0.0
 40
4.7625
  1
Spannschraube SS2,0-5
 41
0.7
 11
0.0
 21
-7.3500000872
 31
0.0
 73
     1
  0
ENDBLK
  5
7B
  8
0
  0
BLOCK
  8
0
  2
_D
 70
     0
 10
0.0
 20
0.0
 30
0.0
  3
_D
  1

  0
SOLID
  5
3D7
  8
0
  6
CONTINUOUS
 62
     7
 10
61.1231074809
 20
136.6908527211
 30
0.0
 11
60.3731074809
 21
132.6908527211
 31
0.0
 12
61.8731074809
 22
132.6908527211
 32
0.0
 13
61.8731074809
 23
132.6908527211
 33
0.0
  0
SOLID
  5
3D8
  8
0
  6
CONTINUOUS
 62
     7
 10
61.1231074809
 20
117.6908527211
 30
0.0
 11
61.8731074809
 21
121.6908527211
 31
0.0
 12
60.3731074809
 22
121.6908527211
 32
0.0
 13
60.3731074809
 23
121.6908527211
 33
0.0
  0
LINE
  5
3D9
  8
0
  6
CONTINUOUS
 62
     7
 10
65.951808951
 20
136.6908527211
 30
0.0
 11
60.1231074809
 21
136.6908527211
 31
0.0
  0
LINE
  5
3DA
  8
0
  6
CONTINUOUS
 62
     7
 10
65.0268686398
 20
117.6908527211
 30
0.0
 11
60.1231074809
 21
117.6908527211
 31
0.0
  0
LINE
  5
3DB
  8
0
  6
CONTINUOUS
 62
     7
 10
61.1231074809
 20
136.6908527211
 30
0.0
 11
61.1231074809
 21
117.6908527211
 31
0.0
  0
TEXT
  5
3DC
  8
0
  6
CONTINUOUS
 62
     7
 10
60.0949732762
 20
123.2722090993
 30
0.0
 40
2.9104166667
  1
%%c
 50
90.0
 41
0.7
 11
61.1231072481
 21
123.2722090993
 31
0.0
 73
     1
  0
TEXT
  5
3DD
  8
0
  6
CONTINUOUS
 62
     7
 10
60.0949732762
 20
127.6653214793
 30
0.0
 40
2.9104166667
  1
19
 50
90.0
 41
0.7
 11
61.1231072481
 21
127.6653214793
 31
0.0
 73
     1
  0
ENDBLK
  5
3D6
  8
0
  0
BLOCK
  8
0
  2
_D_1
 70
     0
 10
0.0
 20
0.0
 30
0.0
  3
_D_1
  1

  0
SOLID
  5
3E2
  8
0
  6
CONTINUOUS
 62
     7
 10
70.0744739876
 20
96.6508363028
 30
0.0
 11
74.0744739876
 21
95.9008363028
 31
0.0
 12
74.0744739876
 22
97.4008363028
 32
0.0
 13
74.0744739876
 23
97.4008363028
 33
0.0
  0
SOLID
  5
3E3
  8
0
  6
CONTINUOUS
 62
     7
 10
154.0741774538
 20
96.6508363028
 30
0.0
 11
150.0741774538
 21
97.4008363028
 31
0.0
 12
150.0741774538
 22
95.9008363028
 32
0.0
 13
150.0741774538
 23
95.9008363028
 33
0.0
  0
LINE
  5
3E4
  8
0
  6
CONTINUOUS
 62
     7
 10
70.0744739876
 20
110.6804819524
 30
0.0
 11
70.0744739876
 21
95.6508363028
 31
0.0
  0
LINE
  5
3E5
  8
0
  6
CONTINUOUS
 62
     7
 10
154.0741774538
 20
111.6859738757
 30
0.0
 11
154.0741774538
 21
95.6508363028
 31
0.0
  0
LINE
  5
3E6
  8
0
  6
CONTINUOUS
 62
     7
 10
70.0744739876
 20
96.6508363028
 30
0.0
 11
154.0741774538
 21
96.6508363028
 31
0.0
  0
TEXT
  5
3E7
  8
0
  6
CONTINUOUS
 62
     7
 10
123.1158849637
 20
97.6789702747
 30
0.0
 40
2.9104166667
  1
84
 41
0.7
 11
123.1158849637
 21
96.6508363028
 31
0.0
 73
     1
  0
ENDBLK
  5
3E1
  8
0
  0
BLOCK
  8
0
  2
_D_2
 70
     0
 10
0.0
 20
0.0
 30
0.0
  3
_D_2
  1

  0
SOLID
  5
3EC
  8
0
  6
CONTINUOUS
 62
     7
 10
70.0744739876
 20
86.51205424
 30
0.0
 11
74.0744739876
 21
85.76205424
 31
0.0
 12
74.0744739876
 22
87.26205424
 32
0.0
 13
74.0744739876
 23
87.26205424
 33
0.0
  0
SOLID
  5
3ED
  8
0
  6
CONTINUOUS
 62
     7
 10
210.0741774538
 20
86.51205424
 30
0.0
 11
206.0741774538
 21
87.26205424
 31
0.0
 12
206.0741774538
 22
85.76205424
 32
0.0
 13
206.0741774538
 23
85.76205424
 33
0.0
  0
LINE
  5
3EE
  8
0
  6
CONTINUOUS
 62
     7
 10
70.0744739876
 20
110.6804819524
 30
0.0
 11
70.0744739876
 21
85.51205424
 31
0.0
  0
LINE
  5
3EF
  8
0
  6
CONTINUOUS
 62
     7
 10
210.0741774538
 20
114.7859738757
 30
0.0
 11
210.0741774538
 21
85.51205424
 31
0.0
  0
LINE
  5
3F0
  8
0
  6
CONTINUOUS
 62
     7
 10
70.0744739876
 20
86.51205424
 30
0.0
 11
210.0741774538
 21
86.51205424
 31
0.0
  0
TEXT
  5
3F1
  8
0
  6
CONTINUOUS
 62
     7
 10
145.8606238425
 20
87.5401882119
 30
0.0
 40
2.9104166667
  1
140
 41
0.7
 11
145.8606238425
 21
86.51205424
 31
0.0
 73
     1
  0
ENDBLK
  5
3EB
  8
0
  0
BLOCK
  8
0
  2
_D_3
 70
     0
 10
0.0
 20
0.0
 30
0.0
  3
_D_3
  1

  0
SOLID
  5
3F6
  8
0
  6
CONTINUOUS
 62
     7
 10
127.0744739876
 20
107.2534801202
 30
0.0
 11
123.0744739876
 21
108.0034801202
 31
0.0
 12
123.0744739876
 22
106.5034801202
 32
0.0
 13
123.0744739876
 23
106.5034801202
 33
0.0
  0
SOLID
  5
3F7
  8
0
  6
CONTINUOUS
 62
     7
 10
70.0744739876
 20
107.2534801202
 30
0.0
 11
74.0744739876
 21
106.5034801202
 31
0.0
 12
74.0744739876
 22
108.0034801202
 32
0.0
 13
74.0744739876
 23
108.0034801202
 33
0.0
  0
LINE
  5
3F8
  8
0
  6
CONTINUOUS
 62
     7
 10
127.0744739876
 20
112.7316140179
 30
0.0
 11
127.0744739876
 21
106.2534801202
 31
0.0
  0
LINE
  5
3F9
  8
0
  6
CONTINUOUS
 62
     7
 10
70.0744739876
 20
110.6804819524
 30
0.0
 11
70.0744739876
 21
106.2534801202
 31
0.0
  0
LINE
  5
3FA
  8
0
  6
CONTINUOUS
 62
     7
 10
127.0744739876
 20
107.2534801202
 30
0.0
 11
70.0744739876
 21
107.2534801202
 31
0.0
  0
TEXT
  5
3FB
  8
0
  6
CONTINUOUS
 62
     7
 10
98.5579830939
 20
108.2816140921
 30
0.0
 40
2.9104166667
  1
57
 50
0.0
 41
0.7
 11
98.5579830939
 21
107.2534801202
 31
0.0
 73
     1
  0
ENDBLK
  5
3F5
  8
0
  0
BLOCK
  8
0
  2
_D_4
 70
     0
 10
0.0
 20
0.0
 30
0.0
  3
_D_4
  1

  0
SOLID
  5
400
  8
0
  6
CONTINUOUS
 62
     7
 10
230.7082943793
 20
142.1859738757
 30
0.0
 11
229.9582943793
 21
138.1859738757
 31
0.0
 12
231.4582943793
 22
138.1859738757
 32
0.0
 13
231.4582943793
 23
138.1859738757
 33
0.0
  0
SOLID
  5
401
  8
0
  6
CONTINUOUS
 62
     7
 10
230.7082943793
 20
112.1859738757
 30
0.0
 11
231.4582943793
 21
116.1859738757
 31
0.0
 12
229.9582943793
 22
116.1859738757
 32
0.0
 13
229.9582943793
 23
116.1859738757
 33
0.0
  0
LINE
  5
402
  8
0
  6
CONTINUOUS
 62
     7
 10
154.5741774538
 20
142.1859738757
 30
0.0
 11
231.7082943793
 21
142.1859738757
 31
0.0
  0
LINE
  5
403
  8
0
  6
CONTINUOUS
 62
     7
 10
154.5741774538
 20
112.1859738757
 30
0.0
 11
231.7082943793
 21
112.1859738757
 31
0.0
  0
LINE
  5
404
  8
0
  6
CONTINUOUS
 62
     7
 10
230.7082943793
 20
142.1859738757
 30
0.0
 11
230.7082943793
 21
112.1859738757
 31
0.0
  0
TEXT
  5
405
  8
0
  6
CONTINUOUS
 62
     7
 10
229.6801601746
 20
122.1203484883
 30
6.0090621718
 40
2.9104166667
  1
%%c
 50
90.0
 41
0.7
 11
230.7082941464
 21
122.1203484883
 31
6.0090621718
 73
     1
  0
TEXT
  5
406
  8
0
  6
CONTINUOUS
 62
     7
 10
229.6801601746
 20
126.5134608683
 30
6.0090621718
 40
2.9104166667
  1
30
 50
90.0
 41
0.7
 11
230.7082941464
 21
126.5134608683
 31
6.0090621718
 73
     1
  0
ENDBLK
  5
3FF
  8
0
  0
BLOCK
  8
0
  2
_D_5
 70
     0
 10
0.0
 20
0.0
 30
0.0
  3
_D_5
  1

  0
SOLID
  5
40B
  8
0
  6
CONTINUOUS
 62
     7
 10
225.2287117048
 20
114.6859738757
 30
0.0
 11
225.9787117048
 21
118.6859738757
 31
0.0
 12
224.4787117048
 22
118.6859738757
 32
0.0
 13
224.4787117048
 23
118.6859738757
 33
0.0
  0
SOLID
  5
40C
  8
0
  6
CONTINUOUS
 62
     7
 10
225.2287117048
 20
139.6859738757
 30
0.0
 11
224.4787117048
 21
135.6859738757
 31
0.0
 12
225.9787117048
 22
135.6859738757
 32
0.0
 13
225.9787117048
 23
135.6859738757
 33
0.0
  0
LINE
  5
40D
  8
0
  6
CONTINUOUS
 62
     7
 10
208.8241774538
 20
114.6859738757
 30
0.0
 11
226.2287117048
 21
114.6859738757
 31
0.0
  0
LINE
  5
40E
  8
0
  6
CONTINUOUS
 62
     7
 10
208.8241774538
 20
139.6859738757
 30
0.0
 11
226.2287117048
 21
139.6859738757
 31
0.0
  0
LINE
  5
40F
  8
0
  6
CONTINUOUS
 62
     7
 10
225.2287117048
 20
114.6859738757
 30
0.0
 11
225.2287117048
 21
139.6859738757
 31
0.0
  0
TEXT
  5
410
  8
0
  6
CONTINUOUS
 62
     7
 10
224.2005775001
 20
121.0139418456
 30
6.0090621718
 40
2.9104166667
  1
%%c
 50
90.0
 41
0.7
 11
225.228711472
 21
121.0139418456
 31
6.0090621718
 73
     1
  0
TEXT
  5
411
  8
0
  6
CONTINUOUS
 62
     7
 10
224.2005775001
 20
125.4070542257
 30
6.0090621718
 40
2.9104166667
  1
25
 50
90.0
 41
0.7
 11
225.228711472
 21
125.4070542257
 31
6.0090621718
 73
     1
  0
TEXT
  5
412
  8
0
  6
CONTINUOUS
 62
     7
 10
224.2005775001
 20
129.7080038551
 30
6.0090621718
 40
2.9104166667
  1
h6
 50
90.0
 41
0.7
 11
225.228711472
 21
129.7080038551
 31
6.0090621718
 73
     1
  0
ENDBLK
  5
40A
  8
0
  0
ENDSEC
  0
SECTION
  2
ENTITIES
  0
INSERT
  5
78
  8
0
  6
CONTINUOUS
 62
     7
  2
SW_NOTE_0
 10
51.2512848098
 20
123.7985065911
 30
0.0
  0
INSERT
  5
7E
  8
0
  6
CONTINUOUS
 62
     7
  2
SW_NOTE_1
 10
116.3089345332
 20
73.7544367397
 30
0.0
  0
LINE
  5
7F
  8
0
  6
CONTINUOUS
 62
     7
 10
148.0741774538
 20
112.1859738757
 30
0.0
 11
153.5741774538
 21
112.1859738757
 31
0.0
  0
LINE
  5
80
  8
0
  6
CONTINUOUS
 62
     7
 10
153.5741774538
 20
142.1859738757
 30
0.0
 11
148.0741774538
 21
142.1859738757
 31
0.0
  0
LINE
  5
81
  8
0
  6
CONTINUOUS
 62
     7
 10
153.5741774538
 20
112.1859738757
 30
0.0
 11
154.0741774538
 21
112.6859738757
 31
0.0
  0
LINE
  5
82
  8
0
  6
CONTINUOUS
 62
     7
 10
154.0741774538
 20
141.6859738757
 30
0.0
 11
153.5741774538
 21
142.1859738757
 31
0.0
  0
LINE
  5
83
  8
0
  6
CONTINUOUS
 62
     7
 10
148.0741774538
 20
142.1859738757
 30
0.0
 11
137.6307365597
 21
137.1713426538
 31
0.0
  0
LINE
  5
84
  8
0
  6
CONTINUOUS
 62
     7
 10
137.6307365597
 20
117.2006050976
 30
0.0
 11
148.0741774538
 21
112.1859738757
 31
0.0
  0
LINE
  5
85
  8
0
  6
CONTINUOUS
 62
     7
 10
155.8037144428
 20
114.6859738757
 30
0.0
 11
207.8241774538
 21
114.6859738757
 31
0.0
  0
LINE
  5
86
  8
0
  6
CONTINUOUS
 62
     7
 10
207.8241774538
 20
139.6859738757
 30
0.0
 11
155.8037144428
 21
139.6859738757
 31
0.0
  0
LINE
  5
87
  8
0
  6
CONTINUOUS
 62
     7
 10
155.8037144428
 20
139.6859738757
 30
0.0
 11
155.3332514319
 21
139.5859738757
 31
0.0
  0
LINE
  5
88
  8
0
  6
CONTINUOUS
 62
     7
 10
155.3332514319
 20
114.7859738757
 30
0.0
 11
155.8037144428
 21
114.6859738757
 31
0.0
  0
LINE
  5
89
  8
0
  6
CONTINUOUS
 62
     7
 10
155.3332514319
 20
139.5859738757
 30
0.0
 11
154.0741774538
 21
139.5859738757
 31
0.0
  0
LINE
  5
8A
  8
0
  6
CONTINUOUS
 62
     7
 10
154.0741774538
 20
114.7859738757
 30
0.0
 11
155.3332514319
 21
114.7859738757
 31
0.0
  0
LINE
  5
8B
  8
0
  6
CONTINUOUS
 62
     7
 10
207.8241774538
 20
114.6859738757
 30
0.0
 11
209.0741774538
 21
114.7859738757
 31
0.0
  0
LINE
  5
8C
  8
0
  6
CONTINUOUS
 62
     7
 10
209.0741774538
 20
139.5859738757
 30
0.0
 11
207.8241774538
 21
139.6859738757
 31
0.0
  0
LINE
  5
8D
  8
0
  6
CONTINUOUS
 62
     7
 10
209.0741774538
 20
114.7859738757
 30
0.0
 11
210.0741774538
 21
115.7859738757
 31
0.0
  0
LINE
  5
8E
  8
0
  6
CONTINUOUS
 62
     7
 10
210.0741774538
 20
138.5859738757
 30
0.0
 11
209.0741774538
 21
139.5859738757
 31
0.0
  0
LINE
  5
8F
  8
0
  6
CONTINUOUS
 62
     7
 10
112.1181004688
 20
118.1859738757
 30
0.0
 11
133.3021774538
 21
118.1859738757
 31
0.0
  0
LINE
  5
90
  8
0
  6
CONTINUOUS
 62
     7
 10
133.3021774538
 20
136.1859738757
 30
0.0
 11
117.3726946673
 21
136.1859738757
 31
0.0
  0
ARC
  5
91
  8
0
  6
CONTINUOUS
 62
     7
 10
133.3021774538
 20
146.1859738757
 30
0.0
 40
10.00000000000003
 50
270.0
 51
295.6489404135
  0
ARC
  5
92
  8
0
  6
CONTINUOUS
 62
     7
 10
133.3021774538
 20
108.1859738757
 30
0.0
 40
10.0
 50
64.3510595865
 51
90.0
  0
LINE
  5
93
  8
0
  6
CONTINUOUS
 62
     7
 10
70.4741774538
 20
123.9009738757
 30
0.0
 11
70.4786304707
 21
123.8500758917
 31
0.0
  0
LINE
  5
94
  8
0
  6
CONTINUOUS
 62
     7
 10
70.3038350993
 20
126.808329299
 30
0.0
 11
70.3193241174
 21
126.8129143053
 31
0.0
  0
LINE
  5
95
  8
0
  6
CONTINUOUS
 62
     7
 10
70.3615972943
 20
126.803664651
 30
0.0
 11
70.4741774538
 21
126.7938526436
 31
0.0
  0
LINE
  5
96
  8
0
  6
CONTINUOUS
 62
     7
 10
148.0741774538
 20
112.1859738757
 30
0.0
 11
148.0741774538
 21
142.1859738757
 31
0.0
  0
LINE
  5
97
  8
0
  6
CONTINUOUS
 62
     7
 10
153.5741774538
 20
112.1859738757
 30
0.0
 11
153.5741774538
 21
142.1859738757
 31
0.0
  0
LINE
  5
98
  8
0
  6
CONTINUOUS
 62
     7
 10
154.0741774538
 20
141.6859738757
 30
0.0
 11
154.0741774538
 21
112.6859738757
 31
0.0
  0
LINE
  5
99
  8
0
  6
CONTINUOUS
 62
     7
 10
145.7800649797
 20
116.9785218575
 30
0.0
 11
145.7800649797
 21
125.0727884492
 31
0.0
  0
ARC
  5
9A
  8
0
  6
CONTINUOUS
 62
     7
 10
128.5447141418
 20
113.099771064
 30
0.0
 40
20.98595872980448
 50
34.7868546247
 51
64.3446201201
  0
LINE
  5
9B
  8
0
  6
CONTINUOUS
 62
     7
 10
142.336265018
 20
118.1975718745
 30
0.0
 11
137.6307365597
 21
121.0191012224
 31
0.0
  0
ARC
  5
9C
  8
0
  6
CONTINUOUS
 62
     7
 10
146.5940443535
 20
124.7518720596
 30
0.0
 40
7.815851571409138
 50
236.9915954421
 51
264.0221097404
  0
LINE
  5
9D
  8
0
  6
CONTINUOUS
 62
     7
 10
145.7800649797
 20
117.6560514454
 30
0.0
 11
135.7569354685
 21
126.8735491508
 31
0.0
  0
LINE
  5
9E
  8
0
  6
CONTINUOUS
 62
     7
 10
135.4796420595
 20
133.1659689949
 30
0.0
 11
135.7569354687
 21
126.8735491473
 31
0.0
  0
LINE
  5
9F
  8
0
  6
CONTINUOUS
 62
     7
 10
135.4796420855
 20
133.1659689803
 30
0.0
 11
137.6307365597
 21
132.0168178851
 31
0.0
  0
LINE
  5
A0
  8
0
  6
CONTINUOUS
 62
     7
 10
155.8037144428
 20
139.6859738757
 30
0.0
 11
155.8037144428
 21
114.6859738757
 31
0.0
  0
LINE
  5
A1
  8
0
  6
CONTINUOUS
 62
     7
 10
207.8241774538
 20
133.9683038588
 30
0.0
 11
207.8241774538
 21
139.6859738757
 31
0.0
  0
LINE
  5
A2
  8
0
  6
CONTINUOUS
 62
     7
 10
207.8241774538
 20
114.6859738757
 30
0.0
 11
207.8241774537
 21
120.4036438925
 31
0.0
  0
LINE
  5
A3
  8
0
  6
CONTINUOUS
 62
     7
 10
207.8241774538
 20
133.9683038588
 30
0.0
 11
160.0741774538
 21
133.9683038588
 31
0.0
  0
ARC
  5
A4
  8
0
  6
CONTINUOUS
 62
     7
 10
170.5741774538
 20
127.1859738757
 30
0.0
 40
12.50000000000009
 50
147.1401196211
 51
212.8598803789
  0
LINE
  5
A5
  8
0
  6
CONTINUOUS
 62
     7
 10
160.0741774538
 20
120.4036438926
 30
0.0
 11
207.8241774537
 21
120.4036438925
 31
0.0
  0
LINE
  5
A6
  8
0
  6
CONTINUOUS
 62
     7
 10
155.3332514319
 20
139.5859738757
 30
0.0
 11
155.3332514319
 21
114.7859738757
 31
0.0
  0
LINE
  5
A7
  8
0
  6
CONTINUOUS
 62
     7
 10
160.0741774538
 20
120.4036438926
 30
0.0
 11
160.0741774538
 21
133.9683038588
 31
0.0
  0
POLYLINE
  5
A8
  8
0
  6
CONTINUOUS
 62
     7
 66
     1
 10
0.0
 20
0.0
 30
0.0
 70
   128
  0
VERTEX
  5
414
  8
0
  6
CONTINUOUS
 62
     7
 10
208.5741774538
 20
120.5148720177
 30
0.0
  0
VERTEX
  5
415
  8
0
  6
CONTINUOUS
 62
     7
 10
207.8883304698
 20
120.4131073992
 30
0.0
  0
VERTEX
  5
416
  8
0
  6
CONTINUOUS
 62
     7
 10
207.8241774537
 20
120.4036438925
 30
0.0
  0
SEQEND
  5
591
  8
0
  6
CONTINUOUS
 62
     7
  0
ARC
  5
A9
  8
0
  6
CONTINUOUS
 62
     7
 10
218.1021826965
 20
127.2023162459
 30
0.0
 40
11.64065265399294
 50
215.0639585901
 51
219.1443189888
  0
LINE
  5
AA
  8
0
  6
CONTINUOUS
 62
     7
 10
209.0741774538
 20
134.5180949876
 30
0.0
 11
209.0741774538
 21
139.5859738757
 31
0.0
  0
LINE
  5
AB
  8
0
  6
CONTINUOUS
 62
     7
 10
209.0741774538
 20
114.7859738757
 30
0.0
 11
209.0741774538
 21
119.8538527637
 31
0.0
  0
ARC
  5
AC
  8
0
  6
CONTINUOUS
 62
     7
 10
218.1021826965
 20
127.1696315055
 30
0.0
 40
11.64065265399993
 50
140.8556810112
 51
144.9360414099
  0
POLYLINE
  5
AD
  8
0
  6
CONTINUOUS
 62
     7
 66
     1
 10
0.0
 20
0.0
 30
0.0
 70
   128
  0
VERTEX
  5
417
  8
0
  6
CONTINUOUS
 62
     7
 10
207.8241774538
 20
133.9683038588
 30
0.0
  0
VERTEX
  5
418
  8
0
  6
CONTINUOUS
 62
     7
 10
207.8883304698
 20
133.9588403521
 30
0.0
  0
VERTEX
  5
419
  8
0
  6
CONTINUOUS
 62
     7
 10
208.5741774538
 20
133.8570757337
 30
0.0
  0
SEQEND
  5
592
  8
0
  6
CONTINUOUS
 62
     7
  0
LINE
  5
AE
  8
0
  6
CONTINUOUS
 62
     7
 10
209.0741774538
 20
134.5180949876
 30
0.0
 11
210.0741774538
 21
134.1831161495
 31
0.0
  0
LINE
  5
AF
  8
0
  6
CONTINUOUS
 62
     7
 10
210.0741774538
 20
120.1888316019
 30
0.0
 11
210.0741774538
 21
134.1831161495
 31
0.0
  0
LINE
  5
B0
  8
0
  6
CONTINUOUS
 62
     7
 10
210.0741774538
 20
120.1888316019
 30
0.0
 11
209.0741774538
 21
119.8538527637
 31
0.0
  0
LINE
  5
B1
  8
0
  6
CONTINUOUS
 62
     7
 10
208.5741774538
 20
120.5148720177
 30
0.0
 11
208.5741774538
 21
133.8570757337
 31
0.0
  0
LINE
  5
B2
  8
0
  6
CONTINUOUS
 62
     7
 10
210.0741774538
 20
134.1831161495
 30
0.0
 11
210.0741774538
 21
138.5859738757
 31
0.0
  0
LINE
  5
B3
  8
0
  6
CONTINUOUS
 62
     7
 10
210.0741774538
 20
115.7859738757
 30
0.0
 11
210.0741774538
 21
120.1888316019
 31
0.0
  0
LINE
  5
B4
  8
0
  6
CONTINUOUS
 62
     7
 10
142.336265018
 20
118.1975718745
 30
0.0
 11
135.0741774538
 21
124.8759526522
 31
0.0
  0
LINE
  5
B5
  8
0
  6
CONTINUOUS
 62
     7
 10
135.0741774538
 20
126.7097783748
 30
0.0
 11
135.0741774538
 21
124.8759526522
 31
0.0
  0
LINE
  5
B6
  8
0
  6
CONTINUOUS
 62
     7
 10
135.7569354685
 20
126.8735491508
 30
0.0
 11
135.0741774535
 21
126.7097783747
 31
0.0
  0
LINE
  5
B7
  8
0
  6
CONTINUOUS
 62
     7
 10
71.2983720452
 20
136.1390061701
 30
0.0
 11
78.9741774538
 21
136.1390061701
 31
0.0
  0
POLYLINE
  5
B8
  8
0
  6
CONTINUOUS
 62
     7
 66
     1
 10
0.0
 20
0.0
 30
0.0
 70
   128
  0
VERTEX
  5
41A
  8
0
  6
CONTINUOUS
 62
     7
 10
78.9741774538
 20
136.1390061701
 30
0.0
  0
VERTEX
  5
41B
  8
0
  6
CONTINUOUS
 62
     7
 10
81.6505203024
 20
136.0092998524
 30
0.0
  0
VERTEX
  5
41C
  8
0
  6
CONTINUOUS
 62
     7
 10
85.4042455209
 20
135.6900497595
 30
0.0
  0
VERTEX
  5
41D
  8
0
  6
CONTINUOUS
 62
     7
 10
89.7103488799
 20
135.134522263
 30
0.0
  0
VERTEX
  5
41E
  8
0
  6
CONTINUOUS
 62
     7
 10
96.2024980665
 20
133.9430457678
 30
0.0
  0
VERTEX
  5
41F
  8
0
  6
CONTINUOUS
 62
     7
 10
98.7185151444
 20
133.3779492796
 30
0.0
  0
VERTEX
  5
420
  8
0
  6
CONTINUOUS
 62
     7
 10
102.4995814733
 20
132.4360588723
 30
0.0
  0
VERTEX
  5
421
  8
0
  6
CONTINUOUS
 62
     7
 10
106.2930334199
 20
131.3948831622
 30
0.0
  0
VERTEX
  5
422
  8
0
  6
CONTINUOUS
 62
     7
 10
111.3674108799
 20
129.8810507804
 30
0.0
  0
VERTEX
  5
423
  8
0
  6
CONTINUOUS
 62
     7
 10
115.1045319846
 20
128.7062552342
 30
0.0
  0
VERTEX
  5
424
  8
0
  6
CONTINUOUS
 62
     7
 10
119.1890559014
 20
127.3935864974
 30
0.0
  0
VERTEX
  5
425
  8
0
  6
CONTINUOUS
 62
     7
 10
122.2567084311
 20
126.402518987
 30
0.0
  0
VERTEX
  5
426
  8
0
  6
CONTINUOUS
 62
     7
 10
124.7057993929
 20
125.6165476426
 30
0.0
  0
VERTEX
  5
427
  8
0
  6
CONTINUOUS
 62
     7
 10
129.8440935128
 20
124.0152699781
 30
0.0
  0
VERTEX
  5
428
  8
0
  6
CONTINUOUS
 62
     7
 10
133.3021774538
 20
122.9965643427
 30
0.0
  0
SEQEND
  5
593
  8
0
  6
CONTINUOUS
 62
     7
  0
LINE
  5
B9
  8
0
  6
CONTINUOUS
 62
     7
 10
79.4686566319
 20
125.1084127642
 30
0.0
 11
78.448526504
 21
125.2859738757
 31
0.0
  0
LINE
  5
BA
  8
0
  6
CONTINUOUS
 62
     7
 10
70.9741774538
 20
125.2859738757
 30
0.0
 11
78.448526504
 21
125.2859738757
 31
0.0
  0
LINE
  5
BB
  8
0
  6
CONTINUOUS
 62
     7
 10
70.9741774538
 20
125.2859738757
 30
0.0
 11
70.9741774538
 21
134.6122639134
 31
0.0
  0
ARC
  5
BC
  8
0
  6
CONTINUOUS
 62
     7
 10
57.3633780662
 20
138.300227319
 30
0.0
 40
14.10159331598446
 50
344.8392443748
 51
351.1840590659
  0
POLYLINE
  5
BD
  8
0
  6
CONTINUOUS
 62
     7
 66
     1
 10
0.0
 20
0.0
 30
0.0
 70
   128
  0
VERTEX
  5
429
  8
0
  6
CONTINUOUS
 62
     7
 10
112.1181004688
 20
118.1992731295
 30
0.0
  0
VERTEX
  5
42A
  8
0
  6
CONTINUOUS
 62
     7
 10
110.264316489
 20
118.2120161109
 30
0.0
  0
VERTEX
  5
42B
  8
0
  6
CONTINUOUS
 62
     7
 10
104.4242796055
 20
118.6307363252
 30
0.0
  0
VERTEX
  5
42C
  8
0
  6
CONTINUOUS
 62
     7
 10
99.2247670632
 20
119.4158984799
 30
0.0
  0
VERTEX
  5
42D
  8
0
  6
CONTINUOUS
 62
     7
 10
95.8292070823
 20
120.1208690568
 30
0.0
  0
VERTEX
  5
42E
  8
0
  6
CONTINUOUS
 62
     7
 10
91.8965674883
 20
121.1064573939
 30
0.0
  0
VERTEX
  5
42F
  8
0
  6
CONTINUOUS
 62
     7
 10
86.9078175518
 20
122.5792258542
 30
0.0
  0
VERTEX
  5
430
  8
0
  6
CONTINUOUS
 62
     7
 10
83.6267270648
 20
123.6560031193
 30
0.0
  0
VERTEX
  5
431
  8
0
  6
CONTINUOUS
 62
     7
 10
79.4686566319
 20
125.1084127642
 30
0.0
  0
SEQEND
  5
594
  8
0
  6
CONTINUOUS
 62
     7
  0
LINE
  5
BE
  8
0
  6
CONTINUOUS
 62
     7
 10
135.0741774538
 20
124.8759526522
 30
0.0
 11
135.0741774538
 21
122.4102224557
 31
0.0
  0
LINE
  5
BF
  8
0
  6
CONTINUOUS
 62
     7
 10
133.3021774538
 20
122.9965643427
 30
0.0
 11
135.0741774538
 21
122.4102224557
 31
0.0
  0
LINE
  5
C0
  8
0
  6
CONTINUOUS
 62
     7
 10
70.4741774538
 20
125.2859738757
 30
0.0
 11
70.9741774538
 21
125.2859738757
 31
0.0
  0
LINE
  5
C1
  8
0
  6
CONTINUOUS
 62
     7
 10
70.4741774538
 20
125.2859738757
 30
0.0
 11
70.4741774538
 21
129.4396842698
 31
0.0
  0
LINE
  5
C2
  8
0
  6
CONTINUOUS
 62
     7
 10
70.4741774538
 20
129.4396842698
 30
0.0
 11
70.7091158188
 21
132.5308023595
 31
0.0
  0
LINE
  5
C3
  8
0
  6
CONTINUOUS
 62
     7
 10
70.7091158188
 20
132.5308023595
 30
0.0
 11
70.6840072139
 21
132.6201464614
 31
0.0
  0
LINE
  5
C4
  8
0
  6
CONTINUOUS
 62
     7
 10
70.6840072139
 20
132.6201464614
 30
0.0
 11
70.6910964926
 21
132.9151414445
 31
0.0
  0
LINE
  5
C5
  8
0
  6
CONTINUOUS
 62
     7
 10
70.6910964926
 20
132.9151414445
 30
0.0
 11
70.8268724848
 21
134.4614870194
 31
0.0
  0
POLYLINE
  5
C6
  8
0
  6
CONTINUOUS
 62
     7
 66
     1
 10
0.0
 20
0.0
 30
0.0
 70
   128
  0
VERTEX
  5
432
  8
0
  6
CONTINUOUS
 62
     7
 10
70.8268724848
 20
134.4614870194
 30
0.0
  0
VERTEX
  5
433
  8
0
  6
CONTINUOUS
 62
     7
 10
70.8699045242
 20
134.4278470335
 30
0.0
  0
VERTEX
  5
434
  8
0
  6
CONTINUOUS
 62
     7
 10
70.9741774538
 20
134.6122639134
 30
0.0
  0
SEQEND
  5
595
  8
0
  6
CONTINUOUS
 62
     7
  0
POLYLINE
  5
C7
  8
0
  6
CONTINUOUS
 62
     7
 66
     1
 10
0.0
 20
0.0
 30
0.0
 70
   128
  0
VERTEX
  5
435
  8
0
  6
CONTINUOUS
 62
     7
 10
70.9323626952
 20
125.7915528488
 30
0.0
  0
VERTEX
  5
436
  8
0
  6
CONTINUOUS
 62
     7
 10
70.9224441184
 20
125.6801119354
 30
0.0
  0
VERTEX
  5
437
  8
0
  6
CONTINUOUS
 62
     7
 10
70.9105304031
 20
125.5903714949
 30
0.0
  0
VERTEX
  5
438
  8
0
  6
CONTINUOUS
 62
     7
 10
70.897553232
 20
125.5298368735
 30
0.0
  0
VERTEX
  5
439
  8
0
  6
CONTINUOUS
 62
     7
 10
70.8830701148
 20
125.49671002
 30
0.0
  0
VERTEX
  5
43A
  8
0
  6
CONTINUOUS
 62
     7
 10
70.8682027242
 20
125.4937493416
 30
0.0
  0
VERTEX
  5
43B
  8
0
  6
CONTINUOUS
 62
     7
 10
70.8525187213
 20
125.5209537767
 30
0.0
  0
VERTEX
  5
43C
  8
0
  6
CONTINUOUS
 62
     7
 10
70.8372879215
 20
125.5761799037
 30
0.0
  0
VERTEX
  5
43D
  8
0
  6
CONTINUOUS
 62
     7
 10
70.8221243256
 20
125.6610047073
 30
0.0
  0
VERTEX
  5
43E
  8
0
  6
CONTINUOUS
 62
     7
 10
70.8083543919
 20
125.7683142845
 30
0.0
  0
VERTEX
  5
43F
  8
0
  6
CONTINUOUS
 62
     7
 10
70.7956628938
 20
125.9012602569
 30
0.0
  0
VERTEX
  5
440
  8
0
  6
CONTINUOUS
 62
     7
 10
70.7852506414
 20
126.0482316903
 30
0.0
  0
VERTEX
  5
441
  8
0
  6
CONTINUOUS
 62
     7
 10
70.7768951938
 20
126.2138688957
 30
0.0
  0
VERTEX
  5
442
  8
0
  6
CONTINUOUS
 62
     7
 10
70.7714282749
 20
126.3833840984
 30
0.0
  0
VERTEX
  5
443
  8
0
  6
CONTINUOUS
 62
     7
 10
70.7687304984
 20
126.5624322503
 30
0.0
  0
VERTEX
  5
444
  8
0
  6
CONTINUOUS
 62
     7
 10
70.7690642671
 20
126.7352002936
 30
0.0
  0
VERTEX
  5
445
  8
0
  6
CONTINUOUS
 62
     7
 10
70.7724167302
 20
126.9073883785
 30
0.0
  0
VERTEX
  5
446
  8
0
  6
CONTINUOUS
 62
     7
 10
70.7784503044
 20
127.0644118571
 30
0.0
  0
VERTEX
  5
447
  8
0
  6
CONTINUOUS
 62
     7
 10
70.7872509292
 20
127.2109561443
 30
0.0
  0
VERTEX
  5
448
  8
0
  6
CONTINUOUS
 62
     7
 10
70.7980122
 20
127.3351520128
 30
0.0
  0
VERTEX
  5
449
  8
0
  6
CONTINUOUS
 62
     7
 10
70.8109066382
 20
127.4401612413
 30
0.0
  0
VERTEX
  5
44A
  8
0
  6
CONTINUOUS
 62
     7
 10
70.8248304516
 20
127.5175913897
 30
0.0
  0
VERTEX
  5
44B
  8
0
  6
CONTINUOUS
 62
     7
 10
70.8400484136
 20
127.5691568228
 30
0.0
  0
VERTEX
  5
44C
  8
0
  6
CONTINUOUS
 62
     7
 10
70.8553041461
 20
127.5906132195
 30
0.0
  0
VERTEX
  5
44D
  8
0
  6
CONTINUOUS
 62
     7
 10
70.8709655647
 20
127.5823334257
 30
0.0
  0
VERTEX
  5
44E
  8
0
  6
CONTINUOUS
 62
     7
 10
70.8857555204
 20
127.5449357381
 30
0.0
  0
VERTEX
  5
44F
  8
0
  6
CONTINUOUS
 62
     7
 10
70.9001211092
 20
127.4773041159
 30
0.0
  0
VERTEX
  5
450
  8
0
  6
CONTINUOUS
 62
     7
 10
70.9128964972
 20
127.385223082
 30
0.0
  0
VERTEX
  5
451
  8
0
  6
CONTINUOUS
 62
     7
 10
70.9245391804
 20
127.265925813
 30
0.0
  0
VERTEX
  5
452
  8
0
  6
CONTINUOUS
 62
     7
 10
70.9341129026
 20
127.1298559157
 30
0.0
  0
VERTEX
  5
453
  8
0
  6
CONTINUOUS
 62
     7
 10
70.9419993677
 20
126.9727421706
 30
0.0
  0
VERTEX
  5
454
  8
0
  6
CONTINUOUS
 62
     7
 10
70.947576112
 20
126.8083733443
 30
0.0
  0
VERTEX
  5
455
  8
0
  6
CONTINUOUS
 62
     7
 10
70.9510790098
 20
126.6315074726
 30
0.0
  0
VERTEX
  5
456
  8
0
  6
CONTINUOUS
 62
     7
 10
70.952240462
 20
126.4574781501
 30
0.0
  0
VERTEX
  5
457
  8
0
  6
CONTINUOUS
 62
     7
 10
70.9511154982
 20
126.2808361315
 30
0.0
  0
VERTEX
  5
458
  8
0
  6
CONTINUOUS
 62
     7
 10
70.9477935691
 20
126.1165792756
 30
0.0
  0
VERTEX
  5
459
  8
0
  6
CONTINUOUS
 62
     7
 10
70.9421510055
 20
125.9598035464
 30
0.0
  0
VERTEX
  5
45A
  8
0
  6
CONTINUOUS
 62
     7
 10
70.9376657466
 20
125.8724956076
 30
0.0
  0
VERTEX
  5
45B
  8
0
  6
CONTINUOUS
 62
     7
 10
70.9323626952
 20
125.7915528488
 30
0.0
  0
SEQEND
  5
596
  8
0
  6
CONTINUOUS
 62
     7
  0
ARC
  5
C8
  8
0
  6
CONTINUOUS
 62
     7
 10
76.5378597296
 20
118.3773306401
 30
0.0
 40
0.1912384933836399
 50
225.1708546394
 51
269.1586311899
  0
LINE
  5
C9
  8
0
  6
CONTINUOUS
 62
     7
 10
76.535051559
 20
118.1861127656
 30
0.0
 11
78.9741774538
 21
118.1861127656
 31
0.0
  0
ARC
  5
CA
  8
0
  6
CONTINUOUS
 62
     7
 10
79.1148573065
 20
204.9130908685
 30
0.0
 40
86.72709220123834
 50
269.9070605833
 51
281.6213277405
  0
ARC
  5
CB
  8
0
  6
CONTINUOUS
 62
     7
 10
117.2880102391
 20
79.9892994702
 30
0.0
 40
56.12747750145493
 50
73.4221553118
 51
108.5510153372
  0
LINE
  5
CC
  8
0
  6
CONTINUOUS
 62
     7
 10
134.5568074756
 20
133.4836877647
 30
0.0
 11
133.3021774538
 21
133.7837246377
 31
0.0
  0
POLYLINE
  5
CD
  8
0
  6
CONTINUOUS
 62
     7
 66
     1
 10
0.0
 20
0.0
 30
0.0
 70
   128
  0
VERTEX
  5
45C
  8
0
  6
CONTINUOUS
 62
     7
 10
134.1706772768
 20
127.6522127787
 30
0.0
  0
VERTEX
  5
45D
  8
0
  6
CONTINUOUS
 62
     7
 10
134.3731417969
 20
130.576875107
 30
0.0
  0
VERTEX
  5
45E
  8
0
  6
CONTINUOUS
 62
     7
 10
134.5568074756
 20
133.4836877647
 30
0.0
  0
SEQEND
  5
597
  8
0
  6
CONTINUOUS
 62
     7
  0
LINE
  5
CE
  8
0
  6
CONTINUOUS
 62
     7
 10
135.4796420595
 20
133.1659689949
 30
0.0
 11
134.5568074756
 21
133.4836877647
 31
0.0
  0
POLYLINE
  5
CF
  8
0
  6
CONTINUOUS
 62
     7
 66
     1
 10
0.0
 20
0.0
 30
0.0
 70
   128
  0
VERTEX
  5
45F
  8
0
  6
CONTINUOUS
 62
     7
 10
137.6307365597
 20
121.0191012224
 30
0.0
  0
VERTEX
  5
460
  8
0
  6
CONTINUOUS
 62
     7
 10
136.3788843396
 20
121.7442046057
 30
0.0
  0
VERTEX
  5
461
  8
0
  6
CONTINUOUS
 62
     7
 10
135.0741774538
 20
122.4102224557
 30
0.0
  0
SEQEND
  5
598
  8
0
  6
CONTINUOUS
 62
     7
  0
LINE
  5
D0
  8
0
  6
CONTINUOUS
 62
     7
 10
135.0741774538
 20
126.7097783748
 30
0.0
 11
134.1840619429
 21
127.6393846134
 31
0.0
  0
LINE
  5
D1
  8
0
  6
CONTINUOUS
 62
     7
 10
70.8268724848
 20
134.4614870194
 30
0.0
 11
71.2983720452
 21
136.1390061701
 31
0.0
  0
LINE
  5
D2
  8
0
  6
CONTINUOUS
 62
     7
 10
78.9741774538
 20
124.2859738757
 30
0.0
 11
78.9741774538
 21
118.1861127656
 31
0.0
  0
LINE
  5
D3
  8
0
  6
CONTINUOUS
 62
     7
 10
78.9741774538
 20
125.1012504457
 30
0.0
 11
78.9741774538
 21
124.2859738757
 31
0.0
  0
LINE
  5
D4
  8
0
  6
CONTINUOUS
 62
     7
 10
75.3735444046
 20
124.2859738757
 30
0.0
 11
70.4741774538
 21
124.2859738757
 31
0.0
  0
LINE
  5
D5
  8
0
  6
CONTINUOUS
 62
     7
 10
78.9741774538
 20
124.2859738757
 30
0.0
 11
76.8686175863
 21
124.2859738757
 31
0.0
  0
ARC
  5
D6
  8
0
  6
CONTINUOUS
 62
     7
 10
76.1210809955
 20
123.6217532457
 30
0.0
 40
1.000000000000068
 50
41.6225620009
 51
138.3774379991
  0
LINE
  5
D7
  8
0
  6
CONTINUOUS
 62
     7
 10
70.4741774538
 20
124.2859738757
 30
0.0
 11
70.4741774538
 21
125.2859738757
 31
0.0
  0
LINE
  5
D8
  8
0
  6
CONTINUOUS
 62
     7
 10
76.5208338777
 20
118.4574022864
 30
0.0
 11
76.535051559
 21
118.1861127656
 31
0.0
  0
ARC
  5
D9
  8
0
  6
CONTINUOUS
 62
     7
 10
76.1210809955
 20
123.6217532457
 30
0.0
 40
1.000000000000016
 50
280.4074066321
 51
41.6225620009
  0
LINE
  5
DA
  8
0
  6
CONTINUOUS
 62
     7
 10
70.4741774538
 20
123.9013544152
 30
0.0
 11
70.4781259583
 21
123.8562178507
 31
0.0
  0
LINE
  5
DB
  8
0
  6
CONTINUOUS
 62
     7
 10
70.4781259583
 20
123.8562178507
 30
0.0
 11
70.4806827579
 21
123.8423364936
 31
0.0
  0
LINE
  5
DC
  8
0
  6
CONTINUOUS
 62
     7
 10
70.4781259583
 20
123.8562178507
 30
0.0
 11
70.5276060276
 21
123.8588109913
 31
0.0
  0
ARC
  5
DD
  8
0
  6
CONTINUOUS
 62
     7
 10
76.1210809955
 20
123.6217532457
 30
0.0
 40
1.0
 50
138.3774379991
 51
151.0301639408
  0
LINE
  5
DE
  8
0
  6
CONTINUOUS
 62
     7
 10
70.4741774538
 20
124.2859738757
 30
0.0
 11
70.4741774538
 21
123.9013544152
 31
0.0
  0
CIRCLE
  5
DF
  8
0
  6
CONTINUOUS
 62
     7
 10
73.301065593
 20
120.9130907419
 30
0.0
 40
0.9500000000000048
  0
CIRCLE
  5
E0
  8
0
  6
CONTINUOUS
 62
     7
 10
73.301065593
 20
120.9130907419
 30
0.0
 40
1.350000000000011
  0
ARC
  5
E1
  8
0
  6
CONTINUOUS
 62
     7
 10
72.7961605028
 20
120.3585000371
 30
0.0
 40
0.2000000000000053
 50
10.9861878664
 51
84.3837096094
  0
LINE
  5
E2
  8
0
  6
CONTINUOUS
 62
     7
 10
72.9924951333
 20
120.3966145075
 30
0.0
 11
73.0514782961
 21
120.0927814129
 31
0.0
  0
ARC
  5
E3
  8
0
  6
CONTINUOUS
 62
     7
 10
73.1251037825
 20
120.1070743393
 30
0.0
 40
0.0750000000000101
 50
190.9861878664
 51
324.3837096094
  0
LINE
  5
E4
  8
0
  6
CONTINUOUS
 62
     7
 10
73.1860739239
 20
120.0633977797
 30
0.0
 11
73.3663156433
 21
120.3150055805
 31
0.0
  0
ARC
  5
E5
  8
0
  6
CONTINUOUS
 62
     7
 10
73.5289026869
 20
120.1985347549
 30
0.0
 40
0.1999999999999981
 50
70.9861878664
 51
144.3837096094
  0
LINE
  5
E6
  8
0
  6
CONTINUOUS
 62
     7
 10
73.5940619027
 20
120.3876227677
 30
0.0
 11
73.8866806624
 21
120.2867871378
 31
0.0
  0
ARC
  5
E7
  8
0
  6
CONTINUOUS
 62
     7
 10
73.9111153683
 20
120.3576951426
 30
0.0
 40
0.0750000000000038
 50
250.9861878664
 51
24.3837096094
  0
LINE
  5
E8
  8
0
  6
CONTINUOUS
 62
     7
 10
73.9794254492
 20
120.3886585541
 30
0.0
 11
73.8516475615
 21
120.6705563623
 31
0.0
  0
ARC
  5
E9
  8
0
  6
CONTINUOUS
 62
     7
 10
74.0338077772
 20
120.7531254597
 30
0.0
 40
0.1999999999999965
 50
130.9861878664
 51
204.3837096094
  0
LINE
  5
EA
  8
0
  6
CONTINUOUS
 62
     7
 10
73.9026323624
 20
120.9040990022
 30
0.0
 11
74.1362679593
 21
121.1070964668
 31
0.0
  0
ARC
  5
EB
  8
0
  6
CONTINUOUS
 62
     7
 10
74.0870771788
 20
121.1637115452
 30
0.0
 40
0.0750000000000077
 50
310.9861878664
 51
84.3837096094
  0
LINE
  5
EC
  8
0
  6
CONTINUOUS
 62
     7
 10
74.0944171183
 20
121.2383515164
 30
0.0
 11
73.7863975113
 21
121.2686415237
 31
0.0
  0
ARC
  5
ED
  8
0
  6
CONTINUOUS
 62
     7
 10
73.8059706833
 20
121.4676814467
 30
0.0
 40
0.1999999999999974
 50
190.9861878664
 51
264.3837096094
  0
LINE
  5
EE
  8
0
  6
CONTINUOUS
 62
     7
 10
73.6096360527
 20
121.4295669764
 30
0.0
 11
73.55065289
 21
121.7334000709
 31
0.0
  0
ARC
  5
EF
  8
0
  6
CONTINUOUS
 62
     7
 10
73.4770274035
 20
121.7191071445
 30
0.0
 40
0.0749999999999974
 50
10.9861878664
 51
144.3837096094
  0
LINE
  5
F0
  8
0
  6
CONTINUOUS
 62
     7
 10
73.4160572621
 20
121.7627837041
 30
0.0
 11
73.2358155428
 21
121.5111759033
 31
0.0
  0
ARC
  5
F1
  8
0
  6
CONTINUOUS
 62
     7
 10
73.0732284991
 20
121.627646729
 30
0.0
 40
0.2000000000000029
 50
250.9861878664
 51
324.3837096094
  0
LINE
  5
F2
  8
0
  6
CONTINUOUS
 62
     7
 10
73.0080692834
 20
121.4385587161
 30
0.0
 11
72.7154505236
 21
121.539394346
 31
0.0
  0
ARC
  5
F3
  8
0
  6
CONTINUOUS
 62
     7
 10
72.6910158177
 20
121.4684863412
 30
0.0
 40
0.0749999999999994
 50
70.9861878664
 51
204.3837096094
  0
LINE
  5
F4
  8
0
  6
CONTINUOUS
 62
     7
 10
72.6227057369
 20
121.4375229297
 30
0.0
 11
72.7504836245
 21
121.1556251215
 31
0.0
  0
ARC
  5
F5
  8
0
  6
CONTINUOUS
 62
     7
 10
72.5683234088
 20
121.0730560242
 30
0.0
 40
0.1999999999999965
 50
310.9861878664
 51
24.3837096094
  0
LINE
  5
F6
  8
0
  6
CONTINUOUS
 62
     7
 10
72.6994988237
 20
120.9220824816
 30
0.0
 11
72.4658632267
 21
120.719085017
 31
0.0
  0
ARC
  5
F7
  8
0
  6
CONTINUOUS
 62
     7
 10
72.5150540073
 20
120.6624699386
 30
0.0
 40
0.0749999999999983
 50
130.9861878664
 51
264.3837096094
  0
LINE
  5
F8
  8
0
  6
CONTINUOUS
 62
     7
 10
72.5077140678
 20
120.5878299675
 30
0.0
 11
72.8157336747
 21
120.5575399601
 31
0.0
  0
LINE
  5
F9
  8
0
  6
CONTINUOUS
 62
     7
 10
73.1251037825
 20
120.1070743393
 30
0.0
 11
73.1860739239
 21
120.0633977797
 31
0.0
  0
LINE
  5
FA
  8
0
  6
CONTINUOUS
 62
     7
 10
73.1251037825
 20
120.1070743393
 30
0.0
 11
73.0514782961
 21
120.0927814129
 31
0.0
  0
LINE
  5
FB
  8
0
  6
CONTINUOUS
 62
     7
 10
73.1969796127
 20
120.4363111092
 30
0.0
 11
72.9924951333
 21
120.3966145075
 31
0.0
  0
LINE
  5
FC
  8
0
  6
CONTINUOUS
 62
     7
 10
73.1969796127
 20
120.4363111092
 30
0.0
 11
73.1251037825
 21
120.1070743393
 31
0.0
  0
LINE
  5
FD
  8
0
  6
CONTINUOUS
 62
     7
 10
73.1969796127
 20
120.4363111092
 30
0.0
 11
73.3663156433
 21
120.3150055805
 31
0.0
  0
LINE
  5
FE
  8
0
  6
CONTINUOUS
 62
     7
 10
73.301065593
 20
120.9130907419
 30
0.0
 11
73.1969796127
 21
120.4363111092
 31
0.0
  0
LINE
  5
FF
  8
0
  6
CONTINUOUS
 62
     7
 10
72.8361193289
 20
120.7648420286
 30
0.0
 11
72.8157336747
 21
120.5575399601
 31
0.0
  0
LINE
  5
100
  8
0
  6
CONTINUOUS
 62
     7
 10
73.301065593
 20
120.9130907419
 30
0.0
 11
72.8361193289
 21
120.7648420286
 31
0.0
  0
LINE
  5
101
  8
0
  6
CONTINUOUS
 62
     7
 10
72.5150540073
 20
120.6624699386
 30
0.0
 11
72.5077140678
 21
120.5878299675
 31
0.0
  0
LINE
  5
102
  8
0
  6
CONTINUOUS
 62
     7
 10
72.8361193289
 20
120.7648420286
 30
0.0
 11
72.5150540073
 21
120.6624699386
 31
0.0
  0
LINE
  5
103
  8
0
  6
CONTINUOUS
 62
     7
 10
73.6619258769
 20
120.5845598224
 30
0.0
 11
73.5940619027
 21
120.3876227677
 31
0.0
  0
LINE
  5
104
  8
0
  6
CONTINUOUS
 62
     7
 10
73.6619258769
 20
120.5845598224
 30
0.0
 11
73.9111153683
 21
120.3576951426
 31
0.0
  0
LINE
  5
105
  8
0
  6
CONTINUOUS
 62
     7
 10
73.9111153683
 20
120.3576951426
 30
0.0
 11
73.8866806624
 21
120.2867871378
 31
0.0
  0
LINE
  5
106
  8
0
  6
CONTINUOUS
 62
     7
 10
73.301065593
 20
120.9130907419
 30
0.0
 11
73.6619258769
 21
120.5845598224
 31
0.0
  0
LINE
  5
107
  8
0
  6
CONTINUOUS
 62
     7
 10
73.9111153683
 20
120.3576951426
 30
0.0
 11
73.9794254492
 21
120.3886585541
 31
0.0
  0
LINE
  5
108
  8
0
  6
CONTINUOUS
 62
     7
 10
73.6619258769
 20
120.5845598224
 30
0.0
 11
73.8516475615
 21
120.6705563623
 31
0.0
  0
LINE
  5
109
  8
0
  6
CONTINUOUS
 62
     7
 10
72.5150540073
 20
120.6624699386
 30
0.0
 11
72.4658632267
 21
120.719085017
 31
0.0
  0
LINE
  5
10A
  8
0
  6
CONTINUOUS
 62
     7
 10
73.301065593
 20
120.9130907419
 30
0.0
 11
73.7660118571
 21
121.0613394552
 31
0.0
  0
LINE
  5
10B
  8
0
  6
CONTINUOUS
 62
     7
 10
73.7660118571
 20
121.0613394552
 30
0.0
 11
73.9026323624
 21
120.9040990022
 31
0.0
  0
LINE
  5
10C
  8
0
  6
CONTINUOUS
 62
     7
 10
72.8361193289
 20
120.7648420286
 30
0.0
 11
72.6994988237
 21
120.9220824816
 31
0.0
  0
LINE
  5
10D
  8
0
  6
CONTINUOUS
 62
     7
 10
72.9402053092
 20
121.2416216614
 30
0.0
 11
72.7504836245
 21
121.1556251215
 31
0.0
  0
LINE
  5
10E
  8
0
  6
CONTINUOUS
 62
     7
 10
73.301065593
 20
120.9130907419
 30
0.0
 11
72.9402053092
 21
121.2416216614
 31
0.0
  0
LINE
  5
10F
  8
0
  6
CONTINUOUS
 62
     7
 10
73.4051515733
 20
121.3898703747
 30
0.0
 11
73.301065593
 21
120.9130907419
 31
0.0
  0
LINE
  5
110
  8
0
  6
CONTINUOUS
 62
     7
 10
72.9402053092
 20
121.2416216614
 30
0.0
 11
73.0080692834
 21
121.4385587161
 31
0.0
  0
LINE
  5
111
  8
0
  6
CONTINUOUS
 62
     7
 10
73.4051515733
 20
121.3898703747
 30
0.0
 11
73.2358155428
 21
121.5111759033
 31
0.0
  0
LINE
  5
112
  8
0
  6
CONTINUOUS
 62
     7
 10
73.4051515733
 20
121.3898703747
 30
0.0
 11
73.6096360527
 21
121.4295669764
 31
0.0
  0
LINE
  5
113
  8
0
  6
CONTINUOUS
 62
     7
 10
73.7660118571
 20
121.0613394552
 30
0.0
 11
73.7863975113
 21
121.2686415237
 31
0.0
  0
LINE
  5
114
  8
0
  6
CONTINUOUS
 62
     7
 10
73.7660118571
 20
121.0613394552
 30
0.0
 11
74.0870771788
 21
121.1637115452
 31
0.0
  0
LINE
  5
115
  8
0
  6
CONTINUOUS
 62
     7
 10
74.0870771788
 20
121.1637115452
 30
0.0
 11
74.1362679593
 21
121.1070964668
 31
0.0
  0
LINE
  5
116
  8
0
  6
CONTINUOUS
 62
     7
 10
72.6910158177
 20
121.4684863412
 30
0.0
 11
72.6227057369
 21
121.4375229297
 31
0.0
  0
LINE
  5
117
  8
0
  6
CONTINUOUS
 62
     7
 10
72.9402053092
 20
121.2416216614
 30
0.0
 11
72.6910158177
 21
121.4684863412
 31
0.0
  0
LINE
  5
118
  8
0
  6
CONTINUOUS
 62
     7
 10
74.0870771788
 20
121.1637115452
 30
0.0
 11
74.0944171183
 21
121.2383515164
 31
0.0
  0
LINE
  5
119
  8
0
  6
CONTINUOUS
 62
     7
 10
72.6910158177
 20
121.4684863412
 30
0.0
 11
72.7154505236
 21
121.539394346
 31
0.0
  0
LINE
  5
11A
  8
0
  6
CONTINUOUS
 62
     7
 10
73.4770274035
 20
121.7191071445
 30
0.0
 11
73.4160572621
 21
121.7627837041
 31
0.0
  0
LINE
  5
11B
  8
0
  6
CONTINUOUS
 62
     7
 10
73.4051515733
 20
121.3898703747
 30
0.0
 11
73.4770274035
 21
121.7191071445
 31
0.0
  0
LINE
  5
11C
  8
0
  6
CONTINUOUS
 62
     7
 10
73.4770274035
 20
121.7191071445
 30
0.0
 11
73.55065289
 21
121.7334000709
 31
0.0
  0
LINE
  5
11D
  8
0
  6
CONTINUOUS
 62
     7
 10
70.6235494419
 20
131.5830853845
 30
0.0
 11
70.6323989876
 21
131.5904827781
 31
0.0
  0
LINE
  5
11E
  8
0
  6
CONTINUOUS
 62
     7
 10
70.6235494419
 20
131.5830853845
 30
0.0
 11
70.3628930439
 21
132.3031261453
 31
0.0
  0
POLYLINE
  5
11F
  8
0
  6
CONTINUOUS
 62
     7
 66
     1
 10
0.0
 20
0.0
 30
0.0
 70
   128
  0
VERTEX
  5
462
  8
0
  6
CONTINUOUS
 62
     7
 10
70.3628930439
 20
132.3031261453
 30
0.0
  0
VERTEX
  5
463
  8
0
  6
CONTINUOUS
 62
     7
 10
70.3472700841
 20
132.4072985439
 30
0.0
  0
VERTEX
  5
464
  8
0
  6
CONTINUOUS
 62
     7
 10
70.2928983075
 20
132.4729074995
 30
0.0
  0
SEQEND
  5
599
  8
0
  6
CONTINUOUS
 62
     7
  0
ARC
  5
120
  8
0
  6
CONTINUOUS
 62
     7
 10
70.5453685935
 20
132.5003113363
 30
0.0
 40
0.2539531759371402
 50
73.5902346092
 51
186.1947933619
  0
LINE
  5
121
  8
0
  6
CONTINUOUS
 62
     7
 10
70.4741774538
 20
127.7806194881
 30
0.0
 11
70.4478141815
 21
127.8119184556
 31
0.0
  0
ARC
  5
122
  8
0
  6
CONTINUOUS
 62
     7
 10
70.5918489118
 20
127.9348206631
 30
0.0
 40
0.1893427164967416
 50
174.651791521
 51
220.4735238221
  0
LINE
  5
123
  8
0
  6
CONTINUOUS
 62
     7
 10
70.4033297296
 20
127.9524682347
 30
0.0
 11
70.4741774538
 21
128.7591799197
 31
0.0
  0
LINE
  5
124
  8
0
  6
CONTINUOUS
 62
     7
 10
70.4741774538
 20
127.4608980194
 30
0.0
 11
70.2816056591
 21
127.6895228379
 31
0.0
  0
ARC
  5
125
  8
0
  6
CONTINUOUS
 62
     7
 10
70.4384223331
 20
127.8177817944
 30
0.0
 40
0.2025878307890896
 50
174.1250510129
 51
219.2794265767
  0
LINE
  5
126
  8
0
  6
CONTINUOUS
 62
     7
 10
70.3309651203
 20
128.9096124855
 30
0.0
 11
70.2368985613
 21
127.8385182027
 31
0.0
  0
ARC
  5
127
  8
0
  6
CONTINUOUS
 62
     7
 10
70.5237929929
 20
128.8926824868
 30
0.0
 40
0.1935696688255899
 50
143.5299450332
 51
174.9823827927
  0
ARC
  5
128
  8
0
  6
CONTINUOUS
 62
     7
 10
70.2125277567
 20
129.1230563907
 30
0.0
 40
0.1936747439109877
 50
323.4582413453
 51
354.9126825115
  0
LINE
  5
129
  8
0
  6
CONTINUOUS
 62
     7
 10
70.4054395612
 20
129.1058825115
 30
0.0
 11
70.4986142702
 21
130.1668216928
 31
0.0
  0
ARC
  5
12A
  8
0
  6
CONTINUOUS
 62
     7
 10
70.3058585716
 20
130.1835357555
 30
0.0
 40
0.1934789891339212
 50
355.0442144856
 51
26.5198797393
  0
ARC
  5
12B
  8
0
  6
CONTINUOUS
 62
     7
 10
70.6521177324
 20
130.3560541797
 30
0.0
 40
0.1933776620386257
 50
174.9747432329
 51
206.448284049
  0
LINE
  5
12C
  8
0
  6
CONTINUOUS
 62
     7
 10
70.5535499422
 20
131.4440873583
 30
0.0
 11
70.4594833827
 21
130.3729930707
 31
0.0
  0
ARC
  5
12D
  8
0
  6
CONTINUOUS
 62
     7
 10
70.7558617279
 20
131.4293279172
 30
0.0
 40
0.2028494509341714
 50
130.7128483354
 51
175.8274394126
  0
POLYLINE
  5
12E
  8
0
  6
CONTINUOUS
 62
     7
 66
     1
 10
0.0
 20
0.0
 30
0.0
 70
   128
  0
VERTEX
  5
465
  8
0
  6
CONTINUOUS
 62
     7
 10
70.3287833208
 20
127.9607083976
 30
0.0
  0
VERTEX
  5
466
  8
0
  6
CONTINUOUS
 62
     7
 10
70.3396219935
 20
127.8569417855
 30
0.0
  0
VERTEX
  5
467
  8
0
  6
CONTINUOUS
 62
     7
 10
70.3904901842
 20
127.7657439631
 30
0.0
  0
SEQEND
  5
59A
  8
0
  6
CONTINUOUS
 62
     7
  0
ARC
  5
12F
  8
0
  6
CONTINUOUS
 62
     7
 10
70.4750820811
 20
132.1448078591
 30
0.0
 40
0.1940388100411265
 50
125.3225185502
 51
168.0001037819
  0
LINE
  5
130
  8
0
  6
CONTINUOUS
 62
     7
 10
70.2852834115
 20
132.1851504524
 30
0.0
 11
70.5535499422
 21
131.4440873583
 31
0.0
  0
POLYLINE
  5
131
  8
0
  6
CONTINUOUS
 62
     7
 66
     1
 10
0.0
 20
0.0
 30
0.0
 70
   128
  0
VERTEX
  5
468
  8
0
  6
CONTINUOUS
 62
     7
 10
70.4594833827
 20
130.3729930707
 30
0.0
  0
VERTEX
  5
469
  8
0
  6
CONTINUOUS
 62
     7
 10
70.252111701
 20
130.4008319052
 30
0.0
  0
VERTEX
  5
46A
  8
0
  6
CONTINUOUS
 62
     7
 10
70.127241956
 20
130.3856023287
 30
0.0
  0
SEQEND
  5
59B
  8
0
  6
CONTINUOUS
 62
     7
  0
LINE
  5
132
  8
0
  6
CONTINUOUS
 62
     7
 10
70.127241956
 20
130.3856023285
 30
0.0
 11
70.2852834115
 21
132.1851504524
 31
0.0
  0
ARC
  5
133
  8
0
  6
CONTINUOUS
 62
     7
 10
70.2004351804
 20
126.4582593109
 30
0.0
 40
1.507921252408505
 50
82.2672375972
 51
85.1173078828
  0
LINE
  5
134
  8
0
  6
CONTINUOUS
 62
     7
 10
70.127241956
 20
130.3856023286
 30
0.0
 11
70.1286517889
 21
130.3524206936
 31
0.0
  0
POLYLINE
  5
135
  8
0
  6
CONTINUOUS
 62
     7
 66
     1
 10
0.0
 20
0.0
 30
0.0
 70
   128
  0
VERTEX
  5
46B
  8
0
  6
CONTINUOUS
 62
     7
 10
70.1286517889
 20
130.3524206936
 30
0.0
  0
VERTEX
  5
46C
  8
0
  6
CONTINUOUS
 62
     7
 10
70.2578582586
 20
130.3320445789
 30
0.0
  0
VERTEX
  5
46D
  8
0
  6
CONTINUOUS
 62
     7
 10
70.478979608
 20
130.2699257301
 30
0.0
  0
SEQEND
  5
59C
  8
0
  6
CONTINUOUS
 62
     7
  0
ARC
  5
136
  8
0
  6
CONTINUOUS
 62
     7
 10
70.2475040032
 20
130.3107466402
 30
0.0
 40
0.125946717148774
 50
160.6774160247
 51
174.6142658516
  0
LINE
  5
137
  8
0
  6
CONTINUOUS
 62
     7
 10
70.4986142702
 20
130.1668216928
 30
0.0
 11
70.1221132948
 21
130.3225680532
 31
0.0
  0
LINE
  5
138
  8
0
  6
CONTINUOUS
 62
     7
 10
70.0289385858
 20
129.2616288718
 30
0.0
 11
70.4054395612
 21
129.1058825115
 31
0.0
  0
LINE
  5
139
  8
0
  6
CONTINUOUS
 62
     7
 10
70.1221132948
 20
130.3225680532
 30
0.0
 11
70.0289385858
 21
129.2616288718
 31
0.0
  0
LINE
  5
13A
  8
0
  6
CONTINUOUS
 62
     7
 10
70.0298069935
 20
129.2269187477
 30
0.0
 11
70.0227270738
 21
129.1955376182
 31
0.0
  0
POLYLINE
  5
13B
  8
0
  6
CONTINUOUS
 62
     7
 66
     1
 10
0.0
 20
0.0
 30
0.0
 70
   128
  0
VERTEX
  5
46E
  8
0
  6
CONTINUOUS
 62
     7
 10
70.3681305318
 20
129.0077407933
 30
0.0
  0
VERTEX
  5
46F
  8
0
  6
CONTINUOUS
 62
     7
 10
70.1528174956
 20
129.1368175358
 30
0.0
  0
VERTEX
  5
470
  8
0
  6
CONTINUOUS
 62
     7
 10
70.0298069935
 20
129.2269187477
 30
0.0
  0
SEQEND
  5
59D
  8
0
  6
CONTINUOUS
 62
     7
  0
POLYLINE
  5
13C
  8
0
  6
CONTINUOUS
 62
     7
 66
     1
 10
0.0
 20
0.0
 30
0.0
 70
   128
  0
VERTEX
  5
471
  8
0
  6
CONTINUOUS
 62
     7
 10
70.0227270738
 20
129.1955376184
 30
0.0
  0
VERTEX
  5
472
  8
0
  6
CONTINUOUS
 62
     7
 10
70.1351228138
 20
129.0697370046
 30
0.0
  0
VERTEX
  5
473
  8
0
  6
CONTINUOUS
 62
     7
 10
70.3309651203
 20
128.9096124855
 30
0.0
  0
SEQEND
  5
59E
  8
0
  6
CONTINUOUS
 62
     7
  0
ARC
  5
13D
  8
0
  6
CONTINUOUS
 62
     7
 10
70.2078133184
 20
129.2487381884
 30
0.0
 40
0.1793386174026967
 50
175.8780811354
 51
186.9882711167
  0
LINE
  5
13E
  8
0
  6
CONTINUOUS
 62
     7
 10
69.8646856181
 20
127.3959894942
 30
0.0
 11
70.0227270738
 21
129.1955376184
 31
0.0
  0
LINE
  5
13F
  8
0
  6
CONTINUOUS
 62
     7
 10
70.2368985613
 20
127.8385182027
 30
0.0
 11
69.8646856181
 21
127.3959894942
 31
0.0
  0
ARC
  5
140
  8
0
  6
CONTINUOUS
 62
     7
 10
71.6027899824
 20
126.3193867984
 30
0.0
 40
1.887225436603529
 50
127.7340201884
 51
129.9688830063
  0
ARC
  5
141
  8
0
  6
CONTINUOUS
 62
     7
 10
70.068595245
 20
127.3991697258
 30
0.0
 40
0.2039344253208645
 50
180.8935285706
 51
223.2074417452
  0
LINE
  5
142
  8
0
  6
CONTINUOUS
 62
     7
 10
70.2816056591
 20
127.6895228379
 30
0.0
 11
69.9199515802
 21
127.2595476977
 31
0.0
  0
POLYLINE
  5
143
  8
0
  6
CONTINUOUS
 62
     7
 66
     1
 10
0.0
 20
0.0
 30
0.0
 70
   128
  0
VERTEX
  5
474
  8
0
  6
CONTINUOUS
 62
     7
 10
70.0984765636
 20
126.8384374986
 30
0.0
  0
VERTEX
  5
475
  8
0
  6
CONTINUOUS
 62
     7
 10
70.1503206106
 20
126.8786405954
 30
0.0
  0
VERTEX
  5
476
  8
0
  6
CONTINUOUS
 62
     7
 10
70.2400961167
 20
126.8794661459
 30
0.0
  0
SEQEND
  5
59F
  8
0
  6
CONTINUOUS
 62
     7
  0
ARC
  5
144
  8
0
  6
CONTINUOUS
 62
     7
 10
70.1238231503
 20
127.1358512319
 30
0.0
 40
0.2984918394362765
 50
175.0864258057
 51
265.1288336249
  0
POLYLINE
  5
145
  8
0
  6
CONTINUOUS
 62
     7
 66
     1
 10
0.0
 20
0.0
 30
0.0
 70
   128
  0
VERTEX
  5
477
  8
0
  6
CONTINUOUS
 62
     7
 10
69.9199515802
 20
127.2595476977
 30
0.0
  0
VERTEX
  5
478
  8
0
  6
CONTINUOUS
 62
     7
 10
69.8889766065
 20
127.18891271
 30
0.0
  0
VERTEX
  5
479
  8
0
  6
CONTINUOUS
 62
     7
 10
69.8264282589
 20
127.1614179442
 30
0.0
  0
SEQEND
  5
5A0
  8
0
  6
CONTINUOUS
 62
     7
  0
ARC
  5
146
  8
0
  6
CONTINUOUS
 62
     7
 10
70.3918582857
 20
126.9923775469
 30
0.0
 40
0.1891579774514109
 50
216.6493318425
 51
260.9112880217
  0
ARC
  5
147
  8
0
  6
CONTINUOUS
 62
     7
 10
70.431878426
 20
132.1662163433
 30
0.0
 40
0.1533077846436748
 50
116.7423778284
 51
171.4621035734
  0
ARC
  5
148
  8
0
  6
CONTINUOUS
 62
     7
 10
70.2930491349
 20
132.2026841468
 30
0.0
 40
0.0191764673856152
 50
234.17406591
 51
246.111310222
  0
ARC
  5
149
  8
0
  6
CONTINUOUS
 62
     7
 10
70.2841928692
 20
132.1907134537
 30
0.0
 40
0.0042903765546284
 50
203.8749584462
 51
236.4971596908
  0
POLYLINE
  5
14A
  8
0
  6
CONTINUOUS
 62
     7
 66
     1
 10
0.0
 20
0.0
 30
0.0
 70
   128
  0
VERTEX
  5
47A
  8
0
  6
CONTINUOUS
 62
     7
 10
70.7492606053
 20
132.7832678237
 30
0.0
  0
VERTEX
  5
47B
  8
0
  6
CONTINUOUS
 62
     7
 10
70.6798817715
 20
132.7734613174
 30
0.0
  0
VERTEX
  5
47C
  8
0
  6
CONTINUOUS
 62
     7
 10
70.617111625
 20
132.743919942
 30
0.0
  0
SEQEND
  5
5A1
  8
0
  6
CONTINUOUS
 62
     7
  0
POLYLINE
  5
14B
  8
0
  6
CONTINUOUS
 62
     7
 66
     1
 10
0.0
 20
0.0
 30
0.0
 70
   128
  0
VERTEX
  5
47D
  8
0
  6
CONTINUOUS
 62
     7
 10
70.2307157447
 20
132.3498018769
 30
0.0
  0
VERTEX
  5
47E
  8
0
  6
CONTINUOUS
 62
     7
 10
70.2701546363
 20
132.2898806239
 30
0.0
  0
VERTEX
  5
47F
  8
0
  6
CONTINUOUS
 62
     7
 10
70.2802696161
 20
132.1889769583
 30
0.0
  0
SEQEND
  5
5A2
  8
0
  6
CONTINUOUS
 62
     7
  0
POLYLINE
  5
14C
  8
0
  6
CONTINUOUS
 62
     7
 66
     1
 10
0.0
 20
0.0
 30
0.0
 70
   128
  0
VERTEX
  5
480
  8
0
  6
CONTINUOUS
 62
     7
 10
70.292898308
 20
132.4729074989
 30
0.0
  0
VERTEX
  5
481
  8
0
  6
CONTINUOUS
 62
     7
 10
70.2521376583
 20
132.4159014485
 30
0.0
  0
VERTEX
  5
482
  8
0
  6
CONTINUOUS
 62
     7
 10
70.2307170204
 20
132.3498018207
 30
0.0
  0
SEQEND
  5
5A3
  8
0
  6
CONTINUOUS
 62
     7
  0
ARC
  5
14D
  8
0
  6
CONTINUOUS
 62
     7
 10
70.1300903773
 20
130.3945325515
 30
0.0
 40
0.0093734938372144
 50
212.9894090735
 51
252.3091799395
  0
LINE
  5
14E
  8
0
  6
CONTINUOUS
 62
     7
 10
70.2802696161
 20
132.1889769583
 30
0.0
 11
70.1222281603
 21
130.3894288341
 31
0.0
  0
POLYLINE
  5
14F
  8
0
  6
CONTINUOUS
 62
     7
 66
     1
 10
0.0
 20
0.0
 30
0.0
 70
   128
  0
VERTEX
  5
483
  8
0
  6
CONTINUOUS
 62
     7
 10
70.1222281603
 20
130.3894288341
 30
0.0
  0
VERTEX
  5
484
  8
0
  6
CONTINUOUS
 62
     7
 10
70.1187191201
 20
130.3574108412
 30
0.0
  0
VERTEX
  5
485
  8
0
  6
CONTINUOUS
 62
     7
 10
70.1157023273
 20
130.3265651793
 30
0.0
  0
SEQEND
  5
5A4
  8
0
  6
CONTINUOUS
 62
     7
  0
LINE
  5
150
  8
0
  6
CONTINUOUS
 62
     7
 10
70.1157023273
 20
130.3265651793
 30
0.0
 11
70.0225276184
 21
129.2656259979
 31
0.0
  0
POLYLINE
  5
151
  8
0
  6
CONTINUOUS
 62
     7
 66
     1
 10
0.0
 20
0.0
 30
0.0
 70
   128
  0
VERTEX
  5
486
  8
0
  6
CONTINUOUS
 62
     7
 10
70.0225276184
 20
129.2656259979
 30
0.0
  0
VERTEX
  5
487
  8
0
  6
CONTINUOUS
 62
     7
 10
70.0200509709
 20
129.233923511
 30
0.0
  0
VERTEX
  5
488
  8
0
  6
CONTINUOUS
 62
     7
 10
70.0177132786
 20
129.1993641237
 30
0.0
  0
SEQEND
  5
5A5
  8
0
  6
CONTINUOUS
 62
     7
  0
LINE
  5
152
  8
0
  6
CONTINUOUS
 62
     7
 10
70.0177132786
 20
129.1993641237
 30
0.0
 11
69.8596718228
 21
127.3998159995
 31
0.0
  0
POLYLINE
  5
153
  8
0
  6
CONTINUOUS
 62
     7
 66
     1
 10
0.0
 20
0.0
 30
0.0
 70
   128
  0
VERTEX
  5
489
  8
0
  6
CONTINUOUS
 62
     7
 10
69.8596718228
 20
127.3998159995
 30
0.0
  0
VERTEX
  5
48A
  8
0
  6
CONTINUOUS
 62
     7
 10
69.8340867862
 20
127.3244339559
 30
0.0
  0
VERTEX
  5
48B
  8
0
  6
CONTINUOUS
 62
     7
 10
69.7865903642
 20
127.2927222764
 30
0.0
  0
SEQEND
  5
5A6
  8
0
  6
CONTINUOUS
 62
     7
  0
LINE
  5
154
  8
0
  6
CONTINUOUS
 62
     7
 10
69.7865903642
 20
127.2927222764
 30
0.0
 11
69.7874302531
 21
127.3411298573
 31
0.0
  0
LINE
  5
155
  8
0
  6
CONTINUOUS
 62
     7
 10
69.7874302532
 20
127.3411298576
 30
0.0
 11
70.2232089669
 21
132.3031492397
 31
0.0
  0
LINE
  5
156
  8
0
  6
CONTINUOUS
 62
     7
 10
70.2232089669
 20
132.3031492397
 30
0.0
 11
70.2307157447
 21
132.3498018769
 31
0.0
  0
POLYLINE
  5
157
  8
0
  6
CONTINUOUS
 62
     7
 66
     1
 10
0.0
 20
0.0
 30
0.0
 70
   128
  0
VERTEX
  5
48C
  8
0
  6
CONTINUOUS
 62
     7
 10
70.617111625
 20
132.743919942
 30
0.0
  0
VERTEX
  5
48D
  8
0
  6
CONTINUOUS
 62
     7
 10
70.6664886474
 20
132.7861319355
 30
0.0
  0
VERTEX
  5
48E
  8
0
  6
CONTINUOUS
 62
     7
 10
70.7237693304
 20
132.8079507178
 30
0.0
  0
SEQEND
  5
5A7
  8
0
  6
CONTINUOUS
 62
     7
  0
LINE
  5
158
  8
0
  6
CONTINUOUS
 62
     7
 10
70.1286517889
 20
130.3524206936
 30
0.0
 11
70.1222281603
 21
130.3894288341
 31
0.0
  0
ARC
  5
159
  8
0
  6
CONTINUOUS
 62
     7
 10
70.1266455082
 20
130.3369770639
 30
0.0
 40
0.0151049842105765
 50
223.5748227193
 51
252.5395413042
  0
POLYLINE
  5
15A
  8
0
  6
CONTINUOUS
 62
     7
 66
     1
 10
0.0
 20
0.0
 30
0.0
 70
   128
  0
VERTEX
  5
48F
  8
0
  6
CONTINUOUS
 62
     7
 10
70.2161065567
 20
132.3836054399
 30
0.0
  0
VERTEX
  5
490
  8
0
  6
CONTINUOUS
 62
     7
 10
70.2448127602
 20
132.4336543061
 30
0.0
  0
VERTEX
  5
491
  8
0
  6
CONTINUOUS
 62
     7
 10
70.292898308
 20
132.4729074989
 30
0.0
  0
SEQEND
  5
5A8
  8
0
  6
CONTINUOUS
 62
     7
  0
LINE
  5
15B
  8
0
  6
CONTINUOUS
 62
     7
 10
70.2204941804
 20
132.3670965893
 30
0.0
 11
70.2307170204
 21
132.3498018207
 31
0.0
  0
LINE
  5
15C
  8
0
  6
CONTINUOUS
 62
     7
 10
70.2161065567
 20
132.3836054399
 30
0.0
 11
70.2204941804
 21
132.3670965893
 31
0.0
  0
ARC
  5
15D
  8
0
  6
CONTINUOUS
 62
     7
 10
70.0334707992
 20
129.2760378825
 30
0.0
 40
0.0151049842120518
 50
223.5748227209
 51
252.5395413028
  0
ARC
  5
15E
  8
0
  6
CONTINUOUS
 62
     7
 10
70.656389172
 20
132.3838837108
 30
0.0
 40
0.434521656608981
 50
105.9298414285
 51
165.8779676221
  0
LINE
  5
15F
  8
0
  6
CONTINUOUS
 62
     7
 10
70.0177132786
 20
129.1993641238
 30
0.0
 11
70.0298069935
 21
129.2269187477
 31
0.0
  0
ARC
  5
160
  8
0
  6
CONTINUOUS
 62
     7
 10
70.025575495
 20
129.2044678406
 30
0.0
 40
0.009373493100494
 50
212.9894080949
 51
252.3091788636
  0
ARC
  5
161
  8
0
  6
CONTINUOUS
 62
     7
 10
69.8724513621
 20
127.4135232278
 30
0.0
 40
0.01917651159392
 50
234.1740858165
 51
246.111301169
  0
ARC
  5
162
  8
0
  6
CONTINUOUS
 62
     7
 10
69.8635950759
 20
127.401552495
 30
0.0
 40
0.0042903765511152
 50
203.8749584092
 51
236.4971597011
  0
LINE
  5
163
  8
0
  6
CONTINUOUS
 62
     7
 10
70.2232089669
 20
132.3031492397
 30
0.0
 11
70.2032704279
 21
132.3105128587
 31
0.0
  0
LINE
  5
164
  8
0
  6
CONTINUOUS
 62
     7
 10
70.2032704278
 20
132.3105128579
 30
0.0
 11
70.216106433
 21
132.3836050887
 31
0.0
  0
LINE
  5
165
  8
0
  6
CONTINUOUS
 62
     7
 10
70.2032704278
 20
132.3105128579
 30
0.0
 11
70.1533690315
 21
132.3480236436
 31
0.0
  0
ARC
  5
166
  8
0
  6
CONTINUOUS
 62
     7
 10
70.7480747237
 20
132.2955522599
 30
0.0
 40
0.5970161454961572
 50
129.8632378656
 51
174.9582043959
  0
ARC
  5
167
  8
0
  6
CONTINUOUS
 62
     7
 10
70.7172318082
 20
132.3661966877
 30
0.0
 40
0.5234682184622583
 50
92.93071115
 51
132.2287504245
  0
ARC
  5
168
  8
0
  6
CONTINUOUS
 62
     7
 10
70.0335881525
 20
127.3914692194
 30
0.0
 40
0.1741165083067824
 50
177.2523074475
 51
229.2585463893
  0
LINE
  5
169
  8
0
  6
CONTINUOUS
 62
     7
 10
69.7674917142
 20
127.3484934766
 30
0.0
 11
69.7874302532
 21
127.3411298576
 31
0.0
  0
LINE
  5
16A
  8
0
  6
CONTINUOUS
 62
     7
 10
69.7674917116
 20
127.3484934465
 30
0.0
 11
70.2032704279
 21
132.3105128583
 31
0.0
  0
ARC
  5
16B
  8
0
  6
CONTINUOUS
 62
     7
 10
70.3719463486
 20
126.9561745586
 30
0.0
 40
0.1525406970368694
 50
210.1901783908
 51
266.0880747442
  0
ARC
  5
16C
  8
0
  6
CONTINUOUS
 62
     7
 10
70.3434308653
 20
126.8078736786
 30
0.0
 40
0.018686876473698
 50
347.5118376386
 51
352.9942438819
  0
ARC
  5
16D
  8
0
  6
CONTINUOUS
 62
     7
 10
70.3620994625
 20
126.8039213824
 30
0.0
 40
0.000563989304612
 50
173.086927285
 51
207.0781955335
  0
LINE
  5
16E
  8
0
  6
CONTINUOUS
 62
     7
 10
69.7320904359
 20
127.5511103293
 30
0.0
 11
69.7175902751
 21
127.3860042304
 31
0.0
  0
LINE
  5
16F
  8
0
  6
CONTINUOUS
 62
     7
 10
69.7600343047
 20
127.8692940516
 30
0.0
 11
69.7320904359
 21
127.5511103293
 31
0.0
  0
LINE
  5
170
  8
0
  6
CONTINUOUS
 62
     7
 10
70.1533690315
 20
132.3480236436
 30
0.0
 11
69.7600342135
 21
127.8692941201
 31
0.0
  0
LINE
  5
171
  8
0
  6
CONTINUOUS
 62
     7
 10
69.7175902751
 20
127.3860042304
 30
0.0
 11
69.7674917089
 21
127.3484934165
 31
0.0
  0
POLYLINE
  5
172
  8
0
  6
CONTINUOUS
 62
     7
 66
     1
 10
0.0
 20
0.0
 30
0.0
 70
   128
  0
VERTEX
  5
492
  8
0
  6
CONTINUOUS
 62
     7
 10
69.7865860754
 20
127.2927224652
 30
0.0
  0
VERTEX
  5
493
  8
0
  6
CONTINUOUS
 62
     7
 10
69.7961065007
 20
127.2232849129
 30
0.0
  0
VERTEX
  5
494
  8
0
  6
CONTINUOUS
 62
     7
 10
69.8264282596
 20
127.1614179449
 30
0.0
  0
SEQEND
  5
5A9
  8
0
  6
CONTINUOUS
 62
     7
  0
LINE
  5
173
  8
0
  6
CONTINUOUS
 62
     7
 10
70.2714733311
 20
126.8051005186
 30
0.0
 11
70.3615395735
 21
126.803989266
 31
0.0
  0
POLYLINE
  5
174
  8
0
  6
CONTINUOUS
 62
     7
 66
     1
 10
0.0
 20
0.0
 30
0.0
 70
   128
  0
VERTEX
  5
495
  8
0
  6
CONTINUOUS
 62
     7
 10
70.0984765643
 20
126.8384374991
 30
0.0
  0
VERTEX
  5
496
  8
0
  6
CONTINUOUS
 62
     7
 10
70.1550348221
 20
126.7971666251
 30
0.0
  0
VERTEX
  5
497
  8
0
  6
CONTINUOUS
 62
     7
 10
70.2217125268
 20
126.7761503925
 30
0.0
  0
SEQEND
  5
5AA
  8
0
  6
CONTINUOUS
 62
     7
  0
LINE
  5
175
  8
0
  6
CONTINUOUS
 62
     7
 10
70.269123977
 20
126.7692541039
 30
0.0
 11
70.2217124151
 21
126.7761490666
 31
0.0
  0
POLYLINE
  5
176
  8
0
  6
CONTINUOUS
 62
     7
 66
     1
 10
0.0
 20
0.0
 30
0.0
 70
   128
  0
VERTEX
  5
498
  8
0
  6
CONTINUOUS
 62
     7
 10
69.8264282596
 20
127.1614179449
 30
0.0
  0
VERTEX
  5
499
  8
0
  6
CONTINUOUS
 62
     7
 10
69.7863051816
 20
127.21285269
 30
0.0
  0
VERTEX
  5
49A
  8
0
  6
CONTINUOUS
 62
     7
 10
69.7672604209
 20
127.2727643004
 30
0.0
  0
SEQEND
  5
5AB
  8
0
  6
CONTINUOUS
 62
     7
  0
LINE
  5
177
  8
0
  6
CONTINUOUS
 62
     7
 10
69.7739678842
 20
127.2827032464
 30
0.0
 11
69.7672604209
 21
127.2727643004
 31
0.0
  0
LINE
  5
178
  8
0
  6
CONTINUOUS
 62
     7
 10
69.7865860754
 20
127.2927224652
 30
0.0
 11
69.7739678842
 21
127.2827032464
 31
0.0
  0
POLYLINE
  5
179
  8
0
  6
CONTINUOUS
 62
     7
 66
     1
 10
0.0
 20
0.0
 30
0.0
 70
   128
  0
VERTEX
  5
49B
  8
0
  6
CONTINUOUS
 62
     7
 10
70.1932325127
 20
126.7670244335
 30
0.0
  0
VERTEX
  5
49C
  8
0
  6
CONTINUOUS
 62
     7
 10
70.1401330394
 20
126.7927757333
 30
0.0
  0
VERTEX
  5
49D
  8
0
  6
CONTINUOUS
 62
     7
 10
70.0984765643
 20
126.8384374991
 30
0.0
  0
SEQEND
  5
5AC
  8
0
  6
CONTINUOUS
 62
     7
  0
LINE
  5
17A
  8
0
  6
CONTINUOUS
 62
     7
 10
70.2069987245
 20
126.7686027329
 30
0.0
 11
70.2217125268
 21
126.7761503925
 31
0.0
  0
ARC
  5
17B
  8
0
  6
CONTINUOUS
 62
     7
 10
70.1963566387
 20
126.8006000834
 30
0.0
 40
0.0337206825422703
 50
264.6840844474
 51
288.3967497036
  0
LINE
  5
17C
  8
0
  6
CONTINUOUS
 62
     7
 10
69.7672545117
 20
127.2727643259
 30
0.0
 11
69.7674917142
 21
127.3484934766
 31
0.0
  0
ARC
  5
17D
  8
0
  6
CONTINUOUS
 62
     7
 10
70.2708605575
 20
127.2712065322
 30
0.0
 40
0.510123152704085
 50
190.0658254059
 51
261.2470034981
  0
LINE
  5
17E
  8
0
  6
CONTINUOUS
 62
     7
 10
70.269123977
 20
126.7692541039
 30
0.0
 11
70.2673795809
 21
126.755017298
 31
0.0
  0
LINE
  5
17F
  8
0
  6
CONTINUOUS
 62
     7
 10
70.2673795808
 20
126.755017298
 30
0.0
 11
70.1932328947
 21
126.7670244139
 31
0.0
  0
LINE
  5
180
  8
0
  6
CONTINUOUS
 62
     7
 10
70.2630216893
 20
126.7384667252
 30
0.0
 11
70.2673874878
 21
126.7550166089
 31
0.0
  0
ARC
  5
181
  8
0
  6
CONTINUOUS
 62
     7
 10
70.3149262962
 20
127.3369254409
 30
0.0
 40
0.600705429902456
 50
220.1364312079
 51
265.0427749072
  0
ARC
  5
182
  8
0
  6
CONTINUOUS
 62
     7
 10
70.3115308389
 20
127.3339851609
 30
0.0
 40
0.596214232542118
 50
174.9946368756
 51
220.1307485536
  0
LINE
  5
183
  8
0
  6
CONTINUOUS
 62
     7
 10
70.4741774538
 20
126.7200632876
 30
0.0
 11
70.2630216713
 21
126.7384665229
 31
0.0
  0
LINE
  5
184
  8
0
  6
CONTINUOUS
 62
     7
 10
72.56631553
 20
118.883397211
 30
0.0
 11
72.5945525887
 21
118.8579724491
 31
0.0
  0
LINE
  5
185
  8
0
  6
CONTINUOUS
 62
     7
 10
72.8184960644
 20
119.1634718751
 30
0.0
 11
72.56631553
 21
118.883397211
 31
0.0
  0
ARC
  5
186
  8
0
  6
CONTINUOUS
 62
     7
 10
72.8568482923
 20
119.1866812724
 30
0.0
 40
0.0448282361349972
 50
211.1810051383
 51
261.9349776909
  0
LINE
  5
187
  8
0
  6
CONTINUOUS
 62
     7
 10
72.5945525887
 20
118.8579724491
 30
0.0
 11
72.8505590333
 21
119.1422964104
 31
0.0
  0
ARC
  5
188
  8
0
  6
CONTINUOUS
 62
     7
 10
73.301065593
 20
120.9130907419
 30
0.0
 40
1.827202431317976
 50
255.7262304763
 51
290.2737695237
  0
ARC
  5
189
  8
0
  6
CONTINUOUS
 62
     7
 10
72.6819880956
 20
119.0724005027
 30
0.0
 40
0.1640987928697179
 50
33.7092104119
 51
74.6027282428
  0
ARC
  5
18A
  8
0
  6
CONTINUOUS
 62
     7
 10
73.301065593
 20
120.9130907419
 30
0.0
 40
1.778187903625894
 50
251.1162938298
 51
294.8837061702
  0
ARC
  5
18B
  8
0
  6
CONTINUOUS
 62
     7
 10
74.1091565685
 20
119.1471947641
 30
0.0
 40
0.1640993329317319
 50
111.3973206134
 51
152.2906062513
  0
ARC
  5
18C
  8
0
  6
CONTINUOUS
 62
     7
 10
73.9205195458
 20
119.2459620781
 30
0.0
 40
0.0488306081325894
 50
286.2730690404
 51
332.6113797568
  0
LINE
  5
18D
  8
0
  6
CONTINUOUS
 62
     7
 10
75.330759124
 20
120.1783406789
 30
0.0
 11
75.3561838858
 21
120.2065777376
 31
0.0
  0
LINE
  5
18E
  8
0
  6
CONTINUOUS
 62
     7
 10
75.0506844598
 20
120.4305212133
 30
0.0
 11
75.330759124
 21
120.1783406789
 31
0.0
  0
ARC
  5
18F
  8
0
  6
CONTINUOUS
 62
     7
 10
75.0274750626
 20
120.4688734412
 30
0.0
 40
0.044828236133905
 50
301.1810051374
 51
351.93497769
  0
LINE
  5
190
  8
0
  6
CONTINUOUS
 62
     7
 10
75.3561838858
 20
120.2065777376
 30
0.0
 11
75.0718599246
 21
120.4625841822
 31
0.0
  0
ARC
  5
191
  8
0
  6
CONTINUOUS
 62
     7
 10
73.301065593
 20
120.9130907419
 30
0.0
 40
1.827202431317982
 50
345.7262304763
 51
20.2737695236
  0
ARC
  5
192
  8
0
  6
CONTINUOUS
 62
     7
 10
75.1417558322
 20
120.2940132445
 30
0.0
 40
0.1640987928711293
 50
123.7092104122
 51
164.6027282431
  0
ARC
  5
193
  8
0
  6
CONTINUOUS
 62
     7
 10
73.301065593
 20
120.9130907419
 30
0.0
 40
1.778187903625904
 50
341.1162938298
 51
24.8837061702
  0
ARC
  5
194
  8
0
  6
CONTINUOUS
 62
     7
 10
75.0669615708
 20
121.7211817174
 30
0.0
 40
0.1640993329316227
 50
201.3973206133
 51
242.2906062513
  0
ARC
  5
195
  8
0
  6
CONTINUOUS
 62
     7
 10
74.9681942568
 20
121.5325446947
 30
0.0
 40
0.0488306081327304
 50
16.2730690405
 51
62.6113797567
  0
ARC
  5
196
  8
0
  6
CONTINUOUS
 62
     7
 10
73.301065593
 20
120.9130907419
 30
0.0
 40
1.827202431317972
 50
165.7262304763
 51
200.2737695236
  0
ARC
  5
197
  8
0
  6
CONTINUOUS
 62
     7
 10
71.5746561234
 20
121.3573080426
 30
0.0
 40
0.0448282361127981
 50
121.1810050861
 51
171.9349776981
  0
ARC
  5
198
  8
0
  6
CONTINUOUS
 62
     7
 10
71.4603753538
 20
121.5321682393
 30
0.0
 40
0.1640987929250333
 50
303.7092104305
 51
344.6027282383
  0
ARC
  5
199
  8
0
  6
CONTINUOUS
 62
     7
 10
73.301065593
 20
120.9130907419
 30
0.0
 40
1.778187903625891
 50
161.1162938298
 51
204.8837061702
  0
ARC
  5
19A
  8
0
  6
CONTINUOUS
 62
     7
 10
71.5351696152
 20
120.1049997665
 30
0.0
 40
0.1640993329319118
 50
21.3973206134
 51
62.2906062513
  0
ARC
  5
19B
  8
0
  6
CONTINUOUS
 62
     7
 10
71.6339369292
 20
120.2936367891
 30
0.0
 40
0.0488306081324348
 50
196.2730690403
 51
242.6113797569
  0
LINE
  5
19C
  8
0
  6
CONTINUOUS
 62
     7
 10
71.2713720621
 20
121.6478408049
 30
0.0
 11
71.2459473002
 21
121.6196037462
 31
0.0
  0
LINE
  5
19D
  8
0
  6
CONTINUOUS
 62
     7
 10
71.5514467262
 20
121.3956602705
 30
0.0
 11
71.2713720621
 21
121.6478408049
 31
0.0
  0
LINE
  5
19E
  8
0
  6
CONTINUOUS
 62
     7
 10
71.2459473002
 20
121.6196037462
 30
0.0
 11
71.5302712615
 21
121.3635973016
 31
0.0
  0
ARC
  5
19F
  8
0
  6
CONTINUOUS
 62
     7
 10
72.4929749462
 20
122.6789862661
 30
0.0
 40
0.1640987907225373
 50
291.3972715638
 51
332.2907903165
  0
ARC
  5
1A0
  8
0
  6
CONTINUOUS
 62
     7
 10
72.6816118868
 20
122.5802190283
 30
0.0
 40
0.0488310395003746
 50
106.2732227079
 51
152.6107927712
  0
ARC
  5
1A1
  8
0
  6
CONTINUOUS
 62
     7
 10
73.301065593
 20
120.9130907419
 30
0.0
 40
1.827202431317977
 50
75.7262304763
 51
110.2737695236
  0
ARC
  5
1A2
  8
0
  6
CONTINUOUS
 62
     7
 10
73.7452828937
 20
122.6395002115
 30
0.0
 40
0.0448282361199684
 50
31.1810051036
 51
81.9349776954
  0
ARC
  5
1A3
  8
0
  6
CONTINUOUS
 62
     7
 10
73.9201430904
 20
122.7537809811
 30
0.0
 40
0.1640987929065105
 50
213.7092104242
 51
254.6027282399
  0
ARC
  5
1A4
  8
0
  6
CONTINUOUS
 62
     7
 10
73.301065593
 20
120.9130907419
 30
0.0
 40
1.778187903625895
 50
71.1162938298
 51
114.8837061702
  0
LINE
  5
1A5
  8
0
  6
CONTINUOUS
 62
     7
 10
74.035815656
 20
122.9427842729
 30
0.0
 11
74.0075785973
 21
122.9682090347
 31
0.0
  0
LINE
  5
1A6
  8
0
  6
CONTINUOUS
 62
     7
 10
73.7836351216
 20
122.6627096087
 30
0.0
 11
74.035815656
 21
122.9427842729
 31
0.0
  0
LINE
  5
1A7
  8
0
  6
CONTINUOUS
 62
     7
 10
74.0075785973
 20
122.9682090347
 30
0.0
 11
73.7515721527
 21
122.6838850735
 31
0.0
  0
ARC
  5
1A8
  8
0
  6
CONTINUOUS
 62
     7
 10
75.41661179
 20
119.0082492531
 30
0.0
 40
0.0555175972469631
 50
273.2057931089
 51
2.5647360819
  0
LINE
  5
1A9
  8
0
  6
CONTINUOUS
 62
     7
 10
75.4197164704
 20
118.9528185345
 30
0.0
 11
71.3989251483
 21
118.7420977903
 31
0.0
  0
ARC
  5
1AA
  8
0
  6
CONTINUOUS
 62
     7
 10
71.3962185227
 20
118.7975491465
 30
0.0
 40
0.0555173731536972
 50
183.4350352191
 51
272.79443559
  0
LINE
  5
1AB
  8
0
  6
CONTINUOUS
 62
     7
 10
71.3408008933
 20
118.794222725
 30
0.0
 11
71.1300574108
 21
122.8154479214
 31
0.0
  0
ARC
  5
1AC
  8
0
  6
CONTINUOUS
 62
     7
 10
71.1855193961
 20
122.8179322307
 30
0.0
 40
0.0555175972469489
 50
93.2057931089
 51
182.5647360819
  0
LINE
  5
1AD
  8
0
  6
CONTINUOUS
 62
     7
 10
71.1824147157
 20
122.8733629493
 30
0.0
 11
75.2032060377
 21
123.0840836935
 31
0.0
  0
ARC
  5
1AE
  8
0
  6
CONTINUOUS
 62
     7
 10
75.2059126634
 20
123.0286323373
 30
0.0
 40
0.0555173731536765
 50
3.4350352191
 51
92.79443559
  0
LINE
  5
1AF
  8
0
  6
CONTINUOUS
 62
     7
 10
75.2613302927
 20
123.0319587588
 30
0.0
 11
75.4720737753
 21
119.0107335624
 31
0.0
  0
LINE
  5
1B0
  8
0
  6
CONTINUOUS
 62
     7
 10
72.6679285452
 20
122.6270937185
 30
0.0
 11
72.3836045839
 21
122.8831001631
 31
0.0
  0
ARC
  5
1B1
  8
0
  6
CONTINUOUS
 62
     7
 10
72.2663772317
 20
122.7541552561
 30
0.0
 40
0.1742671545540297
 50
47.7251652653
 51
138.2748347347
  0
LINE
  5
1B2
  8
0
  6
CONTINUOUS
 62
     7
 10
72.1363136501
 20
122.8701401944
 30
0.0
 11
71.2329873315
 21
121.86689468
 31
0.0
  0
ARC
  5
1B3
  8
0
  6
CONTINUOUS
 62
     7
 10
71.3619322385
 20
121.7496673277
 30
0.0
 40
0.1742671545533819
 50
137.7251652652
 51
228.2748347347
  0
LINE
  5
1B4
  8
0
  6
CONTINUOUS
 62
     7
 10
71.5870626165
 20
120.2799536941
 30
0.0
 11
71.3310561719
 21
119.9956297328
 31
0.0
  0
ARC
  5
1B5
  8
0
  6
CONTINUOUS
 62
     7
 10
71.4600010789
 20
119.8784023805
 30
0.0
 40
0.1742671545540472
 50
137.7251652653
 51
228.2748347347
  0
LINE
  5
1B6
  8
0
  6
CONTINUOUS
 62
     7
 10
71.3440161405
 20
119.748338799
 30
0.0
 11
72.3472616549
 21
118.8450124804
 31
0.0
  0
ARC
  5
1B7
  8
0
  6
CONTINUOUS
 62
     7
 10
72.4644890072
 20
118.9739573874
 30
0.0
 40
0.1742671545533714
 50
227.7251652652
 51
318.2748347348
  0
LINE
  5
1B8
  8
0
  6
CONTINUOUS
 62
     7
 10
73.9342026409
 20
119.1990877654
 30
0.0
 11
74.2185266021
 21
118.9430813208
 31
0.0
  0
ARC
  5
1B9
  8
0
  6
CONTINUOUS
 62
     7
 10
74.3357539544
 20
119.0720262278
 30
0.0
 40
0.1742671545540781
 50
227.7251652653
 51
318.2748347347
  0
LINE
  5
1BA
  8
0
  6
CONTINUOUS
 62
     7
 10
74.4658175359
 20
118.9560412894
 30
0.0
 11
75.3691438545
 21
119.9592868038
 31
0.0
  0
ARC
  5
1BB
  8
0
  6
CONTINUOUS
 62
     7
 10
75.2401989475
 20
120.0765141561
 30
0.0
 40
0.1742671545534275
 50
317.7251652653
 51
48.2748347347
  0
LINE
  5
1BC
  8
0
  6
CONTINUOUS
 62
     7
 10
75.0150685696
 20
121.5462277898
 30
0.0
 11
75.2710750142
 21
121.830551751
 31
0.0
  0
ARC
  5
1BD
  8
0
  6
CONTINUOUS
 62
     7
 10
75.1421301072
 20
121.9477791033
 30
0.0
 40
0.1742671545540568
 50
317.7251652653
 51
48.2748347347
  0
LINE
  5
1BE
  8
0
  6
CONTINUOUS
 62
     7
 10
75.2581150455
 20
122.0778426848
 30
0.0
 11
74.2548695311
 21
122.9811690034
 31
0.0
  0
ARC
  5
1BF
  8
0
  6
CONTINUOUS
 62
     7
 10
74.1376421788
 20
122.8522240964
 30
0.0
 40
0.1742671545534168
 50
47.7251652653
 51
138.2748347347
  0
CIRCLE
  5
1C0
  8
0
  6
CONTINUOUS
 62
     7
 10
71.4432035293
 20
122.5859172578
 30
0.0
 40
0.2250000000001146
  0
LINE
  5
1C1
  8
0
  6
CONTINUOUS
 62
     7
 10
75.3409067958
 20
119.9847115657
 30
0.0
 11
74.4375804772
 21
118.9814660513
 31
0.0
  0
LINE
  5
1C2
  8
0
  6
CONTINUOUS
 62
     7
 10
75.3409067958
 20
119.9847115657
 30
0.0
 11
75.3691438545
 21
119.9592868038
 31
0.0
  0
LINE
  5
1C3
  8
0
  6
CONTINUOUS
 62
     7
 10
74.4375804772
 20
118.9814660513
 30
0.0
 11
74.4658175359
 21
118.9560412894
 31
0.0
  0
LINE
  5
1C4
  8
0
  6
CONTINUOUS
 62
     7
 10
71.2612243902
 20
121.8414699181
 30
0.0
 11
72.1645507088
 21
122.8447154325
 31
0.0
  0
LINE
  5
1C5
  8
0
  6
CONTINUOUS
 62
     7
 10
71.2612243902
 20
121.8414699181
 30
0.0
 11
71.2329873315
 21
121.86689468
 31
0.0
  0
LINE
  5
1C6
  8
0
  6
CONTINUOUS
 62
     7
 10
72.1645507088
 20
122.8447154325
 30
0.0
 11
72.1363136501
 21
122.8701401944
 31
0.0
  0
LINE
  5
1C7
  8
0
  6
CONTINUOUS
 62
     7
 10
74.2294447692
 20
122.9529319447
 30
0.0
 11
75.2326902836
 21
122.0496056261
 31
0.0
  0
LINE
  5
1C8
  8
0
  6
CONTINUOUS
 62
     7
 10
74.2294447692
 20
122.9529319447
 30
0.0
 11
74.2548695311
 21
122.9811690034
 31
0.0
  0
LINE
  5
1C9
  8
0
  6
CONTINUOUS
 62
     7
 10
75.2326902836
 20
122.0496056261
 30
0.0
 11
75.2581150455
 21
122.0778426848
 31
0.0
  0
LINE
  5
1CA
  8
0
  6
CONTINUOUS
 62
     7
 10
72.3726864168
 20
118.8732495391
 30
0.0
 11
71.3694409024
 21
119.7765758577
 31
0.0
  0
LINE
  5
1CB
  8
0
  6
CONTINUOUS
 62
     7
 10
72.3726864168
 20
118.8732495391
 30
0.0
 11
72.3472616549
 21
118.8450124804
 31
0.0
  0
LINE
  5
1CC
  8
0
  6
CONTINUOUS
 62
     7
 10
71.3694409024
 20
119.7765758577
 30
0.0
 11
71.3440161405
 21
119.748338799
 31
0.0
  0
LINE
  5
1CD
  8
0
  6
CONTINUOUS
 62
     7
 10
72.3581798221
 20
122.8548631044
 30
0.0
 11
72.3836045839
 21
122.8831001631
 31
0.0
  0
LINE
  5
1CE
  8
0
  6
CONTINUOUS
 62
     7
 10
72.3581798221
 20
122.8548631044
 30
0.0
 11
72.6382546595
 21
122.6026827628
 31
0.0
  0
LINE
  5
1CF
  8
0
  6
CONTINUOUS
 62
     7
 10
71.3592932306
 20
119.9702049709
 30
0.0
 11
71.3310561719
 21
119.9956297328
 31
0.0
  0
LINE
  5
1D0
  8
0
  6
CONTINUOUS
 62
     7
 10
71.3592932306
 20
119.9702049709
 30
0.0
 11
71.6114737048
 21
120.2502797616
 31
0.0
  0
LINE
  5
1D1
  8
0
  6
CONTINUOUS
 62
     7
 10
74.2185266021
 20
118.9430813208
 30
0.0
 11
74.243951364
 21
118.9713183795
 31
0.0
  0
LINE
  5
1D2
  8
0
  6
CONTINUOUS
 62
     7
 10
74.243951364
 20
118.9713183795
 30
0.0
 11
73.9638765733
 21
119.2234988537
 31
0.0
  0
LINE
  5
1D3
  8
0
  6
CONTINUOUS
 62
     7
 10
75.2428379555
 20
121.8559765129
 30
0.0
 11
75.2710750142
 21
121.830551751
 31
0.0
  0
LINE
  5
1D4
  8
0
  6
CONTINUOUS
 62
     7
 10
75.2428379555
 20
121.8559765129
 30
0.0
 11
74.9906574813
 21
121.5759017222
 31
0.0
  0
LINE
  5
1D5
  8
0
  6
CONTINUOUS
 62
     7
 10
71.0726558328
 20
122.8120531862
 30
0.0
 11
71.2833589208
 21
118.7915987648
 31
0.0
  0
POLYLINE
  5
1D6
  8
0
  6
CONTINUOUS
 62
     7
 66
     1
 10
0.0
 20
0.0
 30
0.0
 70
   128
  0
VERTEX
  5
49E
  8
0
  6
CONTINUOUS
 62
     7
 10
71.0726558328
 20
122.8120531862
 30
0.0
  0
VERTEX
  5
49F
  8
0
  6
CONTINUOUS
 62
     7
 10
71.099954943
 20
122.813677095
 30
0.0
  0
VERTEX
  5
4A0
  8
0
  6
CONTINUOUS
 62
     7
 10
71.1300574108
 20
122.8154479214
 30
0.0
  0
SEQEND
  5
5AD
  8
0
  6
CONTINUOUS
 62
     7
  0
POLYLINE
  5
1D7
  8
0
  6
CONTINUOUS
 62
     7
 66
     1
 10
0.0
 20
0.0
 30
0.0
 70
   128
  0
VERTEX
  5
4A1
  8
0
  6
CONTINUOUS
 62
     7
 10
71.2833589208
 20
118.7915987648
 30
0.0
  0
VERTEX
  5
4A2
  8
0
  6
CONTINUOUS
 62
     7
 10
71.3106782283
 20
118.792837286
 30
0.0
  0
VERTEX
  5
4A3
  8
0
  6
CONTINUOUS
 62
     7
 10
71.3408008933
 20
118.794222725
 30
0.0
  0
SEQEND
  5
5AE
  8
0
  6
CONTINUOUS
 62
     7
  0
LINE
  5
1D8
  8
0
  6
CONTINUOUS
 62
     7
 10
75.5294753532
 20
119.0141282976
 30
0.0
 11
75.3187722653
 21
123.034582719
 31
0.0
  0
POLYLINE
  5
1D9
  8
0
  6
CONTINUOUS
 62
     7
 66
     1
 10
0.0
 20
0.0
 30
0.0
 70
   128
  0
VERTEX
  5
4A4
  8
0
  6
CONTINUOUS
 62
     7
 10
75.5294753532
 20
119.0141282976
 30
0.0
  0
VERTEX
  5
4A5
  8
0
  6
CONTINUOUS
 62
     7
 10
75.502176243
 20
119.0125043889
 30
0.0
  0
VERTEX
  5
4A6
  8
0
  6
CONTINUOUS
 62
     7
 10
75.4720737753
 20
119.0107335624
 30
0.0
  0
SEQEND
  5
5AF
  8
0
  6
CONTINUOUS
 62
     7
  0
POLYLINE
  5
1DA
  8
0
  6
CONTINUOUS
 62
     7
 66
     1
 10
0.0
 20
0.0
 30
0.0
 70
   128
  0
VERTEX
  5
4A7
  8
0
  6
CONTINUOUS
 62
     7
 10
75.3187722653
 20
123.034582719
 30
0.0
  0
VERTEX
  5
4A8
  8
0
  6
CONTINUOUS
 62
     7
 10
75.2914529578
 20
123.0333441978
 30
0.0
  0
VERTEX
  5
4A9
  8
0
  6
CONTINUOUS
 62
     7
 10
75.2613302927
 20
123.0319587588
 30
0.0
  0
SEQEND
  5
5B0
  8
0
  6
CONTINUOUS
 62
     7
  0
POLYLINE
  5
1DB
  8
0
  6
CONTINUOUS
 62
     7
 66
     1
 10
0.0
 20
0.0
 30
0.0
 70
   128
  0
VERTEX
  5
4AA
  8
0
  6
CONTINUOUS
 62
     7
 10
75.4197164704
 20
118.9528185345
 30
0.0
  0
VERTEX
  5
4AB
  8
0
  6
CONTINUOUS
 62
     7
 10
75.4211853985
 20
118.9227232008
 30
0.0
  0
VERTEX
  5
4AC
  8
0
  6
CONTINUOUS
 62
     7
 10
75.4225077697
 20
118.895424339
 30
0.0
  0
SEQEND
  5
5B1
  8
0
  6
CONTINUOUS
 62
     7
  0
LINE
  5
1DC
  8
0
  6
CONTINUOUS
 62
     7
 10
71.402148467
 20
118.684726236
 30
0.0
 11
75.4225077697
 21
118.895424339
 31
0.0
  0
POLYLINE
  5
1DD
  8
0
  6
CONTINUOUS
 62
     7
 66
     1
 10
0.0
 20
0.0
 30
0.0
 70
   128
  0
VERTEX
  5
4AD
  8
0
  6
CONTINUOUS
 62
     7
 10
71.402148467
 20
118.684726236
 30
0.0
  0
VERTEX
  5
4AE
  8
0
  6
CONTINUOUS
 62
     7
 10
71.4006100861
 20
118.7120137772
 30
0.0
  0
VERTEX
  5
4AF
  8
0
  6
CONTINUOUS
 62
     7
 10
71.3989251483
 20
118.7420977903
 30
0.0
  0
SEQEND
  5
5B2
  8
0
  6
CONTINUOUS
 62
     7
  0
POLYLINE
  5
1DE
  8
0
  6
CONTINUOUS
 62
     7
 66
     1
 10
0.0
 20
0.0
 30
0.0
 70
   128
  0
VERTEX
  5
4B0
  8
0
  6
CONTINUOUS
 62
     7
 10
71.1796234163
 20
122.9307571448
 30
0.0
  0
VERTEX
  5
4B1
  8
0
  6
CONTINUOUS
 62
     7
 10
71.1809457876
 20
122.903458283
 30
0.0
  0
VERTEX
  5
4B2
  8
0
  6
CONTINUOUS
 62
     7
 10
71.1824147157
 20
122.8733629493
 30
0.0
  0
SEQEND
  5
5B3
  8
0
  6
CONTINUOUS
 62
     7
  0
LINE
  5
1DF
  8
0
  6
CONTINUOUS
 62
     7
 10
75.199982719
 20
123.1414552478
 30
0.0
 11
71.1796234163
 21
122.9307571448
 31
0.0
  0
POLYLINE
  5
1E0
  8
0
  6
CONTINUOUS
 62
     7
 66
     1
 10
0.0
 20
0.0
 30
0.0
 70
   128
  0
VERTEX
  5
4B3
  8
0
  6
CONTINUOUS
 62
     7
 10
75.199982719
 20
123.1414552478
 30
0.0
  0
VERTEX
  5
4B4
  8
0
  6
CONTINUOUS
 62
     7
 10
75.2015210999
 20
123.1141677066
 30
0.0
  0
VERTEX
  5
4B5
  8
0
  6
CONTINUOUS
 62
     7
 10
75.2032060377
 20
123.0840836935
 30
0.0
  0
SEQEND
  5
5B4
  8
0
  6
CONTINUOUS
 62
     7
  0
ARC
  5
1E1
  8
0
  6
CONTINUOUS
 62
     7
 10
75.2390184033
 20
120.0764522864
 30
0.0
 40
0.1371043557477227
 50
317.9999999997
 51
47.9999999997
  0
ARC
  5
1E2
  8
0
  6
CONTINUOUS
 62
     7
 10
72.4644271375
 20
118.9751379317
 30
0.0
 40
0.1371043557477026
 50
227.9999999997
 51
317.9999999998
  0
ARC
  5
1E3
  8
0
  6
CONTINUOUS
 62
     7
 10
71.3631127828
 20
121.7497291974
 30
0.0
 40
0.1371043557477121
 50
137.9999999997
 51
227.9999999997
  0
ARC
  5
1E4
  8
0
  6
CONTINUOUS
 62
     7
 10
74.1377040485
 20
122.8510435522
 30
0.0
 40
0.1371043557477026
 50
47.9999999997
 51
137.9999999998
  0
ARC
  5
1E5
  8
0
  6
CONTINUOUS
 62
     7
 10
71.4611816231
 20
119.8784642503
 30
0.0
 40
0.1371043557475703
 50
138.0000000002
 51
228.0000000003
  0
ARC
  5
1E6
  8
0
  6
CONTINUOUS
 62
     7
 10
72.2664391014
 20
122.7529747118
 30
0.0
 40
0.1371043557475597
 50
48.0000000002
 51
138.0000000003
  0
ARC
  5
1E7
  8
0
  6
CONTINUOUS
 62
     7
 10
74.3356920847
 20
119.073206772
 30
0.0
 40
0.1371043557475692
 50
228.0000000001
 51
318.0000000003
  0
ARC
  5
1E8
  8
0
  6
CONTINUOUS
 62
     7
 10
75.1409495629
 20
121.9477172336
 30
0.0
 40
0.1371043557475703
 50
318.0000000002
 51
48.0000000003
  0
ARC
  5
1E9
  8
0
  6
CONTINUOUS
 62
     7
 10
71.4212162554
 20
118.8253744416
 30
0.0
 40
0.1419346836783375
 50
193.7665439802
 51
262.2794239379
  0
ARC
  5
1EA
  8
0
  6
CONTINUOUS
 62
     7
 10
75.1809149306
 20
123.0008070422
 30
0.0
 40
0.1419346836783603
 50
13.7665439802
 51
82.2794239379
  0
ARC
  5
1EB
  8
0
  6
CONTINUOUS
 62
     7
 10
75.3888426989
 20
119.0333089296
 30
0.0
 40
0.1419346802992024
 50
283.7205751331
 51
352.2334569488
  0
ARC
  5
1EC
  8
0
  6
CONTINUOUS
 62
     7
 10
71.2132884871
 20
122.7928725542
 30
0.0
 40
0.1419346802992504
 50
103.7205751331
 51
172.2334569488
  0
CIRCLE
  5
1ED
  8
0
  6
CONTINUOUS
 62
     7
 10
71.4432035293
 20
122.5859172578
 30
0.0
 40
0.0517949192426132
  0
LINE
  5
1EE
  8
0
  6
CONTINUOUS
 62
     7
 10
72.3581798221
 20
122.8548631044
 30
0.0
 11
72.2819055365
 21
122.7701519282
 31
0.0
  0
LINE
  5
1EF
  8
0
  6
CONTINUOUS
 62
     7
 10
72.5528435095
 20
122.5261982815
 30
0.0
 11
72.2819055365
 21
122.7701519282
 31
0.0
  0
LINE
  5
1F0
  8
0
  6
CONTINUOUS
 62
     7
 10
72.56631553
 20
118.883397211
 30
0.0
 11
72.4816043539
 21
118.9596714965
 31
0.0
  0
LINE
  5
1F1
  8
0
  6
CONTINUOUS
 62
     7
 10
72.4816043539
 20
118.9596714965
 30
0.0
 11
72.7255580006
 21
119.2306094696
 31
0.0
  0
LINE
  5
1F2
  8
0
  6
CONTINUOUS
 62
     7
 10
75.330759124
 20
120.1783406789
 30
0.0
 11
75.2544848384
 21
120.0936295028
 31
0.0
  0
LINE
  5
1F3
  8
0
  6
CONTINUOUS
 62
     7
 10
75.2544848384
 20
120.0936295028
 30
0.0
 11
74.9835468653
 21
120.3375831495
 31
0.0
  0
LINE
  5
1F4
  8
0
  6
CONTINUOUS
 62
     7
 10
74.035815656
 20
122.9427842729
 30
0.0
 11
74.1205268321
 21
122.8665099873
 31
0.0
  0
LINE
  5
1F5
  8
0
  6
CONTINUOUS
 62
     7
 10
74.1205268321
 20
122.8665099873
 30
0.0
 11
73.8765731854
 21
122.5955720142
 31
0.0
  0
LINE
  5
1F6
  8
0
  6
CONTINUOUS
 62
     7
 10
71.2713720621
 20
121.6478408049
 30
0.0
 11
71.3476463477
 21
121.732551981
 31
0.0
  0
LINE
  5
1F7
  8
0
  6
CONTINUOUS
 62
     7
 10
71.3476463477
 20
121.732551981
 30
0.0
 11
71.6185843207
 21
121.4885983343
 31
0.0
  0
LINE
  5
1F8
  8
0
  6
CONTINUOUS
 62
     7
 10
75.2428379555
 20
121.8559765129
 30
0.0
 11
75.1581267793
 21
121.9322507985
 31
0.0
  0
LINE
  5
1F9
  8
0
  6
CONTINUOUS
 62
     7
 10
74.9141731326
 20
121.6613128254
 30
0.0
 11
75.1581267793
 21
121.9322507985
 31
0.0
  0
LINE
  5
1FA
  8
0
  6
CONTINUOUS
 62
     7
 10
74.3202256496
 20
119.0560295556
 30
0.0
 11
74.243951364
 21
118.9713183795
 31
0.0
  0
LINE
  5
1FB
  8
0
  6
CONTINUOUS
 62
     7
 10
74.0492876765
 20
119.2999832023
 30
0.0
 11
74.3202256496
 21
119.0560295556
 31
0.0
  0
LINE
  5
1FC
  8
0
  6
CONTINUOUS
 62
     7
 10
71.3592932306
 20
119.9702049709
 30
0.0
 11
71.4440044067
 21
119.8939306854
 31
0.0
  0
LINE
  5
1FD
  8
0
  6
CONTINUOUS
 62
     7
 10
71.6879580534
 20
120.1648686584
 30
0.0
 11
71.4440044067
 21
119.8939306854
 31
0.0
  0
LINE
  5
1FE
  8
0
  6
CONTINUOUS
 62
     7
 10
70.9152919686
 20
122.880689446
 30
0.0
 11
70.9158704225
 21
122.920279713
 31
0.0
  0
POLYLINE
  5
1FF
  8
0
  6
CONTINUOUS
 62
     7
 66
     1
 10
0.0
 20
0.0
 30
0.0
 70
   128
  0
VERTEX
  5
4B6
  8
0
  6
CONTINUOUS
 62
     7
 10
70.9158704225
 20
122.920279713
 30
0.0
  0
VERTEX
  5
4B7
  8
0
  6
CONTINUOUS
 62
     7
 10
70.9308654493
 20
122.9737457714
 30
0.0
  0
VERTEX
  5
4B8
  8
0
  6
CONTINUOUS
 62
     7
 10
70.9611231145
 20
123.019984413
 30
0.0
  0
SEQEND
  5
5B5
  8
0
  6
CONTINUOUS
 62
     7
  0
ARC
  5
200
  8
0
  6
CONTINUOUS
 62
     7
 10
71.096648227
 20
122.8973794895
 30
0.0
 40
0.1827539969170337
 50
90.5592777853
 51
137.8654357203
  0
LINE
  5
201
  8
0
  6
CONTINUOUS
 62
     7
 10
71.0948643499
 20
123.0801247799
 30
0.0
 11
71.179623414
 21
122.9307571886
 31
0.0
  0
LINE
  5
202
  8
0
  6
CONTINUOUS
 62
     7
 10
71.072655744
 20
122.8120531811
 30
0.0
 11
70.9152919686
 21
122.8806894455
 31
0.0
  0
LINE
  5
203
  8
0
  6
CONTINUOUS
 62
     7
 10
75.6868392175
 20
118.9454920378
 30
0.0
 11
75.6862607636
 21
118.9059017708
 31
0.0
  0
POLYLINE
  5
204
  8
0
  6
CONTINUOUS
 62
     7
 66
     1
 10
0.0
 20
0.0
 30
0.0
 70
   128
  0
VERTEX
  5
4B9
  8
0
  6
CONTINUOUS
 62
     7
 10
75.6862607636
 20
118.9059017708
 30
0.0
  0
VERTEX
  5
4BA
  8
0
  6
CONTINUOUS
 62
     7
 10
75.6712657368
 20
118.8524357124
 30
0.0
  0
VERTEX
  5
4BB
  8
0
  6
CONTINUOUS
 62
     7
 10
75.6410080716
 20
118.8061970708
 30
0.0
  0
SEQEND
  5
5B6
  8
0
  6
CONTINUOUS
 62
     7
  0
ARC
  5
205
  8
0
  6
CONTINUOUS
 62
     7
 10
75.5054829591
 20
118.9288019943
 30
0.0
 40
0.182753996916575
 50
270.5592777852
 51
317.8654357203
  0
LINE
  5
206
  8
0
  6
CONTINUOUS
 62
     7
 10
75.5072668361
 20
118.7460567039
 30
0.0
 11
75.4225077672
 21
118.8954243818
 31
0.0
  0
LINE
  5
207
  8
0
  6
CONTINUOUS
 62
     7
 10
75.5294754421
 20
119.0141283027
 30
0.0
 11
75.6868392174
 21
118.9454920384
 31
0.0
  0
LINE
  5
208
  8
0
  6
CONTINUOUS
 62
     7
 10
71.134031555
 20
118.7068894988
 30
0.0
 11
71.283358832
 21
118.7915987601
 31
0.0
  0
LINE
  5
209
  8
0
  6
CONTINUOUS
 62
     7
 10
71.3334668889
 20
118.5273171175
 30
0.0
 11
71.402148465
 21
118.6847262789
 31
0.0
  0
LINE
  5
20A
  8
0
  6
CONTINUOUS
 62
     7
 10
71.2938766219
 20
118.5278955714
 30
0.0
 11
71.3334668889
 21
118.5273171175
 31
0.0
  0
POLYLINE
  5
20B
  8
0
  6
CONTINUOUS
 62
     7
 66
     1
 10
0.0
 20
0.0
 30
0.0
 70
   128
  0
VERTEX
  5
4BC
  8
0
  6
CONTINUOUS
 62
     7
 10
71.1941719219
 20
118.5731482634
 30
0.0
  0
VERTEX
  5
4BD
  8
0
  6
CONTINUOUS
 62
     7
 10
71.2404105635
 20
118.5428905982
 30
0.0
  0
VERTEX
  5
4BE
  8
0
  6
CONTINUOUS
 62
     7
 10
71.2938766219
 20
118.5278955714
 30
0.0
  0
SEQEND
  5
5B7
  8
0
  6
CONTINUOUS
 62
     7
  0
ARC
  5
20C
  8
0
  6
CONTINUOUS
 62
     7
 10
71.3167754475
 20
118.7086727473
 30
0.0
 40
0.1827525929860858
 50
180.5590848569
 51
227.8656285066
  0
LINE
  5
20D
  8
0
  6
CONTINUOUS
 62
     7
 10
75.318772354
 20
123.0345827237
 30
0.0
 11
75.468099631
 21
123.119291985
 31
0.0
  0
LINE
  5
20E
  8
0
  6
CONTINUOUS
 62
     7
 10
75.2686642971
 20
123.2988643663
 30
0.0
 11
75.199982721
 21
123.141455205
 31
0.0
  0
LINE
  5
20F
  8
0
  6
CONTINUOUS
 62
     7
 10
75.3082545641
 20
123.2982859125
 30
0.0
 11
75.2686642971
 21
123.2988643663
 31
0.0
  0
POLYLINE
  5
210
  8
0
  6
CONTINUOUS
 62
     7
 66
     1
 10
0.0
 20
0.0
 30
0.0
 70
   128
  0
VERTEX
  5
4BF
  8
0
  6
CONTINUOUS
 62
     7
 10
75.4079592641
 20
123.2530332205
 30
0.0
  0
VERTEX
  5
4C0
  8
0
  6
CONTINUOUS
 62
     7
 10
75.3617206225
 20
123.2832908857
 30
0.0
  0
VERTEX
  5
4C1
  8
0
  6
CONTINUOUS
 62
     7
 10
75.3082545641
 20
123.2982859125
 30
0.0
  0
SEQEND
  5
5B8
  8
0
  6
CONTINUOUS
 62
     7
  0
ARC
  5
211
  8
0
  6
CONTINUOUS
 62
     7
 10
75.2853557385
 20
123.1175087365
 30
0.0
 40
0.1827525929747968
 50
0.5590850006
 51
47.8656285076
  0
LINE
  5
212
  8
0
  6
CONTINUOUS
 62
     7
 10
75.2686642971
 20
123.2988643663
 30
0.0
 11
75.1920164747
 21
123.2948474242
 31
0.0
  0
LINE
  5
213
  8
0
  6
CONTINUOUS
 62
     7
 10
75.1920164747
 20
123.2948474242
 30
0.0
 11
71.0948643499
 21
123.0801247799
 31
0.0
  0
LINE
  5
214
  8
0
  6
CONTINUOUS
 62
     7
 10
71.4101147114
 20
118.5313340596
 30
0.0
 11
75.5072668361
 21
118.7460567039
 31
0.0
  0
LINE
  5
215
  8
0
  6
CONTINUOUS
 62
     7
 10
71.3334668889
 20
118.5273171175
 30
0.0
 11
71.4101147114
 21
118.5313340596
 31
0.0
  0
LINE
  5
216
  8
0
  6
CONTINUOUS
 62
     7
 10
70.9193089107
 20
122.8040416236
 30
0.0
 11
71.134031555
 21
118.7068894988
 31
0.0
  0
LINE
  5
217
  8
0
  6
CONTINUOUS
 62
     7
 10
70.9152919686
 20
122.880689446
 30
0.0
 11
70.9193089107
 21
122.8040416236
 31
0.0
  0
LINE
  5
218
  8
0
  6
CONTINUOUS
 62
     7
 10
75.468099631
 20
123.119291985
 30
0.0
 11
75.6828222753
 21
119.0221398603
 31
0.0
  0
LINE
  5
219
  8
0
  6
CONTINUOUS
 62
     7
 10
75.6828222753
 20
119.0221398603
 30
0.0
 11
75.6868392175
 21
118.9454920378
 31
0.0
  0
LINE
  5
21A
  8
0
  6
CONTINUOUS
 62
     7
 10
72.3726864168
 20
118.8732495391
 30
0.0
 11
72.4489607024
 21
118.9579607153
 31
0.0
  0
ARC
  5
21B
  8
0
  6
CONTINUOUS
 62
     7
 10
72.4644271375
 20
118.9751379317
 30
0.0
 40
0.023114224596123
 50
227.9999999982
 51
317.999999999
  0
LINE
  5
21C
  8
0
  6
CONTINUOUS
 62
     7
 10
74.4375804772
 20
118.9814660513
 30
0.0
 11
74.3528693011
 21
119.0577403369
 31
0.0
  0
ARC
  5
21D
  8
0
  6
CONTINUOUS
 62
     7
 10
74.3356920847
 20
119.073206772
 30
0.0
 40
0.0231142245960816
 50
228.0000000006
 51
318.000000001
  0
LINE
  5
21E
  8
0
  6
CONTINUOUS
 62
     7
 10
71.3694409024
 20
119.7765758577
 30
0.0
 11
71.445715188
 21
119.8612870338
 31
0.0
  0
LINE
  5
21F
  8
0
  6
CONTINUOUS
 62
     7
 10
71.445715188
 20
119.8612870338
 30
0.0
 11
72.4489607024
 21
118.9579607153
 31
0.0
  0
LINE
  5
220
  8
0
  6
CONTINUOUS
 62
     7
 10
75.3409067958
 20
119.9847115657
 30
0.0
 11
75.2561956197
 21
120.0609858513
 31
0.0
  0
LINE
  5
221
  8
0
  6
CONTINUOUS
 62
     7
 10
74.3528693011
 20
119.0577403369
 30
0.0
 11
75.2561956197
 21
120.0609858513
 31
0.0
  0
ARC
  5
222
  8
0
  6
CONTINUOUS
 62
     7
 10
71.4611816231
 20
119.8784642503
 30
0.0
 40
0.0231142245960816
 50
138.0000000003
 51
228.000000001
  0
ARC
  5
223
  8
0
  6
CONTINUOUS
 62
     7
 10
75.2390184033
 20
120.0764522864
 30
0.0
 40
0.023114224596123
 50
317.9999999982
 51
47.9999999989
  0
LINE
  5
224
  8
0
  6
CONTINUOUS
 62
     7
 10
71.2612243902
 20
121.8414699181
 30
0.0
 11
71.3459355664
 21
121.7651956326
 31
0.0
  0
ARC
  5
225
  8
0
  6
CONTINUOUS
 62
     7
 10
71.3631127828
 20
121.7497291974
 30
0.0
 40
0.023114224596142
 50
137.9999999982
 51
227.9999999989
  0
LINE
  5
226
  8
0
  6
CONTINUOUS
 62
     7
 10
72.1645507088
 20
122.8447154325
 30
0.0
 11
72.249261885
 21
122.7684411469
 31
0.0
  0
LINE
  5
227
  8
0
  6
CONTINUOUS
 62
     7
 10
72.249261885
 20
122.7684411469
 30
0.0
 11
71.3459355664
 21
121.7651956326
 31
0.0
  0
LINE
  5
228
  8
0
  6
CONTINUOUS
 62
     7
 10
74.2294447692
 20
122.9529319447
 30
0.0
 11
74.1531704837
 21
122.8682207686
 31
0.0
  0
LINE
  5
229
  8
0
  6
CONTINUOUS
 62
     7
 10
75.2326902836
 20
122.0496056261
 30
0.0
 11
75.1564159981
 21
121.96489445
 31
0.0
  0
LINE
  5
22A
  8
0
  6
CONTINUOUS
 62
     7
 10
75.1564159981
 20
121.96489445
 30
0.0
 11
74.1531704837
 21
122.8682207686
 31
0.0
  0
ARC
  5
22B
  8
0
  6
CONTINUOUS
 62
     7
 10
75.1409495629
 20
121.9477172336
 30
0.0
 40
0.0231142245961122
 50
318.0000000004
 51
48.0000000011
  0
ARC
  5
22C
  8
0
  6
CONTINUOUS
 62
     7
 10
74.1377040485
 20
122.8510435522
 30
0.0
 40
0.023114224596122
 50
47.9999999982
 51
137.999999999
  0
ARC
  5
22D
  8
0
  6
CONTINUOUS
 62
     7
 10
72.2664391014
 20
122.7529747118
 30
0.0
 40
0.0231142245961111
 50
48.0000000003
 51
138.000000001
  0
CIRCLE
  5
22E
  8
0
  6
CONTINUOUS
 62
     7
 10
73.301065593
 20
120.9130907419
 30
0.0
 40
1.73818790364067
  0
CIRCLE
  5
22F
  8
0
  6
CONTINUOUS
 62
     7
 10
73.301065593
 20
120.9130907419
 30
0.0
 40
1.708187903616936
  0
ARC
  5
230
  8
0
  6
CONTINUOUS
 62
     7
 10
75.9284825855
 20
118.5473515756
 30
0.0
 40
0.5999948452277665
 50
272.9992950291
 51
318.0001618182
  0
LINE
  5
231
  8
0
  6
CONTINUOUS
 62
     7
 10
75.9598729787
 20
117.9481784527
 30
0.0
 11
75.7392929119
 21
118.4326452742
 31
0.0
  0
LINE
  5
232
  8
0
  6
CONTINUOUS
 62
     7
 10
75.7392928351
 20
118.432645262
 30
0.0
 11
75.8678665961
 21
118.4627604766
 31
0.0
  0
LINE
  5
233
  8
0
  6
CONTINUOUS
 62
     7
 10
75.8678670982
 20
118.4627607721
 30
0.0
 11
75.9258872747
 21
118.4934402332
 31
0.0
  0
LINE
  5
234
  8
0
  6
CONTINUOUS
 62
     7
 10
75.9258874551
 20
118.4934403894
 30
0.0
 11
76.3743667694
 21
118.1458779334
 31
0.0
  0
ARC
  5
235
  8
0
  6
CONTINUOUS
 62
     7
 10
70.6736486006
 20
123.2788299082
 30
0.0
 40
0.5999948452103865
 50
92.9993383343
 51
138.0001618186
  0
LINE
  5
236
  8
0
  6
CONTINUOUS
 62
     7
 10
70.6422582073
 20
123.8780030311
 30
0.0
 11
70.8628382741
 21
123.3935362097
 31
0.0
  0
LINE
  5
237
  8
0
  6
CONTINUOUS
 62
     7
 10
70.862838351
 20
123.3935362218
 30
0.0
 11
70.7342645899
 21
123.3634210073
 31
0.0
  0
LINE
  5
238
  8
0
  6
CONTINUOUS
 62
     7
 10
70.7342640878
 20
123.3634207118
 30
0.0
 11
70.6762439114
 21
123.3327412507
 31
0.0
  0
LINE
  5
239
  8
0
  6
CONTINUOUS
 62
     7
 10
70.6762437309
 20
123.3327410944
 30
0.0
 11
70.2277644166
 21
123.6803035505
 31
0.0
  0
ARC
  5
23A
  8
0
  6
CONTINUOUS
 62
     7
 10
75.6668047593
 20
123.5405077344
 30
0.0
 40
0.5999948452321439
 50
2.9993041336
 51
48.0001618186
  0
LINE
  5
23B
  8
0
  6
CONTINUOUS
 62
     7
 10
76.2659778822
 20
123.5718981276
 30
0.0
 11
75.7815110608
 21
123.3513180608
 31
0.0
  0
LINE
  5
23C
  8
0
  6
CONTINUOUS
 62
     7
 10
75.7815110729
 20
123.351317984
 30
0.0
 11
75.7513958584
 21
123.479891745
 31
0.0
  0
LINE
  5
23D
  8
0
  6
CONTINUOUS
 62
     7
 10
75.7513955629
 20
123.4798922471
 30
0.0
 11
75.7207161018
 21
123.5379124236
 31
0.0
  0
LINE
  5
23E
  8
0
  6
CONTINUOUS
 62
     7
 10
75.7207159455
 20
123.537912604
 30
0.0
 11
76.0682784015
 21
123.9863919182
 31
0.0
  0
ARC
  5
23F
  8
0
  6
CONTINUOUS
 62
     7
 10
70.9353264268
 20
118.2856737496
 30
0.0
 40
0.5999948453598919
 50
182.9989567834
 51
228.000161815
  0
LINE
  5
240
  8
0
  6
CONTINUOUS
 62
     7
 10
70.3361533038
 20
118.2542833562
 30
0.0
 11
70.8206201253
 21
118.474863423
 31
0.0
  0
LINE
  5
241
  8
0
  6
CONTINUOUS
 62
     7
 10
70.8206201131
 20
118.4748634999
 30
0.0
 11
70.8507353277
 21
118.3462897388
 31
0.0
  0
LINE
  5
242
  8
0
  6
CONTINUOUS
 62
     7
 10
70.8507356232
 20
118.3462892367
 30
0.0
 11
70.8814150843
 21
118.2882690603
 31
0.0
  0
LINE
  5
243
  8
0
  6
CONTINUOUS
 62
     7
 10
70.8814152405
 20
118.2882688798
 30
0.0
 11
70.5338527845
 21
117.8397895655
 31
0.0
  0
LINE
  5
244
  8
0
  6
CONTINUOUS
 62
     7
 10
75.9598729787
 20
117.9481784527
 30
0.0
 11
75.6684177397
 21
118.3777362812
 31
0.0
  0
LINE
  5
245
  8
0
  6
CONTINUOUS
 62
     7
 10
75.6684149454
 20
118.3777399267
 30
0.0
 11
75.7392921096
 21
118.4326447018
 31
0.0
  0
LINE
  5
246
  8
0
  6
CONTINUOUS
 62
     7
 10
70.6422582073
 20
123.8780030311
 30
0.0
 11
70.9337134463
 21
123.4484452026
 31
0.0
  0
LINE
  5
247
  8
0
  6
CONTINUOUS
 62
     7
 10
70.9337162406
 20
123.4484415571
 30
0.0
 11
70.8628390764
 21
123.3935367821
 31
0.0
  0
LINE
  5
248
  8
0
  6
CONTINUOUS
 62
     7
 10
75.8364200537
 20
123.2804428886
 30
0.0
 11
76.2659778822
 21
123.5718981276
 31
0.0
  0
LINE
  5
249
  8
0
  6
CONTINUOUS
 62
     7
 10
75.8364164082
 20
123.2804400943
 30
0.0
 11
75.7815116332
 21
123.3513172585
 31
0.0
  0
LINE
  5
24A
  8
0
  6
CONTINUOUS
 62
     7
 10
70.3361533038
 20
118.2542833562
 30
0.0
 11
70.7657111323
 21
118.5457385952
 31
0.0
  0
LINE
  5
24B
  8
0
  6
CONTINUOUS
 62
     7
 10
70.7657147778
 20
118.5457413895
 30
0.0
 11
70.8206195529
 21
118.4748642253
 31
0.0
  0
LINE
  5
24C
  8
0
  6
CONTINUOUS
 62
     7
 10
76.5021700018
 20
119.0650800551
 30
0.0
 11
76.0070222768
 21
119.059726731
 31
0.0
  0
LINE
  5
24D
  8
0
  6
CONTINUOUS
 62
     7
 10
76.5021700018
 20
119.0650800551
 30
0.0
 11
76.0055238314
 21
119.0184014801
 31
0.0
  0
LINE
  5
24E
  8
0
  6
CONTINUOUS
 62
     7
 10
76.0055240704
 20
119.018401463
 30
0.0
 11
76.0070222436
 21
119.0597267292
 31
0.0
  0
LINE
  5
24F
  8
0
  6
CONTINUOUS
 62
     7
 10
71.4477015821
 20
118.2071340581
 30
0.0
 11
71.4530549062
 21
117.7119863331
 31
0.0
  0
LINE
  5
250
  8
0
  6
CONTINUOUS
 62
     7
 10
71.4530549062
 20
117.7119863331
 30
0.0
 11
71.4063763312
 21
118.2086325036
 31
0.0
  0
LINE
  5
251
  8
0
  6
CONTINUOUS
 62
     7
 10
71.4063763141
 20
118.2086322645
 30
0.0
 11
71.4477015803
 21
118.2071340913
 31
0.0
  0
LINE
  5
252
  8
0
  6
CONTINUOUS
 62
     7
 10
75.154429604
 20
123.6190474257
 30
0.0
 11
75.1490762798
 21
124.1141951507
 31
0.0
  0
LINE
  5
253
  8
0
  6
CONTINUOUS
 62
     7
 10
75.1490762798
 20
124.1141951507
 30
0.0
 11
75.1957548549
 21
123.6175489803
 31
0.0
  0
LINE
  5
254
  8
0
  6
CONTINUOUS
 62
     7
 10
75.1957548719
 20
123.6175492193
 30
0.0
 11
75.1544296057
 21
123.6190473925
 31
0.0
  0
LINE
  5
255
  8
0
  6
CONTINUOUS
 62
     7
 10
70.5951089092
 20
122.7664547529
 30
0.0
 11
70.0999611842
 21
122.7611014287
 31
0.0
  0
LINE
  5
256
  8
0
  6
CONTINUOUS
 62
     7
 10
70.0999611842
 20
122.7611014287
 30
0.0
 11
70.5966073547
 21
122.8077800038
 31
0.0
  0
LINE
  5
257
  8
0
  6
CONTINUOUS
 62
     7
 10
70.5966071156
 20
122.8077800208
 30
0.0
 11
70.5951089424
 21
122.7664547546
 31
0.0
  0
LINE
  5
258
  8
0
  6
CONTINUOUS
 62
     7
 10
75.6602713509
 20
123.5971471956
 30
0.0
 11
76.0682784015
 21
123.9863919182
 31
0.0
  0
POLYLINE
  5
259
  8
0
  6
CONTINUOUS
 62
     7
 66
     1
 10
0.0
 20
0.0
 30
0.0
 70
   128
  0
VERTEX
  5
4C2
  8
0
  6
CONTINUOUS
 62
     7
 10
75.4455128153
 20
123.6505869345
 30
0.0
  0
VERTEX
  5
4C3
  8
0
  6
CONTINUOUS
 62
     7
 10
75.5798834216
 20
123.6334485653
 30
0.0
  0
VERTEX
  5
4C4
  8
0
  6
CONTINUOUS
 62
     7
 10
75.6602719952
 20
123.5971464916
 30
0.0
  0
SEQEND
  5
5B9
  8
0
  6
CONTINUOUS
 62
     7
  0
LINE
  5
25A
  8
0
  6
CONTINUOUS
 62
     7
 10
75.6353980138
 20
124.1396823222
 30
0.0
 11
75.4455128153
 21
123.6505869345
 31
0.0
  0
ARC
  5
25B
  8
0
  6
CONTINUOUS
 62
     7
 10
75.666802078
 20
123.5405092582
 30
0.0
 40
0.5999955069243555
 50
47.9998741642
 51
93.0002607698
  0
LINE
  5
25C
  8
0
  6
CONTINUOUS
 62
     7
 10
75.9851220467
 20
118.553884984
 30
0.0
 11
76.3743667694
 21
118.1458779334
 31
0.0
  0
POLYLINE
  5
25D
  8
0
  6
CONTINUOUS
 62
     7
 66
     1
 10
0.0
 20
0.0
 30
0.0
 70
   128
  0
VERTEX
  5
4C5
  8
0
  6
CONTINUOUS
 62
     7
 10
76.0385617856
 20
118.7686435196
 30
0.0
  0
VERTEX
  5
4C6
  8
0
  6
CONTINUOUS
 62
     7
 10
76.0214234162
 20
118.6342729128
 30
0.0
  0
VERTEX
  5
4C7
  8
0
  6
CONTINUOUS
 62
     7
 10
75.9851213427
 20
118.5538843397
 30
0.0
  0
SEQEND
  5
5BA
  8
0
  6
CONTINUOUS
 62
     7
  0
LINE
  5
25E
  8
0
  6
CONTINUOUS
 62
     7
 10
76.5276571735
 20
118.578758316
 30
0.0
 11
76.0385617856
 21
118.7686435196
 31
0.0
  0
ARC
  5
25F
  8
0
  6
CONTINUOUS
 62
     7
 10
75.9284841093
 20
118.5473542569
 30
0.0
 40
0.5999955069073262
 50
317.9998741635
 51
3.0002602758
  0
LINE
  5
260
  8
0
  6
CONTINUOUS
 62
     7
 10
70.6170091393
 20
123.2722964998
 30
0.0
 11
70.2277644166
 21
123.6803035505
 31
0.0
  0
POLYLINE
  5
261
  8
0
  6
CONTINUOUS
 62
     7
 66
     1
 10
0.0
 20
0.0
 30
0.0
 70
   128
  0
VERTEX
  5
4C8
  8
0
  6
CONTINUOUS
 62
     7
 10
70.5635694004
 20
123.0575379642
 30
0.0
  0
VERTEX
  5
4C9
  8
0
  6
CONTINUOUS
 62
     7
 10
70.5807077698
 20
123.191908571
 30
0.0
  0
VERTEX
  5
4CA
  8
0
  6
CONTINUOUS
 62
     7
 10
70.6170098434
 20
123.2722971441
 30
0.0
  0
SEQEND
  5
5BB
  8
0
  6
CONTINUOUS
 62
     7
  0
LINE
  5
262
  8
0
  6
CONTINUOUS
 62
     7
 10
70.0744739876
 20
123.2474231387
 30
0.0
 11
70.5635694004
 21
123.0575379642
 31
0.0
  0
ARC
  5
263
  8
0
  6
CONTINUOUS
 62
     7
 10
70.6736470767
 20
123.2788272269
 30
0.0
 40
0.5999955069069708
 50
137.9998741635
 51
183.0002625902
  0
LINE
  5
264
  8
0
  6
CONTINUOUS
 62
     7
 10
70.9418598351
 20
118.2290342882
 30
0.0
 11
70.5338527845
 21
117.8397895655
 31
0.0
  0
POLYLINE
  5
265
  8
0
  6
CONTINUOUS
 62
     7
 66
     1
 10
0.0
 20
0.0
 30
0.0
 70
   128
  0
VERTEX
  5
4CB
  8
0
  6
CONTINUOUS
 62
     7
 10
71.1566183707
 20
118.1755945493
 30
0.0
  0
VERTEX
  5
4CC
  8
0
  6
CONTINUOUS
 62
     7
 10
71.0222477639
 20
118.1927329187
 30
0.0
  0
VERTEX
  5
4CD
  8
0
  6
CONTINUOUS
 62
     7
 10
70.9418591908
 20
118.2290349923
 30
0.0
  0
SEQEND
  5
5BC
  8
0
  6
CONTINUOUS
 62
     7
  0
LINE
  5
266
  8
0
  6
CONTINUOUS
 62
     7
 10
70.9667331963
 20
117.6864991365
 30
0.0
 11
71.1566183707
 21
118.1755945493
 31
0.0
  0
ARC
  5
267
  8
0
  6
CONTINUOUS
 62
     7
 10
70.9353294717
 20
118.2856732555
 30
0.0
 40
0.5999965156415245
 50
227.9999141659
 51
273.0002231095
  0
LINE
  5
268
  8
0
  6
CONTINUOUS
 62
     7
 10
71.4476971006
 20
118.2132033689
 30
0.0
 11
71.4477015821
 21
118.2071340581
 31
0.0
  0
POLYLINE
  5
269
  8
0
  6
CONTINUOUS
 62
     7
 66
     1
 10
0.0
 20
0.0
 30
0.0
 70
   128
  0
VERTEX
  5
4CE
  8
0
  6
CONTINUOUS
 62
     7
 10
71.4472336577
 20
118.232040516
 30
0.0
  0
VERTEX
  5
4CF
  8
0
  6
CONTINUOUS
 62
     7
 10
71.4474890032
 20
118.2214921285
 30
0.0
  0
VERTEX
  5
4D0
  8
0
  6
CONTINUOUS
 62
     7
 10
71.447697096
 20
118.2132033688
 30
0.0
  0
SEQEND
  5
5BD
  8
0
  6
CONTINUOUS
 62
     7
  0
LINE
  5
26A
  8
0
  6
CONTINUOUS
 62
     7
 10
71.4472589469
 20
118.2339806805
 30
0.0
 11
71.4472336577
 21
118.232040516
 31
0.0
  0
LINE
  5
26B
  8
0
  6
CONTINUOUS
 62
     7
 10
75.6097642309
 20
118.4521275494
 30
0.0
 11
71.4472589469
 21
118.2339806805
 31
0.0
  0
LINE
  5
26C
  8
0
  6
CONTINUOUS
 62
     7
 10
75.6456697849
 20
118.4122934148
 30
0.0
 11
75.6097642309
 21
118.4521275494
 31
0.0
  0
LINE
  5
26D
  8
0
  6
CONTINUOUS
 62
     7
 10
75.6543967681
 20
118.3981995463
 30
0.0
 11
75.6456697849
 21
118.4122934148
 31
0.0
  0
LINE
  5
26E
  8
0
  6
CONTINUOUS
 62
     7
 10
75.6684177397
 20
118.3777362812
 30
0.0
 11
75.6543967681
 21
118.3981995463
 31
0.0
  0
LINE
  5
26F
  8
0
  6
CONTINUOUS
 62
     7
 10
71.4530549062
 20
117.7119863331
 30
0.0
 11
75.9598729787
 21
117.9481784527
 31
0.0
  0
LINE
  5
270
  8
0
  6
CONTINUOUS
 62
     7
 10
70.6011782201
 20
122.7664592298
 30
0.0
 11
70.5951089092
 21
122.7664547529
 31
0.0
  0
LINE
  5
271
  8
0
  6
CONTINUOUS
 62
     7
 10
70.6200153672
 20
122.7669226773
 30
0.0
 11
70.6011782201
 21
122.7664592298
 31
0.0
  0
LINE
  5
272
  8
0
  6
CONTINUOUS
 62
     7
 10
70.6219555316
 20
122.7668973881
 30
0.0
 11
70.6200153672
 21
122.7669226773
 31
0.0
  0
LINE
  5
273
  8
0
  6
CONTINUOUS
 62
     7
 10
70.840103863
 20
118.6043932125
 30
0.0
 11
70.6219555316
 21
122.7668973881
 31
0.0
  0
LINE
  5
274
  8
0
  6
CONTINUOUS
 62
     7
 10
70.8002682659
 20
118.5684865501
 30
0.0
 11
70.840103863
 21
118.6043932125
 31
0.0
  0
LINE
  5
275
  8
0
  6
CONTINUOUS
 62
     7
 10
70.7861743974
 20
118.5597595669
 30
0.0
 11
70.8002682659
 21
118.5684865501
 31
0.0
  0
LINE
  5
276
  8
0
  6
CONTINUOUS
 62
     7
 10
70.7657111323
 20
118.5457385952
 30
0.0
 11
70.7861743974
 21
118.5597595669
 31
0.0
  0
LINE
  5
277
  8
0
  6
CONTINUOUS
 62
     7
 10
70.0999611842
 20
122.7611014287
 30
0.0
 11
70.3361535105
 21
118.254283367
 31
0.0
  0
LINE
  5
278
  8
0
  6
CONTINUOUS
 62
     7
 10
75.8159567886
 20
123.266421917
 30
0.0
 11
75.8364200537
 21
123.2804428886
 31
0.0
  0
LINE
  5
279
  8
0
  6
CONTINUOUS
 62
     7
 10
76.0070222768
 20
119.059726731
 30
0.0
 11
76.0009529661
 21
119.0597222495
 31
0.0
  0
POLYLINE
  5
27A
  8
0
  6
CONTINUOUS
 62
     7
 66
     1
 10
0.0
 20
0.0
 30
0.0
 70
   128
  0
VERTEX
  5
4D1
  8
0
  6
CONTINUOUS
 62
     7
 10
75.9821158189
 20
119.0592588066
 30
0.0
  0
VERTEX
  5
4D2
  8
0
  6
CONTINUOUS
 62
     7
 10
75.9926642065
 20
119.0595141521
 30
0.0
  0
VERTEX
  5
4D3
  8
0
  6
CONTINUOUS
 62
     7
 10
76.0009529662
 20
119.0597222449
 30
0.0
  0
SEQEND
  5
5BE
  8
0
  6
CONTINUOUS
 62
     7
  0
LINE
  5
27B
  8
0
  6
CONTINUOUS
 62
     7
 10
75.9801756544
 20
119.0592840958
 30
0.0
 11
75.9821158189
 21
119.0592588066
 31
0.0
  0
LINE
  5
27C
  8
0
  6
CONTINUOUS
 62
     7
 10
75.7620279849
 20
123.221788771
 30
0.0
 11
75.9801756544
 21
119.0592840958
 31
0.0
  0
LINE
  5
27D
  8
0
  6
CONTINUOUS
 62
     7
 10
75.7620279849
 20
123.221788771
 30
0.0
 11
75.8018629202
 21
123.2576949338
 31
0.0
  0
LINE
  5
27E
  8
0
  6
CONTINUOUS
 62
     7
 10
75.8018629202
 20
123.2576949338
 30
0.0
 11
75.8159567886
 21
123.266421917
 31
0.0
  0
LINE
  5
27F
  8
0
  6
CONTINUOUS
 62
     7
 10
76.2659773516
 20
123.571906047
 30
0.0
 11
76.5021700932
 21
119.0650800599
 31
0.0
  0
POLYLINE
  5
280
  8
0
  6
CONTINUOUS
 62
     7
 66
     1
 10
0.0
 20
0.0
 30
0.0
 70
   128
  0
VERTEX
  5
4D4
  8
0
  6
CONTINUOUS
 62
     7
 10
75.6602713044
 20
123.5971471483
 30
0.0
  0
VERTEX
  5
4D5
  8
0
  6
CONTINUOUS
 62
     7
 10
75.6906269827
 20
123.5672419317
 30
0.0
  0
VERTEX
  5
4D6
  8
0
  6
CONTINUOUS
 62
     7
 10
75.7207159455
 20
123.537912604
 30
0.0
  0
SEQEND
  5
5BF
  8
0
  6
CONTINUOUS
 62
     7
  0
POLYLINE
  5
281
  8
0
  6
CONTINUOUS
 62
     7
 66
     1
 10
0.0
 20
0.0
 30
0.0
 70
   128
  0
VERTEX
  5
4D7
  8
0
  6
CONTINUOUS
 62
     7
 10
75.9851219994
 20
118.5538850305
 30
0.0
  0
VERTEX
  5
4D8
  8
0
  6
CONTINUOUS
 62
     7
 10
75.9552167828
 20
118.5235293522
 30
0.0
  0
VERTEX
  5
4D9
  8
0
  6
CONTINUOUS
 62
     7
 10
75.9258874551
 20
118.4934403894
 30
0.0
  0
SEQEND
  5
5C0
  8
0
  6
CONTINUOUS
 62
     7
  0
POLYLINE
  5
282
  8
0
  6
CONTINUOUS
 62
     7
 66
     1
 10
0.0
 20
0.0
 30
0.0
 70
   128
  0
VERTEX
  5
4DA
  8
0
  6
CONTINUOUS
 62
     7
 10
70.6170091866
 20
123.2722964533
 30
0.0
  0
VERTEX
  5
4DB
  8
0
  6
CONTINUOUS
 62
     7
 10
70.6469144032
 20
123.3026521316
 30
0.0
  0
VERTEX
  5
4DC
  8
0
  6
CONTINUOUS
 62
     7
 10
70.6762437309
 20
123.3327410944
 30
0.0
  0
SEQEND
  5
5C1
  8
0
  6
CONTINUOUS
 62
     7
  0
POLYLINE
  5
283
  8
0
  6
CONTINUOUS
 62
     7
 66
     1
 10
0.0
 20
0.0
 30
0.0
 70
   128
  0
VERTEX
  5
4DD
  8
0
  6
CONTINUOUS
 62
     7
 10
70.9418598817
 20
118.2290343355
 30
0.0
  0
VERTEX
  5
4DE
  8
0
  6
CONTINUOUS
 62
     7
 10
70.9115042033
 20
118.2589395521
 30
0.0
  0
VERTEX
  5
4DF
  8
0
  6
CONTINUOUS
 62
     7
 10
70.8814152405
 20
118.2882688798
 30
0.0
  0
SEQEND
  5
5C2
  8
0
  6
CONTINUOUS
 62
     7
  0
LINE
  5
284
  8
0
  6
CONTINUOUS
 62
     7
 10
70.9564614012
 20
123.4138880691
 30
0.0
 11
70.9923669778
 21
123.3740539046
 31
0.0
  0
LINE
  5
285
  8
0
  6
CONTINUOUS
 62
     7
 10
70.947734418
 20
123.4279819375
 30
0.0
 11
70.9564614012
 21
123.4138880691
 31
0.0
  0
LINE
  5
286
  8
0
  6
CONTINUOUS
 62
     7
 10
70.9337134463
 20
123.4484452026
 30
0.0
 11
70.947734418
 21
123.4279819375
 31
0.0
  0
LINE
  5
287
  8
0
  6
CONTINUOUS
 62
     7
 10
75.1490762798
 20
124.1141951507
 30
0.0
 11
70.6422582181
 21
123.8780028244
 31
0.0
  0
LINE
  5
288
  8
0
  6
CONTINUOUS
 62
     7
 10
75.1544340854
 20
123.612978115
 30
0.0
 11
75.154429604
 21
123.6190474257
 31
0.0
  0
POLYLINE
  5
289
  8
0
  6
CONTINUOUS
 62
     7
 66
     1
 10
0.0
 20
0.0
 30
0.0
 70
   128
  0
VERTEX
  5
4E0
  8
0
  6
CONTINUOUS
 62
     7
 10
75.1548975284
 20
123.5941409678
 30
0.0
  0
VERTEX
  5
4E1
  8
0
  6
CONTINUOUS
 62
     7
 10
75.1546421828
 20
123.6046893553
 30
0.0
  0
VERTEX
  5
4E2
  8
0
  6
CONTINUOUS
 62
     7
 10
75.15443409
 20
123.6129781151
 30
0.0
  0
SEQEND
  5
5C3
  8
0
  6
CONTINUOUS
 62
     7
  0
LINE
  5
28A
  8
0
  6
CONTINUOUS
 62
     7
 10
75.1548722392
 20
123.5922008033
 30
0.0
 11
75.1548975284
 21
123.5941409678
 31
0.0
  0
LINE
  5
28B
  8
0
  6
CONTINUOUS
 62
     7
 10
70.9923669778
 20
123.3740539046
 30
0.0
 11
75.1548722392
 21
123.5922008033
 31
0.0
  0
LINE
  5
28C
  8
0
  6
CONTINUOUS
 62
     7
 10
71.1328750616
 20
117.6952062938
 30
0.0
 11
71.2508683454
 21
118.1857943244
 31
0.0
  0
LINE
  5
28D
  8
0
  6
CONTINUOUS
 62
     7
 10
71.2546441573
 20
118.1863696365
 30
0.0
 11
71.2508683413
 21
118.1857943224
 31
0.0
  0
LINE
  5
28E
  8
0
  6
CONTINUOUS
 62
     7
 10
71.4063763312
 20
118.2086325036
 30
0.0
 11
71.2546441573
 21
118.1863696365
 31
0.0
  0
LINE
  5
28F
  8
0
  6
CONTINUOUS
 62
     7
 10
71.1328750736
 20
117.6952063057
 30
0.0
 11
71.4530549116
 21
117.7119862312
 31
0.0
  0
LINE
  5
290
  8
0
  6
CONTINUOUS
 62
     7
 10
70.0831811449
 20
123.0812812733
 30
0.0
 11
70.5737691755
 21
122.9632879895
 31
0.0
  0
LINE
  5
291
  8
0
  6
CONTINUOUS
 62
     7
 10
70.5743444876
 20
122.9595121776
 30
0.0
 11
70.5737691735
 21
122.9632879936
 31
0.0
  0
LINE
  5
292
  8
0
  6
CONTINUOUS
 62
     7
 10
70.5966073547
 20
122.8077800038
 30
0.0
 11
70.5743444876
 21
122.9595121776
 31
0.0
  0
LINE
  5
293
  8
0
  6
CONTINUOUS
 62
     7
 10
70.0831811568
 20
123.0812812614
 30
0.0
 11
70.0999610823
 21
122.7611014234
 31
0.0
  0
LINE
  5
294
  8
0
  6
CONTINUOUS
 62
     7
 10
76.5189499507
 20
118.7449002322
 30
0.0
 11
76.0283620105
 21
118.8628934943
 31
0.0
  0
LINE
  5
295
  8
0
  6
CONTINUOUS
 62
     7
 10
76.0277866984
 20
118.8666693062
 30
0.0
 11
76.0283620126
 21
118.8628934902
 31
0.0
  0
LINE
  5
296
  8
0
  6
CONTINUOUS
 62
     7
 10
76.0055238314
 20
119.0184014801
 30
0.0
 11
76.0277866984
 21
118.8666693062
 31
0.0
  0
LINE
  5
297
  8
0
  6
CONTINUOUS
 62
     7
 10
76.5021700018
 20
119.0650800551
 30
0.0
 11
76.5189499774
 21
118.7449002197
 31
0.0
  0
LINE
  5
298
  8
0
  6
CONTINUOUS
 62
     7
 10
75.4692561027
 20
124.1309750996
 30
0.0
 11
75.3512628406
 21
123.6403871594
 31
0.0
  0
LINE
  5
299
  8
0
  6
CONTINUOUS
 62
     7
 10
75.3474870287
 20
123.6398118473
 30
0.0
 11
75.3512628447
 21
123.6403871615
 31
0.0
  0
LINE
  5
29A
  8
0
  6
CONTINUOUS
 62
     7
 10
75.1957548549
 20
123.6175489803
 30
0.0
 11
75.3474870287
 21
123.6398118473
 31
0.0
  0
LINE
  5
29B
  8
0
  6
CONTINUOUS
 62
     7
 10
75.1490762798
 20
124.1141951507
 30
0.0
 11
75.4692561152
 21
124.1309751263
 31
0.0
  0
LINE
  5
29C
  8
0
  6
CONTINUOUS
 62
     7
 10
71.1657603313
 20
118.176205257
 30
0.0
 11
71.1566183707
 21
118.1755945493
 31
0.0
  0
LINE
  5
29D
  8
0
  6
CONTINUOUS
 62
     7
 10
71.1880348261
 20
118.1781713028
 30
0.0
 11
71.1657603313
 21
118.176205257
 31
0.0
  0
LINE
  5
29E
  8
0
  6
CONTINUOUS
 62
     7
 10
71.2508683454
 20
118.1857943244
 30
0.0
 11
71.1880348261
 21
118.1781713028
 31
0.0
  0
LINE
  5
29F
  8
0
  6
CONTINUOUS
 62
     7
 10
70.9667331963
 20
117.6864991365
 30
0.0
 11
71.1328750736
 21
117.6952063057
 31
0.0
  0
LINE
  5
2A0
  8
0
  6
CONTINUOUS
 62
     7
 10
70.5641801081
 20
123.0483960036
 30
0.0
 11
70.5635694004
 21
123.0575379642
 31
0.0
  0
LINE
  5
2A1
  8
0
  6
CONTINUOUS
 62
     7
 10
70.5661461539
 20
123.0261215088
 30
0.0
 11
70.5641801081
 21
123.0483960036
 31
0.0
  0
LINE
  5
2A2
  8
0
  6
CONTINUOUS
 62
     7
 10
70.5737691755
 20
122.9632879895
 30
0.0
 11
70.5661461539
 21
123.0261215088
 31
0.0
  0
LINE
  5
2A3
  8
0
  6
CONTINUOUS
 62
     7
 10
70.0744739876
 20
123.2474231387
 30
0.0
 11
70.0831811568
 21
123.0812812614
 31
0.0
  0
LINE
  5
2A4
  8
0
  6
CONTINUOUS
 62
     7
 10
75.4363708547
 20
123.6499762269
 30
0.0
 11
75.4455128153
 21
123.6505869345
 31
0.0
  0
LINE
  5
2A5
  8
0
  6
CONTINUOUS
 62
     7
 10
75.4140963599
 20
123.648010181
 30
0.0
 11
75.4363708547
 21
123.6499762269
 31
0.0
  0
LINE
  5
2A6
  8
0
  6
CONTINUOUS
 62
     7
 10
75.3512628406
 20
123.6403871594
 30
0.0
 11
75.4140963599
 21
123.648010181
 31
0.0
  0
LINE
  5
2A7
  8
0
  6
CONTINUOUS
 62
     7
 10
75.4692561152
 20
124.1309751263
 30
0.0
 11
75.6353980138
 21
124.1396823222
 31
0.0
  0
LINE
  5
2A8
  8
0
  6
CONTINUOUS
 62
     7
 10
76.037951078
 20
118.7777854802
 30
0.0
 11
76.0385617856
 21
118.7686435196
 31
0.0
  0
LINE
  5
2A9
  8
0
  6
CONTINUOUS
 62
     7
 10
76.0359850321
 20
118.800059975
 30
0.0
 11
76.037951078
 21
118.7777854802
 31
0.0
  0
LINE
  5
2AA
  8
0
  6
CONTINUOUS
 62
     7
 10
76.0283620105
 20
118.8628934943
 30
0.0
 11
76.0359850321
 21
118.800059975
 31
0.0
  0
LINE
  5
2AB
  8
0
  6
CONTINUOUS
 62
     7
 10
76.5189499774
 20
118.7449002197
 30
0.0
 11
76.5276571735
 21
118.578758316
 31
0.0
  0
CIRCLE
  5
2AC
  8
0
  6
CONTINUOUS
 62
     7
 10
73.301065593
 20
120.9130907419
 30
0.0
 40
1.662987054583672
  0
LINE
  5
2AD
  8
0
  6
CONTINUOUS
 62
     7
 10
70.6762439114
 20
123.3327412507
 30
0.0
 11
70.7302296917
 21
123.2862824859
 31
0.0
  0
POLYLINE
  5
2AE
  8
0
  6
CONTINUOUS
 62
     7
 66
     1
 10
0.0
 20
0.0
 30
0.0
 70
   128
  0
VERTEX
  5
4E3
  8
0
  6
CONTINUOUS
 62
     7
 10
70.6743234564
 20
123.218047263
 30
0.0
  0
VERTEX
  5
4E4
  8
0
  6
CONTINUOUS
 62
     7
 10
70.7031503534
 20
123.2518276801
 30
0.0
  0
VERTEX
  5
4E5
  8
0
  6
CONTINUOUS
 62
     7
 10
70.7302292535
 20
123.2862823536
 30
0.0
  0
SEQEND
  5
5C4
  8
0
  6
CONTINUOUS
 62
     7
  0
LINE
  5
2AF
  8
0
  6
CONTINUOUS
 62
     7
 10
70.6743241235
 20
123.2180465735
 30
0.0
 11
70.6170098018
 21
123.2722970831
 31
0.0
  0
LINE
  5
2B0
  8
0
  6
CONTINUOUS
 62
     7
 10
75.9258872747
 20
118.4934402332
 30
0.0
 11
75.8719014943
 21
118.539898998
 31
0.0
  0
POLYLINE
  5
2B1
  8
0
  6
CONTINUOUS
 62
     7
 66
     1
 10
0.0
 20
0.0
 30
0.0
 70
   128
  0
VERTEX
  5
4E6
  8
0
  6
CONTINUOUS
 62
     7
 10
75.9278077297
 20
118.6081342208
 30
0.0
  0
VERTEX
  5
4E7
  8
0
  6
CONTINUOUS
 62
     7
 10
75.8989808327
 20
118.5743538037
 30
0.0
  0
VERTEX
  5
4E8
  8
0
  6
CONTINUOUS
 62
     7
 10
75.8719019326
 20
118.5398991303
 30
0.0
  0
SEQEND
  5
5C5
  8
0
  6
CONTINUOUS
 62
     7
  0
LINE
  5
2B2
  8
0
  6
CONTINUOUS
 62
     7
 10
75.9278070626
 20
118.6081349104
 30
0.0
 11
75.9851213842
 21
118.5538844008
 31
0.0
  0
LINE
  5
2B3
  8
0
  6
CONTINUOUS
 62
     7
 10
70.8814150843
 20
118.2882690603
 30
0.0
 11
70.9278738491
 21
118.3422548406
 31
0.0
  0
POLYLINE
  5
2B4
  8
0
  6
CONTINUOUS
 62
     7
 66
     1
 10
0.0
 20
0.0
 30
0.0
 70
   128
  0
VERTEX
  5
4E9
  8
0
  6
CONTINUOUS
 62
     7
 10
70.9961090719
 20
118.2863486053
 30
0.0
  0
VERTEX
  5
4EA
  8
0
  6
CONTINUOUS
 62
     7
 10
70.9623286548
 20
118.3151755023
 30
0.0
  0
VERTEX
  5
4EB
  8
0
  6
CONTINUOUS
 62
     7
 10
70.9278739814
 20
118.3422544024
 30
0.0
  0
SEQEND
  5
5C6
  8
0
  6
CONTINUOUS
 62
     7
  0
LINE
  5
2B5
  8
0
  6
CONTINUOUS
 62
     7
 10
70.9961097615
 20
118.2863492724
 30
0.0
 11
70.9418592519
 21
118.2290349507
 31
0.0
  0
LINE
  5
2B6
  8
0
  6
CONTINUOUS
 62
     7
 10
75.7207161018
 20
123.5379124236
 30
0.0
 11
75.674257337
 21
123.4839266432
 31
0.0
  0
POLYLINE
  5
2B7
  8
0
  6
CONTINUOUS
 62
     7
 66
     1
 10
0.0
 20
0.0
 30
0.0
 70
   128
  0
VERTEX
  5
4EC
  8
0
  6
CONTINUOUS
 62
     7
 10
75.6060221141
 20
123.5398328786
 30
0.0
  0
VERTEX
  5
4ED
  8
0
  6
CONTINUOUS
 62
     7
 10
75.6398025312
 20
123.5110059815
 30
0.0
  0
VERTEX
  5
4EE
  8
0
  6
CONTINUOUS
 62
     7
 10
75.6742572047
 20
123.4839270815
 30
0.0
  0
SEQEND
  5
5C7
  8
0
  6
CONTINUOUS
 62
     7
  0
LINE
  5
2B8
  8
0
  6
CONTINUOUS
 62
     7
 10
75.6060214246
 20
123.5398322115
 30
0.0
 11
75.6602719342
 21
123.5971465331
 31
0.0
  0
POLYLINE
  5
2B9
  8
0
  6
CONTINUOUS
 62
     7
 66
     1
 10
0.0
 20
0.0
 30
0.0
 70
   128
  0
VERTEX
  5
4EF
  8
0
  6
CONTINUOUS
 62
     7
 10
75.4357610795
 20
123.6050319124
 30
0.0
  0
VERTEX
  5
4F0
  8
0
  6
CONTINUOUS
 62
     7
 10
75.5272889622
 20
123.5858586598
 30
0.0
  0
VERTEX
  5
4F1
  8
0
  6
CONTINUOUS
 62
     7
 10
75.6060192484
 20
123.5398293511
 30
0.0
  0
SEQEND
  5
5C8
  8
0
  6
CONTINUOUS
 62
     7
  0
LINE
  5
2BA
  8
0
  6
CONTINUOUS
 62
     7
 10
75.4455128116
 20
123.650586934
 30
0.0
 11
75.435760747
 21
123.6050319889
 31
0.0
  0
POLYLINE
  5
2BB
  8
0
  6
CONTINUOUS
 62
     7
 66
     1
 10
0.0
 20
0.0
 30
0.0
 70
   128
  0
VERTEX
  5
4F2
  8
0
  6
CONTINUOUS
 62
     7
 10
75.9930067635
 20
118.7783952555
 30
0.0
  0
VERTEX
  5
4F3
  8
0
  6
CONTINUOUS
 62
     7
 10
75.9738335109
 20
118.6868673727
 30
0.0
  0
VERTEX
  5
4F4
  8
0
  6
CONTINUOUS
 62
     7
 10
75.9278042022
 20
118.6081370866
 30
0.0
  0
SEQEND
  5
5C9
  8
0
  6
CONTINUOUS
 62
     7
  0
LINE
  5
2BC
  8
0
  6
CONTINUOUS
 62
     7
 10
76.0385617851
 20
118.7686435234
 30
0.0
 11
75.99300684
 21
118.7783955879
 31
0.0
  0
POLYLINE
  5
2BD
  8
0
  6
CONTINUOUS
 62
     7
 66
     1
 10
0.0
 20
0.0
 30
0.0
 70
   128
  0
VERTEX
  5
4F5
  8
0
  6
CONTINUOUS
 62
     7
 10
70.6091244226
 20
123.0477862284
 30
0.0
  0
VERTEX
  5
4F6
  8
0
  6
CONTINUOUS
 62
     7
 10
70.6282976751
 20
123.1393141111
 30
0.0
  0
VERTEX
  5
4F7
  8
0
  6
CONTINUOUS
 62
     7
 10
70.6743269838
 20
123.2180443973
 30
0.0
  0
SEQEND
  5
5CA
  8
0
  6
CONTINUOUS
 62
     7
  0
LINE
  5
2BE
  8
0
  6
CONTINUOUS
 62
     7
 10
70.5635694009
 20
123.0575379605
 30
0.0
 11
70.609124346
 21
123.0477858959
 31
0.0
  0
POLYLINE
  5
2BF
  8
0
  6
CONTINUOUS
 62
     7
 66
     1
 10
0.0
 20
0.0
 30
0.0
 70
   128
  0
VERTEX
  5
4F8
  8
0
  6
CONTINUOUS
 62
     7
 10
71.1663701066
 20
118.2211495715
 30
0.0
  0
VERTEX
  5
4F9
  8
0
  6
CONTINUOUS
 62
     7
 10
71.0748422238
 20
118.240322824
 30
0.0
  0
VERTEX
  5
4FA
  8
0
  6
CONTINUOUS
 62
     7
 10
70.9961119377
 20
118.2863521327
 30
0.0
  0
SEQEND
  5
5CB
  8
0
  6
CONTINUOUS
 62
     7
  0
LINE
  5
2C0
  8
0
  6
CONTINUOUS
 62
     7
 10
71.1566183745
 20
118.1755945498
 30
0.0
 11
71.166370439
 21
118.2211494949
 31
0.0
  0
LINE
  5
2C1
  8
0
  6
CONTINUOUS
 62
     7
 10
70.8680828582
 20
123.0805634418
 30
0.0
 11
70.8894078852
 21
123.1102329851
 31
0.0
  0
LINE
  5
2C2
  8
0
  6
CONTINUOUS
 62
     7
 10
70.8680823066
 20
123.0805638399
 30
0.0
 11
70.6743234564
 21
123.218047263
 31
0.0
  0
LINE
  5
2C3
  8
0
  6
CONTINUOUS
 62
     7
 10
70.8894080928
 20
123.1102328353
 30
0.0
 11
70.7302292535
 21
123.2862823536
 31
0.0
  0
LINE
  5
2C4
  8
0
  6
CONTINUOUS
 62
     7
 10
75.7340483278
 20
118.7456180421
 30
0.0
 11
75.7127233008
 21
118.7159484988
 31
0.0
  0
LINE
  5
2C5
  8
0
  6
CONTINUOUS
 62
     7
 10
75.7340488794
 20
118.7456176439
 30
0.0
 11
75.9278077297
 21
118.6081342208
 31
0.0
  0
LINE
  5
2C6
  8
0
  6
CONTINUOUS
 62
     7
 10
75.7127230933
 20
118.7159486486
 30
0.0
 11
75.8719019326
 21
118.5398991303
 31
0.0
  0
LINE
  5
2C7
  8
0
  6
CONTINUOUS
 62
     7
 10
71.1335928932
 20
118.4801080071
 30
0.0
 11
71.1039233499
 21
118.5014330341
 31
0.0
  0
LINE
  5
2C8
  8
0
  6
CONTINUOUS
 62
     7
 10
71.133592495
 20
118.4801074555
 30
0.0
 11
70.9961090719
 21
118.2863486053
 31
0.0
  0
LINE
  5
2C9
  8
0
  6
CONTINUOUS
 62
     7
 10
71.1039234997
 20
118.5014332417
 30
0.0
 11
70.9278739814
 21
118.3422544024
 31
0.0
  0
LINE
  5
2CA
  8
0
  6
CONTINUOUS
 62
     7
 10
75.4685382929
 20
123.3460734767
 30
0.0
 11
75.4982078362
 21
123.3247484497
 31
0.0
  0
LINE
  5
2CB
  8
0
  6
CONTINUOUS
 62
     7
 10
75.468538691
 20
123.3460740283
 30
0.0
 11
75.6060221141
 21
123.5398328786
 31
0.0
  0
LINE
  5
2CC
  8
0
  6
CONTINUOUS
 62
     7
 10
75.4982076864
 20
123.3247482422
 30
0.0
 11
75.6742572047
 21
123.4839270815
 31
0.0
  0
POLYLINE
  5
2CD
  8
0
  6
CONTINUOUS
 62
     7
 66
     1
 10
0.0
 20
0.0
 30
0.0
 70
   128
  0
VERTEX
  5
4FB
  8
0
  6
CONTINUOUS
 62
     7
 10
75.3450851791
 20
123.3899665668
 30
0.0
  0
VERTEX
  5
4FC
  8
0
  6
CONTINUOUS
 62
     7
 10
75.4103446347
 20
123.3773646457
 30
0.0
  0
VERTEX
  5
4FD
  8
0
  6
CONTINUOUS
 62
     7
 10
75.468535996
 20
123.3460752664
 30
0.0
  0
SEQEND
  5
5CC
  8
0
  6
CONTINUOUS
 62
     7
  0
LINE
  5
2CE
  8
0
  6
CONTINUOUS
 62
     7
 10
75.4280139
 20
123.6053146908
 30
0.0
 11
75.3450851791
 21
123.3899665668
 31
0.0
  0
LINE
  5
2CF
  8
0
  6
CONTINUOUS
 62
     7
 10
75.435761104
 20
123.6050319283
 30
0.0
 11
75.4280139
 21
123.6053146908
 31
0.0
  0
POLYLINE
  5
2D0
  8
0
  6
CONTINUOUS
 62
     7
 66
     1
 10
0.0
 20
0.0
 30
0.0
 70
   128
  0
VERTEX
  5
4FE
  8
0
  6
CONTINUOUS
 62
     7
 10
71.2570460069
 20
118.436214917
 30
0.0
  0
VERTEX
  5
4FF
  8
0
  6
CONTINUOUS
 62
     7
 10
71.1917865514
 20
118.4488168381
 30
0.0
  0
VERTEX
  5
500
  8
0
  6
CONTINUOUS
 62
     7
 10
71.13359519
 20
118.4801062174
 30
0.0
  0
SEQEND
  5
5CD
  8
0
  6
CONTINUOUS
 62
     7
  0
LINE
  5
2D1
  8
0
  6
CONTINUOUS
 62
     7
 10
71.174117286
 20
118.220866793
 30
0.0
 11
71.2570460069
 21
118.436214917
 31
0.0
  0
LINE
  5
2D2
  8
0
  6
CONTINUOUS
 62
     7
 10
71.1663700821
 20
118.2211495555
 30
0.0
 11
71.174117286
 21
118.220866793
 31
0.0
  0
POLYLINE
  5
2D3
  8
0
  6
CONTINUOUS
 62
     7
 66
     1
 10
0.0
 20
0.0
 30
0.0
 70
   128
  0
VERTEX
  5
501
  8
0
  6
CONTINUOUS
 62
     7
 10
75.7779414179
 20
118.8690711558
 30
0.0
  0
VERTEX
  5
502
  8
0
  6
CONTINUOUS
 62
     7
 10
75.7653394968
 20
118.8038117003
 30
0.0
  0
VERTEX
  5
503
  8
0
  6
CONTINUOUS
 62
     7
 10
75.7340501175
 20
118.7456203389
 30
0.0
  0
SEQEND
  5
5CE
  8
0
  6
CONTINUOUS
 62
     7
  0
LINE
  5
2D4
  8
0
  6
CONTINUOUS
 62
     7
 10
75.9932895419
 20
118.7861424349
 30
0.0
 11
75.7779414179
 21
118.8690711558
 31
0.0
  0
LINE
  5
2D5
  8
0
  6
CONTINUOUS
 62
     7
 10
75.9930067794
 20
118.778395231
 30
0.0
 11
75.993289542
 21
118.7861424349
 31
0.0
  0
POLYLINE
  5
2D6
  8
0
  6
CONTINUOUS
 62
     7
 66
     1
 10
0.0
 20
0.0
 30
0.0
 70
   128
  0
VERTEX
  5
504
  8
0
  6
CONTINUOUS
 62
     7
 10
70.8241897681
 20
122.957110328
 30
0.0
  0
VERTEX
  5
505
  8
0
  6
CONTINUOUS
 62
     7
 10
70.8367916892
 20
123.0223697836
 30
0.0
  0
VERTEX
  5
506
  8
0
  6
CONTINUOUS
 62
     7
 10
70.8680810685
 20
123.0805611449
 30
0.0
  0
SEQEND
  5
5CF
  8
0
  6
CONTINUOUS
 62
     7
  0
LINE
  5
2D7
  8
0
  6
CONTINUOUS
 62
     7
 10
70.6088416441
 20
123.0400390489
 30
0.0
 11
70.8241897681
 21
122.957110328
 31
0.0
  0
LINE
  5
2D8
  8
0
  6
CONTINUOUS
 62
     7
 10
70.6091244066
 20
123.0477862529
 30
0.0
 11
70.6088416441
 21
123.0400390489
 31
0.0
  0
LINE
  5
2D9
  8
0
  6
CONTINUOUS
 62
     7
 10
70.7302296917
 20
123.2862824859
 30
0.0
 11
70.7714762326
 21
123.3251682535
 31
0.0
  0
LINE
  5
2DA
  8
0
  6
CONTINUOUS
 62
     7
 10
70.7714762326
 20
123.3251682535
 30
0.0
 11
70.7342640878
 21
123.3634207118
 31
0.0
  0
LINE
  5
2DB
  8
0
  6
CONTINUOUS
 62
     7
 10
75.8719014943
 20
118.539898998
 30
0.0
 11
75.8306549534
 21
118.5010132304
 31
0.0
  0
LINE
  5
2DC
  8
0
  6
CONTINUOUS
 62
     7
 10
75.8306549534
 20
118.5010132304
 30
0.0
 11
75.8678670982
 21
118.4627607721
 31
0.0
  0
LINE
  5
2DD
  8
0
  6
CONTINUOUS
 62
     7
 10
70.9278738491
 20
118.3422548406
 30
0.0
 11
70.8889880815
 21
118.3835013815
 31
0.0
  0
LINE
  5
2DE
  8
0
  6
CONTINUOUS
 62
     7
 10
70.8889880815
 20
118.3835013815
 30
0.0
 11
70.8507356232
 21
118.3462892367
 31
0.0
  0
LINE
  5
2DF
  8
0
  6
CONTINUOUS
 62
     7
 10
75.674257337
 20
123.4839266432
 30
0.0
 11
75.7131431046
 21
123.4426801023
 31
0.0
  0
LINE
  5
2E0
  8
0
  6
CONTINUOUS
 62
     7
 10
75.7131431046
 20
123.4426801023
 30
0.0
 11
75.7513955629
 21
123.4798922471
 31
0.0
  0
LINE
  5
2E1
  8
0
  6
CONTINUOUS
 62
     7
 10
70.7714762637
 20
123.3251682603
 30
0.0
 11
70.8812001349
 21
123.3656416838
 31
0.0
  0
POLYLINE
  5
2E2
  8
0
  6
CONTINUOUS
 62
     7
 66
     1
 10
0.0
 20
0.0
 30
0.0
 70
   128
  0
VERTEX
  5
507
  8
0
  6
CONTINUOUS
 62
     7
 10
70.8811994942
 20
123.3656416442
 30
0.0
  0
VERTEX
  5
508
  8
0
  6
CONTINUOUS
 62
     7
 10
70.8956203669
 20
123.3323227202
 30
0.0
  0
VERTEX
  5
509
  8
0
  6
CONTINUOUS
 62
     7
 10
70.9243084798
 20
123.2913466062
 30
0.0
  0
SEQEND
  5
5D0
  8
0
  6
CONTINUOUS
 62
     7
  0
LINE
  5
2E3
  8
0
  6
CONTINUOUS
 62
     7
 10
70.9243085354
 20
123.2913466442
 30
0.0
 11
71.0332209246
 21
123.1647549894
 31
0.0
  0
POLYLINE
  5
2E4
  8
0
  6
CONTINUOUS
 62
     7
 66
     1
 10
0.0
 20
0.0
 30
0.0
 70
   128
  0
VERTEX
  5
50A
  8
0
  6
CONTINUOUS
 62
     7
 10
71.0332209229
 20
123.1647549824
 30
0.0
  0
VERTEX
  5
50B
  8
0
  6
CONTINUOUS
 62
     7
 10
70.9567668223
 20
123.1474346561
 30
0.0
  0
VERTEX
  5
50C
  8
0
  6
CONTINUOUS
 62
     7
 10
70.8914721683
 20
123.1061407926
 30
0.0
  0
SEQEND
  5
5D1
  8
0
  6
CONTINUOUS
 62
     7
  0
LINE
  5
2E5
  8
0
  6
CONTINUOUS
 62
     7
 10
70.8914721908
 20
123.1061407918
 30
0.0
 11
70.8894082046
 21
123.110232837
 31
0.0
  0
LINE
  5
2E6
  8
0
  6
CONTINUOUS
 62
     7
 10
70.8889880746
 20
118.3835014126
 30
0.0
 11
70.8485146511
 21
118.4932252838
 31
0.0
  0
POLYLINE
  5
2E7
  8
0
  6
CONTINUOUS
 62
     7
 66
     1
 10
0.0
 20
0.0
 30
0.0
 70
   128
  0
VERTEX
  5
50D
  8
0
  6
CONTINUOUS
 62
     7
 10
70.8485146908
 20
118.4932246431
 30
0.0
  0
VERTEX
  5
50E
  8
0
  6
CONTINUOUS
 62
     7
 10
70.8818336147
 20
118.5076455158
 30
0.0
  0
VERTEX
  5
50F
  8
0
  6
CONTINUOUS
 62
     7
 10
70.9228097288
 20
118.5363336287
 30
0.0
  0
SEQEND
  5
5D2
  8
0
  6
CONTINUOUS
 62
     7
  0
LINE
  5
2E8
  8
0
  6
CONTINUOUS
 62
     7
 10
70.9228074851
 20
118.5363361504
 30
0.0
 11
71.0494026035
 21
118.645245767
 31
0.0
  0
POLYLINE
  5
2E9
  8
0
  6
CONTINUOUS
 62
     7
 66
     1
 10
0.0
 20
0.0
 30
0.0
 70
   128
  0
VERTEX
  5
510
  8
0
  6
CONTINUOUS
 62
     7
 10
71.0494013525
 20
118.6452460719
 30
0.0
  0
VERTEX
  5
511
  8
0
  6
CONTINUOUS
 62
     7
 10
71.0667216788
 20
118.5687919712
 30
0.0
  0
VERTEX
  5
512
  8
0
  6
CONTINUOUS
 62
     7
 10
71.1080155423
 20
118.5034973172
 30
0.0
  0
SEQEND
  5
5D3
  8
0
  6
CONTINUOUS
 62
     7
  0
LINE
  5
2EA
  8
0
  6
CONTINUOUS
 62
     7
 10
71.1080155431
 20
118.5034973397
 30
0.0
 11
71.103923498
 21
118.5014333535
 31
0.0
  0
LINE
  5
2EB
  8
0
  6
CONTINUOUS
 62
     7
 10
75.8306549223
 20
118.5010132235
 30
0.0
 11
75.7209310511
 21
118.4605398
 31
0.0
  0
POLYLINE
  5
2EC
  8
0
  6
CONTINUOUS
 62
     7
 66
     1
 10
0.0
 20
0.0
 30
0.0
 70
   128
  0
VERTEX
  5
513
  8
0
  6
CONTINUOUS
 62
     7
 10
75.7209316918
 20
118.4605398397
 30
0.0
  0
VERTEX
  5
514
  8
0
  6
CONTINUOUS
 62
     7
 10
75.7065108191
 20
118.4938587636
 30
0.0
  0
VERTEX
  5
515
  8
0
  6
CONTINUOUS
 62
     7
 10
75.6778227062
 20
118.5348348777
 30
0.0
  0
SEQEND
  5
5D4
  8
0
  6
CONTINUOUS
 62
     7
  0
LINE
  5
2ED
  8
0
  6
CONTINUOUS
 62
     7
 10
75.6778226395
 20
118.5348348297
 30
0.0
 11
75.5689102657
 21
118.6614265117
 31
0.0
  0
POLYLINE
  5
2EE
  8
0
  6
CONTINUOUS
 62
     7
 66
     1
 10
0.0
 20
0.0
 30
0.0
 70
   128
  0
VERTEX
  5
516
  8
0
  6
CONTINUOUS
 62
     7
 10
75.5689102631
 20
118.6614265014
 30
0.0
  0
VERTEX
  5
517
  8
0
  6
CONTINUOUS
 62
     7
 10
75.6453643637
 20
118.6787468277
 30
0.0
  0
VERTEX
  5
518
  8
0
  6
CONTINUOUS
 62
     7
 10
75.7106590177
 20
118.7200406912
 30
0.0
  0
SEQEND
  5
5D5
  8
0
  6
CONTINUOUS
 62
     7
  0
LINE
  5
2EF
  8
0
  6
CONTINUOUS
 62
     7
 10
75.7106589952
 20
118.720040692
 30
0.0
 11
75.7127229815
 21
118.7159486469
 31
0.0
  0
LINE
  5
2F0
  8
0
  6
CONTINUOUS
 62
     7
 10
75.7131431114
 20
123.4426800712
 30
0.0
 11
75.7536165349
 21
123.3329562
 31
0.0
  0
POLYLINE
  5
2F1
  8
0
  6
CONTINUOUS
 62
     7
 66
     1
 10
0.0
 20
0.0
 30
0.0
 70
   128
  0
VERTEX
  5
519
  8
0
  6
CONTINUOUS
 62
     7
 10
75.7536164953
 20
123.3329568407
 30
0.0
  0
VERTEX
  5
51A
  8
0
  6
CONTINUOUS
 62
     7
 10
75.7202975714
 20
123.318535968
 30
0.0
  0
VERTEX
  5
51B
  8
0
  6
CONTINUOUS
 62
     7
 10
75.6793214573
 20
123.2898478551
 30
0.0
  0
SEQEND
  5
5D6
  8
0
  6
CONTINUOUS
 62
     7
  0
LINE
  5
2F2
  8
0
  6
CONTINUOUS
 62
     7
 10
75.6793215396
 20
123.2898477492
 30
0.0
 11
75.5527297359
 21
123.1809354359
 31
0.0
  0
POLYLINE
  5
2F3
  8
0
  6
CONTINUOUS
 62
     7
 66
     1
 10
0.0
 20
0.0
 30
0.0
 70
   128
  0
VERTEX
  5
51C
  8
0
  6
CONTINUOUS
 62
     7
 10
75.5527298335
 20
123.180935412
 30
0.0
  0
VERTEX
  5
51D
  8
0
  6
CONTINUOUS
 62
     7
 10
75.5354095072
 20
123.2573895126
 30
0.0
  0
VERTEX
  5
51E
  8
0
  6
CONTINUOUS
 62
     7
 10
75.4941156437
 20
123.3226841666
 30
0.0
  0
SEQEND
  5
5D7
  8
0
  6
CONTINUOUS
 62
     7
  0
LINE
  5
2F4
  8
0
  6
CONTINUOUS
 62
     7
 10
75.4941156429
 20
123.3226841441
 30
0.0
 11
75.4982076881
 21
123.3247481304
 31
0.0
  0
POLYLINE
  5
2F5
  8
0
  6
CONTINUOUS
 62
     7
 66
     1
 10
0.0
 20
0.0
 30
0.0
 70
   128
  0
VERTEX
  5
51F
  8
0
  6
CONTINUOUS
 62
     7
 10
70.9152919538
 20
122.8806894497
 30
0.0
  0
VERTEX
  5
520
  8
0
  6
CONTINUOUS
 62
     7
 10
70.9087615775
 20
122.8823111672
 30
0.0
  0
VERTEX
  5
521
  8
0
  6
CONTINUOUS
 62
     7
 10
70.9035809185
 20
122.8835937596
 30
0.0
  0
SEQEND
  5
5D8
  8
0
  6
CONTINUOUS
 62
     7
  0
LINE
  5
2F6
  8
0
  6
CONTINUOUS
 62
     7
 10
70.9080029066
 20
122.803449101
 30
0.0
 11
70.9193089107
 21
122.8040416236
 31
0.0
  0
LINE
  5
2F7
  8
0
  6
CONTINUOUS
 62
     7
 10
70.9035809185
 20
122.8835937596
 30
0.0
 11
70.9080029066
 21
122.803449101
 31
0.0
  0
LINE
  5
2F8
  8
0
  6
CONTINUOUS
 62
     7
 10
71.1227894603
 20
118.7005835588
 30
0.0
 11
71.0838297252
 21
118.6786824546
 31
0.0
  0
POLYLINE
  5
2F9
  8
0
  6
CONTINUOUS
 62
     7
 66
     1
 10
0.0
 20
0.0
 30
0.0
 70
   128
  0
VERTEX
  5
522
  8
0
  6
CONTINUOUS
 62
     7
 10
71.0838297252
 20
118.6786824546
 30
0.0
  0
VERTEX
  5
523
  8
0
  6
CONTINUOUS
 62
     7
 10
70.9737165624
 20
118.655720323
 30
0.0
  0
VERTEX
  5
524
  8
0
  6
CONTINUOUS
 62
     7
 10
70.840103863
 20
118.6043932125
 30
0.0
  0
SEQEND
  5
5D9
  8
0
  6
CONTINUOUS
 62
     7
  0
POLYLINE
  5
2FA
  8
0
  6
CONTINUOUS
 62
     7
 66
     1
 10
0.0
 20
0.0
 30
0.0
 70
   128
  0
VERTEX
  5
525
  8
0
  6
CONTINUOUS
 62
     7
 10
70.6219555316
 20
122.7668973881
 30
0.0
  0
VERTEX
  5
526
  8
0
  6
CONTINUOUS
 62
     7
 10
70.7504729276
 20
122.7742364914
 30
0.0
  0
VERTEX
  5
527
  8
0
  6
CONTINUOUS
 62
     7
 10
70.8438899273
 20
122.7918356398
 30
0.0
  0
SEQEND
  5
5DA
  8
0
  6
CONTINUOUS
 62
     7
  0
LINE
  5
2FB
  8
0
  6
CONTINUOUS
 62
     7
 10
70.8438899273
 20
122.7918356398
 30
0.0
 11
70.9080029066
 21
122.803449101
 31
0.0
  0
LINE
  5
2FC
  8
0
  6
CONTINUOUS
 62
     7
 10
71.134031555
 20
118.7068894988
 30
0.0
 11
71.1227894603
 21
118.7005835588
 31
0.0
  0
POLYLINE
  5
2FD
  8
0
  6
CONTINUOUS
 62
     7
 66
     1
 10
0.0
 20
0.0
 30
0.0
 70
   128
  0
VERTEX
  5
528
  8
0
  6
CONTINUOUS
 62
     7
 10
75.6985502675
 20
118.9425877243
 30
0.0
  0
VERTEX
  5
529
  8
0
  6
CONTINUOUS
 62
     7
 10
75.6919642372
 20
118.9442188296
 30
0.0
  0
VERTEX
  5
52A
  8
0
  6
CONTINUOUS
 62
     7
 10
75.6868392175
 20
118.9454920378
 30
0.0
  0
SEQEND
  5
5DB
  8
0
  6
CONTINUOUS
 62
     7
  0
LINE
  5
2FE
  8
0
  6
CONTINUOUS
 62
     7
 10
75.6941282794
 20
119.0227323828
 30
0.0
 11
75.6828222753
 21
119.0221398603
 31
0.0
  0
LINE
  5
2FF
  8
0
  6
CONTINUOUS
 62
     7
 10
75.6985502675
 20
118.9425877243
 30
0.0
 11
75.6941282794
 21
119.0227323828
 31
0.0
  0
LINE
  5
300
  8
0
  6
CONTINUOUS
 62
     7
 10
75.4793417257
 20
123.125597925
 30
0.0
 11
75.5179395606
 21
123.1472926179
 31
0.0
  0
POLYLINE
  5
301
  8
0
  6
CONTINUOUS
 62
     7
 66
     1
 10
0.0
 20
0.0
 30
0.0
 70
   128
  0
VERTEX
  5
52B
  8
0
  6
CONTINUOUS
 62
     7
 10
75.5179395606
 20
123.1472926179
 30
0.0
  0
VERTEX
  5
52C
  8
0
  6
CONTINUOUS
 62
     7
 10
75.6296209091
 20
123.1709768633
 30
0.0
  0
VERTEX
  5
52D
  8
0
  6
CONTINUOUS
 62
     7
 10
75.7620279849
 20
123.221788771
 30
0.0
  0
SEQEND
  5
5DC
  8
0
  6
CONTINUOUS
 62
     7
  0
POLYLINE
  5
302
  8
0
  6
CONTINUOUS
 62
     7
 66
     1
 10
0.0
 20
0.0
 30
0.0
 70
   128
  0
VERTEX
  5
52E
  8
0
  6
CONTINUOUS
 62
     7
 10
75.9801756544
 20
119.0592840958
 30
0.0
  0
VERTEX
  5
52F
  8
0
  6
CONTINUOUS
 62
     7
 10
75.8516582584
 20
119.0519449925
 30
0.0
  0
VERTEX
  5
530
  8
0
  6
CONTINUOUS
 62
     7
 10
75.7582412587
 20
119.0343458441
 30
0.0
  0
SEQEND
  5
5DD
  8
0
  6
CONTINUOUS
 62
     7
  0
LINE
  5
303
  8
0
  6
CONTINUOUS
 62
     7
 10
75.7582412587
 20
119.0343458441
 30
0.0
 11
75.6941282794
 21
119.0227323828
 31
0.0
  0
LINE
  5
304
  8
0
  6
CONTINUOUS
 62
     7
 10
75.4793417257
 20
123.125597925
 30
0.0
 11
75.468099631
 21
123.119291985
 31
0.0
  0
LINE
  5
305
  8
0
  6
CONTINUOUS
 62
     7
 10
75.5135727762
 20
118.7348146092
 30
0.0
 11
75.5352765053
 21
118.6962009283
 31
0.0
  0
POLYLINE
  5
306
  8
0
  6
CONTINUOUS
 62
     7
 66
     1
 10
0.0
 20
0.0
 30
0.0
 70
   128
  0
VERTEX
  5
531
  8
0
  6
CONTINUOUS
 62
     7
 10
75.5352765053
 20
118.6962009283
 30
0.0
  0
VERTEX
  5
532
  8
0
  6
CONTINUOUS
 62
     7
 10
75.559034726
 20
118.5843880711
 30
0.0
  0
VERTEX
  5
533
  8
0
  6
CONTINUOUS
 62
     7
 10
75.6097642309
 20
118.4521275494
 30
0.0
  0
SEQEND
  5
5DE
  8
0
  6
CONTINUOUS
 62
     7
  0
POLYLINE
  5
307
  8
0
  6
CONTINUOUS
 62
     7
 66
     1
 10
0.0
 20
0.0
 30
0.0
 70
   128
  0
VERTEX
  5
534
  8
0
  6
CONTINUOUS
 62
     7
 10
71.4472589469
 20
118.2339806805
 30
0.0
  0
VERTEX
  5
535
  8
0
  6
CONTINUOUS
 62
     7
 10
71.4399198436
 20
118.3624980765
 30
0.0
  0
VERTEX
  5
536
  8
0
  6
CONTINUOUS
 62
     7
 10
71.4223206952
 20
118.4559150762
 30
0.0
  0
SEQEND
  5
5DF
  8
0
  6
CONTINUOUS
 62
     7
  0
LINE
  5
308
  8
0
  6
CONTINUOUS
 62
     7
 10
71.4223206952
 20
118.4559150762
 30
0.0
 11
71.4107072339
 21
118.5200280555
 31
0.0
  0
LINE
  5
309
  8
0
  6
CONTINUOUS
 62
     7
 10
71.4107072339
 20
118.5200280555
 30
0.0
 11
71.4101147114
 21
118.5313340596
 31
0.0
  0
LINE
  5
30A
  8
0
  6
CONTINUOUS
 62
     7
 10
75.5135727762
 20
118.7348146092
 30
0.0
 11
75.5072668361
 21
118.7460567039
 31
0.0
  0
POLYLINE
  5
30B
  8
0
  6
CONTINUOUS
 62
     7
 66
     1
 10
0.0
 20
0.0
 30
0.0
 70
   128
  0
VERTEX
  5
537
  8
0
  6
CONTINUOUS
 62
     7
 10
75.1548722392
 20
123.5922008033
 30
0.0
  0
VERTEX
  5
538
  8
0
  6
CONTINUOUS
 62
     7
 10
75.1622113425
 20
123.4636834073
 30
0.0
  0
VERTEX
  5
539
  8
0
  6
CONTINUOUS
 62
     7
 10
75.1798104909
 20
123.3702664076
 30
0.0
  0
SEQEND
  5
5E0
  8
0
  6
CONTINUOUS
 62
     7
  0
LINE
  5
30C
  8
0
  6
CONTINUOUS
 62
     7
 10
75.1798104909
 20
123.3702664076
 30
0.0
 11
75.1914239521
 21
123.3061534283
 31
0.0
  0
LINE
  5
30D
  8
0
  6
CONTINUOUS
 62
     7
 10
75.1914239521
 20
123.3061534283
 30
0.0
 11
75.1920164747
 21
123.2948474242
 31
0.0
  0
LINE
  5
30E
  8
0
  6
CONTINUOUS
 62
     7
 10
71.0885584099
 20
123.0913668746
 30
0.0
 11
71.0948643499
 21
123.0801247799
 31
0.0
  0
LINE
  5
30F
  8
0
  6
CONTINUOUS
 62
     7
 10
71.0885584099
 20
123.0913668746
 30
0.0
 11
71.0669280712
 21
123.1298518592
 31
0.0
  0
POLYLINE
  5
310
  8
0
  6
CONTINUOUS
 62
     7
 66
     1
 10
0.0
 20
0.0
 30
0.0
 70
   128
  0
VERTEX
  5
53A
  8
0
  6
CONTINUOUS
 62
     7
 10
71.0669280712
 20
123.1298518592
 30
0.0
  0
VERTEX
  5
53B
  8
0
  6
CONTINUOUS
 62
     7
 10
71.0431676327
 20
123.2416459492
 30
0.0
  0
VERTEX
  5
53C
  8
0
  6
CONTINUOUS
 62
     7
 10
70.9923669778
 20
123.3740539046
 30
0.0
  0
SEQEND
  5
5E1
  8
0
  6
CONTINUOUS
 62
     7
  0
POLYLINE
  5
311
  8
0
  6
CONTINUOUS
 62
     7
 66
     1
 10
0.0
 20
0.0
 30
0.0
 70
   128
  0
VERTEX
  5
53D
  8
0
  6
CONTINUOUS
 62
     7
 10
71.3305625754
 20
118.5156060674
 30
0.0
  0
VERTEX
  5
53E
  8
0
  6
CONTINUOUS
 62
     7
 10
71.3321936807
 20
118.5221920977
 30
0.0
  0
VERTEX
  5
53F
  8
0
  6
CONTINUOUS
 62
     7
 10
71.3334668889
 20
118.5273171175
 30
0.0
  0
SEQEND
  5
5E2
  8
0
  6
CONTINUOUS
 62
     7
  0
LINE
  5
312
  8
0
  6
CONTINUOUS
 62
     7
 10
71.3305625754
 20
118.5156060674
 30
0.0
 11
71.4107072339
 21
118.5200280555
 31
0.0
  0
POLYLINE
  5
313
  8
0
  6
CONTINUOUS
 62
     7
 66
     1
 10
0.0
 20
0.0
 30
0.0
 70
   128
  0
VERTEX
  5
540
  8
0
  6
CONTINUOUS
 62
     7
 10
75.2715686107
 20
123.3105754164
 30
0.0
  0
VERTEX
  5
541
  8
0
  6
CONTINUOUS
 62
     7
 10
75.2699375054
 20
123.3039893861
 30
0.0
  0
VERTEX
  5
542
  8
0
  6
CONTINUOUS
 62
     7
 10
75.2686642971
 20
123.2988643663
 30
0.0
  0
SEQEND
  5
5E3
  8
0
  6
CONTINUOUS
 62
     7
  0
LINE
  5
314
  8
0
  6
CONTINUOUS
 62
     7
 10
75.2715686107
 20
123.3105754164
 30
0.0
 11
75.1914239521
 21
123.3061534283
 31
0.0
  0
POLYLINE
  5
315
  8
0
  6
CONTINUOUS
 62
     7
 66
     1
 10
0.0
 20
0.0
 30
0.0
 70
   128
  0
VERTEX
  5
543
  8
0
  6
CONTINUOUS
 62
     7
 10
75.3129763465
 20
123.3102502515
 30
0.0
  0
VERTEX
  5
544
  8
0
  6
CONTINUOUS
 62
     7
 10
75.3690001447
 20
123.2950999271
 30
0.0
  0
VERTEX
  5
545
  8
0
  6
CONTINUOUS
 62
     7
 10
75.417419866
 20
123.2635400152
 30
0.0
  0
SEQEND
  5
5E4
  8
0
  6
CONTINUOUS
 62
     7
  0
LINE
  5
316
  8
0
  6
CONTINUOUS
 62
     7
 10
75.4079592641
 20
123.2530332205
 30
0.0
 11
75.4174195911
 21
123.263539978
 31
0.0
  0
LINE
  5
317
  8
0
  6
CONTINUOUS
 62
     7
 10
75.3129763465
 20
123.3102502515
 30
0.0
 11
75.3082545641
 21
123.2982859125
 31
0.0
  0
POLYLINE
  5
318
  8
0
  6
CONTINUOUS
 62
     7
 66
     1
 10
0.0
 20
0.0
 30
0.0
 70
   128
  0
VERTEX
  5
546
  8
0
  6
CONTINUOUS
 62
     7
 10
75.6982251026
 20
118.9011799884
 30
0.0
  0
VERTEX
  5
547
  8
0
  6
CONTINUOUS
 62
     7
 10
75.6830747782
 20
118.8451561902
 30
0.0
  0
VERTEX
  5
548
  8
0
  6
CONTINUOUS
 62
     7
 10
75.6515148663
 20
118.7967364689
 30
0.0
  0
SEQEND
  5
5E5
  8
0
  6
CONTINUOUS
 62
     7
  0
LINE
  5
319
  8
0
  6
CONTINUOUS
 62
     7
 10
75.6410080716
 20
118.8061970708
 30
0.0
 11
75.6515148291
 21
118.7967367438
 31
0.0
  0
LINE
  5
31A
  8
0
  6
CONTINUOUS
 62
     7
 10
75.6982251026
 20
118.9011799884
 30
0.0
 11
75.6862607636
 21
118.9059017708
 31
0.0
  0
POLYLINE
  5
31B
  8
0
  6
CONTINUOUS
 62
     7
 66
     1
 10
0.0
 20
0.0
 30
0.0
 70
   128
  0
VERTEX
  5
549
  8
0
  6
CONTINUOUS
 62
     7
 10
70.9039060834
 20
122.9250014954
 30
0.0
  0
VERTEX
  5
54A
  8
0
  6
CONTINUOUS
 62
     7
 10
70.9190564078
 20
122.9810252936
 30
0.0
  0
VERTEX
  5
54B
  8
0
  6
CONTINUOUS
 62
     7
 10
70.9506163198
 20
123.0294450149
 30
0.0
  0
SEQEND
  5
5E6
  8
0
  6
CONTINUOUS
 62
     7
  0
LINE
  5
31C
  8
0
  6
CONTINUOUS
 62
     7
 10
70.9611231145
 20
123.019984413
 30
0.0
 11
70.9506163569
 21
123.02944474
 31
0.0
  0
LINE
  5
31D
  8
0
  6
CONTINUOUS
 62
     7
 10
70.9039060834
 20
122.9250014954
 30
0.0
 11
70.9158704225
 21
122.920279713
 31
0.0
  0
ARC
  5
31E
  8
0
  6
CONTINUOUS
 62
     7
 10
75.5119833525
 20
118.9229610444
 30
0.0
 40
0.1881531482500767
 50
270.4840118498
 51
317.866520011
  0
POLYLINE
  5
31F
  8
0
  6
CONTINUOUS
 62
     7
 66
     1
 10
0.0
 20
0.0
 30
0.0
 70
   128
  0
VERTEX
  5
54C
  8
0
  6
CONTINUOUS
 62
     7
 10
71.2891548395
 20
118.5159312323
 30
0.0
  0
VERTEX
  5
54D
  8
0
  6
CONTINUOUS
 62
     7
 10
71.2331310413
 20
118.5310815567
 30
0.0
  0
VERTEX
  5
54E
  8
0
  6
CONTINUOUS
 62
     7
 10
71.18471132
 20
118.5626414686
 30
0.0
  0
SEQEND
  5
5E7
  8
0
  6
CONTINUOUS
 62
     7
  0
LINE
  5
320
  8
0
  6
CONTINUOUS
 62
     7
 10
71.1941719219
 20
118.5731482634
 30
0.0
 11
71.1847115949
 21
118.5626415058
 31
0.0
  0
LINE
  5
321
  8
0
  6
CONTINUOUS
 62
     7
 10
71.2891548395
 20
118.5159312323
 30
0.0
 11
71.2938766219
 21
118.5278955714
 31
0.0
  0
ARC
  5
322
  8
0
  6
CONTINUOUS
 62
     7
 10
75.2911952905
 20
123.1240085014
 30
0.0
 40
0.1881531482622695
 50
0.4840118239
 51
47.8665200003
  0
ARC
  5
323
  8
0
  6
CONTINUOUS
 62
     7
 10
71.0901478336
 20
122.9032204395
 30
0.0
 40
0.1881531482496422
 50
90.4840118497
 51
137.866520011
  0
ARC
  5
324
  8
0
  6
CONTINUOUS
 62
     7
 10
71.3109358955
 20
118.7021729825
 30
0.0
 40
0.1881531482660625
 50
180.4840118245
 51
227.8665199998
  0
LINE
  5
325
  8
0
  6
CONTINUOUS
 62
     7
 10
71.3305625754
 20
118.5156060674
 30
0.0
 11
71.2891548395
 21
118.5159312323
 31
0.0
  0
LINE
  5
326
  8
0
  6
CONTINUOUS
 62
     7
 10
75.2715686107
 20
123.3105754164
 30
0.0
 11
75.3129763465
 21
123.3102502515
 31
0.0
  0
LINE
  5
327
  8
0
  6
CONTINUOUS
 62
     7
 10
75.6985502675
 20
118.9425877243
 30
0.0
 11
75.6982251026
 21
118.9011799884
 31
0.0
  0
LINE
  5
328
  8
0
  6
CONTINUOUS
 62
     7
 10
70.9035809185
 20
122.8835937596
 30
0.0
 11
70.9039060834
 21
122.9250014954
 31
0.0
  0
LINE
  5
329
  8
0
  6
CONTINUOUS
 62
     7
 10
70.8335839174
 20
118.4854852507
 30
0.0
 11
70.8206201131
 21
118.4748634999
 31
0.0
  0
LINE
  5
32A
  8
0
  6
CONTINUOUS
 62
     7
 10
70.8889880632
 20
118.3835014683
 30
0.0
 11
70.8335926776
 21
118.4854879341
 31
0.0
  0
LINE
  5
32B
  8
0
  6
CONTINUOUS
 62
     7
 10
75.7685472687
 20
123.3406962331
 30
0.0
 11
75.7815110729
 21
123.351317984
 31
0.0
  0
LINE
  5
32C
  8
0
  6
CONTINUOUS
 62
     7
 10
75.7131431228
 20
123.4426800156
 30
0.0
 11
75.7685385085
 21
123.3406935497
 31
0.0
  0
LINE
  5
32D
  8
0
  6
CONTINUOUS
 62
     7
 10
75.7286710842
 20
118.4456090663
 30
0.0
 11
75.7392928351
 21
118.432645262
 31
0.0
  0
LINE
  5
32E
  8
0
  6
CONTINUOUS
 62
     7
 10
75.8306548667
 20
118.5010132121
 30
0.0
 11
75.7286684008
 21
118.4456178265
 31
0.0
  0
LINE
  5
32F
  8
0
  6
CONTINUOUS
 62
     7
 10
70.8734601018
 20
123.3805724176
 30
0.0
 11
70.862838351
 21
123.3935362218
 31
0.0
  0
LINE
  5
330
  8
0
  6
CONTINUOUS
 62
     7
 10
70.7714763194
 20
123.3251682717
 30
0.0
 11
70.8734627852
 21
123.3805636574
 31
0.0
  0
ARC
  5
331
  8
0
  6
CONTINUOUS
 62
     7
 10
71.3542542957
 20
118.3659249435
 30
0.0
 40
0.4134666572810261
 50
130.8498855126
 51
137.5024811916
  0
POLYLINE
  5
332
  8
0
  6
CONTINUOUS
 62
     7
 66
     1
 10
0.0
 20
0.0
 30
0.0
 70
   128
  0
VERTEX
  5
54F
  8
0
  6
CONTINUOUS
 62
     7
 10
71.1847114926
 20
118.5626416601
 30
0.0
  0
VERTEX
  5
550
  8
0
  6
CONTINUOUS
 62
     7
 10
71.1486631078
 20
118.5323921975
 30
0.0
  0
VERTEX
  5
551
  8
0
  6
CONTINUOUS
 62
     7
 10
71.1080155423
 20
118.5034973172
 30
0.0
  0
SEQEND
  5
5E8
  8
0
  6
CONTINUOUS
 62
     7
  0
LINE
  5
333
  8
0
  6
CONTINUOUS
 62
     7
 10
70.8257357677
 20
122.9033829322
 30
0.0
 11
70.9035809185
 21
122.8835937596
 31
0.0
  0
LINE
  5
334
  8
0
  6
CONTINUOUS
 62
     7
 10
70.8324853358
 20
122.8101223431
 30
0.0
 11
70.9080029066
 21
122.803449101
 31
0.0
  0
LINE
  5
335
  8
0
  6
CONTINUOUS
 62
     7
 10
70.8324853358
 20
122.8101223431
 30
0.0
 11
70.8257357688
 21
122.9033829319
 31
0.0
  0
LINE
  5
336
  8
0
  6
CONTINUOUS
 62
     7
 10
75.7763954184
 20
118.9227985516
 30
0.0
 11
75.6985502675
 21
118.9425877243
 31
0.0
  0
LINE
  5
337
  8
0
  6
CONTINUOUS
 62
     7
 10
75.7696458502
 20
119.0160591407
 30
0.0
 11
75.6941282794
 21
119.0227323828
 31
0.0
  0
LINE
  5
338
  8
0
  6
CONTINUOUS
 62
     7
 10
75.7696458502
 20
119.0160591407
 30
0.0
 11
75.7763954172
 21
118.9227985519
 31
0.0
  0
LINE
  5
339
  8
0
  6
CONTINUOUS
 62
     7
 10
71.3107734027
 20
118.4377609166
 30
0.0
 11
71.3305625754
 21
118.5156060674
 31
0.0
  0
LINE
  5
33A
  8
0
  6
CONTINUOUS
 62
     7
 10
71.4040339918
 20
118.4445104847
 30
0.0
 11
71.4107072339
 21
118.5200280555
 31
0.0
  0
LINE
  5
33B
  8
0
  6
CONTINUOUS
 62
     7
 10
71.4040339918
 20
118.4445104847
 30
0.0
 11
71.310773403
 21
118.4377609177
 31
0.0
  0
LINE
  5
33C
  8
0
  6
CONTINUOUS
 62
     7
 10
75.2913577833
 20
123.3884205673
 30
0.0
 11
75.2715686107
 21
123.3105754164
 31
0.0
  0
LINE
  5
33D
  8
0
  6
CONTINUOUS
 62
     7
 10
75.1980971942
 20
123.3816709991
 30
0.0
 11
75.1914239521
 21
123.3061534283
 31
0.0
  0
LINE
  5
33E
  8
0
  6
CONTINUOUS
 62
     7
 10
75.1980971942
 20
123.3816709991
 30
0.0
 11
75.291357783
 21
123.3884205661
 31
0.0
  0
POLYLINE
  5
33F
  8
0
  6
CONTINUOUS
 62
     7
 66
     1
 10
0.0
 20
0.0
 30
0.0
 70
   128
  0
VERTEX
  5
552
  8
0
  6
CONTINUOUS
 62
     7
 10
75.5527297359
 20
123.1809354359
 30
0.0
  0
VERTEX
  5
553
  8
0
  6
CONTINUOUS
 62
     7
 10
75.5345176904
 20
123.1601510295
 30
0.0
  0
VERTEX
  5
554
  8
0
  6
CONTINUOUS
 62
     7
 10
75.5179609713
 20
123.1472935503
 30
0.0
  0
SEQEND
  5
5E9
  8
0
  6
CONTINUOUS
 62
     7
  0
POLYLINE
  5
340
  8
0
  6
CONTINUOUS
 62
     7
 66
     1
 10
0.0
 20
0.0
 30
0.0
 70
   128
  0
VERTEX
  5
555
  8
0
  6
CONTINUOUS
 62
     7
 10
75.4174196934
 20
123.2635398237
 30
0.0
  0
VERTEX
  5
556
  8
0
  6
CONTINUOUS
 62
     7
 10
75.4534680783
 20
123.2937892864
 30
0.0
  0
VERTEX
  5
557
  8
0
  6
CONTINUOUS
 62
     7
 10
75.4941156437
 20
123.3226841666
 30
0.0
  0
SEQEND
  5
5EA
  8
0
  6
CONTINUOUS
 62
     7
  0
POLYLINE
  5
341
  8
0
  6
CONTINUOUS
 62
     7
 66
     1
 10
0.0
 20
0.0
 30
0.0
 70
   128
  0
VERTEX
  5
558
  8
0
  6
CONTINUOUS
 62
     7
 10
75.5689102657
 20
118.6614265117
 30
0.0
  0
VERTEX
  5
559
  8
0
  6
CONTINUOUS
 62
     7
 10
75.5482045996
 20
118.6794918615
 30
0.0
  0
VERTEX
  5
55A
  8
0
  6
CONTINUOUS
 62
     7
 10
75.5352774486
 20
118.6961792921
 30
0.0
  0
SEQEND
  5
5EB
  8
0
  6
CONTINUOUS
 62
     7
  0
POLYLINE
  5
342
  8
0
  6
CONTINUOUS
 62
     7
 66
     1
 10
0.0
 20
0.0
 30
0.0
 70
   128
  0
VERTEX
  5
55B
  8
0
  6
CONTINUOUS
 62
     7
 10
75.6515146748
 20
118.7967366415
 30
0.0
  0
VERTEX
  5
55C
  8
0
  6
CONTINUOUS
 62
     7
 10
75.6817641375
 20
118.7606882567
 30
0.0
  0
VERTEX
  5
55D
  8
0
  6
CONTINUOUS
 62
     7
 10
75.7106590177
 20
118.7200406912
 30
0.0
  0
SEQEND
  5
5EC
  8
0
  6
CONTINUOUS
 62
     7
  0
POLYLINE
  5
343
  8
0
  6
CONTINUOUS
 62
     7
 66
     1
 10
0.0
 20
0.0
 30
0.0
 70
   128
  0
VERTEX
  5
55E
  8
0
  6
CONTINUOUS
 62
     7
 10
71.0332209246
 20
123.1647549894
 30
0.0
  0
VERTEX
  5
55F
  8
0
  6
CONTINUOUS
 62
     7
 10
71.0539356154
 20
123.1466793511
 30
0.0
  0
VERTEX
  5
560
  8
0
  6
CONTINUOUS
 62
     7
 10
71.0669270991
 20
123.1298739585
 30
0.0
  0
SEQEND
  5
5ED
  8
0
  6
CONTINUOUS
 62
     7
  0
POLYLINE
  5
344
  8
0
  6
CONTINUOUS
 62
     7
 66
     1
 10
0.0
 20
0.0
 30
0.0
 70
   128
  0
VERTEX
  5
561
  8
0
  6
CONTINUOUS
 62
     7
 10
70.9506165112
 20
123.0294448423
 30
0.0
  0
VERTEX
  5
562
  8
0
  6
CONTINUOUS
 62
     7
 10
70.9203670486
 20
123.0654932272
 30
0.0
  0
VERTEX
  5
563
  8
0
  6
CONTINUOUS
 62
     7
 10
70.8914721683
 20
123.1061407926
 30
0.0
  0
SEQEND
  5
5EE
  8
0
  6
CONTINUOUS
 62
     7
  0
LINE
  5
345
  8
0
  6
CONTINUOUS
 62
     7
 10
70.8324853247
 20
122.8101223405
 30
0.0
 11
70.8438899139
 21
122.7918356431
 31
0.0
  0
LINE
  5
346
  8
0
  6
CONTINUOUS
 62
     7
 10
75.1980971916
 20
123.3816710103
 30
0.0
 11
75.1798104942
 21
123.3702664211
 31
0.0
  0
LINE
  5
347
  8
0
  6
CONTINUOUS
 62
     7
 10
75.7696458614
 20
119.0160591434
 30
0.0
 11
75.7582412722
 21
119.0343458407
 31
0.0
  0
LINE
  5
348
  8
0
  6
CONTINUOUS
 62
     7
 10
71.4040339945
 20
118.4445104736
 30
0.0
 11
71.4223206918
 21
118.4559150627
 31
0.0
  0
POLYLINE
  5
349
  8
0
  6
CONTINUOUS
 62
     7
 66
     1
 10
0.0
 20
0.0
 30
0.0
 70
   128
  0
VERTEX
  5
564
  8
0
  6
CONTINUOUS
 62
     7
 10
71.2570460069
 20
118.436214917
 30
0.0
  0
VERTEX
  5
565
  8
0
  6
CONTINUOUS
 62
     7
 10
71.2735033334
 20
118.4770422742
 30
0.0
  0
VERTEX
  5
566
  8
0
  6
CONTINUOUS
 62
     7
 10
71.2891548395
 20
118.5159312323
 30
0.0
  0
SEQEND
  5
5EF
  8
0
  6
CONTINUOUS
 62
     7
  0
LINE
  5
34A
  8
0
  6
CONTINUOUS
 62
     7
 10
71.1335952001
 20
118.4801062223
 30
0.0
 11
71.134333095
 21
118.4816386044
 31
0.0
  0
ARC
  5
34B
  8
0
  6
CONTINUOUS
 62
     7
 10
71.6345423437
 20
118.2267099282
 30
0.0
 40
0.5614249042368834
 50
143.2477837206
 51
152.9946047788
  0
POLYLINE
  5
34C
  8
0
  6
CONTINUOUS
 62
     7
 66
     1
 10
0.0
 20
0.0
 30
0.0
 70
   128
  0
VERTEX
  5
567
  8
0
  6
CONTINUOUS
 62
     7
 10
75.7779414179
 20
118.8690711558
 30
0.0
  0
VERTEX
  5
568
  8
0
  6
CONTINUOUS
 62
     7
 10
75.7371140608
 20
118.8855284823
 30
0.0
  0
VERTEX
  5
569
  8
0
  6
CONTINUOUS
 62
     7
 10
75.6982251026
 20
118.9011799884
 30
0.0
  0
SEQEND
  5
5F0
  8
0
  6
CONTINUOUS
 62
     7
  0
LINE
  5
34D
  8
0
  6
CONTINUOUS
 62
     7
 10
75.7340501127
 20
118.745620349
 30
0.0
 11
75.7325177305
 21
118.7463582438
 31
0.0
  0
ARC
  5
34E
  8
0
  6
CONTINUOUS
 62
     7
 10
75.9874464067
 20
119.2465674926
 30
0.0
 40
0.5614249042393944
 50
233.2477837207
 51
242.9946047788
  0
POLYLINE
  5
34F
  8
0
  6
CONTINUOUS
 62
     7
 66
     1
 10
0.0
 20
0.0
 30
0.0
 70
   128
  0
VERTEX
  5
56A
  8
0
  6
CONTINUOUS
 62
     7
 10
70.8241897681
 20
122.957110328
 30
0.0
  0
VERTEX
  5
56B
  8
0
  6
CONTINUOUS
 62
     7
 10
70.8650171253
 20
122.9406530015
 30
0.0
  0
VERTEX
  5
56C
  8
0
  6
CONTINUOUS
 62
     7
 10
70.9039060834
 20
122.9250014954
 30
0.0
  0
SEQEND
  5
5F1
  8
0
  6
CONTINUOUS
 62
     7
  0
LINE
  5
350
  8
0
  6
CONTINUOUS
 62
     7
 10
70.8680810734
 20
123.0805611349
 30
0.0
 11
70.8696134555
 21
123.07982324
 31
0.0
  0
ARC
  5
351
  8
0
  6
CONTINUOUS
 62
     7
 10
70.6146847793
 20
122.5796139912
 30
0.0
 40
0.5614249042374688
 50
53.2477837206
 51
62.9946047788
  0
POLYLINE
  5
352
  8
0
  6
CONTINUOUS
 62
     7
 66
     1
 10
0.0
 20
0.0
 30
0.0
 70
   128
  0
VERTEX
  5
56D
  8
0
  6
CONTINUOUS
 62
     7
 10
75.3450851791
 20
123.3899665668
 30
0.0
  0
VERTEX
  5
56E
  8
0
  6
CONTINUOUS
 62
     7
 10
75.3286278526
 20
123.3491392097
 30
0.0
  0
VERTEX
  5
56F
  8
0
  6
CONTINUOUS
 62
     7
 10
75.3129763465
 20
123.3102502515
 30
0.0
  0
SEQEND
  5
5F2
  8
0
  6
CONTINUOUS
 62
     7
  0
LINE
  5
353
  8
0
  6
CONTINUOUS
 62
     7
 10
75.468535986
 20
123.3460752616
 30
0.0
 11
75.4677980911
 21
123.3445428794
 31
0.0
  0
ARC
  5
354
  8
0
  6
CONTINUOUS
 62
     7
 10
74.9675888423
 20
123.5994715556
 30
0.0
 40
0.5614249042408248
 50
323.2477837207
 51
332.9946047788
  0
LINE
  5
355
  8
0
  6
CONTINUOUS
 62
     7
 10
75.4677980911
 20
123.3445428794
 30
0.0
 11
75.4941167271
 21
123.3226854421
 31
0.0
  0
LINE
  5
356
  8
0
  6
CONTINUOUS
 62
     7
 10
75.7325177305
 20
118.7463582438
 30
0.0
 11
75.7106602932
 21
118.7200396078
 31
0.0
  0
LINE
  5
357
  8
0
  6
CONTINUOUS
 62
     7
 10
70.8696134555
 20
123.07982324
 30
0.0
 11
70.8914708929
 21
123.106141876
 31
0.0
  0
LINE
  5
358
  8
0
  6
CONTINUOUS
 62
     7
 10
71.1343330949
 20
118.4816386044
 30
0.0
 11
71.1080144589
 21
118.5034960418
 31
0.0
  0
LINE
  5
359
  8
0
  6
CONTINUOUS
 62
     7
 10
71.3107734027
 20
118.4377609166
 30
0.0
 11
71.2570460069
 21
118.436214917
 31
0.0
  0
LINE
  5
35A
  8
0
  6
CONTINUOUS
 62
     7
 10
75.2913577833
 20
123.3884205673
 30
0.0
 11
75.3450851791
 21
123.3899665668
 31
0.0
  0
LINE
  5
35B
  8
0
  6
CONTINUOUS
 62
     7
 10
75.7763954184
 20
118.9227985516
 30
0.0
 11
75.7779414179
 21
118.8690711558
 31
0.0
  0
LINE
  5
35C
  8
0
  6
CONTINUOUS
 62
     7
 10
70.8257357677
 20
122.9033829322
 30
0.0
 11
70.8241897681
 21
122.957110328
 31
0.0
  0
LINE
  5
35D
  8
0
  6
CONTINUOUS
 62
     7
 10
70.8335839279
 20
118.485485053
 30
0.0
 11
70.8485146511
 21
118.4932252838
 31
0.0
  0
LINE
  5
35E
  8
0
  6
CONTINUOUS
 62
     7
 10
75.7685472582
 20
123.3406964308
 30
0.0
 11
75.7536165349
 21
123.3329562
 31
0.0
  0
LINE
  5
35F
  8
0
  6
CONTINUOUS
 62
     7
 10
75.7286712819
 20
118.4456090768
 30
0.0
 11
75.7209310511
 21
118.4605398
 31
0.0
  0
LINE
  5
360
  8
0
  6
CONTINUOUS
 62
     7
 10
70.8734599041
 20
123.3805724071
 30
0.0
 11
70.8812001349
 21
123.3656416838
 31
0.0
  0
POLYLINE
  5
361
  8
0
  6
CONTINUOUS
 62
     7
 66
     1
 10
0.0
 20
0.0
 30
0.0
 70
   128
  0
VERTEX
  5
570
  8
0
  6
CONTINUOUS
 62
     7
 10
75.6793190257
 20
123.289844964
 30
0.0
  0
VERTEX
  5
571
  8
0
  6
CONTINUOUS
 62
     7
 10
75.7207213587
 20
123.2566866779
 30
0.0
  0
VERTEX
  5
572
  8
0
  6
CONTINUOUS
 62
     7
 10
75.7620279849
 20
123.221788771
 30
0.0
  0
SEQEND
  5
5F3
  8
0
  6
CONTINUOUS
 62
     7
  0
POLYLINE
  5
362
  8
0
  6
CONTINUOUS
 62
     7
 66
     1
 10
0.0
 20
0.0
 30
0.0
 70
   128
  0
VERTEX
  5
573
  8
0
  6
CONTINUOUS
 62
     7
 10
70.9243103066
 20
123.2913450698
 30
0.0
  0
VERTEX
  5
574
  8
0
  6
CONTINUOUS
 62
     7
 10
70.9574688267
 20
123.332747347
 30
0.0
  0
VERTEX
  5
575
  8
0
  6
CONTINUOUS
 62
     7
 10
70.9923669778
 20
123.3740539046
 30
0.0
  0
SEQEND
  5
5F4
  8
0
  6
CONTINUOUS
 62
     7
  0
POLYLINE
  5
363
  8
0
  6
CONTINUOUS
 62
     7
 66
     1
 10
0.0
 20
0.0
 30
0.0
 70
   128
  0
VERTEX
  5
576
  8
0
  6
CONTINUOUS
 62
     7
 10
70.8401038056
 20
118.6043932095
 30
0.0
  0
VERTEX
  5
577
  8
0
  6
CONTINUOUS
 62
     7
 10
70.8814105859
 20
118.5694956488
 30
0.0
  0
VERTEX
  5
578
  8
0
  6
CONTINUOUS
 62
     7
 10
70.9228129251
 20
118.5363374331
 30
0.0
  0
SEQEND
  5
5F5
  8
0
  6
CONTINUOUS
 62
     7
  0
POLYLINE
  5
364
  8
0
  6
CONTINUOUS
 62
     7
 66
     1
 10
0.0
 20
0.0
 30
0.0
 70
   128
  0
VERTEX
  5
579
  8
0
  6
CONTINUOUS
 62
     7
 10
75.6778209206
 20
118.5348363795
 30
0.0
  0
VERTEX
  5
57A
  8
0
  6
CONTINUOUS
 62
     7
 10
75.6446623914
 20
118.4934341043
 30
0.0
  0
VERTEX
  5
57B
  8
0
  6
CONTINUOUS
 62
     7
 10
75.6097642309
 20
118.4521275494
 30
0.0
  0
SEQEND
  5
5F6
  8
0
  6
CONTINUOUS
 62
     7
  0
LINE
  5
365
  8
0
  6
CONTINUOUS
 62
     7
 10
71.1657603314
 20
118.176205257
 30
0.0
 11
71.1741172863
 21
118.2208667929
 31
0.0
  0
LINE
  5
366
  8
0
  6
CONTINUOUS
 62
     7
 10
76.037951078
 20
118.7777854803
 30
0.0
 11
75.993289542
 21
118.7861424352
 31
0.0
  0
LINE
  5
367
  8
0
  6
CONTINUOUS
 62
     7
 10
70.5641801081
 20
123.0483960036
 30
0.0
 11
70.608841644
 21
123.0400390486
 31
0.0
  0
LINE
  5
368
  8
0
  6
CONTINUOUS
 62
     7
 10
75.4363708547
 20
123.6499762268
 30
0.0
 11
75.4280138997
 21
123.6053146909
 31
0.0
  0
LINE
  5
369
  8
0
  6
CONTINUOUS
 62
     7
 10
71.1951771528
 20
118.2202441805
 30
0.0
 11
71.1741172862
 21
118.220866786
 31
0.0
  0
LINE
  5
36A
  8
0
  6
CONTINUOUS
 62
     7
 10
71.1951770082
 20
118.2202432948
 30
0.0
 11
71.1880348266
 21
118.1781713027
 31
0.0
  0
LINE
  5
36B
  8
0
  6
CONTINUOUS
 62
     7
 10
75.9939121544
 20
118.8072023017
 30
0.0
 11
75.993289549
 21
118.7861424351
 31
0.0
  0
LINE
  5
36C
  8
0
  6
CONTINUOUS
 62
     7
 10
75.9939130402
 20
118.8072021571
 30
0.0
 11
76.0359850322
 21
118.8000599755
 31
0.0
  0
LINE
  5
36D
  8
0
  6
CONTINUOUS
 62
     7
 10
70.6082190316
 20
123.0189791821
 30
0.0
 11
70.6088416371
 21
123.0400390488
 31
0.0
  0
LINE
  5
36E
  8
0
  6
CONTINUOUS
 62
     7
 10
70.6082181459
 20
123.0189793267
 30
0.0
 11
70.5661461538
 21
123.0261215083
 31
0.0
  0
LINE
  5
36F
  8
0
  6
CONTINUOUS
 62
     7
 10
75.4069540332
 20
123.6059373033
 30
0.0
 11
75.4280138999
 21
123.6053146979
 31
0.0
  0
LINE
  5
370
  8
0
  6
CONTINUOUS
 62
     7
 10
75.4069541778
 20
123.605938189
 30
0.0
 11
75.4140963594
 21
123.6480101811
 31
0.0
  0
LINE
  5
371
  8
0
  6
CONTINUOUS
 62
     7
 10
71.2545867543
 20
118.2181742076
 30
0.0
 11
71.1951770289
 21
118.2202396404
 31
0.0
  0
LINE
  5
372
  8
0
  6
CONTINUOUS
 62
     7
 10
71.2508683461
 20
118.1857943247
 30
0.0
 11
71.2545867543
 21
118.2181742076
 31
0.0
  0
LINE
  5
373
  8
0
  6
CONTINUOUS
 62
     7
 10
75.9959821274
 20
118.8666119032
 30
0.0
 11
75.9939166945
 21
118.8072021778
 31
0.0
  0
LINE
  5
374
  8
0
  6
CONTINUOUS
 62
     7
 10
76.0283620102
 20
118.862893495
 30
0.0
 11
75.9959821274
 21
118.8666119032
 31
0.0
  0
LINE
  5
375
  8
0
  6
CONTINUOUS
 62
     7
 10
70.6061490587
 20
122.9595695807
 30
0.0
 11
70.6082144915
 21
123.0189793061
 31
0.0
  0
LINE
  5
376
  8
0
  6
CONTINUOUS
 62
     7
 10
70.5737691758
 20
122.9632879889
 30
0.0
 11
70.6061490587
 21
122.9595695807
 31
0.0
  0
LINE
  5
377
  8
0
  6
CONTINUOUS
 62
     7
 10
75.3475444318
 20
123.6080072763
 30
0.0
 11
75.4069541572
 21
123.6059418434
 31
0.0
  0
LINE
  5
378
  8
0
  6
CONTINUOUS
 62
     7
 10
75.35126284
 20
123.6403871591
 30
0.0
 11
75.3475444318
 21
123.6080072763
 31
0.0
  0
LINE
  5
379
  8
0
  6
CONTINUOUS
 62
     7
 10
71.259767555
 20
118.2232323152
 30
0.0
 11
71.3107734027
 21
118.4377609166
 31
0.0
  0
LINE
  5
37A
  8
0
  6
CONTINUOUS
 62
     7
 10
71.1951771527
 20
118.2202441804
 30
0.0
 11
71.259767555
 21
118.2232323152
 31
0.0
  0
LINE
  5
37B
  8
0
  6
CONTINUOUS
 62
     7
 10
75.9909240198
 20
118.8717927039
 30
0.0
 11
75.7763954184
 21
118.9227985516
 31
0.0
  0
LINE
  5
37C
  8
0
  6
CONTINUOUS
 62
     7
 10
75.9939121545
 20
118.8072023016
 30
0.0
 11
75.9909240198
 21
118.8717927039
 31
0.0
  0
LINE
  5
37D
  8
0
  6
CONTINUOUS
 62
     7
 10
70.6112071663
 20
122.9543887799
 30
0.0
 11
70.8257357677
 21
122.9033829322
 31
0.0
  0
LINE
  5
37E
  8
0
  6
CONTINUOUS
 62
     7
 10
70.6082190315
 20
123.0189791822
 30
0.0
 11
70.6112071663
 21
122.9543887799
 31
0.0
  0
LINE
  5
37F
  8
0
  6
CONTINUOUS
 62
     7
 10
75.342363631
 20
123.6029491687
 30
0.0
 11
75.2913577833
 21
123.3884205673
 31
0.0
  0
LINE
  5
380
  8
0
  6
CONTINUOUS
 62
     7
 10
75.4069540333
 20
123.6059373034
 30
0.0
 11
75.342363631
 21
123.6029491687
 31
0.0
  0
LINE
  5
381
  8
0
  6
CONTINUOUS
 62
     7
 10
71.2585480806
 20
118.2181078894
 30
0.0
 11
71.2597651465
 21
118.2232329445
 31
0.0
  0
LINE
  5
382
  8
0
  6
CONTINUOUS
 62
     7
 10
71.2545867536
 20
118.218174207
 30
0.0
 11
71.2585480806
 21
118.2181078894
 31
0.0
  0
LINE
  5
383
  8
0
  6
CONTINUOUS
 62
     7
 10
75.9960484456
 20
118.8705732295
 30
0.0
 11
75.9909233904
 21
118.8717902954
 31
0.0
  0
LINE
  5
384
  8
0
  6
CONTINUOUS
 62
     7
 10
75.995982128
 20
118.8666119025
 30
0.0
 11
75.9960484456
 21
118.8705732295
 31
0.0
  0
LINE
  5
385
  8
0
  6
CONTINUOUS
 62
     7
 10
70.6060827405
 20
122.9556082543
 30
0.0
 11
70.6112077956
 21
122.9543911884
 31
0.0
  0
LINE
  5
386
  8
0
  6
CONTINUOUS
 62
     7
 10
70.6060827402
 20
122.9556082545
 30
0.0
 11
70.6061490581
 21
122.9595695813
 31
0.0
  0
LINE
  5
387
  8
0
  6
CONTINUOUS
 62
     7
 10
75.3435831054
 20
123.6080735945
 30
0.0
 11
75.3423660395
 21
123.6029485393
 31
0.0
  0
LINE
  5
388
  8
0
  6
CONTINUOUS
 62
     7
 10
75.3475444324
 20
123.6080072768
 30
0.0
 11
75.3435831054
 21
123.6080735945
 31
0.0
  0
LINE
  5
389
  8
0
  6
CONTINUOUS
 62
     7
 10
71.2546441576
 20
118.1863696366
 30
0.0
 11
71.2585480804
 21
118.2181078891
 31
0.0
  0
LINE
  5
38A
  8
0
  6
CONTINUOUS
 62
     7
 10
76.0277866983
 20
118.8666693065
 30
0.0
 11
75.9960484458
 21
118.8705732293
 31
0.0
  0
LINE
  5
38B
  8
0
  6
CONTINUOUS
 62
     7
 10
70.5743444877
 20
122.9595121774
 30
0.0
 11
70.6060827402
 21
122.9556082545
 31
0.0
  0
LINE
  5
38C
  8
0
  6
CONTINUOUS
 62
     7
 10
75.3474870285
 20
123.6398118472
 30
0.0
 11
75.3435831056
 21
123.6080735947
 31
0.0
  0
LINE
  5
38D
  8
0
  6
CONTINUOUS
 62
     7
 10
71.4061276242
 20
118.2127140086
 30
0.0
 11
71.2585480812
 21
118.2181078899
 31
0.0
  0
LINE
  5
38E
  8
0
  6
CONTINUOUS
 62
     7
 10
71.4063763316
 20
118.2086325041
 30
0.0
 11
71.4061276242
 21
118.2127140086
 31
0.0
  0
LINE
  5
38F
  8
0
  6
CONTINUOUS
 62
     7
 10
76.0014423264
 20
119.0181527731
 30
0.0
 11
75.9960484451
 21
118.8705732301
 31
0.0
  0
LINE
  5
390
  8
0
  6
CONTINUOUS
 62
     7
 10
76.0055238309
 20
119.0184014805
 30
0.0
 11
76.0014423264
 21
119.0181527731
 31
0.0
  0
LINE
  5
391
  8
0
  6
CONTINUOUS
 62
     7
 10
70.6006888597
 20
122.8080287108
 30
0.0
 11
70.606082741
 21
122.9556082537
 31
0.0
  0
LINE
  5
392
  8
0
  6
CONTINUOUS
 62
     7
 10
70.5966073552
 20
122.8077800033
 30
0.0
 11
70.6006888597
 21
122.8080287108
 31
0.0
  0
LINE
  5
393
  8
0
  6
CONTINUOUS
 62
     7
 10
75.1960035619
 20
123.6134674753
 30
0.0
 11
75.3435831048
 21
123.608073594
 31
0.0
  0
LINE
  5
394
  8
0
  6
CONTINUOUS
 62
     7
 10
75.1957548544
 20
123.6175489798
 30
0.0
 11
75.1960035619
 21
123.6134674753
 31
0.0
  0
LINE
  5
395
  8
0
  6
CONTINUOUS
 62
     7
 10
70.6196037466
 20
122.8095314726
 30
0.0
 11
70.6112071663
 21
122.9543887799
 31
0.0
  0
LINE
  5
396
  8
0
  6
CONTINUOUS
 62
     7
 10
70.6006888591
 20
122.8080287113
 30
0.0
 11
70.6196037466
 21
122.8095314726
 31
0.0
  0
LINE
  5
397
  8
0
  6
CONTINUOUS
 62
     7
 10
71.259767555
 20
118.2232323152
 30
0.0
 11
71.4046248623
 21
118.2316288955
 31
0.0
  0
LINE
  5
398
  8
0
  6
CONTINUOUS
 62
     7
 10
71.4061276237
 20
118.212714008
 30
0.0
 11
71.4046248623
 21
118.2316288955
 31
0.0
  0
LINE
  5
399
  8
0
  6
CONTINUOUS
 62
     7
 10
75.9909240198
 20
118.8717927039
 30
0.0
 11
75.9825274394
 21
119.0166500112
 31
0.0
  0
LINE
  5
39A
  8
0
  6
CONTINUOUS
 62
     7
 10
76.0014423269
 20
119.0181527726
 30
0.0
 11
75.9825274394
 21
119.0166500112
 31
0.0
  0
LINE
  5
39B
  8
0
  6
CONTINUOUS
 62
     7
 10
75.342363631
 20
123.6029491687
 30
0.0
 11
75.1975063237
 21
123.5945525883
 31
0.0
  0
LINE
  5
39C
  8
0
  6
CONTINUOUS
 62
     7
 10
75.1960035624
 20
123.6134674758
 30
0.0
 11
75.1975063237
 21
123.5945525883
 31
0.0
  0
POLYLINE
  5
39D
  8
0
  6
CONTINUOUS
 62
     7
 66
     1
 10
0.0
 20
0.0
 30
0.0
 70
   128
  0
VERTEX
  5
57C
  8
0
  6
CONTINUOUS
 62
     7
 10
70.624592146
 20
122.8100374586
 30
0.0
  0
VERTEX
  5
57D
  8
0
  6
CONTINUOUS
 62
     7
 10
70.7514413343
 20
122.8149814197
 30
0.0
  0
VERTEX
  5
57E
  8
0
  6
CONTINUOUS
 62
     7
 10
70.8324853358
 20
122.8101223431
 30
0.0
  0
SEQEND
  5
5F7
  8
0
  6
CONTINUOUS
 62
     7
  0
LINE
  5
39E
  8
0
  6
CONTINUOUS
 62
     7
 10
70.6196037466
 20
122.8095314726
 30
0.0
 11
70.624592146
 21
122.8100374586
 31
0.0
  0
POLYLINE
  5
39F
  8
0
  6
CONTINUOUS
 62
     7
 66
     1
 10
0.0
 20
0.0
 30
0.0
 70
   128
  0
VERTEX
  5
57F
  8
0
  6
CONTINUOUS
 62
     7
 10
71.4041188763
 20
118.2366172949
 30
0.0
  0
VERTEX
  5
580
  8
0
  6
CONTINUOUS
 62
     7
 10
71.3991749152
 20
118.3634664832
 30
0.0
  0
VERTEX
  5
581
  8
0
  6
CONTINUOUS
 62
     7
 10
71.4040339918
 20
118.4445104847
 30
0.0
  0
SEQEND
  5
5F8
  8
0
  6
CONTINUOUS
 62
     7
  0
LINE
  5
3A0
  8
0
  6
CONTINUOUS
 62
     7
 10
71.4046248623
 20
118.2316288955
 30
0.0
 11
71.4041188763
 21
118.2366172949
 31
0.0
  0
POLYLINE
  5
3A1
  8
0
  6
CONTINUOUS
 62
     7
 66
     1
 10
0.0
 20
0.0
 30
0.0
 70
   128
  0
VERTEX
  5
582
  8
0
  6
CONTINUOUS
 62
     7
 10
75.97753904
 20
119.0161440252
 30
0.0
  0
VERTEX
  5
583
  8
0
  6
CONTINUOUS
 62
     7
 10
75.8506898517
 20
119.0112000641
 30
0.0
  0
VERTEX
  5
584
  8
0
  6
CONTINUOUS
 62
     7
 10
75.7696458502
 20
119.0160591407
 30
0.0
  0
SEQEND
  5
5F9
  8
0
  6
CONTINUOUS
 62
     7
  0
LINE
  5
3A2
  8
0
  6
CONTINUOUS
 62
     7
 10
75.9825274394
 20
119.0166500112
 30
0.0
 11
75.97753904
 21
119.0161440252
 31
0.0
  0
POLYLINE
  5
3A3
  8
0
  6
CONTINUOUS
 62
     7
 66
     1
 10
0.0
 20
0.0
 30
0.0
 70
   128
  0
VERTEX
  5
585
  8
0
  6
CONTINUOUS
 62
     7
 10
75.1980123097
 20
123.5895641889
 30
0.0
  0
VERTEX
  5
586
  8
0
  6
CONTINUOUS
 62
     7
 10
75.2029562708
 20
123.4627150006
 30
0.0
  0
VERTEX
  5
587
  8
0
  6
CONTINUOUS
 62
     7
 10
75.1980971942
 20
123.3816709991
 30
0.0
  0
SEQEND
  5
5FA
  8
0
  6
CONTINUOUS
 62
     7
  0
LINE
  5
3A4
  8
0
  6
CONTINUOUS
 62
     7
 10
75.1975063237
 20
123.5945525883
 30
0.0
 11
75.1980123097
 21
123.5895641889
 31
0.0
  0
LINE
  5
3A5
  8
0
  6
CONTINUOUS
 62
     7
 10
71.4472589469
 20
118.2339806805
 30
0.0
 11
71.4041188937
 21
118.2366173123
 31
0.0
  0
LINE
  5
3A6
  8
0
  6
CONTINUOUS
 62
     7
 10
75.9801756544
 20
119.0592840958
 30
0.0
 11
75.9775390227
 21
119.0161440426
 31
0.0
  0
LINE
  5
3A7
  8
0
  6
CONTINUOUS
 62
     7
 10
70.6245977582
 20
122.8100370808
 30
0.0
 11
70.6219558838
 21
122.7668974066
 31
0.0
  0
LINE
  5
3A8
  8
0
  6
CONTINUOUS
 62
     7
 10
75.1548722392
 20
123.5922008033
 30
0.0
 11
75.1980122924
 21
123.5895641716
 31
0.0
  0
LINE
  5
3A9
  8
0
  6
CONTINUOUS
 62
     7
 10
70.8485146908
 20
118.4932246431
 30
0.0
 11
70.8002682659
 21
118.5684865501
 31
0.0
  0
LINE
  5
3AA
  8
0
  6
CONTINUOUS
 62
     7
 10
75.7536164953
 20
123.3329568407
 30
0.0
 11
75.8018629202
 21
123.2576949338
 31
0.0
  0
LINE
  5
3AB
  8
0
  6
CONTINUOUS
 62
     7
 10
75.7209316918
 20
118.4605398397
 30
0.0
 11
75.6456697849
 21
118.4122934148
 31
0.0
  0
LINE
  5
3AC
  8
0
  6
CONTINUOUS
 62
     7
 10
70.8811994942
 20
123.3656416442
 30
0.0
 11
70.9564614012
 21
123.4138880691
 31
0.0
  0
LINE
  5
3AD
  8
0
  6
CONTINUOUS
 62
     7
 10
70.7861698359
 20
118.5597567469
 30
0.0
 11
70.8335839279
 21
118.485485053
 31
0.0
  0
LINE
  5
3AE
  8
0
  6
CONTINUOUS
 62
     7
 10
75.6543967681
 20
118.3981995463
 30
0.0
 11
75.72866804
 21
118.4456143207
 31
0.0
  0
LINE
  5
3AF
  8
0
  6
CONTINUOUS
 62
     7
 10
70.9477344179
 20
123.4279819375
 30
0.0
 11
70.8734631461
 21
123.3805671631
 31
0.0
  0
LINE
  5
3B0
  8
0
  6
CONTINUOUS
 62
     7
 10
75.8159567887
 20
123.266421917
 30
0.0
 11
75.7685420142
 21
123.3406931889
 31
0.0
  0
ARC
  5
3B1
  8
0
  6
CONTINUOUS
 62
     7
 10
72.0250841194
 20
122.804009419
 30
0.0
 40
1.424400936122752
 50
179.8383258695
 51
181.5106116423
  0
ARC
  5
3B2
  8
0
  6
CONTINUOUS
 62
     7
 10
71.410146916
 20
119.6371092659
 30
0.0
 40
1.424400933730679
 50
269.8383258686
 51
271.5106114602
  0
ARC
  5
3B3
  8
0
  6
CONTINUOUS
 62
     7
 10
74.5770470692
 20
119.0221720649
 30
0.0
 40
1.424400933571553
 50
359.8383258685
 51
1.5106114603
  0
ARC
  5
3B4
  8
0
  6
CONTINUOUS
 62
     7
 10
75.1919842701
 20
122.189072218
 30
0.0
 40
1.424400933651029
 50
89.8383258685
 51
91.5106114602
  0
ARC
  5
3B5
  8
0
  6
CONTINUOUS
 62
     7
 10
72.0433167422
 20
122.801978818
 30
0.0
 40
1.423733028544397
 50
179.6960544892
 51
181.4109189615
  0
ARC
  5
3B6
  8
0
  6
CONTINUOUS
 62
     7
 10
71.4121775168
 20
119.6553418934
 30
0.0
 40
1.423733030854403
 50
269.6960544911
 51
271.4109189607
  0
ARC
  5
3B7
  8
0
  6
CONTINUOUS
 62
     7
 10
74.5588144415
 20
119.0242026657
 30
0.0
 40
1.423733030876602
 50
359.6960544911
 51
1.4109189607
  0
ARC
  5
3B8
  8
0
  6
CONTINUOUS
 62
     7
 10
75.1899536692
 20
122.1708395904
 30
0.0
 40
1.423733030874158
 50
89.6960544911
 51
91.4109189607
  0
CIRCLE
  5
3B9
  8
0
  6
CONTINUOUS
 62
     7
 10
73.301065593
 20
120.9130907419
 30
0.0
 40
1.606780907343203
  0
LINE
  5
3BA
  8
0
  6
CONTINUOUS
 62
     7
 10
137.6307365597
 20
132.0168178851
 30
0.0
 11
137.6307365597
 21
137.1713426538
 31
0.0
  0
LINE
  5
3BB
  8
0
  6
CONTINUOUS
 62
     7
 10
137.6307365597
 20
117.2006050976
 30
0.0
 11
137.6307365597
 21
121.0191012224
 31
0.0
  0
LINE
  5
3BC
  8
0
  6
CONTINUOUS
 62
     7
 10
133.3021774538
 20
118.1859738757
 30
0.0
 11
133.3021774538
 21
122.9965643427
 31
0.0
  0
POLYLINE
  5
3BD
  8
0
  6
CONTINUOUS
 62
     7
 66
     1
 10
0.0
 20
0.0
 30
0.0
 70
   128
  0
VERTEX
  5
588
  8
0
  6
CONTINUOUS
 62
     7
 10
119.114675765
 20
127.4055573388
 30
0.0
  0
VERTEX
  5
589
  8
0
  6
CONTINUOUS
 62
     7
 10
126.8460012174
 20
126.3472312796
 30
0.0
  0
VERTEX
  5
58A
  8
0
  6
CONTINUOUS
 62
     7
 10
135.0741774538
 20
124.8759526522
 30
0.0
  0
SEQEND
  5
5FB
  8
0
  6
CONTINUOUS
 62
     7
  0
LINE
  5
3BE
  8
0
  6
CONTINUOUS
 62
     7
 10
133.3021774538
 20
133.7837246377
 30
0.0
 11
133.3021774538
 21
136.1859738757
 31
0.0
  0
ARC
  5
3BF
  8
0
  6
CONTINUOUS
 62
     7
 10
115.391680651
 20
21.4848863133
 30
0.0
 40
107.8153603299573
 50
79.9692099227
 51
91.1218779499
  0
LINE
  5
3C0
  8
0
  6
CONTINUOUS
 62
     7
 10
78.9741774538
 20
124.2859738757
 30
0.0
 11
82.0018486335
 21
124.2235714526
 31
0.0
  0
POLYLINE
  5
3C1
  8
0
  6
CONTINUOUS
 62
     7
 66
     1
 10
0.0
 20
0.0
 30
0.0
 70
   128
  0
VERTEX
  5
58B
  8
0
  6
CONTINUOUS
 62
     7
 10
70.6171116244
 20
132.7439199426
 30
0.0
  0
VERTEX
  5
58C
  8
0
  6
CONTINUOUS
 62
     7
 10
70.658726931
 20
132.6676476822
 30
0.0
  0
VERTEX
  5
58D
  8
0
  6
CONTINUOUS
 62
     7
 10
70.6848151968
 20
132.6537677795
 30
0.0
  0
SEQEND
  5
5FC
  8
0
  6
CONTINUOUS
 62
     7
  0
LINE
  5
3C2
  8
0
  6
CONTINUOUS
 62
     7
 10
70.3287833208
 20
127.9607083976
 30
0.0
 11
70.5278471981
 21
130.2273606823
 31
0.0
  0
LINE
  5
3C3
  8
0
  6
CONTINUOUS
 62
     7
 10
70.3904901842
 20
127.7657439631
 30
0.0
 11
70.4741774538
 21
127.6663888792
 31
0.0
  0
LINE
  5
3C4
  8
0
  6
CONTINUOUS
 62
     7
 10
70.2400961167
 20
126.8794661459
 30
0.0
 11
70.4741774538
 21
126.9343630833
 31
0.0
  0
LINE
  5
3C5
  8
0
  6
CONTINUOUS
 62
     7
 10
70.4741774538
 20
126.8319075087
 30
0.0
 11
70.3619782238
 21
126.8055944579
 31
0.0
  0
LINE
  5
3C6
  8
0
  6
CONTINUOUS
 62
     7
 10
70.4741774538
 20
126.7958156507
 30
0.0
 11
70.3619782238
 21
126.8055944579
 31
0.0
  0
POLYLINE
  5
3C7
  8
0
  6
CONTINUOUS
 62
     7
 66
     1
 10
0.0
 20
0.0
 30
0.0
 70
   128
  0
VERTEX
  5
58E
  8
0
  6
CONTINUOUS
 62
     7
 10
70.7237690453
 20
132.8079563517
 30
0.0
  0
VERTEX
  5
58F
  8
0
  6
CONTINUOUS
 62
     7
 10
70.624467368
 20
132.8148793205
 30
0.0
  0
VERTEX
  5
590
  8
0
  6
CONTINUOUS
 62
     7
 10
70.5371303206
 20
132.8017190808
 30
0.0
  0
SEQEND
  5
5FD
  8
0
  6
CONTINUOUS
 62
     7
  0
LINE
  5
3C8
  8
0
  6
CONTINUOUS
 62
     7
 10
70.234999514
 20
132.4899017573
 30
0.0
 11
70.216106529
 21
132.3836054461
 31
0.0
  0
ARC
  5
3C9
  8
0
  6
CONTINUOUS
 62
     7
 10
70.3614580015
 20
126.803831857
 30
0.0
 40
0.0002176242657983
 50
309.7963546397
 51
0.2660847881
  0
LINE
  5
3CA
  8
0
  6
CONTINUOUS
 62
     7
 10
70.2217124151
 20
126.7761490666
 30
0.0
 11
70.2714733311
 21
126.8051005186
 31
0.0
  0
LINE
  5
3CB
  8
0
  6
CONTINUOUS
 62
     7
 10
70.4741774538
 20
126.7513825158
 30
0.0
 11
70.269123977
 21
126.7692541039
 31
0.0
  0
LINE
  5
3CC
  8
0
  6
CONTINUOUS
 62
     7
 10
69.7672545426
 20
127.2727639412
 30
0.0
 11
69.7685894224
 21
127.1820474734
 31
0.0
  0
LINE
  5
3CD
  8
0
  6
CONTINUOUS
 62
     7
 10
70.2673795809
 20
126.755017298
 30
0.0
 11
70.4741774538
 21
126.7369936757
 31
0.0
  0
LINE
  5
3CE
  8
0
  6
CONTINUOUS
 62
     7
 10
70.0744739876
 20
123.2474231387
 30
0.0
 11
70.0744739876
 21
111.6804819524
 31
0.0
  0
LINE
  5
3CF
  8
0
  6
CONTINUOUS
 62
     7
 10
71.0498041349
 20
117.6908527211
 30
0.0
 11
66.0268686398
 21
117.6908527211
 31
0.0
  0
LINE
  5
3D0
  8
0
  6
CONTINUOUS
 62
     7
 10
70.5407012174
 20
136.6908527211
 30
0.0
 11
66.951808951
 21
136.6908527211
 31
0.0
  0
LINE
  5
3D1
  8
0
  6
CONTINUOUS
 62
     7
 10
127.0744739876
 20
118.1859738757
 30
0.0
 11
127.0744739876
 21
113.7316140179
 31
0.0
  0
DIMENSION
  5
3D2
  8
0
  6
CONTINUOUS
 62
     7
  2
_D
 10
61.1231074809
 20
117.6908527211
 30
0.0
 11
61.1231074809
 21
127.619240104
 31
0.0
 70
   160
  1
%%c<>
  3
SLDDIMSTYLE0
 13
66.951808951
 23
136.6908527211
 33
0.0
 14
66.0268686398
 24
117.6908527211
 34
0.0
 50
90.0
  0
DIMENSION
  5
3DE
  8
0
  6
CONTINUOUS
 62
     7
  2
_D_1
 10
154.0741774538
 20
96.6508363028
 30
0.0
 11
125.2663595455
 21
96.6508363028
 31
0.0
 70
   160
  1
<>
  3
SLDDIMSTYLE0
 13
70.0744739876
 23
111.6804819524
 33
0.0
 14
154.0741774538
 24
112.6859738757
 34
0.0
  0
DIMENSION
  5
3E8
  8
0
  6
CONTINUOUS
 62
     7
  2
_D_2
 10
210.0741774538
 20
86.51205424
 30
0.0
 11
149.0863357153
 21
86.51205424
 31
0.0
 70
   160
  1
<>
  3
SLDDIMSTYLE0
 13
70.0744739876
 23
111.6804819524
 33
0.0
 14
210.0741774538
 24
115.7859738757
 34
0.0
  0
DIMENSION
  5
3F2
  8
0
  6
CONTINUOUS
 62
     7
  2
_D_3
 10
70.0744739876
 20
107.2534801202
 30
0.0
 11
100.7084576757
 21
107.2534801202
 31
0.0
 70
   160
  1
<>
  3
SLDDIMSTYLE0
 13
127.0744739876
 23
113.7316140179
 33
0.0
 14
70.0744739876
 24
111.6804819524
 34
0.0
  0
DIMENSION
  5
3FC
  8
0
  6
CONTINUOUS
 62
     7
  2
_D_4
 10
230.7082943793
 20
112.1859738757
 30
0.0
 11
230.7082943793
 21
126.467379493
 31
0.0
 70
   160
  1
%%c<>
  3
SLDDIMSTYLE0
 13
153.5741774538
 23
142.1859738757
 33
0.0
 14
153.5741774538
 24
112.1859738757
 34
0.0
 50
90.0
  0
DIMENSION
  5
407
  8
0
  6
CONTINUOUS
 62
     7
  2
_D_5
 10
225.2287117048
 20
139.6859738757
 30
0.0
 11
225.2287117048
 21
127.619240104
 31
0.0
 70
   160
  1
%%c<>h6
  3
SLDDIMSTYLE0
 13
207.8241774538
 23
114.6859738757
 33
0.0
 14
207.8241774538
 24
139.6859738757
 34
0.0
 50
90.0
  0
LINE
  5
413
  8
0
  6
CENTERX2
 62
     7
 10
68.8709877063
 20
127.1859738757
 30
0.0
 11
209.8241774538
 21
127.1859738757
 31
0.0
  0
ENDSEC
  0
EOF
