  0
SECTION
  2
HEADER
  9
$ACADVER
  1
AC1009
  9
$DWGCODEPAGE
  3
ansi_1252
  9
$INSBASE
 10
0.0
 20
0.0
 30
0.0
  9
$EXTMIN
 10
0.0
 20
0.0
 30
0.0
  9
$EXTMAX
 10
297.0
 20
210.0
 30
0.0
  9
$LIMMIN
 10
0.0
 20
0.0
  9
$LIMMAX
 10
297.0
 20
210.0
  9
$ORTHOMODE
 70
     0
  9
$REGENMODE
 70
     1
  9
$FILLMODE
 70
     1
  9
$QTEXTMODE
 70
     0
  9
$MIRRTEXT
 70
     1
  9
$DRAGMODE
 70
     2
  9
$LTSCALE
 40
1.0
  9
$OSMODE
 70
    37
  9
$ATTMODE
 70
     1
  9
$TEXTSIZE
 40
3.5
  9
$TRACEWID
 40
1.0
  9
$TEXTSTYLE
  7
STANDARD
  9
$CLAYER
  8
0
  9
$CELTYPE
  6
BYLAYER
  9
$CECOLOR
 62
   256
  9
$DIMSCALE
 40
1.0
  9
$DIMASZ
 40
4.0
  9
$DIMEXO
 40
1.0
  9
$DIMDLI
 40
3.75
  9
$DIMRND
 40
0.0
  9
$DIMDLE
 40
0.0
  9
$DIMEXE
 40
1.0
  9
$DIMTP
 40
0.0
  9
$DIMTM
 40
0.0
  9
$DIMTXT
 40
3.8805555556
  9
$DIMCEN
 40
2.5
  9
$DIMTSZ
 40
0.0
  9
$DIMTOL
 70
     0
  9
$DIMLIM
 70
     0
  9
$DIMTIH
 70
     1
  9
$DIMTOH
 70
     1
  9
$DIMSE1
 70
     0
  9
$DIMSE2
 70
     0
  9
$DIMTAD
 70
     1
  9
$DIMZIN
 70
     0
  9
$DIMBLK
  1

  9
$DIMASO
 70
     1
  9
$DIMSHO
 70
     1
  9
$DIMPOST
  1

  9
$DIMAPOST
  1

  9
$DIMALT
 70
     0
  9
$DIMALTD
 70
     3
  9
$DIMALTF
 40
0.0393700787
  9
$DIMLFAC
 40
0.6666666667
  9
$DIMTOFL
 70
     1
  9
$DIMTVP
 40
0.0
  9
$DIMTIX
 70
     0
  9
$DIMSOXD
 70
     0
  9
$DIMSAH
 70
     0
  9
$DIMBLK1
  1

  9
$DIMBLK2
  1

  9
$DIMSTYLE
  2
ISO-25
  9
$DIMCLRD
 70
     0
  9
$DIMCLRE
 70
     0
  9
$DIMCLRT
 70
     0
  9
$DIMTFAC
 40
1.0
  9
$DIMGAP
 40
1.524
  9
$LUNITS
 70
     2
  9
$LUPREC
 70
     3
  9
$SKETCHINC
 40
1.0
  9
$FILLETRAD
 40
10.0
  9
$AUNITS
 70
     0
  9
$AUPREC
 70
     3
  9
$MENU
  1
.
  9
$ELEVATION
 40
0.0
  9
$PELEVATION
 40
0.0
  9
$THICKNESS
 40
0.0
  9
$LIMCHECK
 70
     0
  9
$CHAMFERA
 40
0.0
  9
$CHAMFERB
 40
0.0
  9
$SKPOLY
 70
     0
  9
$TDCREATE
 40
2457371.679500995
  9
$TDUPDATE
 40
2457371.679503553
  9
$TDINDWG
 40
0.0000000116
  9
$TDUSRTIMER
 40
0.0000000116
  9
$USRTIMER
 70
     1
  9
$ANGBASE
 50
0.0
  9
$ANGDIR
 70
     0
  9
$PDMODE
 70
     0
  9
$PDSIZE
 40
-1.0
  9
$PLINEWID
 40
0.0
  9
$COORDS
 70
     1
  9
$SPLFRAME
 70
     0
  9
$SPLINETYPE
 70
     6
  9
$SPLINESEGS
 70
     8
  9
$ATTDIA
 70
     0
  9
$ATTREQ
 70
     1
  9
$HANDLING
 70
     1
  9
$HANDSEED
  5
787
  9
$SURFTAB1
 70
     6
  9
$SURFTAB2
 70
     6
  9
$SURFTYPE
 70
     6
  9
$SURFU
 70
     6
  9
$SURFV
 70
     6
  9
$UCSNAME
  2

  9
$UCSORG
 10
0.0
 20
0.0
 30
0.0
  9
$UCSXDIR
 10
1.0
 20
0.0
 30
0.0
  9
$UCSYDIR
 10
0.0
 20
1.0
 30
0.0
  9
$PUCSNAME
  2

  9
$PUCSORG
 10
0.0
 20
0.0
 30
0.0
  9
$PUCSXDIR
 10
1.0
 20
0.0
 30
0.0
  9
$PUCSYDIR
 10
0.0
 20
1.0
 30
0.0
  9
$USERI1
 70
     0
  9
$USERI2
 70
     0
  9
$USERI3
 70
     0
  9
$USERI4
 70
     0
  9
$USERI5
 70
     0
  9
$USERR1
 40
0.0
  9
$USERR2
 40
0.0
  9
$USERR3
 40
0.0
  9
$USERR4
 40
0.0
  9
$USERR5
 40
0.0
  9
$WORLDVIEW
 70
     1
  9
$SHADEDGE
 70
     3
  9
$SHADEDIF
 70
    70
  9
$TILEMODE
 70
     1
  9
$MAXACTVP
 70
    64
  9
$PLIMCHECK
 70
     0
  9
$PEXTMIN
 10
1.0000000000E+20
 20
1.0000000000E+20
 30
1.0000000000E+20
  9
$PEXTMAX
 10
-1.0000000000E+20
 20
-1.0000000000E+20
 30
-1.0000000000E+20
  9
$PLIMMIN
 10
0.0
 20
0.0
  9
$PLIMMAX
 10
420.0
 20
297.0
  9
$UNITMODE
 70
     0
  9
$VISRETAIN
 70
     1
  9
$PLINEGEN
 70
     0
  9
$PSLTSCALE
 70
     1
  0
ENDSEC
  0
SECTION
  2
TABLES
  0
TABLE
  2
VPORT
 70
     1
  0
VPORT
  2
*ACTIVE
 70
     0
 10
0.0
 20
0.0
 11
1.0
 21
1.0
 12
148.5
 22
105.0
 13
0.0
 23
0.0
 14
10.0
 24
10.0
 15
10.0
 25
10.0
 16
0.0
 26
0.0
 36
1.0
 17
0.0
 27
0.0
 37
0.0
 40
210.0
 41
1.4142857143
 42
50.0
 43
0.0
 44
0.0
 50
0.0
 51
0.0
 71
     0
 72
  2000
 73
     1
 74
     3
 75
     0
 76
     0
 77
     0
 78
     0
  0
ENDTAB
  0
TABLE
  2
LTYPE
 70
     6
  0
LTYPE
  2
CONTINUOUS
 70
     0
  3
Solid line
 72
    65
 73
     0
 40
0.0
  0
LTYPE
  2
HIDDEN
 70
     0
  3
Hidden __ __ __ __ __ __ __ __ __ __ __ __ __ __
 72
    65
 73
     2
 40
1.905
 49
1.27
 49
-0.635
  0
LTYPE
  2
PHANTOM
 70
     0
  3
Phantom ______  __  __  ______  __  __  ______
 72
    65
 73
     6
 40
12.7
 49
6.35
 49
-1.27
 49
1.27
 49
-1.27
 49
1.27
 49
-1.27
  0
LTYPE
  2
CENTER
 70
     0
  3
Center ____ _ ____ _ ____ _ ____ _ ____ _ ____
 72
    65
 73
     4
 40
10.16
 49
6.35
 49
-1.27
 49
1.27
 49
-1.27
  0
LTYPE
  2
CENTERX2
 70
     0
  3
Center (2x) ________  __  ________  __  _____
 72
    65
 73
     4
 40
20.32
 49
12.7
 49
-2.54
 49
2.54
 49
-2.54
  0
LTYPE
  2
DOT2
 70
     0
  3
Dot (.5x) ........................................
 72
    65
 73
     2
 40
0.635
 49
0.0
 49
-0.635
  0
ENDTAB
  0
TABLE
  2
LAYER
 70
     1
  0
LAYER
  2
0
 70
     0
 62
     7
  6
CONTINUOUS
  0
ENDTAB
  0
TABLE
  2
STYLE
 70
     1
  0
STYLE
  2
STANDARD
 70
     0
 40
0.0
 41
1.0
 50
0.0
 71
     0
 42
3.5
  3
txt
  4

  0
ENDTAB
  0
TABLE
  2
VIEW
 70
     0
  0
ENDTAB
  0
TABLE
  2
UCS
 70
     0
  0
ENDTAB
  0
TABLE
  2
APPID
 70
     1
  0
APPID
  2
ACAD
 70
     0
  0
ENDTAB
  0
TABLE
  2
DIMSTYLE
 70
     4
  0
DIMSTYLE
  2
ISO-25
 70
     0
  3

  4

  5

  6

  7

 40
1.0
 41
2.5
 42
0.625
 43
3.75
 44
1.25
 45
0.0
 46
0.0
 47
0.0
 48
0.0
140
2.5
141
2.5
142
0.0
143
0.0393700787
144
1.0
145
0.0
146
1.0
147
0.625
 71
     0
 72
     0
 73
     0
 74
     0
 75
     0
 76
     0
 77
     1
 78
     8
170
     0
171
     3
172
     1
173
     0
174
     0
175
     0
176
     0
177
     0
178
     0
  0
DIMSTYLE
  2
SLDDIMSTYLE0
 70
     0
  3

  4

  5

  6

  7

 40
1.0
 41
4.0
 42
0.0625
 43
0.38
 44
0.0
 45
0.000000001
 46
0.0
 47
0.0
 48
0.0
140
2.9104166667
141
0.09
142
0.0
143
25.4
144
1.0
145
0.0
146
1.0
147
0.7276041667
 71
     0
 72
     0
 73
     0
 74
     0
 75
     0
 76
     0
 77
     1
 78
    12
170
     0
171
     2
172
     1
173
     1
174
     0
175
     0
176
     0
177
     0
178
     0
  0
DIMSTYLE
  2
SLDDIMSTYLE1
 70
     0
  3

  4

  5

  6

  7

 40
1.0
 41
4.0
 42
0.0625
 43
0.38
 44
0.0
 45
0.000000001
 46
0.0
 47
0.0
 48
0.0
140
2.9104166667
141
0.09
142
0.0
143
25.4
144
1.0
145
0.0
146
1.0
147
0.7276041667
 71
     0
 72
     0
 73
     0
 74
     0
 75
     0
 76
     0
 77
     1
 78
    12
170
     0
171
     2
172
     0
173
     1
174
     0
175
     0
176
     0
177
     0
178
     0
  0
DIMSTYLE
  2
SLDDIMSTYLE2
 70
     0
  3

  4

  5

  6

  7

 40
1.0
 41
4.0
 42
0.0625
 43
0.38
 44
0.0
 45
0.000000001
 46
0.0
 47
0.0
 48
0.0
140
2.9104166667
141
0.09
142
0.0
143
25.4
144
1.0
145
0.0
146
1.0
147
0.7276041667
 71
     0
 72
     0
 73
     0
 74
     0
 75
     0
 76
     0
 77
     1
 78
    12
170
     0
171
     2
172
     0
173
     1
174
     0
175
     0
176
     0
177
     0
178
     0
  0
ENDTAB
  0
ENDSEC
  0
SECTION
  2
BLOCKS
  0
BLOCK
  8
0
  2
$MODEL_SPACE
 70
     0
 10
0.0
 20
0.0
 30
0.0
  3
$MODEL_SPACE
  1

  0
ENDBLK
  5
21
  8
0
  0
BLOCK
 67
     1
  8
0
  2
$PAPER_SPACE
 70
     0
 10
0.0
 20
0.0
 30
0.0
  3
$PAPER_SPACE
  1

  0
ENDBLK
  5
1D
 67
     1
  8
0
  0
BLOCK
  8
0
  2
_D
 70
     0
 10
0.0
 20
0.0
 30
0.0
  3
_D
  1

  0
SOLID
  5
3CD
  8
0
  6
CONTINUOUS
 62
     7
 10
65.8581112572
 20
128.6332637866
 30
0.0
 11
66.6081112572
 21
132.6332637866
 31
0.0
 12
65.1081112572
 22
132.6332637866
 32
0.0
 13
65.1081112572
 23
132.6332637866
 33
0.0
  0
SOLID
  5
3CE
  8
0
  6
CONTINUOUS
 62
     7
 10
65.8581112572
 20
109.1332637866
 30
0.0
 11
65.1081112572
 21
105.1332637866
 31
0.0
 12
66.6081112572
 22
105.1332637866
 32
0.0
 13
66.6081112572
 23
105.1332637866
 33
0.0
  0
LINE
  5
3CF
  8
0
  6
CONTINUOUS
 62
     7
 10
66.6483028579
 20
128.6332637866
 30
0.0
 11
64.8581112572
 21
128.6332637866
 31
0.0
  0
LINE
  5
3D0
  8
0
  6
CONTINUOUS
 62
     7
 10
68.883366912
 20
109.1332637866
 30
0.0
 11
64.8581112572
 21
109.1332637866
 31
0.0
  0
LINE
  5
3D1
  8
0
  6
CONTINUOUS
 62
     7
 10
65.8581112572
 20
128.6332637866
 30
0.0
 11
65.8581112572
 21
134.6332637866
 31
0.0
  0
LINE
  5
3D2
  8
0
  6
CONTINUOUS
 62
     7
 10
65.8581112572
 20
128.6332637866
 30
0.0
 11
65.8581112572
 21
109.1332637866
 31
0.0
  0
LINE
  5
3D3
  8
0
  6
CONTINUOUS
 62
     7
 10
65.8581112572
 20
109.1332637866
 30
0.0
 11
65.8581112572
 21
103.1332637866
 31
0.0
  0
TEXT
  5
3D4
  8
0
  6
CONTINUOUS
 62
     7
 10
64.8299770525
 20
112.7904979025
 30
0.0
 40
2.9104166667
  1
%%c
 50
90.0
 41
0.7
 11
65.8581110243
 21
112.7904979025
 31
0.0
 73
     1
  0
TEXT
  5
3D5
  8
0
  6
CONTINUOUS
 62
     7
 10
64.8299770525
 20
117.1836102826
 30
0.0
 40
2.9104166667
  1
19,5
 50
90.0
 41
0.7
 11
65.8581110243
 21
117.1836102826
 31
0.0
 73
     1
  0
ENDBLK
  5
3CC
  8
0
  0
BLOCK
  8
0
  2
_D_1
 70
     0
 10
0.0
 20
0.0
 30
0.0
  3
_D_1
  1

  0
SOLID
  5
3DB
  8
0
  6
CONTINUOUS
 62
     7
 10
71.5754619968
 20
82.7954533136
 30
0.0
 11
75.5754619968
 21
82.0454533136
 31
0.0
 12
75.5754619968
 22
83.5454533136
 32
0.0
 13
75.5754619968
 23
83.5454533136
 33
0.0
  0
SOLID
  5
3DC
  8
0
  6
CONTINUOUS
 62
     7
 10
214.5708118784
 20
82.7954533136
 30
0.0
 11
210.5708118784
 21
83.5454533136
 31
0.0
 12
210.5708118784
 22
82.0454533136
 32
0.0
 13
210.5708118784
 23
82.0454533136
 33
0.0
  0
LINE
  5
3DD
  8
0
  6
CONTINUOUS
 62
     7
 10
71.5754619968
 20
103.0036474446
 30
0.0
 11
71.5754619968
 21
81.7954533136
 31
0.0
  0
LINE
  5
3DE
  8
0
  6
CONTINUOUS
 62
     7
 10
214.5708118784
 20
110.8855962519
 30
0.0
 11
214.5708118784
 21
81.7954533136
 31
0.0
  0
LINE
  5
3DF
  8
0
  6
CONTINUOUS
 62
     7
 10
71.5754619968
 20
82.7954533136
 30
0.0
 11
214.5708118784
 21
82.7954533136
 31
0.0
  0
TEXT
  5
3E0
  8
0
  6
CONTINUOUS
 62
     7
 10
135.1847421659
 20
83.8235872855
 30
0.0
 40
2.9104166667
  1
143
 41
0.7
 11
135.1847421659
 21
82.7954533136
 31
0.0
 73
     1
  0
ENDBLK
  5
3DA
  8
0
  0
BLOCK
  8
0
  2
_D_2
 70
     0
 10
0.0
 20
0.0
 30
0.0
  3
_D_2
  1

  0
SOLID
  5
3E5
  8
0
  6
CONTINUOUS
 62
     7
 10
71.5754619968
 20
90.5838495342
 30
0.0
 11
75.5754619968
 21
89.8338495342
 31
0.0
 12
75.5754619968
 22
91.3338495342
 32
0.0
 13
75.5754619968
 23
91.3338495342
 33
0.0
  0
SOLID
  5
3E6
  8
0
  6
CONTINUOUS
 62
     7
 10
158.5708118784
 20
90.5838495342
 30
0.0
 11
154.5708118784
 21
91.3338495342
 31
0.0
 12
154.5708118784
 22
89.8338495342
 32
0.0
 13
154.5708118784
 23
89.8338495342
 33
0.0
  0
LINE
  5
3E7
  8
0
  6
CONTINUOUS
 62
     7
 10
71.5754619968
 20
103.0036474446
 30
0.0
 11
71.5754619968
 21
89.5838495342
 31
0.0
  0
LINE
  5
3E8
  8
0
  6
CONTINUOUS
 62
     7
 10
158.5708118784
 20
103.3827385258
 30
0.0
 11
158.5708118784
 21
89.5838495342
 31
0.0
  0
LINE
  5
3E9
  8
0
  6
CONTINUOUS
 62
     7
 10
71.5754619968
 20
90.5838495342
 30
0.0
 11
158.5708118784
 21
90.5838495342
 31
0.0
  0
TEXT
  5
3EA
  8
0
  6
CONTINUOUS
 62
     7
 10
115.285212654
 20
91.6119835061
 30
0.0
 40
2.9104166667
  1
87
 41
0.7
 11
115.285212654
 21
90.5838495342
 31
0.0
 73
     1
  0
ENDBLK
  5
3E4
  8
0
  0
BLOCK
  8
0
  2
_D_3
 70
     0
 10
0.0
 20
0.0
 30
0.0
  3
_D_3
  1

  0
SOLID
  5
3F0
  8
0
  6
CONTINUOUS
 62
     7
 10
131.5754619968
 20
100.1514293208
 30
0.0
 11
127.5754619968
 21
100.9014293208
 31
0.0
 12
127.5754619968
 22
99.4014293208
 32
0.0
 13
127.5754619968
 23
99.4014293208
 33
0.0
  0
SOLID
  5
3F1
  8
0
  6
CONTINUOUS
 62
     7
 10
71.5754619968
 20
100.1514293208
 30
0.0
 11
75.5754619968
 21
99.4014293208
 31
0.0
 12
75.5754619968
 22
100.9014293208
 32
0.0
 13
75.5754619968
 23
100.9014293208
 33
0.0
  0
LINE
  5
3F2
  8
0
  6
CONTINUOUS
 62
     7
 10
131.5754619968
 20
103.7853278496
 30
0.0
 11
131.5754619968
 21
99.1514293208
 31
0.0
  0
LINE
  5
3F3
  8
0
  6
CONTINUOUS
 62
     7
 10
71.5754619968
 20
103.0036474446
 30
0.0
 11
71.5754619968
 21
99.1514293208
 31
0.0
  0
LINE
  5
3F4
  8
0
  6
CONTINUOUS
 62
     7
 10
131.5754619968
 20
100.1514293208
 30
0.0
 11
71.5754619968
 21
100.1514293208
 31
0.0
  0
TEXT
  5
3F5
  8
0
  6
CONTINUOUS
 62
     7
 10
109.783797934
 20
101.1795632927
 30
0.0
 40
2.9104166667
  1
60
 50
0.0
 41
0.7
 11
109.783797934
 21
100.1514293208
 31
0.0
 73
     1
  0
ENDBLK
  5
3EF
  8
0
  0
BLOCK
  8
0
  2
_D_4
 70
     0
 10
0.0
 20
0.0
 30
0.0
  3
_D_4
  1

  0
SOLID
  5
3FA
  8
0
  6
CONTINUOUS
 62
     7
 10
158.5708118784
 20
90.5838495342
 30
0.0
 11
162.5708118784
 21
89.8338495342
 31
0.0
 12
162.5708118784
 22
91.3338495342
 32
0.0
 13
162.5708118784
 23
91.3338495342
 33
0.0
  0
SOLID
  5
3FB
  8
0
  6
CONTINUOUS
 62
     7
 10
214.5708118784
 20
90.5838495342
 30
0.0
 11
210.5708118784
 21
91.3338495342
 31
0.0
 12
210.5708118784
 22
89.8338495342
 32
0.0
 13
210.5708118784
 23
89.8338495342
 33
0.0
  0
LINE
  5
3FC
  8
0
  6
CONTINUOUS
 62
     7
 10
158.5708118784
 20
103.9827385258
 30
0.0
 11
158.5708118784
 21
89.5838495342
 31
0.0
  0
LINE
  5
3FD
  8
0
  6
CONTINUOUS
 62
     7
 10
214.5708118784
 20
110.8855962519
 30
0.0
 11
214.5708118784
 21
89.5838495342
 31
0.0
  0
LINE
  5
3FE
  8
0
  6
CONTINUOUS
 62
     7
 10
158.5708118784
 20
90.5838495342
 30
0.0
 11
214.5708118784
 21
90.5838495342
 31
0.0
  0
TEXT
  5
3FF
  8
0
  6
CONTINUOUS
 62
     7
 10
184.5968291289
 20
91.6119835061
 30
6.0090621718
 40
2.9104166667
  1
56
 41
0.7
 11
184.5968291289
 21
90.5838495342
 31
6.0090621718
 73
     1
  0
ENDBLK
  5
3F9
  8
0
  0
BLOCK
  8
0
  2
_D_5
 70
     0
 10
0.0
 20
0.0
 30
0.0
  3
_D_5
  1

  0
SOLID
  5
404
  8
0
  6
CONTINUOUS
 62
     7
 10
236.7228287092
 20
133.8827385258
 30
0.0
 11
235.9728287092
 21
129.8827385258
 31
0.0
 12
237.4728287092
 22
129.8827385258
 32
0.0
 13
237.4728287092
 23
129.8827385258
 33
0.0
  0
SOLID
  5
405
  8
0
  6
CONTINUOUS
 62
     7
 10
236.7228287092
 20
103.8827385258
 30
0.0
 11
237.4728287092
 21
107.8827385258
 31
0.0
 12
235.9728287092
 22
107.8827385258
 32
0.0
 13
235.9728287092
 23
107.8827385258
 33
0.0
  0
LINE
  5
406
  8
0
  6
CONTINUOUS
 62
     7
 10
159.0708118784
 20
133.8827385258
 30
0.0
 11
237.7228287092
 21
133.8827385258
 31
0.0
  0
LINE
  5
407
  8
0
  6
CONTINUOUS
 62
     7
 10
159.0708118784
 20
103.8827385258
 30
0.0
 11
237.7228287092
 21
103.8827385258
 31
0.0
  0
LINE
  5
408
  8
0
  6
CONTINUOUS
 62
     7
 10
236.7228287092
 20
133.8827385258
 30
0.0
 11
236.7228287092
 21
103.8827385258
 31
0.0
  0
TEXT
  5
409
  8
0
  6
CONTINUOUS
 62
     7
 10
235.6946945045
 20
114.4020063316
 30
6.0090621718
 40
2.9104166667
  1
%%c
 50
90.0
 41
0.7
 11
236.7228284764
 21
114.4020063316
 31
6.0090621718
 73
     1
  0
TEXT
  5
40A
  8
0
  6
CONTINUOUS
 62
     7
 10
235.6946945045
 20
118.7951187117
 30
6.0090621718
 40
2.9104166667
  1
30
 50
90.0
 41
0.7
 11
236.7228284764
 21
118.7951187117
 31
6.0090621718
 73
     1
  0
ENDBLK
  5
403
  8
0
  0
BLOCK
  8
0
  2
_D_6
 70
     0
 10
0.0
 20
0.0
 30
0.0
  3
_D_6
  1

  0
SOLID
  5
40F
  8
0
  6
CONTINUOUS
 62
     7
 10
230.5186121111
 20
106.3827385258
 30
0.0
 11
231.2686121111
 21
110.3827385258
 31
0.0
 12
229.7686121111
 22
110.3827385258
 32
0.0
 13
229.7686121111
 23
110.3827385258
 33
0.0
  0
SOLID
  5
410
  8
0
  6
CONTINUOUS
 62
     7
 10
230.5186121111
 20
131.3827385258
 30
0.0
 11
229.7686121111
 21
127.3827385258
 31
0.0
 12
231.2686121111
 22
127.3827385258
 32
0.0
 13
231.2686121111
 23
127.3827385258
 33
0.0
  0
LINE
  5
411
  8
0
  6
CONTINUOUS
 62
     7
 10
213.3208118784
 20
106.3827385258
 30
0.0
 11
231.5186121111
 21
106.3827385258
 31
0.0
  0
LINE
  5
412
  8
0
  6
CONTINUOUS
 62
     7
 10
213.3208118784
 20
131.3827385258
 30
0.0
 11
231.5186121111
 21
131.3827385258
 31
0.0
  0
LINE
  5
413
  8
0
  6
CONTINUOUS
 62
     7
 10
230.5186121111
 20
106.3827385258
 30
0.0
 11
230.5186121111
 21
131.3827385258
 31
0.0
  0
TEXT
  5
414
  8
0
  6
CONTINUOUS
 62
     7
 10
229.4904779063
 20
112.143739078
 30
6.0090621718
 40
2.9104166667
  1
%%c
 50
90.0
 41
0.7
 11
230.5186118782
 21
112.143739078
 31
6.0090621718
 73
     1
  0
TEXT
  5
415
  8
0
  6
CONTINUOUS
 62
     7
 10
229.4904779063
 20
116.536851458
 30
6.0090621718
 40
2.9104166667
  1
25
 50
90.0
 41
0.7
 11
230.5186118782
 21
116.536851458
 31
6.0090621718
 73
     1
  0
TEXT
  5
416
  8
0
  6
CONTINUOUS
 62
     7
 10
229.4904779063
 20
120.8378010874
 30
6.0090621718
 40
2.9104166667
  1
h6
 50
90.0
 41
0.7
 11
230.5186118782
 21
120.8378010874
 31
6.0090621718
 73
     1
  0
ENDBLK
  5
40E
  8
0
  0
BLOCK
  8
0
  2
SW_NOTE_0
 70
     0
 10
0.0
 20
0.0
 30
0.0
  3
SW_NOTE_0
  1

  0
TEXT
  5
41A
  8
0
  6
CONTINUOUS
 62
     0
 10
-0.9346672472
 20
0.0
 30
0.0
 40
2.6458333333
  1
Z=2
 50
90.0
 41
0.7
 11
0.0
 21
0.0
 31
0.0
 73
     1
  0
TEXT
  5
41B
  8
0
  6
CONTINUOUS
 62
     0
 10
3.5931106519
 20
0.0
 30
0.0
 40
2.6458333333
  1
Zeff=1
 50
90.0
 41
0.7
 11
4.5277778991
 21
0.0
 31
0.0
 73
     1
  0
ENDBLK
  5
419
  8
0
  0
BLOCK
  8
0
  2
SW_NOTE_1
 70
     0
 10
0.0
 20
0.0
 30
0.0
  3
SW_NOTE_1
  1

  0
TEXT
  5
420
  8
0
  6
CONTINUOUS
 62
     0
 10
0.0
 20
1.6824010449
 30
0.0
 40
4.7625
  1
Wendeplatte BP0602
 41
0.7
 11
0.0
 21
0.0
 31
0.0
 73
     1
  0
TEXT
  5
421
  8
0
  6
CONTINUOUS
 62
     0
 10
0.0
 20
-5.6675990423
 30
0.0
 40
4.7625
  1
Spannschraube SS2,0-5
 41
0.7
 11
0.0
 21
-7.3500000872
 31
0.0
 73
     1
  0
ENDBLK
  5
41F
  8
0
  0
ENDSEC
  0
SECTION
  2
ENTITIES
  0
LINE
  5
73
  8
0
  6
CONTINUOUS
 62
     7
 10
71.7824682203
 20
118.5050790727
 30
0.0
 11
71.7979572206
 21
118.509664061
 31
0.0
  0
LINE
  5
74
  8
0
  6
CONTINUOUS
 62
     7
 10
71.840230418
 20
118.500414398
 30
0.0
 11
71.9708118546
 21
118.4890334907
 31
0.0
  0
LINE
  5
75
  8
0
  6
CONTINUOUS
 62
     7
 10
152.570811783
 20
103.882738861
 30
0.0
 11
158.0708154785
 21
103.882738861
 31
0.0
  0
LINE
  5
76
  8
0
  6
CONTINUOUS
 62
     7
 10
158.0708154785
 20
133.8827381905
 30
0.0
 11
152.570811783
 21
133.8827381905
 31
0.0
  0
LINE
  5
77
  8
0
  6
CONTINUOUS
 62
     7
 10
158.0708154785
 20
103.882738861
 30
0.0
 11
158.5708090412
 21
104.382738943
 31
0.0
  0
LINE
  5
78
  8
0
  6
CONTINUOUS
 62
     7
 10
158.5708090412
 20
133.3827381085
 30
0.0
 11
158.0708154785
 21
133.8827381905
 31
0.0
  0
LINE
  5
79
  8
0
  6
CONTINUOUS
 62
     7
 10
152.570811783
 20
133.8827381905
 30
0.0
 11
142.874238764
 21
129.1471007343
 31
0.0
  0
LINE
  5
7A
  8
0
  6
CONTINUOUS
 62
     7
 10
160.3003495681
 20
106.3827383395
 30
0.0
 11
212.3208173858
 21
106.3827383395
 31
0.0
  0
LINE
  5
7B
  8
0
  6
CONTINUOUS
 62
     7
 10
212.3208173858
 20
131.382738712
 30
0.0
 11
160.3003495681
 21
131.382738712
 31
0.0
  0
LINE
  5
7C
  8
0
  6
CONTINUOUS
 62
     7
 10
160.3003495681
 20
131.382738712
 30
0.0
 11
159.8298826563
 21
131.2827388819
 31
0.0
  0
LINE
  5
7D
  8
0
  6
CONTINUOUS
 62
     7
 10
159.8298826563
 20
106.4827381696
 30
0.0
 11
160.3003495681
 21
106.3827383395
 31
0.0
  0
LINE
  5
7E
  8
0
  6
CONTINUOUS
 62
     7
 10
159.8298826563
 20
131.2827388819
 30
0.0
 11
158.5708090412
 21
131.2827388819
 31
0.0
  0
LINE
  5
7F
  8
0
  6
CONTINUOUS
 62
     7
 10
158.5708090412
 20
106.4827381696
 30
0.0
 11
159.8298826563
 21
106.4827381696
 31
0.0
  0
LINE
  5
80
  8
0
  6
CONTINUOUS
 62
     7
 10
212.3208173858
 20
106.3827383395
 30
0.0
 11
213.5708161938
 21
106.4827381696
 31
0.0
  0
LINE
  5
81
  8
0
  6
CONTINUOUS
 62
     7
 10
213.5708161938
 20
131.2827388819
 30
0.0
 11
212.3208173858
 21
131.382738712
 31
0.0
  0
LINE
  5
82
  8
0
  6
CONTINUOUS
 62
     7
 10
213.5708161938
 20
106.4827381696
 30
0.0
 11
214.5708182203
 21
107.4827383335
 31
0.0
  0
LINE
  5
83
  8
0
  6
CONTINUOUS
 62
     7
 10
214.5708182203
 20
130.282738718
 30
0.0
 11
213.5708161938
 21
131.2827388819
 31
0.0
  0
ARC
  5
84
  8
0
  6
CONTINUOUS
 62
     7
 10
138.4858118784
 20
138.1327385258
 30
0.0
 40
10.0
 50
270.0
 51
296.030085323
  0
LINE
  5
85
  8
0
  6
CONTINUOUS
 62
     7
 10
138.4858095395
 20
128.132738645
 30
0.0
 11
118.9575360464
 21
128.132738645
 31
0.0
  0
LINE
  5
86
  8
0
  6
CONTINUOUS
 62
     7
 10
113.0079866695
 20
109.6327384065
 30
0.0
 11
138.4858095395
 21
109.6327384065
 31
0.0
  0
ARC
  5
87
  8
0
  6
CONTINUOUS
 62
     7
 10
138.4858118784
 20
99.6327385258
 30
0.0
 40
10.00000000000001
 50
63.969914677
 51
90.0
  0
LINE
  5
88
  8
0
  6
CONTINUOUS
 62
     7
 10
142.874238764
 20
108.6183763172
 30
0.0
 11
152.570811783
 21
103.882738861
 31
0.0
  0
LINE
  5
89
  8
0
  6
CONTINUOUS
 62
     7
 10
71.9708118546
 20
115.3477386169
 30
0.0
 11
71.9752647989
 21
115.2968418382
 31
0.0
  0
CIRCLE
  5
8A
  8
0
  6
CONTINUOUS
 62
     7
 10
74.7977000176
 20
112.359855392
 30
0.0
 40
0.9500000000000048
  0
CIRCLE
  5
8B
  8
0
  6
CONTINUOUS
 62
     7
 10
74.7977000176
 20
112.359855392
 30
0.0
 40
1.350000000000007
  0
ARC
  5
8C
  8
0
  6
CONTINUOUS
 62
     7
 10
74.2927949274
 20
111.8052646872
 30
0.0
 40
0.1999999999999947
 50
10.9861878664
 51
84.3837096094
  0
LINE
  5
8D
  8
0
  6
CONTINUOUS
 62
     7
 10
74.4891294586
 20
111.8433792207
 30
0.0
 11
74.5481126784
 21
111.5395459409
 31
0.0
  0
ARC
  5
8E
  8
0
  6
CONTINUOUS
 62
     7
 10
74.6217382071
 20
111.5538389894
 30
0.0
 40
0.0750000000000089
 50
190.9861878664
 51
324.3837096094
  0
LINE
  5
8F
  8
0
  6
CONTINUOUS
 62
     7
 10
74.6827083482
 20
111.510162248
 30
0.0
 11
74.86295
 21
111.7617702175
 31
0.0
  0
ARC
  5
90
  8
0
  6
CONTINUOUS
 62
     7
 10
75.0255371116
 20
111.6452994049
 30
0.0
 40
0.2000000000000069
 50
70.9861878664
 51
144.3837096094
  0
LINE
  5
91
  8
0
  6
CONTINUOUS
 62
     7
 10
75.0906963209
 20
111.8343873012
 30
0.0
 11
75.3833150799
 21
111.7335516091
 31
0.0
  0
ARC
  5
92
  8
0
  6
CONTINUOUS
 62
     7
 10
75.4077497929
 20
111.8044597927
 30
0.0
 40
0.0750000000000097
 50
250.9861878664
 51
24.3837096094
  0
LINE
  5
93
  8
0
  6
CONTINUOUS
 62
     7
 10
75.4760599072
 20
111.8354233976
 30
0.0
 11
75.3482819843
 21
112.1173212368
 31
0.0
  0
ARC
  5
94
  8
0
  6
CONTINUOUS
 62
     7
 10
75.5304422018
 20
112.1998901097
 30
0.0
 40
0.1999999999999951
 50
130.9861878664
 51
204.3837096094
  0
LINE
  5
95
  8
0
  6
CONTINUOUS
 62
     7
 10
75.399266773
 20
112.3508638765
 30
0.0
 11
75.6329023121
 21
112.5538609985
 31
0.0
  0
ARC
  5
96
  8
0
  6
CONTINUOUS
 62
     7
 10
75.5837116034
 20
112.6104761953
 30
0.0
 40
0.0749999999999992
 50
310.9861878664
 51
84.3837096094
  0
LINE
  5
97
  8
0
  6
CONTINUOUS
 62
     7
 10
75.5910514696
 20
112.6851160142
 30
0.0
 11
75.2830318949
 21
112.7154063496
 31
0.0
  0
ARC
  5
98
  8
0
  6
CONTINUOUS
 62
     7
 10
75.3026051079
 20
112.9144460968
 30
0.0
 40
0.2000000000000067
 50
190.9861878664
 51
264.3837096094
  0
LINE
  5
99
  8
0
  6
CONTINUOUS
 62
     7
 10
75.1062703627
 20
112.8763314399
 30
0.0
 11
75.0472873757
 21
113.1801647197
 31
0.0
  0
ARC
  5
9A
  8
0
  6
CONTINUOUS
 62
     7
 10
74.9736618281
 20
113.1658717946
 30
0.0
 40
0.0750000000000006
 50
10.9861878664
 51
144.3837096094
  0
LINE
  5
9B
  8
0
  6
CONTINUOUS
 62
     7
 10
74.9126917059
 20
113.2095484126
 30
0.0
 11
74.7324500541
 21
112.9579404432
 31
0.0
  0
ARC
  5
9C
  8
0
  6
CONTINUOUS
 62
     7
 10
74.5698629237
 20
113.074411379
 30
0.0
 40
0.2000000000000061
 50
250.9861878664
 51
324.3837096094
  0
LINE
  5
9D
  8
0
  6
CONTINUOUS
 62
     7
 10
74.5047037332
 20
112.8853233594
 30
0.0
 11
74.2120849742
 21
112.9861590515
 31
0.0
  0
ARC
  5
9E
  8
0
  6
CONTINUOUS
 62
     7
 10
74.1876502424
 20
112.9152509913
 30
0.0
 40
0.0750000000000082
 50
70.9861878664
 51
204.3837096094
  0
LINE
  5
9F
  8
0
  6
CONTINUOUS
 62
     7
 10
74.1193401469
 20
112.8842877287
 30
0.0
 11
74.2471180698
 21
112.6023898895
 31
0.0
  0
ARC
  5
A0
  8
0
  6
CONTINUOUS
 62
     7
 10
74.0649578335
 20
112.5198206742
 30
0.0
 40
0.2000000000000044
 50
310.9861878664
 51
24.3837096094
  0
LINE
  5
A1
  8
0
  6
CONTINUOUS
 62
     7
 10
74.1961332812
 20
112.3688472498
 30
0.0
 11
73.9624976255
 21
112.1658496622
 31
0.0
  0
ARC
  5
A2
  8
0
  6
CONTINUOUS
 62
     7
 10
74.0116884319
 20
112.1092345887
 30
0.0
 40
0.0749999999999978
 50
130.9861878664
 51
264.3837096094
  0
LINE
  5
A3
  8
0
  6
CONTINUOUS
 62
     7
 10
74.0043484681
 20
112.0345946464
 30
0.0
 11
74.3123680428
 21
112.0043047767
 31
0.0
  0
LINE
  5
A4
  8
0
  6
CONTINUOUS
 62
     7
 10
74.6217381517
 20
111.5538389485
 30
0.0
 11
74.6827083482
 21
111.510162248
 31
0.0
  0
LINE
  5
A5
  8
0
  6
CONTINUOUS
 62
     7
 10
74.6217381517
 20
111.5538389485
 30
0.0
 11
74.5481126784
 21
111.5395459409
 31
0.0
  0
LINE
  5
A6
  8
0
  6
CONTINUOUS
 62
     7
 10
74.6936141355
 20
111.8830759141
 30
0.0
 11
74.4891294586
 21
111.8433792207
 31
0.0
  0
LINE
  5
A7
  8
0
  6
CONTINUOUS
 62
     7
 10
74.6936141355
 20
111.8830759141
 30
0.0
 11
74.6217381517
 21
111.5538389485
 31
0.0
  0
LINE
  5
A8
  8
0
  6
CONTINUOUS
 62
     7
 10
74.6936141355
 20
111.8830759141
 30
0.0
 11
74.86295
 21
111.7617702175
 31
0.0
  0
LINE
  5
A9
  8
0
  6
CONTINUOUS
 62
     7
 10
75.1585603999
 20
112.0313243072
 30
0.0
 11
75.0906963209
 21
111.8343873012
 31
0.0
  0
LINE
  5
AA
  8
0
  6
CONTINUOUS
 62
     7
 10
75.1585603999
 20
112.0313243072
 30
0.0
 11
75.4077497246
 21
111.804459716
 31
0.0
  0
LINE
  5
AB
  8
0
  6
CONTINUOUS
 62
     7
 10
75.4077497246
 20
111.804459716
 30
0.0
 11
75.3833150799
 21
111.7335516091
 31
0.0
  0
LINE
  5
AC
  8
0
  6
CONTINUOUS
 62
     7
 10
74.7976999106
 20
112.3598553303
 30
0.0
 11
75.1585603999
 21
112.0313243072
 31
0.0
  0
LINE
  5
AD
  8
0
  6
CONTINUOUS
 62
     7
 10
74.7976999106
 20
112.3598553303
 30
0.0
 11
74.6936141355
 21
111.8830759141
 31
0.0
  0
LINE
  5
AE
  8
0
  6
CONTINUOUS
 62
     7
 10
74.3327537626
 20
112.2116064716
 30
0.0
 11
74.3123680428
 21
112.0043047767
 31
0.0
  0
LINE
  5
AF
  8
0
  6
CONTINUOUS
 62
     7
 10
74.7976999106
 20
112.3598553303
 30
0.0
 11
74.3327537626
 21
112.2116064716
 31
0.0
  0
LINE
  5
B0
  8
0
  6
CONTINUOUS
 62
     7
 10
75.4077497246
 20
111.804459716
 30
0.0
 11
75.4760599072
 21
111.8354233976
 31
0.0
  0
LINE
  5
B1
  8
0
  6
CONTINUOUS
 62
     7
 10
74.0116884541
 20
112.1092345628
 30
0.0
 11
74.0043484681
 21
112.0345946464
 31
0.0
  0
LINE
  5
B2
  8
0
  6
CONTINUOUS
 62
     7
 10
74.3327537626
 20
112.2116064716
 30
0.0
 11
74.0116884541
 21
112.1092345628
 31
0.0
  0
LINE
  5
B3
  8
0
  6
CONTINUOUS
 62
     7
 10
75.1585603999
 20
112.0313243072
 30
0.0
 11
75.3482819843
 21
112.1173212368
 31
0.0
  0
LINE
  5
B4
  8
0
  6
CONTINUOUS
 62
     7
 10
74.0116884541
 20
112.1092345628
 30
0.0
 11
73.9624976255
 21
112.1658496622
 31
0.0
  0
LINE
  5
B5
  8
0
  6
CONTINUOUS
 62
     7
 10
74.7976999106
 20
112.3598553303
 30
0.0
 11
75.262646175
 21
112.5081041891
 31
0.0
  0
LINE
  5
B6
  8
0
  6
CONTINUOUS
 62
     7
 10
75.262646175
 20
112.5081041891
 30
0.0
 11
75.399266773
 21
112.3508638765
 31
0.0
  0
LINE
  5
B7
  8
0
  6
CONTINUOUS
 62
     7
 10
74.3327537626
 20
112.2116064716
 30
0.0
 11
74.1961332812
 21
112.3688472498
 31
0.0
  0
LINE
  5
B8
  8
0
  6
CONTINUOUS
 62
     7
 10
74.4368396542
 20
112.6883863534
 30
0.0
 11
74.2471180698
 21
112.6023898895
 31
0.0
  0
LINE
  5
B9
  8
0
  6
CONTINUOUS
 62
     7
 10
74.7976999106
 20
112.3598553303
 30
0.0
 11
74.4368396542
 21
112.6883863534
 31
0.0
  0
POLYLINE
  5
BA
  8
0
  6
CONTINUOUS
 62
     7
 66
     1
 10
0.0
 20
0.0
 30
0.0
 70
   128
  0
VERTEX
  5
429
  8
0
  6
CONTINUOUS
 62
     7
 10
74.9017859186
 20
112.8366352122
 30
0.0
  0
VERTEX
  5
42A
  8
0
  6
CONTINUOUS
 62
     7
 10
74.8238204821
 20
112.4795032728
 30
0.0
  0
VERTEX
  5
42B
  8
0
  6
CONTINUOUS
 62
     7
 10
74.7976999106
 20
112.3598553303
 30
0.0
  0
SEQEND
  5
6EF
  8
0
  6
CONTINUOUS
 62
     7
  0
LINE
  5
BB
  8
0
  6
CONTINUOUS
 62
     7
 10
74.4368396542
 20
112.6883863534
 30
0.0
 11
74.5047037332
 21
112.8853233594
 31
0.0
  0
LINE
  5
BC
  8
0
  6
CONTINUOUS
 62
     7
 10
74.9017859186
 20
112.8366352122
 30
0.0
 11
74.7324500541
 21
112.9579404432
 31
0.0
  0
LINE
  5
BD
  8
0
  6
CONTINUOUS
 62
     7
 10
74.9017859186
 20
112.8366352122
 30
0.0
 11
75.1062703627
 21
112.8763314399
 31
0.0
  0
LINE
  5
BE
  8
0
  6
CONTINUOUS
 62
     7
 10
75.262646175
 20
112.5081041891
 30
0.0
 11
75.2830318949
 21
112.7154063496
 31
0.0
  0
LINE
  5
BF
  8
0
  6
CONTINUOUS
 62
     7
 10
75.262646175
 20
112.5081041891
 30
0.0
 11
75.5837117164
 21
112.6104760978
 31
0.0
  0
LINE
  5
C0
  8
0
  6
CONTINUOUS
 62
     7
 10
75.5837117164
 20
112.6104760978
 30
0.0
 11
75.6329023121
 21
112.5538609985
 31
0.0
  0
LINE
  5
C1
  8
0
  6
CONTINUOUS
 62
     7
 10
74.1876502131
 20
112.9152509447
 30
0.0
 11
74.1193401469
 21
112.8842877287
 31
0.0
  0
LINE
  5
C2
  8
0
  6
CONTINUOUS
 62
     7
 10
74.4368396542
 20
112.6883863534
 30
0.0
 11
74.1876502131
 21
112.9152509447
 31
0.0
  0
LINE
  5
C3
  8
0
  6
CONTINUOUS
 62
     7
 10
75.5837117164
 20
112.6104760978
 30
0.0
 11
75.5910514696
 21
112.6851160142
 31
0.0
  0
LINE
  5
C4
  8
0
  6
CONTINUOUS
 62
     7
 10
74.1876502131
 20
112.9152509447
 30
0.0
 11
74.2120849742
 21
112.9861590515
 31
0.0
  0
LINE
  5
C5
  8
0
  6
CONTINUOUS
 62
     7
 10
74.9736619024
 20
113.1658717122
 30
0.0
 11
74.9126917059
 21
113.2095484126
 31
0.0
  0
LINE
  5
C6
  8
0
  6
CONTINUOUS
 62
     7
 10
74.9017859186
 20
112.8366352122
 30
0.0
 11
74.9736619024
 21
113.1658717122
 31
0.0
  0
LINE
  5
C7
  8
0
  6
CONTINUOUS
 62
     7
 10
74.9736619024
 20
113.1658717122
 30
0.0
 11
75.0472873757
 21
113.1801647197
 31
0.0
  0
LINE
  5
C8
  8
0
  6
CONTINUOUS
 62
     7
 10
72.1021825581
 20
123.2798351038
 30
0.0
 11
72.1068843401
 21
123.283765285
 31
0.0
  0
LINE
  5
C9
  8
0
  6
CONTINUOUS
 62
     7
 10
72.1021825581
 20
123.2798351038
 30
0.0
 11
71.8415261787
 21
123.9998759765
 31
0.0
  0
POLYLINE
  5
CA
  8
0
  6
CONTINUOUS
 62
     7
 66
     1
 10
0.0
 20
0.0
 30
0.0
 70
   128
  0
VERTEX
  5
42C
  8
0
  6
CONTINUOUS
 62
     7
 10
71.8415261787
 20
123.9998759765
 30
0.0
  0
VERTEX
  5
42D
  8
0
  6
CONTINUOUS
 62
     7
 10
71.8259031843
 20
124.1040481317
 30
0.0
  0
VERTEX
  5
42E
  8
0
  6
CONTINUOUS
 62
     7
 10
71.7715314082
 20
124.1696574788
 30
0.0
  0
SEQEND
  5
6F0
  8
0
  6
CONTINUOUS
 62
     7
  0
ARC
  5
CB
  8
0
  6
CONTINUOUS
 62
     7
 10
72.0240015924
 20
124.1970611087
 30
0.0
 40
0.253953052419043
 50
73.5902007106
 51
186.1947494263
  0
LINE
  5
CC
  8
0
  6
CONTINUOUS
 62
     7
 10
71.9708118546
 20
119.4559977802
 30
0.0
 11
71.9264473143
 21
119.5086682045
 31
0.0
  0
ARC
  5
CD
  8
0
  6
CONTINUOUS
 62
     7
 10
72.0704820418
 20
119.6315704875
 30
0.0
 40
0.18934275122793
 50
174.6518106115
 51
220.4735331277
  0
LINE
  5
CE
  8
0
  6
CONTINUOUS
 62
     7
 10
71.8819628661
 20
119.6492179942
 30
0.0
 11
71.9708118546
 21
120.6609025893
 31
0.0
  0
LINE
  5
CF
  8
0
  6
CONTINUOUS
 62
     7
 10
71.9708118546
 20
119.1362762828
 30
0.0
 11
71.7602387728
 21
119.3862725694
 31
0.0
  0
ARC
  5
D0
  8
0
  6
CONTINUOUS
 62
     7
 10
71.917055586
 20
119.5145315617
 30
0.0
 40
0.2025879611675346
 50
174.1250629209
 51
219.2794094735
  0
LINE
  5
D1
  8
0
  6
CONTINUOUS
 62
     7
 10
71.8095982289
 20
120.6063622439
 30
0.0
 11
71.7155316803
 21
119.5352679414
 31
0.0
  0
ARC
  5
D2
  8
0
  6
CONTINUOUS
 62
     7
 10
72.0024264026
 20
120.5894321695
 30
0.0
 40
0.1935699666445787
 50
143.5299728014
 51
174.9823682632
  0
ARC
  5
D3
  8
0
  6
CONTINUOUS
 62
     7
 10
71.6911610301
 20
120.8198060676
 30
0.0
 40
0.1936745605311052
 50
323.4582388999
 51
354.912712767
  0
LINE
  5
D4
  8
0
  6
CONTINUOUS
 62
     7
 10
71.884072661
 20
120.8026323065
 30
0.0
 11
71.97724741
 21
121.8635714676
 31
0.0
  0
ARC
  5
D5
  8
0
  6
CONTINUOUS
 62
     7
 10
71.7844925376
 20
121.8802855976
 30
0.0
 40
0.1934781719077789
 50
355.0441734921
 51
26.519942252
  0
ARC
  5
D6
  8
0
  6
CONTINUOUS
 62
     7
 10
72.1307510279
 20
122.0528039186
 30
0.0
 40
0.1933778372062774
 50
174.9747597575
 51
206.4482829211
  0
LINE
  5
D7
  8
0
  6
CONTINUOUS
 62
     7
 10
72.0321830728
 20
123.1408370722
 30
0.0
 11
71.9381164951
 21
122.0697427697
 31
0.0
  0
ARC
  5
D8
  8
0
  6
CONTINUOUS
 62
     7
 10
72.2344940144
 20
123.126078076
 30
0.0
 40
0.2028485766526825
 50
130.7127516775
 51
175.8275473931
  0
POLYLINE
  5
D9
  8
0
  6
CONTINUOUS
 62
     7
 66
     1
 10
0.0
 20
0.0
 30
0.0
 70
   128
  0
VERTEX
  5
42F
  8
0
  6
CONTINUOUS
 62
     7
 10
71.8074164312
 20
119.6574581617
 30
0.0
  0
VERTEX
  5
430
  8
0
  6
CONTINUOUS
 62
     7
 10
71.8182551051
 20
119.5536915392
 30
0.0
  0
VERTEX
  5
431
  8
0
  6
CONTINUOUS
 62
     7
 10
71.8691233038
 20
119.462493697
 30
0.0
  0
SEQEND
  5
6F1
  8
0
  6
CONTINUOUS
 62
     7
  0
ARC
  5
DA
  8
0
  6
CONTINUOUS
 62
     7
 10
71.9537148135
 20
123.8415579129
 30
0.0
 40
0.1940383957211013
 50
125.3224596118
 51
168.0001630736
  0
LINE
  5
DB
  8
0
  6
CONTINUOUS
 62
     7
 10
71.7639165074
 20
123.8819002237
 30
0.0
 11
72.0321830728
 21
123.1408370722
 31
0.0
  0
POLYLINE
  5
DC
  8
0
  6
CONTINUOUS
 62
     7
 66
     1
 10
0.0
 20
0.0
 30
0.0
 70
   128
  0
VERTEX
  5
432
  8
0
  6
CONTINUOUS
 62
     7
 10
71.9381164951
 20
122.0697427697
 30
0.0
  0
VERTEX
  5
433
  8
0
  6
CONTINUOUS
 62
     7
 10
71.7307448346
 20
122.0975816313
 30
0.0
  0
VERTEX
  5
434
  8
0
  6
CONTINUOUS
 62
     7
 10
71.6058750828
 20
122.0823521789
 30
0.0
  0
SEQEND
  5
6F2
  8
0
  6
CONTINUOUS
 62
     7
  0
LINE
  5
DD
  8
0
  6
CONTINUOUS
 62
     7
 10
71.6058750828
 20
122.0823521789
 30
0.0
 11
71.7639165074
 21
123.8819002237
 31
0.0
  0
ARC
  5
DE
  8
0
  6
CONTINUOUS
 62
     7
 10
71.6790745437
 20
118.1550647573
 30
0.0
 40
1.507865239902356
 50
82.2671889424
 51
85.1173645303
  0
LINE
  5
DF
  8
0
  6
CONTINUOUS
 62
     7
 10
71.6058750828
 20
122.0823521789
 30
0.0
 11
71.6072849306
 21
122.0491705525
 31
0.0
  0
POLYLINE
  5
E0
  8
0
  6
CONTINUOUS
 62
     7
 66
     1
 10
0.0
 20
0.0
 30
0.0
 70
   128
  0
VERTEX
  5
435
  8
0
  6
CONTINUOUS
 62
     7
 10
71.6072849306
 20
122.0491705525
 30
0.0
  0
VERTEX
  5
436
  8
0
  6
CONTINUOUS
 62
     7
 10
71.7364913859
 20
122.0287943787
 30
0.0
  0
VERTEX
  5
437
  8
0
  6
CONTINUOUS
 62
     7
 10
71.9576127436
 20
121.9666753959
 30
0.0
  0
SEQEND
  5
6F3
  8
0
  6
CONTINUOUS
 62
     7
  0
ARC
  5
E1
  8
0
  6
CONTINUOUS
 62
     7
 10
71.726138297
 20
122.0074961999
 30
0.0
 40
0.1259479033898534
 50
160.6774609524
 51
174.6142742089
  0
LINE
  5
E2
  8
0
  6
CONTINUOUS
 62
     7
 10
71.97724741
 20
121.8635714676
 30
0.0
 11
71.6007464058
 21
122.0193177059
 31
0.0
  0
LINE
  5
E3
  8
0
  6
CONTINUOUS
 62
     7
 10
71.507571715
 20
120.9583785448
 30
0.0
 11
71.884072661
 21
120.8026323065
 31
0.0
  0
LINE
  5
E4
  8
0
  6
CONTINUOUS
 62
     7
 10
71.6007464058
 20
122.0193177059
 30
0.0
 11
71.507571715
 21
120.9583785448
 31
0.0
  0
LINE
  5
E5
  8
0
  6
CONTINUOUS
 62
     7
 10
71.5084401151
 20
120.9236686181
 30
0.0
 11
71.5013602009
 21
120.8922874711
 31
0.0
  0
POLYLINE
  5
E6
  8
0
  6
CONTINUOUS
 62
     7
 66
     1
 10
0.0
 20
0.0
 30
0.0
 70
   128
  0
VERTEX
  5
438
  8
0
  6
CONTINUOUS
 62
     7
 10
71.8467636458
 20
120.7044905813
 30
0.0
  0
VERTEX
  5
439
  8
0
  6
CONTINUOUS
 62
     7
 10
71.6314505977
 20
120.8335673499
 30
0.0
  0
VERTEX
  5
43A
  8
0
  6
CONTINUOUS
 62
     7
 10
71.5084401151
 20
120.9236686181
 30
0.0
  0
SEQEND
  5
6F4
  8
0
  6
CONTINUOUS
 62
     7
  0
POLYLINE
  5
E7
  8
0
  6
CONTINUOUS
 62
     7
 66
     1
 10
0.0
 20
0.0
 30
0.0
 70
   128
  0
VERTEX
  5
43B
  8
0
  6
CONTINUOUS
 62
     7
 10
71.5013602009
 20
120.8922874711
 30
0.0
  0
VERTEX
  5
43C
  8
0
  6
CONTINUOUS
 62
     7
 10
71.6137559345
 20
120.766486746
 30
0.0
  0
VERTEX
  5
43D
  8
0
  6
CONTINUOUS
 62
     7
 10
71.8095982289
 20
120.6063622439
 30
0.0
  0
SEQEND
  5
6F5
  8
0
  6
CONTINUOUS
 62
     7
  0
ARC
  5
E8
  8
0
  6
CONTINUOUS
 62
     7
 10
71.6864357416
 20
120.9454876784
 30
0.0
 40
0.1793279522785869
 50
175.8777769585
 51
186.9885663363
  0
LINE
  5
E9
  8
0
  6
CONTINUOUS
 62
     7
 10
71.3433187763
 20
119.0927392517
 30
0.0
 11
71.5013602009
 21
120.8922874711
 31
0.0
  0
LINE
  5
EA
  8
0
  6
CONTINUOUS
 62
     7
 10
71.7155316803
 20
119.5352679414
 30
0.0
 11
71.3433187763
 21
119.0927392517
 31
0.0
  0
ARC
  5
EB
  8
0
  6
CONTINUOUS
 62
     7
 10
73.0813597311
 20
118.0162153627
 30
0.0
 40
1.887124313804143
 50
127.7339627071
 51
129.968945893
  0
ARC
  5
EC
  8
0
  6
CONTINUOUS
 62
     7
 10
71.5472276327
 20
119.0959191766
 30
0.0
 40
0.2039336501077661
 50
180.8934457922
 51
223.2075260908
  0
LINE
  5
ED
  8
0
  6
CONTINUOUS
 62
     7
 10
71.7602387728
 20
119.3862725694
 30
0.0
 11
71.3985847384
 21
118.9562974604
 31
0.0
  0
POLYLINE
  5
EE
  8
0
  6
CONTINUOUS
 62
     7
 66
     1
 10
0.0
 20
0.0
 30
0.0
 70
   128
  0
VERTEX
  5
43E
  8
0
  6
CONTINUOUS
 62
     7
 10
71.5771096717
 20
118.5351872472
 30
0.0
  0
VERTEX
  5
43F
  8
0
  6
CONTINUOUS
 62
     7
 10
71.6289537219
 20
118.5753903473
 30
0.0
  0
VERTEX
  5
440
  8
0
  6
CONTINUOUS
 62
     7
 10
71.71872926
 20
118.5762159065
 30
0.0
  0
SEQEND
  5
6F6
  8
0
  6
CONTINUOUS
 62
     7
  0
ARC
  5
EF
  8
0
  6
CONTINUOUS
 62
     7
 10
71.6024562777
 20
118.8326010359
 30
0.0
 40
0.2984918962842125
 50
175.086435234
 51
265.1288308408
  0
POLYLINE
  5
F0
  8
0
  6
CONTINUOUS
 62
     7
 66
     1
 10
0.0
 20
0.0
 30
0.0
 70
   128
  0
VERTEX
  5
441
  8
0
  6
CONTINUOUS
 62
     7
 10
71.3985847384
 20
118.9562974604
 30
0.0
  0
VERTEX
  5
442
  8
0
  6
CONTINUOUS
 62
     7
 10
71.3676097645
 20
118.8856624703
 30
0.0
  0
VERTEX
  5
443
  8
0
  6
CONTINUOUS
 62
     7
 10
71.3050613255
 20
118.8581677042
 30
0.0
  0
SEQEND
  5
6F7
  8
0
  6
CONTINUOUS
 62
     7
  0
ARC
  5
F1
  8
0
  6
CONTINUOUS
 62
     7
 10
71.8704913489
 20
118.6891271505
 30
0.0
 40
0.1891578194891069
 50
216.6493081754
 51
260.9112932276
  0
ARC
  5
F2
  8
0
  6
CONTINUOUS
 62
     7
 10
71.9105120193
 20
123.8629658631
 30
0.0
 40
0.1533082689963248
 50
116.7424785219
 51
171.4620988988
  0
ARC
  5
F3
  8
0
  6
CONTINUOUS
 62
     7
 10
71.7716745355
 20
123.8994191622
 30
0.0
 40
0.0191598592876542
 50
234.1667339947
 51
246.1144815776
  0
ARC
  5
F4
  8
0
  6
CONTINUOUS
 62
     7
 10
71.7628260656
 20
123.8874637553
 30
0.0
 40
0.0042907322585876
 50
203.8830406405
 51
236.4993015412
  0
POLYLINE
  5
F5
  8
0
  6
CONTINUOUS
 62
     7
 66
     1
 10
0.0
 20
0.0
 30
0.0
 70
   128
  0
VERTEX
  5
444
  8
0
  6
CONTINUOUS
 62
     7
 10
72.2278937161
 20
124.4800174672
 30
0.0
  0
VERTEX
  5
445
  8
0
  6
CONTINUOUS
 62
     7
 10
72.1585148846
 20
124.4702111061
 30
0.0
  0
VERTEX
  5
446
  8
0
  6
CONTINUOUS
 62
     7
 10
72.0957447326
 20
124.4406695541
 30
0.0
  0
SEQEND
  5
6F8
  8
0
  6
CONTINUOUS
 62
     7
  0
POLYLINE
  5
F6
  8
0
  6
CONTINUOUS
 62
     7
 66
     1
 10
0.0
 20
0.0
 30
0.0
 70
   128
  0
VERTEX
  5
447
  8
0
  6
CONTINUOUS
 62
     7
 10
71.7093488626
 20
124.0465515356
 30
0.0
  0
VERTEX
  5
448
  8
0
  6
CONTINUOUS
 62
     7
 10
71.7487877543
 20
123.9866302412
 30
0.0
  0
VERTEX
  5
449
  8
0
  6
CONTINUOUS
 62
     7
 10
71.7589027323
 20
123.8857265625
 30
0.0
  0
SEQEND
  5
6F9
  8
0
  6
CONTINUOUS
 62
     7
  0
POLYLINE
  5
F7
  8
0
  6
CONTINUOUS
 62
     7
 66
     1
 10
0.0
 20
0.0
 30
0.0
 70
   128
  0
VERTEX
  5
44A
  8
0
  6
CONTINUOUS
 62
     7
 10
71.7715314082
 20
124.1696574788
 30
0.0
  0
VERTEX
  5
44B
  8
0
  6
CONTINUOUS
 62
     7
 10
71.7307707952
 20
124.112651224
 30
0.0
  0
VERTEX
  5
44C
  8
0
  6
CONTINUOUS
 62
     7
 10
71.7093501431
 20
124.0465515356
 30
0.0
  0
SEQEND
  5
6FA
  8
0
  6
CONTINUOUS
 62
     7
  0
ARC
  5
F8
  8
0
  6
CONTINUOUS
 62
     7
 10
71.6087235415
 20
122.0912827506
 30
0.0
 40
0.009373837439618
 50
212.9918025286
 51
252.3096100014
  0
LINE
  5
F9
  8
0
  6
CONTINUOUS
 62
     7
 10
71.7589027323
 20
123.8857265625
 30
0.0
 11
71.6008612495
 21
122.0861785177
 31
0.0
  0
POLYLINE
  5
FA
  8
0
  6
CONTINUOUS
 62
     7
 66
     1
 10
0.0
 20
0.0
 30
0.0
 70
   128
  0
VERTEX
  5
44D
  8
0
  6
CONTINUOUS
 62
     7
 10
71.6008612495
 20
122.0861785177
 30
0.0
  0
VERTEX
  5
44E
  8
0
  6
CONTINUOUS
 62
     7
 10
71.5973522589
 20
122.0541605789
 30
0.0
  0
VERTEX
  5
44F
  8
0
  6
CONTINUOUS
 62
     7
 10
71.5943354723
 20
122.0233149424
 30
0.0
  0
SEQEND
  5
6FB
  8
0
  6
CONTINUOUS
 62
     7
  0
LINE
  5
FB
  8
0
  6
CONTINUOUS
 62
     7
 10
71.5943354723
 20
122.0233149424
 30
0.0
 11
71.5011607232
 21
120.9623757813
 31
0.0
  0
POLYLINE
  5
FC
  8
0
  6
CONTINUOUS
 62
     7
 66
     1
 10
0.0
 20
0.0
 30
0.0
 70
   128
  0
VERTEX
  5
450
  8
0
  6
CONTINUOUS
 62
     7
 10
71.5011607232
 20
120.9623757813
 30
0.0
  0
VERTEX
  5
451
  8
0
  6
CONTINUOUS
 62
     7
 10
71.4986841036
 20
120.930673328
 30
0.0
  0
VERTEX
  5
452
  8
0
  6
CONTINUOUS
 62
     7
 10
71.4963463676
 20
120.8961138099
 30
0.0
  0
SEQEND
  5
6FC
  8
0
  6
CONTINUOUS
 62
     7
  0
LINE
  5
FD
  8
0
  6
CONTINUOUS
 62
     7
 10
71.4963463676
 20
120.8961138099
 30
0.0
 11
71.3383048848
 21
119.0965657651
 31
0.0
  0
POLYLINE
  5
FE
  8
0
  6
CONTINUOUS
 62
     7
 66
     1
 10
0.0
 20
0.0
 30
0.0
 70
   128
  0
VERTEX
  5
453
  8
0
  6
CONTINUOUS
 62
     7
 10
71.3383048848
 20
119.0965657651
 30
0.0
  0
VERTEX
  5
454
  8
0
  6
CONTINUOUS
 62
     7
 10
71.3127199403
 20
119.0211837156
 30
0.0
  0
VERTEX
  5
455
  8
0
  6
CONTINUOUS
 62
     7
 10
71.2652235367
 20
118.9894720364
 30
0.0
  0
SEQEND
  5
6FD
  8
0
  6
CONTINUOUS
 62
     7
  0
LINE
  5
FF
  8
0
  6
CONTINUOUS
 62
     7
 10
71.2652235367
 20
118.9894720364
 30
0.0
 11
71.2660633568
 21
119.0378796227
 31
0.0
  0
LINE
  5
100
  8
0
  6
CONTINUOUS
 62
     7
 10
71.2660633568
 20
119.0378796227
 30
0.0
 11
71.7018421116
 21
123.9998987939
 31
0.0
  0
LINE
  5
101
  8
0
  6
CONTINUOUS
 62
     7
 10
71.7018421116
 20
123.9998987939
 30
0.0
 11
71.7093488626
 21
124.0465515356
 31
0.0
  0
POLYLINE
  5
102
  8
0
  6
CONTINUOUS
 62
     7
 66
     1
 10
0.0
 20
0.0
 30
0.0
 70
   128
  0
VERTEX
  5
456
  8
0
  6
CONTINUOUS
 62
     7
 10
72.0957447326
 20
124.4406695541
 30
0.0
  0
VERTEX
  5
457
  8
0
  6
CONTINUOUS
 62
     7
 10
72.1451217675
 20
124.4828817498
 30
0.0
  0
VERTEX
  5
458
  8
0
  6
CONTINUOUS
 62
     7
 10
72.2024024423
 20
124.5047003094
 30
0.0
  0
SEQEND
  5
6FE
  8
0
  6
CONTINUOUS
 62
     7
  0
LINE
  5
103
  8
0
  6
CONTINUOUS
 62
     7
 10
71.6072849306
 20
122.0491705525
 30
0.0
 11
71.6008612495
 21
122.0861785177
 31
0.0
  0
ARC
  5
104
  8
0
  6
CONTINUOUS
 62
     7
 10
71.6052797313
 20
122.0337281199
 30
0.0
 40
0.0151066565106189
 50
223.5755565808
 51
252.5371148666
  0
POLYLINE
  5
105
  8
0
  6
CONTINUOUS
 62
     7
 66
     1
 10
0.0
 20
0.0
 30
0.0
 70
   128
  0
VERTEX
  5
459
  8
0
  6
CONTINUOUS
 62
     7
 10
71.694739671
 20
124.0803552854
 30
0.0
  0
VERTEX
  5
45A
  8
0
  6
CONTINUOUS
 62
     7
 10
71.7234458849
 20
124.1304040949
 30
0.0
  0
VERTEX
  5
45B
  8
0
  6
CONTINUOUS
 62
     7
 10
71.7715314082
 20
124.1696574788
 30
0.0
  0
SEQEND
  5
6FF
  8
0
  6
CONTINUOUS
 62
     7
  0
LINE
  5
106
  8
0
  6
CONTINUOUS
 62
     7
 10
71.6991273063
 20
124.0638461958
 30
0.0
 11
71.7093501431
 21
124.0465515356
 31
0.0
  0
LINE
  5
107
  8
0
  6
CONTINUOUS
 62
     7
 10
71.694739671
 20
124.0803552854
 30
0.0
 11
71.6991273063
 21
124.0638461958
 31
0.0
  0
ARC
  5
108
  8
0
  6
CONTINUOUS
 62
     7
 10
71.5121042129
 20
120.972787791
 30
0.0
 40
0.0151052942082529
 50
223.5743588667
 51
252.5387796931
  0
ARC
  5
109
  8
0
  6
CONTINUOUS
 62
     7
 10
72.1350225326
 20
124.0806333157
 30
0.0
 40
0.4345218593093395
 50
105.9298657203
 51
165.8779798271
  0
LINE
  5
10A
  8
0
  6
CONTINUOUS
 62
     7
 10
71.4963463676
 20
120.8961138099
 30
0.0
 11
71.5084401151
 21
120.9236686181
 31
0.0
  0
ARC
  5
10B
  8
0
  6
CONTINUOUS
 62
     7
 10
71.5042086595
 20
120.9012180429
 30
0.0
 40
0.0093738374395989
 50
212.9918025285
 51
252.3096100013
  0
ARC
  5
10C
  8
0
  6
CONTINUOUS
 62
     7
 10
71.3510845003
 20
119.1102733934
 30
0.0
 40
0.0191768766074888
 50
234.1746573288
 51
246.1118497564
  0
ARC
  5
10D
  8
0
  6
CONTINUOUS
 62
     7
 10
71.34222915
 20
119.0983031229
 30
0.0
 40
0.0042916511479783
 50
203.8800169963
 51
236.4925014425
  0
LINE
  5
10E
  8
0
  6
CONTINUOUS
 62
     7
 10
71.7018421116
 20
123.9998987939
 30
0.0
 11
71.681903543
 21
124.0072627615
 31
0.0
  0
LINE
  5
10F
  8
0
  6
CONTINUOUS
 62
     7
 10
71.681903543
 20
124.0072627615
 30
0.0
 11
71.6947395546
 21
124.0803548198
 31
0.0
  0
LINE
  5
110
  8
0
  6
CONTINUOUS
 62
     7
 10
71.681903543
 20
124.0072627615
 30
0.0
 11
71.6320021735
 21
124.0447731752
 31
0.0
  0
ARC
  5
111
  8
0
  6
CONTINUOUS
 62
     7
 10
72.22670652
 20
123.9923024723
 30
0.0
 40
0.5970147959411142
 50
129.8631825289
 51
174.9582163675
  0
ARC
  5
112
  8
0
  6
CONTINUOUS
 62
     7
 10
72.19920158
 20
124.0536328604
 30
0.0
 40
0.5326204925150007
 50
90.9638181467
 51
131.8211781859
  0
ARC
  5
113
  8
0
  6
CONTINUOUS
 62
     7
 10
71.5122211851
 20
119.0882190477
 30
0.0
 40
0.1741164759877924
 50
177.2523276218
 51
229.2585918132
  0
LINE
  5
114
  8
0
  6
CONTINUOUS
 62
     7
 10
71.2461247882
 20
119.045243241
 30
0.0
 11
71.2660633568
 21
119.0378796227
 31
0.0
  0
LINE
  5
115
  8
0
  6
CONTINUOUS
 62
     7
 10
71.2461247882
 20
119.0452432119
 30
0.0
 11
71.681903543
 21
124.0072627615
 31
0.0
  0
ARC
  5
116
  8
0
  6
CONTINUOUS
 62
     7
 10
71.8505794215
 20
118.6529241912
 30
0.0
 40
0.1525405717185966
 50
210.1901501181
 51
266.0880826864
  0
ARC
  5
117
  8
0
  6
CONTINUOUS
 62
     7
 10
71.8220630641
 20
118.5046231944
 30
0.0
 40
0.0186877466338577
 50
347.5131656231
 51
352.9953166175
  0
ARC
  5
118
  8
0
  6
CONTINUOUS
 62
     7
 10
71.8407331358
 20
118.5006712656
 30
0.0
 40
0.0005645406904142
 50
173.1067055186
 51
207.0651130375
  0
LINE
  5
119
  8
0
  6
CONTINUOUS
 62
     7
 10
71.2107235874
 20
119.2478600778
 30
0.0
 11
71.1962233605
 21
119.0827539894
 31
0.0
  0
LINE
  5
11A
  8
0
  6
CONTINUOUS
 62
     7
 10
71.2386674555
 20
119.5660437869
 30
0.0
 11
71.2107235874
 21
119.2478600778
 31
0.0
  0
LINE
  5
11B
  8
0
  6
CONTINUOUS
 62
     7
 10
71.6320021735
 20
124.0447731752
 30
0.0
 11
71.2386673391
 21
119.5660439034
 31
0.0
  0
LINE
  5
11C
  8
0
  6
CONTINUOUS
 62
     7
 10
71.1962233605
 20
119.0827539894
 30
0.0
 11
71.2461247882
 21
119.0452431828
 31
0.0
  0
POLYLINE
  5
11D
  8
0
  6
CONTINUOUS
 62
     7
 66
     1
 10
0.0
 20
0.0
 30
0.0
 70
   128
  0
VERTEX
  5
45C
  8
0
  6
CONTINUOUS
 62
     7
 10
71.2652192293
 20
118.9894722255
 30
0.0
  0
VERTEX
  5
45D
  8
0
  6
CONTINUOUS
 62
     7
 10
71.2747396743
 20
118.9200346734
 30
0.0
  0
VERTEX
  5
45E
  8
0
  6
CONTINUOUS
 62
     7
 10
71.3050613255
 20
118.8581677042
 30
0.0
  0
SEQEND
  5
700
  8
0
  6
CONTINUOUS
 62
     7
  0
LINE
  5
11E
  8
0
  6
CONTINUOUS
 62
     7
 10
71.7501064488
 20
118.5018502646
 30
0.0
 11
71.840172676
 21
118.5007390222
 31
0.0
  0
POLYLINE
  5
11F
  8
0
  6
CONTINUOUS
 62
     7
 66
     1
 10
0.0
 20
0.0
 30
0.0
 70
   128
  0
VERTEX
  5
45F
  8
0
  6
CONTINUOUS
 62
     7
 10
71.5771096717
 20
118.5351872472
 30
0.0
  0
VERTEX
  5
460
  8
0
  6
CONTINUOUS
 62
     7
 10
71.6336679603
 20
118.4939163858
 30
0.0
  0
VERTEX
  5
461
  8
0
  6
CONTINUOUS
 62
     7
 10
71.7003456508
 20
118.4729001606
 30
0.0
  0
SEQEND
  5
701
  8
0
  6
CONTINUOUS
 62
     7
  0
LINE
  5
120
  8
0
  6
CONTINUOUS
 62
     7
 10
71.7477570712
 20
118.4660038624
 30
0.0
 11
71.7003455344
 21
118.4728988218
 31
0.0
  0
POLYLINE
  5
121
  8
0
  6
CONTINUOUS
 62
     7
 66
     1
 10
0.0
 20
0.0
 30
0.0
 70
   128
  0
VERTEX
  5
462
  8
0
  6
CONTINUOUS
 62
     7
 10
71.3050613255
 20
118.8581677042
 30
0.0
  0
VERTEX
  5
463
  8
0
  6
CONTINUOUS
 62
     7
 10
71.2649383191
 20
118.9096024508
 30
0.0
  0
VERTEX
  5
464
  8
0
  6
CONTINUOUS
 62
     7
 10
71.2458935874
 20
118.9695140628
 30
0.0
  0
SEQEND
  5
702
  8
0
  6
CONTINUOUS
 62
     7
  0
LINE
  5
122
  8
0
  6
CONTINUOUS
 62
     7
 10
71.2526009726
 20
118.9794530064
 30
0.0
 11
71.2458935874
 21
118.9695140628
 31
0.0
  0
LINE
  5
123
  8
0
  6
CONTINUOUS
 62
     7
 10
71.2652192293
 20
118.9894722255
 30
0.0
 11
71.2526009726
 21
118.9794530064
 31
0.0
  0
POLYLINE
  5
124
  8
0
  6
CONTINUOUS
 62
     7
 66
     1
 10
0.0
 20
0.0
 30
0.0
 70
   128
  0
VERTEX
  5
465
  8
0
  6
CONTINUOUS
 62
     7
 10
71.6718656319
 20
118.4637741889
 30
0.0
  0
VERTEX
  5
466
  8
0
  6
CONTINUOUS
 62
     7
 10
71.6187661589
 20
118.4895254909
 30
0.0
  0
VERTEX
  5
467
  8
0
  6
CONTINUOUS
 62
     7
 10
71.5771096717
 20
118.5351872472
 30
0.0
  0
SEQEND
  5
703
  8
0
  6
CONTINUOUS
 62
     7
  0
LINE
  5
125
  8
0
  6
CONTINUOUS
 62
     7
 10
71.6856318601
 20
118.4653524896
 30
0.0
 11
71.7003456508
 21
118.4729001606
 31
0.0
  0
ARC
  5
126
  8
0
  6
CONTINUOUS
 62
     7
 10
71.6749889748
 20
118.4973567529
 30
0.0
 40
0.0337274943509139
 50
264.6864971967
 51
288.3943323359
  0
LINE
  5
127
  8
0
  6
CONTINUOUS
 62
     7
 10
71.2458876502
 20
118.9695140846
 30
0.0
 11
71.2461247882
 21
119.045243241
 31
0.0
  0
ARC
  5
128
  8
0
  6
CONTINUOUS
 62
     7
 10
71.7494936511
 20
118.9679562286
 30
0.0
 40
0.5101230738656185
 50
190.0658196906
 51
261.2470033149
  0
LINE
  5
129
  8
0
  6
CONTINUOUS
 62
     7
 10
71.7477570712
 20
118.4660038624
 30
0.0
 11
71.746012704
 21
118.4517670544
 31
0.0
  0
LINE
  5
12A
  8
0
  6
CONTINUOUS
 62
     7
 10
71.746012704
 20
118.4517670544
 30
0.0
 11
71.6718660393
 21
118.4637741598
 31
0.0
  0
LINE
  5
12B
  8
0
  6
CONTINUOUS
 62
     7
 10
71.7416548129
 20
118.4352164918
 30
0.0
 11
71.7460206203
 21
118.4517663559
 31
0.0
  0
ARC
  5
12C
  8
0
  6
CONTINUOUS
 62
     7
 10
71.7935593899
 20
119.0336751194
 30
0.0
 40
0.6007053387484502
 50
220.1364282382
 51
265.0427768139
  0
ARC
  5
12D
  8
0
  6
CONTINUOUS
 62
     7
 10
71.7901642364
 20
119.0307350435
 30
0.0
 40
0.5962145052346751
 50
174.9946516566
 51
220.1307417433
  0
LINE
  5
12E
  8
0
  6
CONTINUOUS
 62
     7
 10
71.9708118546
 20
118.4152441337
 30
0.0
 11
71.7416548129
 21
118.4352162881
 31
0.0
  0
POLYLINE
  5
12F
  8
0
  6
CONTINUOUS
 62
     7
 66
     1
 10
0.0
 20
0.0
 30
0.0
 70
   128
  0
VERTEX
  5
468
  8
0
  6
CONTINUOUS
 62
     7
 10
74.062949962
 20
110.3301621105
 30
0.0
  0
VERTEX
  5
469
  8
0
  6
CONTINUOUS
 62
     7
 10
74.0657151752
 20
110.3276717539
 30
0.0
  0
VERTEX
  5
46A
  8
0
  6
CONTINUOUS
 62
     7
 10
74.0687766653
 20
110.3249150391
 30
0.0
  0
VERTEX
  5
46B
  8
0
  6
CONTINUOUS
 62
     7
 10
74.0720988093
 20
110.3219245623
 30
0.0
  0
VERTEX
  5
46C
  8
0
  6
CONTINUOUS
 62
     7
 10
74.0756430738
 20
110.3187329199
 30
0.0
  0
VERTEX
  5
46D
  8
0
  6
CONTINUOUS
 62
     7
 10
74.0793680149
 20
110.3153792273
 30
0.0
  0
VERTEX
  5
46E
  8
0
  6
CONTINUOUS
 62
     7
 10
74.0832304424
 20
110.3119016688
 30
0.0
  0
VERTEX
  5
46F
  8
0
  6
CONTINUOUS
 62
     7
 10
74.0871854201
 20
110.3083402913
 30
0.0
  0
VERTEX
  5
470
  8
0
  6
CONTINUOUS
 62
     7
 10
74.091186964
 20
110.3047370042
 30
0.0
  0
SEQEND
  5
704
  8
0
  6
CONTINUOUS
 62
     7
  0
LINE
  5
130
  8
0
  6
CONTINUOUS
 62
     7
 10
74.315130462
 20
110.6102368857
 30
0.0
 11
74.062949962
 21
110.3301621105
 31
0.0
  0
ARC
  5
131
  8
0
  6
CONTINUOUS
 62
     7
 10
74.3534829282
 20
110.6334473963
 30
0.0
 40
0.0448293851394228
 50
211.1829819303
 51
261.9349072791
  0
LINE
  5
132
  8
0
  6
CONTINUOUS
 62
     7
 10
74.091186964
 20
110.3047370042
 30
0.0
 11
74.3471934535
 21
110.5890614044
 31
0.0
  0
ARC
  5
133
  8
0
  6
CONTINUOUS
 62
     7
 10
74.7977000176
 20
112.359855392
 30
0.0
 40
1.827202431317989
 50
255.7262304763
 51
290.2737695237
  0
ARC
  5
134
  8
0
  6
CONTINUOUS
 62
     7
 10
74.1786282246
 20
110.5191734438
 30
0.0
 40
0.164089224038748
 50
33.7077728863
 51
74.6038885099
  0
ARC
  5
135
  8
0
  6
CONTINUOUS
 62
     7
 10
74.7977000176
 20
112.359855392
 30
0.0
 40
1.778187903625907
 50
251.1162938298
 51
294.8837061702
  0
ARC
  5
136
  8
0
  6
CONTINUOUS
 62
     7
 10
75.6057978684
 20
110.5939526823
 30
0.0
 40
0.1641084992638473
 50
111.3986306034
 51
152.2896654878
  0
ARC
  5
137
  8
0
  6
CONTINUOUS
 62
     7
 10
75.4171566398
 20
110.6927238407
 30
0.0
 40
0.048826960045571
 50
286.2709491379
 51
332.6128668206
  0
POLYLINE
  5
138
  8
0
  6
CONTINUOUS
 62
     7
 66
     1
 10
0.0
 20
0.0
 30
0.0
 70
   128
  0
VERTEX
  5
471
  8
0
  6
CONTINUOUS
 62
     7
 10
76.8273935961
 20
111.6251051489
 30
0.0
  0
VERTEX
  5
472
  8
0
  6
CONTINUOUS
 62
     7
 10
76.829883487
 20
111.6278707113
 30
0.0
  0
VERTEX
  5
473
  8
0
  6
CONTINUOUS
 62
     7
 10
76.8326397362
 20
111.6309319686
 30
0.0
  0
VERTEX
  5
474
  8
0
  6
CONTINUOUS
 62
     7
 10
76.8356311443
 20
111.6342539962
 30
0.0
  0
VERTEX
  5
475
  8
0
  6
CONTINUOUS
 62
     7
 10
76.8388223211
 20
111.6377986099
 30
0.0
  0
VERTEX
  5
476
  8
0
  6
CONTINUOUS
 62
     7
 10
76.8421764793
 20
111.6415234346
 30
0.0
  0
VERTEX
  5
477
  8
0
  6
CONTINUOUS
 62
     7
 10
76.8456540378
 20
111.6453856293
 30
0.0
  0
VERTEX
  5
478
  8
0
  6
CONTINUOUS
 62
     7
 10
76.8492154154
 20
111.6493409562
 30
0.0
  0
VERTEX
  5
479
  8
0
  6
CONTINUOUS
 62
     7
 10
76.8528182367
 20
111.6533423837
 30
0.0
  0
SEQEND
  5
705
  8
0
  6
CONTINUOUS
 62
     7
  0
LINE
  5
139
  8
0
  6
CONTINUOUS
 62
     7
 10
76.5473188209
 20
111.8772858817
 30
0.0
 11
76.8273935961
 21
111.6251051489
 31
0.0
  0
ARC
  5
13A
  8
0
  6
CONTINUOUS
 62
     7
 10
76.524110645
 20
111.9156373182
 30
0.0
 40
0.0448269127804636
 50
301.1800150853
 51
351.9359391294
  0
LINE
  5
13B
  8
0
  6
CONTINUOUS
 62
     7
 10
76.8528182367
 20
111.6533423837
 30
0.0
 11
76.5684943023
 21
111.9093489896
 31
0.0
  0
ARC
  5
13C
  8
0
  6
CONTINUOUS
 62
     7
 10
74.7977000176
 20
112.359855392
 30
0.0
 40
1.827202431317982
 50
345.7262304763
 51
20.2737695236
  0
ARC
  5
13D
  8
0
  6
CONTINUOUS
 62
     7
 10
76.6383893679
 20
111.7407784606
 30
0.0
 40
0.1640978992648099
 50
123.7091252099
 51
164.6028453248
  0
ARC
  5
13E
  8
0
  6
CONTINUOUS
 62
     7
 10
74.7977000176
 20
112.359855392
 30
0.0
 40
1.778187903625909
 50
341.1162938298
 51
24.8837061702
  0
ARC
  5
13F
  8
0
  6
CONTINUOUS
 62
     7
 10
76.5635984294
 20
113.1679487574
 30
0.0
 40
0.1641025680554522
 50
201.3977430997
 51
242.2902062722
  0
ARC
  5
140
  8
0
  6
CONTINUOUS
 62
     7
 10
76.4648273331
 20
112.9793078707
 30
0.0
 40
0.048832550316764
 50
16.274439173
 51
62.6108903708
  0
ARC
  5
141
  8
0
  6
CONTINUOUS
 62
     7
 10
74.7977000176
 20
112.359855392
 30
0.0
 40
1.827202431317977
 50
165.7262304763
 51
200.2737695236
  0
ARC
  5
142
  8
0
  6
CONTINUOUS
 62
     7
 10
73.0712912539
 20
112.8040721207
 30
0.0
 40
0.0448290337155736
 50
121.181478478
 51
171.9341449723
  0
ARC
  5
143
  8
0
  6
CONTINUOUS
 62
     7
 10
72.9570089905
 20
112.9789334551
 30
0.0
 40
0.1640997551391154
 50
303.7093069353
 51
344.6025692809
  0
ARC
  5
144
  8
0
  6
CONTINUOUS
 62
     7
 10
74.7977000176
 20
112.359855392
 30
0.0
 40
1.778187903625894
 50
161.1162938298
 51
204.8837061702
  0
ARC
  5
145
  8
0
  6
CONTINUOUS
 62
     7
 10
73.0318057763
 20
111.5517658293
 30
0.0
 40
0.164097107710008
 50
21.3970178821
 51
62.2908881499
  0
ARC
  5
146
  8
0
  6
CONTINUOUS
 62
     7
 10
73.1305720157
 20
111.740401631
 30
0.0
 40
0.0488312503837005
 50
196.2728986815
 51
242.6108783279
  0
ARC
  5
147
  8
0
  6
CONTINUOUS
 62
     7
 10
73.9896092004
 20
114.1257508318
 30
0.0
 40
0.1640988525181647
 50
291.3973199605
 51
332.29089851
  0
ARC
  5
148
  8
0
  6
CONTINUOUS
 62
     7
 10
74.1782448016
 20
114.0269849771
 30
0.0
 40
0.0488291504549687
 50
106.2720370491
 51
152.6111475596
  0
ARC
  5
149
  8
0
  6
CONTINUOUS
 62
     7
 10
74.7977000176
 20
112.359855392
 30
0.0
 40
1.827202431317972
 50
75.7262304763
 51
110.2737695236
  0
ARC
  5
14A
  8
0
  6
CONTINUOUS
 62
     7
 10
75.2419181556
 20
114.0862660647
 30
0.0
 40
0.0448269127804817
 50
31.1800150853
 51
81.9359391293
  0
ARC
  5
14B
  8
0
  6
CONTINUOUS
 62
     7
 10
75.4167770132
 20
114.2005447875
 30
0.0
 40
0.164097899264798
 50
213.70912521
 51
254.6028453248
  0
ARC
  5
14C
  8
0
  6
CONTINUOUS
 62
     7
 10
74.7977000176
 20
112.359855392
 30
0.0
 40
1.778187903625888
 50
71.1162938298
 51
114.8837061702
  0
POLYLINE
  5
14D
  8
0
  6
CONTINUOUS
 62
     7
 66
     1
 10
0.0
 20
0.0
 30
0.0
 70
   128
  0
VERTEX
  5
47A
  8
0
  6
CONTINUOUS
 62
     7
 10
72.7680064871
 20
113.0946055118
 30
0.0
  0
VERTEX
  5
47B
  8
0
  6
CONTINUOUS
 62
     7
 10
72.7655166544
 20
113.091840415
 30
0.0
  0
VERTEX
  5
47C
  8
0
  6
CONTINUOUS
 62
     7
 10
72.7627600851
 20
113.0887786921
 30
0.0
  0
VERTEX
  5
47D
  8
0
  6
CONTINUOUS
 62
     7
 10
72.7597687934
 20
113.0854566644
 30
0.0
  0
VERTEX
  5
47E
  8
0
  6
CONTINUOUS
 62
     7
 10
72.7565775875
 20
113.0819125164
 30
0.0
  0
VERTEX
  5
47F
  8
0
  6
CONTINUOUS
 62
     7
 10
72.7532236039
 20
113.0781872261
 30
0.0
  0
VERTEX
  5
480
  8
0
  6
CONTINUOUS
 62
     7
 10
72.7497458417
 20
113.0743250314
 30
0.0
  0
VERTEX
  5
481
  8
0
  6
CONTINUOUS
 62
     7
 10
72.7461847261
 20
113.0703701701
 30
0.0
  0
VERTEX
  5
482
  8
0
  6
CONTINUOUS
 62
     7
 10
72.7425817301
 20
113.066368277
 30
0.0
  0
SEQEND
  5
706
  8
0
  6
CONTINUOUS
 62
     7
  0
LINE
  5
14E
  8
0
  6
CONTINUOUS
 62
     7
 10
73.048081175
 20
112.842424779
 30
0.0
 11
72.7680064871
 21
113.0946055118
 31
0.0
  0
LINE
  5
14F
  8
0
  6
CONTINUOUS
 62
     7
 10
72.7425817301
 20
113.066368277
 30
0.0
 11
73.0269056936
 21
112.8103621367
 31
0.0
  0
POLYLINE
  5
150
  8
0
  6
CONTINUOUS
 62
     7
 66
     1
 10
0.0
 20
0.0
 30
0.0
 70
   128
  0
VERTEX
  5
483
  8
0
  6
CONTINUOUS
 62
     7
 10
75.5324500921
 20
114.3895490158
 30
0.0
  0
VERTEX
  5
484
  8
0
  6
CONTINUOUS
 62
     7
 10
75.5296847625
 20
114.3920389067
 30
0.0
  0
VERTEX
  5
485
  8
0
  6
CONTINUOUS
 62
     7
 10
75.5266232724
 20
114.3947951559
 30
0.0
  0
VERTEX
  5
486
  8
0
  6
CONTINUOUS
 62
     7
 10
75.5233012448
 20
114.397786564
 30
0.0
  0
VERTEX
  5
487
  8
0
  6
CONTINUOUS
 62
     7
 10
75.5197570967
 20
114.4009777408
 30
0.0
  0
VERTEX
  5
488
  8
0
  6
CONTINUOUS
 62
     7
 10
75.5160320392
 20
114.404331899
 30
0.0
  0
VERTEX
  5
489
  8
0
  6
CONTINUOUS
 62
     7
 10
75.5121696117
 20
114.4078094575
 30
0.0
  0
VERTEX
  5
48A
  8
0
  6
CONTINUOUS
 62
     7
 10
75.5082145175
 20
114.411370835
 30
0.0
  0
VERTEX
  5
48B
  8
0
  6
CONTINUOUS
 62
     7
 10
75.5042130901
 20
114.4149736564
 30
0.0
  0
SEQEND
  5
707
  8
0
  6
CONTINUOUS
 62
     7
  0
LINE
  5
151
  8
0
  6
CONTINUOUS
 62
     7
 10
75.2802695921
 20
114.1094742406
 30
0.0
 11
75.5324500921
 21
114.3895490158
 31
0.0
  0
LINE
  5
152
  8
0
  6
CONTINUOUS
 62
     7
 10
75.5042130901
 20
114.4149736564
 30
0.0
 11
75.2482064842
 21
114.130649722
 31
0.0
  0
ARC
  5
153
  8
0
  6
CONTINUOUS
 62
     7
 10
76.9132453399
 20
110.4550145105
 30
0.0
 40
0.055518532423088
 50
273.2064772225
 51
2.563970841
  0
LINE
  5
154
  8
0
  6
CONTINUOUS
 62
     7
 10
76.9163507345
 20
110.3995828952
 30
0.0
 11
72.8955595829
 21
110.1888627808
 31
0.0
  0
ARC
  5
155
  8
0
  6
CONTINUOUS
 62
     7
 10
72.8928522647
 20
110.2443134326
 30
0.0
 40
0.0555167033737766
 50
183.4350440952
 51
272.7951849353
  0
LINE
  5
156
  8
0
  6
CONTINUOUS
 62
     7
 10
72.8374353045
 20
110.2409870427
 30
0.0
 11
72.6266918342
 21
114.2622125398
 31
0.0
  0
ARC
  5
157
  8
0
  6
CONTINUOUS
 62
     7
 10
72.6821543341
 20
114.2646965728
 30
0.0
 40
0.0555180989691819
 50
93.2062899403
 51
182.564427467
  0
LINE
  5
158
  8
0
  6
CONTINUOUS
 62
     7
 10
72.679049145
 20
114.3201277654
 30
0.0
 11
76.6998405876
 21
114.5308483455
 31
0.0
  0
ARC
  5
159
  8
0
  6
CONTINUOUS
 62
     7
 10
76.7025472124
 20
114.4753969193
 30
0.0
 40
0.0555174430309802
 50
3.4353174623
 51
92.794431251
  0
LINE
  5
15A
  8
0
  6
CONTINUOUS
 62
     7
 10
76.7579648952
 20
114.478723618
 30
0.0
 11
76.9687082926
 21
110.4574981208
 31
0.0
  0
LINE
  5
15B
  8
0
  6
CONTINUOUS
 62
     7
 10
74.1645629593
 20
114.073858137
 30
0.0
 11
73.8802390248
 21
114.3298647429
 31
0.0
  0
ARC
  5
15C
  8
0
  6
CONTINUOUS
 62
     7
 10
73.7630116103
 20
114.2009196237
 30
0.0
 40
0.1742673534415948
 50
47.7251970638
 51
138.2747337495
  0
LINE
  5
15D
  8
0
  6
CONTINUOUS
 62
     7
 10
73.6329480848
 20
114.3169049237
 30
0.0
 11
72.7296217653
 21
113.3136591006
 31
0.0
  0
ARC
  5
15E
  8
0
  6
CONTINUOUS
 62
     7
 10
72.8585665631
 20
113.1964317987
 30
0.0
 40
0.1742670399074324
 50
137.7251533983
 51
228.2748474815
  0
LINE
  5
15F
  8
0
  6
CONTINUOUS
 62
     7
 10
73.0836970457
 20
111.7267184954
 30
0.0
 11
72.8276905853
 21
111.4423945609
 31
0.0
  0
ARC
  5
160
  8
0
  6
CONTINUOUS
 62
     7
 10
72.9566360796
 20
111.3251670643
 30
0.0
 40
0.1742676862171699
 50
137.7252600384
 51
228.2747430131
  0
LINE
  5
161
  8
0
  6
CONTINUOUS
 62
     7
 10
72.8406505792
 20
111.1951032716
 30
0.0
 11
73.843896024
 21
110.2917767193
 31
0.0
  0
ARC
  5
162
  8
0
  6
CONTINUOUS
 62
     7
 10
73.9611231227
 20
110.4207236956
 30
0.0
 40
0.1742685151702586
 50
227.7256845974
 51
318.2744614065
  0
LINE
  5
163
  8
0
  6
CONTINUOUS
 62
     7
 10
75.4308369784
 20
110.6458525236
 30
0.0
 11
75.7151609129
 21
110.3898459177
 31
0.0
  0
ARC
  5
164
  8
0
  6
CONTINUOUS
 62
     7
 10
75.8323881999
 20
110.5187904697
 30
0.0
 40
0.1742668480101962
 50
227.7251026194
 51
318.275040565
  0
LINE
  5
165
  8
0
  6
CONTINUOUS
 62
     7
 10
75.9624519693
 20
110.4028062027
 30
0.0
 11
76.865778056
 21
111.4060515601
 31
0.0
  0
ARC
  5
166
  8
0
  6
CONTINUOUS
 62
     7
 10
76.7368341842
 20
111.5232789787
 30
0.0
 40
0.1742664332359293
 50
317.7249201676
 51
48.2750134651
  0
LINE
  5
167
  8
0
  6
CONTINUOUS
 62
     7
 10
76.511703183
 20
112.9929926309
 30
0.0
 11
76.7677093233
 21
113.2773165654
 31
0.0
  0
ARC
  5
168
  8
0
  6
CONTINUOUS
 62
     7
 10
76.6387649229
 20
113.3945439563
 30
0.0
 40
0.1742668056556385
 50
317.7250437936
 51
48.2748898391
  0
LINE
  5
169
  8
0
  6
CONTINUOUS
 62
     7
 10
76.754749504
 20
113.524607389
 30
0.0
 11
75.7515039137
 21
114.4279334757
 31
0.0
  0
ARC
  5
16A
  8
0
  6
CONTINUOUS
 62
     7
 10
75.6342765204
 20
114.2989891212
 30
0.0
 40
0.1742667733631833
 50
47.725033074
 51
138.2749005587
  0
CIRCLE
  5
16B
  8
0
  6
CONTINUOUS
 62
     7
 10
72.9398379539
 20
114.0326819079
 30
0.0
 40
0.2250000000001146
  0
LINE
  5
16C
  8
0
  6
CONTINUOUS
 62
     7
 10
76.8375412869
 20
111.4314762007
 30
0.0
 11
75.9342149673
 21
110.4282303776
 31
0.0
  0
POLYLINE
  5
16D
  8
0
  6
CONTINUOUS
 62
     7
 66
     1
 10
0.0
 20
0.0
 30
0.0
 70
   128
  0
VERTEX
  5
48C
  8
0
  6
CONTINUOUS
 62
     7
 10
76.8375412869
 20
111.4314762007
 30
0.0
  0
VERTEX
  5
48D
  8
0
  6
CONTINUOUS
 62
     7
 10
76.8403063836
 20
111.4289863098
 30
0.0
  0
VERTEX
  5
48E
  8
0
  6
CONTINUOUS
 62
     7
 10
76.8433681066
 20
111.426229595
 30
0.0
  0
VERTEX
  5
48F
  8
0
  6
CONTINUOUS
 62
     7
 10
76.8466901342
 20
111.4232386525
 30
0.0
  0
VERTEX
  5
490
  8
0
  6
CONTINUOUS
 62
     7
 10
76.8502342822
 20
111.4200474757
 30
0.0
  0
VERTEX
  5
491
  8
0
  6
CONTINUOUS
 62
     7
 10
76.8539591069
 20
111.4166933175
 30
0.0
  0
VERTEX
  5
492
  8
0
  6
CONTINUOUS
 62
     7
 10
76.8578217673
 20
111.413215759
 30
0.0
  0
VERTEX
  5
493
  8
0
  6
CONTINUOUS
 62
     7
 10
76.8617766286
 20
111.4096543815
 30
0.0
  0
VERTEX
  5
494
  8
0
  6
CONTINUOUS
 62
     7
 10
76.865778056
 20
111.4060515601
 30
0.0
  0
SEQEND
  5
708
  8
0
  6
CONTINUOUS
 62
     7
  0
POLYLINE
  5
16E
  8
0
  6
CONTINUOUS
 62
     7
 66
     1
 10
0.0
 20
0.0
 30
0.0
 70
   128
  0
VERTEX
  5
495
  8
0
  6
CONTINUOUS
 62
     7
 10
75.9342149673
 20
110.4282303776
 30
0.0
  0
VERTEX
  5
496
  8
0
  6
CONTINUOUS
 62
     7
 10
75.9369800641
 20
110.4257409524
 30
0.0
  0
VERTEX
  5
497
  8
0
  6
CONTINUOUS
 62
     7
 10
75.9400415542
 20
110.4229842376
 30
0.0
  0
VERTEX
  5
498
  8
0
  6
CONTINUOUS
 62
     7
 10
75.9433638147
 20
110.4199928294
 30
0.0
  0
VERTEX
  5
499
  8
0
  6
CONTINUOUS
 62
     7
 10
75.9469079627
 20
110.4168021183
 30
0.0
  0
VERTEX
  5
49A
  8
0
  6
CONTINUOUS
 62
     7
 10
75.9506330202
 20
110.4134474944
 30
0.0
  0
VERTEX
  5
49B
  8
0
  6
CONTINUOUS
 62
     7
 10
75.9544954477
 20
110.4099699359
 30
0.0
  0
VERTEX
  5
49C
  8
0
  6
CONTINUOUS
 62
     7
 10
75.958450309
 20
110.4064085584
 30
0.0
  0
VERTEX
  5
49D
  8
0
  6
CONTINUOUS
 62
     7
 10
75.9624519693
 20
110.4028062027
 30
0.0
  0
SEQEND
  5
709
  8
0
  6
CONTINUOUS
 62
     7
  0
LINE
  5
16F
  8
0
  6
CONTINUOUS
 62
     7
 10
72.7578588254
 20
113.2882344599
 30
0.0
 11
73.6611850868
 21
114.291480283
 31
0.0
  0
POLYLINE
  5
170
  8
0
  6
CONTINUOUS
 62
     7
 66
     1
 10
0.0
 20
0.0
 30
0.0
 70
   128
  0
VERTEX
  5
49E
  8
0
  6
CONTINUOUS
 62
     7
 10
72.7578588254
 20
113.2882344599
 30
0.0
  0
VERTEX
  5
49F
  8
0
  6
CONTINUOUS
 62
     7
 10
72.7550935832
 20
113.2907243508
 30
0.0
  0
VERTEX
  5
4A0
  8
0
  6
CONTINUOUS
 62
     7
 10
72.7520320931
 20
113.2934810657
 30
0.0
  0
VERTEX
  5
4A1
  8
0
  6
CONTINUOUS
 62
     7
 10
72.7487099199
 20
113.2964724738
 30
0.0
  0
VERTEX
  5
4A2
  8
0
  6
CONTINUOUS
 62
     7
 10
72.7451657427
 20
113.2996636506
 30
0.0
  0
VERTEX
  5
4A3
  8
0
  6
CONTINUOUS
 62
     7
 10
72.7414407726
 20
113.3030173432
 30
0.0
  0
VERTEX
  5
4A4
  8
0
  6
CONTINUOUS
 62
     7
 10
72.7375783159
 20
113.3064953673
 30
0.0
  0
VERTEX
  5
4A5
  8
0
  6
CONTINUOUS
 62
     7
 10
72.7336233091
 20
113.3100562792
 30
0.0
  0
VERTEX
  5
4A6
  8
0
  6
CONTINUOUS
 62
     7
 10
72.7296217653
 20
113.3136591006
 30
0.0
  0
SEQEND
  5
70A
  8
0
  6
CONTINUOUS
 62
     7
  0
POLYLINE
  5
171
  8
0
  6
CONTINUOUS
 62
     7
 66
     1
 10
0.0
 20
0.0
 30
0.0
 70
   128
  0
VERTEX
  5
4A7
  8
0
  6
CONTINUOUS
 62
     7
 10
73.6611850868
 20
114.291480283
 30
0.0
  0
VERTEX
  5
4A8
  8
0
  6
CONTINUOUS
 62
     7
 10
73.6584198736
 20
114.2939697083
 30
0.0
  0
VERTEX
  5
4A9
  8
0
  6
CONTINUOUS
 62
     7
 10
73.6553583835
 20
114.2967264231
 30
0.0
  0
VERTEX
  5
4AA
  8
0
  6
CONTINUOUS
 62
     7
 10
73.6520362394
 20
114.2997178312
 30
0.0
  0
VERTEX
  5
4AB
  8
0
  6
CONTINUOUS
 62
     7
 10
73.6484920914
 20
114.302909008
 30
0.0
  0
VERTEX
  5
4AC
  8
0
  6
CONTINUOUS
 62
     7
 10
73.6447670339
 20
114.3062631663
 30
0.0
  0
VERTEX
  5
4AD
  8
0
  6
CONTINUOUS
 62
     7
 10
73.6409046064
 20
114.3097407247
 30
0.0
  0
VERTEX
  5
4AE
  8
0
  6
CONTINUOUS
 62
     7
 10
73.6369496286
 20
114.3133016366
 30
0.0
  0
VERTEX
  5
4AF
  8
0
  6
CONTINUOUS
 62
     7
 10
73.6329480848
 20
114.3169049237
 30
0.0
  0
SEQEND
  5
70B
  8
0
  6
CONTINUOUS
 62
     7
  0
LINE
  5
172
  8
0
  6
CONTINUOUS
 62
     7
 10
75.7260792731
 20
114.3996967066
 30
0.0
 11
76.7293248633
 21
113.4963701542
 31
0.0
  0
POLYLINE
  5
173
  8
0
  6
CONTINUOUS
 62
     7
 66
     1
 10
0.0
 20
0.0
 30
0.0
 70
   128
  0
VERTEX
  5
4B0
  8
0
  6
CONTINUOUS
 62
     7
 10
75.7260792731
 20
114.3996967066
 30
0.0
  0
VERTEX
  5
4B1
  8
0
  6
CONTINUOUS
 62
     7
 10
75.7285689312
 20
114.4024618033
 30
0.0
  0
VERTEX
  5
4B2
  8
0
  6
CONTINUOUS
 62
     7
 10
75.731325646
 20
114.4055235263
 30
0.0
  0
VERTEX
  5
4B3
  8
0
  6
CONTINUOUS
 62
     7
 10
75.7343168213
 20
114.4088455539
 30
0.0
  0
VERTEX
  5
4B4
  8
0
  6
CONTINUOUS
 62
     7
 10
75.7375079981
 20
114.4123897019
 30
0.0
  0
VERTEX
  5
4B5
  8
0
  6
CONTINUOUS
 62
     7
 10
75.7408621563
 20
114.4161145266
 30
0.0
  0
VERTEX
  5
4B6
  8
0
  6
CONTINUOUS
 62
     7
 10
75.7443399476
 20
114.419977187
 30
0.0
  0
VERTEX
  5
4B7
  8
0
  6
CONTINUOUS
 62
     7
 10
75.7479008595
 20
114.4239320483
 30
0.0
  0
VERTEX
  5
4B8
  8
0
  6
CONTINUOUS
 62
     7
 10
75.7515039137
 20
114.4279334757
 30
0.0
  0
SEQEND
  5
70C
  8
0
  6
CONTINUOUS
 62
     7
  0
POLYLINE
  5
174
  8
0
  6
CONTINUOUS
 62
     7
 66
     1
 10
0.0
 20
0.0
 30
0.0
 70
   128
  0
VERTEX
  5
4B9
  8
0
  6
CONTINUOUS
 62
     7
 10
76.7293248633
 20
113.4963701542
 30
0.0
  0
VERTEX
  5
4BA
  8
0
  6
CONTINUOUS
 62
     7
 10
76.7318147542
 20
113.4991357166
 30
0.0
  0
VERTEX
  5
4BB
  8
0
  6
CONTINUOUS
 62
     7
 10
76.7345710034
 20
113.5021969739
 30
0.0
  0
VERTEX
  5
4BC
  8
0
  6
CONTINUOUS
 62
     7
 10
76.7375624115
 20
113.5055190015
 30
0.0
  0
VERTEX
  5
4BD
  8
0
  6
CONTINUOUS
 62
     7
 10
76.7407535883
 20
113.5090631496
 30
0.0
  0
VERTEX
  5
4BE
  8
0
  6
CONTINUOUS
 62
     7
 10
76.7441077466
 20
113.5127884399
 30
0.0
  0
VERTEX
  5
4BF
  8
0
  6
CONTINUOUS
 62
     7
 10
76.7475853051
 20
113.5166506346
 30
0.0
  0
VERTEX
  5
4C0
  8
0
  6
CONTINUOUS
 62
     7
 10
76.7511466826
 20
113.5206059616
 30
0.0
  0
VERTEX
  5
4C1
  8
0
  6
CONTINUOUS
 62
     7
 10
76.754749504
 20
113.524607389
 30
0.0
  0
SEQEND
  5
70D
  8
0
  6
CONTINUOUS
 62
     7
  0
LINE
  5
175
  8
0
  6
CONTINUOUS
 62
     7
 10
73.8693208974
 20
110.3200144197
 30
0.0
 11
72.8660753363
 21
111.2233405064
 31
0.0
  0
POLYLINE
  5
176
  8
0
  6
CONTINUOUS
 62
     7
 66
     1
 10
0.0
 20
0.0
 30
0.0
 70
   128
  0
VERTEX
  5
4C2
  8
0
  6
CONTINUOUS
 62
     7
 10
73.8693208974
 20
110.3200144197
 30
0.0
  0
VERTEX
  5
4C3
  8
0
  6
CONTINUOUS
 62
     7
 10
73.8668310065
 20
110.317249323
 30
0.0
  0
VERTEX
  5
4C4
  8
0
  6
CONTINUOUS
 62
     7
 10
73.8640744081
 20
110.3141871344
 30
0.0
  0
VERTEX
  5
4C5
  8
0
  6
CONTINUOUS
 62
     7
 10
73.8610831164
 20
110.3108651068
 30
0.0
  0
VERTEX
  5
4C6
  8
0
  6
CONTINUOUS
 62
     7
 10
73.8578919396
 20
110.3073214244
 30
0.0
  0
VERTEX
  5
4C7
  8
0
  6
CONTINUOUS
 62
     7
 10
73.8545380142
 20
110.3035961341
 30
0.0
  0
VERTEX
  5
4C8
  8
0
  6
CONTINUOUS
 62
     7
 10
73.8510602229
 20
110.2997339394
 30
0.0
  0
VERTEX
  5
4C9
  8
0
  6
CONTINUOUS
 62
     7
 10
73.8474990782
 20
110.2957786124
 30
0.0
  0
VERTEX
  5
4CA
  8
0
  6
CONTINUOUS
 62
     7
 10
73.843896024
 20
110.2917767193
 30
0.0
  0
SEQEND
  5
70E
  8
0
  6
CONTINUOUS
 62
     7
  0
POLYLINE
  5
177
  8
0
  6
CONTINUOUS
 62
     7
 66
     1
 10
0.0
 20
0.0
 30
0.0
 70
   128
  0
VERTEX
  5
4CB
  8
0
  6
CONTINUOUS
 62
     7
 10
72.8660753363
 20
111.2233405064
 30
0.0
  0
VERTEX
  5
4CC
  8
0
  6
CONTINUOUS
 62
     7
 10
72.8635855036
 20
111.2205754097
 30
0.0
  0
VERTEX
  5
4CD
  8
0
  6
CONTINUOUS
 62
     7
 10
72.8608289343
 20
111.2175136868
 30
0.0
  0
VERTEX
  5
4CE
  8
0
  6
CONTINUOUS
 62
     7
 10
72.8578376426
 20
111.2141916591
 30
0.0
  0
VERTEX
  5
4CF
  8
0
  6
CONTINUOUS
 62
     7
 10
72.8546464367
 20
111.2106475111
 30
0.0
  0
VERTEX
  5
4D0
  8
0
  6
CONTINUOUS
 62
     7
 10
72.8512924531
 20
111.2069226864
 30
0.0
  0
VERTEX
  5
4D1
  8
0
  6
CONTINUOUS
 62
     7
 10
72.8478146617
 20
111.2030600261
 30
0.0
  0
VERTEX
  5
4D2
  8
0
  6
CONTINUOUS
 62
     7
 10
72.8442535752
 20
111.1991051647
 30
0.0
  0
VERTEX
  5
4D3
  8
0
  6
CONTINUOUS
 62
     7
 10
72.8406505792
 20
111.1951032716
 30
0.0
  0
SEQEND
  5
70F
  8
0
  6
CONTINUOUS
 62
     7
  0
POLYLINE
  5
178
  8
0
  6
CONTINUOUS
 62
     7
 66
     1
 10
0.0
 20
0.0
 30
0.0
 70
   128
  0
VERTEX
  5
4D4
  8
0
  6
CONTINUOUS
 62
     7
 10
73.8548142678
 20
114.3016279738
 30
0.0
  0
VERTEX
  5
4D5
  8
0
  6
CONTINUOUS
 62
     7
 10
73.8573040423
 20
114.3043930705
 30
0.0
  0
VERTEX
  5
4D6
  8
0
  6
CONTINUOUS
 62
     7
 10
73.8600606407
 20
114.3074543278
 30
0.0
  0
VERTEX
  5
4D7
  8
0
  6
CONTINUOUS
 62
     7
 10
73.8630519324
 20
114.3107768211
 30
0.0
  0
VERTEX
  5
4D8
  8
0
  6
CONTINUOUS
 62
     7
 10
73.8662431092
 20
114.3143209692
 30
0.0
  0
VERTEX
  5
4D9
  8
0
  6
CONTINUOUS
 62
     7
 10
73.869597151
 20
114.3180457938
 30
0.0
  0
VERTEX
  5
4DA
  8
0
  6
CONTINUOUS
 62
     7
 10
73.8730749423
 20
114.3219084542
 30
0.0
  0
VERTEX
  5
4DB
  8
0
  6
CONTINUOUS
 62
     7
 10
73.8766359706
 20
114.3258633155
 30
0.0
  0
VERTEX
  5
4DC
  8
0
  6
CONTINUOUS
 62
     7
 10
73.8802390248
 20
114.3298647429
 30
0.0
  0
SEQEND
  5
710
  8
0
  6
CONTINUOUS
 62
     7
  0
LINE
  5
179
  8
0
  6
CONTINUOUS
 62
     7
 10
73.8548142678
 20
114.3016279738
 30
0.0
 11
74.134889043
 21
114.049447241
 31
0.0
  0
POLYLINE
  5
17A
  8
0
  6
CONTINUOUS
 62
     7
 66
     1
 10
0.0
 20
0.0
 30
0.0
 70
   128
  0
VERTEX
  5
4DD
  8
0
  6
CONTINUOUS
 62
     7
 10
72.8559276455
 20
111.4169694546
 30
0.0
  0
VERTEX
  5
4DE
  8
0
  6
CONTINUOUS
 62
     7
 10
72.8531624324
 20
111.4194593455
 30
0.0
  0
VERTEX
  5
4DF
  8
0
  6
CONTINUOUS
 62
     7
 10
72.8501009422
 20
111.4222160603
 30
0.0
  0
VERTEX
  5
4E0
  8
0
  6
CONTINUOUS
 62
     7
 10
72.8467787691
 20
111.4252074685
 30
0.0
  0
VERTEX
  5
4E1
  8
0
  6
CONTINUOUS
 62
     7
 10
72.8432345919
 20
111.4283986453
 30
0.0
  0
VERTEX
  5
4E2
  8
0
  6
CONTINUOUS
 62
     7
 10
72.8395095927
 20
111.4317523378
 30
0.0
  0
VERTEX
  5
4E3
  8
0
  6
CONTINUOUS
 62
     7
 10
72.835647136
 20
111.435230362
 30
0.0
  0
VERTEX
  5
4E4
  8
0
  6
CONTINUOUS
 62
     7
 10
72.8316921292
 20
111.4387912739
 30
0.0
  0
VERTEX
  5
4E5
  8
0
  6
CONTINUOUS
 62
     7
 10
72.8276905853
 20
111.4423945609
 30
0.0
  0
SEQEND
  5
711
  8
0
  6
CONTINUOUS
 62
     7
  0
LINE
  5
17B
  8
0
  6
CONTINUOUS
 62
     7
 10
72.8559276455
 20
111.4169694546
 30
0.0
 11
73.1081081164
 21
111.6970442298
 31
0.0
  0
POLYLINE
  5
17C
  8
0
  6
CONTINUOUS
 62
     7
 66
     1
 10
0.0
 20
0.0
 30
0.0
 70
   128
  0
VERTEX
  5
4E6
  8
0
  6
CONTINUOUS
 62
     7
 10
75.7151609129
 20
110.3898459177
 30
0.0
  0
VERTEX
  5
4E7
  8
0
  6
CONTINUOUS
 62
     7
 10
75.7187639671
 20
110.3938478108
 30
0.0
  0
VERTEX
  5
4E8
  8
0
  6
CONTINUOUS
 62
     7
 10
75.7223251118
 20
110.3978022065
 30
0.0
  0
VERTEX
  5
4E9
  8
0
  6
CONTINUOUS
 62
     7
 10
75.7258029031
 20
110.4016653325
 30
0.0
  0
VERTEX
  5
4EA
  8
0
  6
CONTINUOUS
 62
     7
 10
75.7291568285
 20
110.4053896915
 30
0.0
  0
VERTEX
  5
4EB
  8
0
  6
CONTINUOUS
 62
     7
 10
75.7323480053
 20
110.4089343052
 30
0.0
  0
VERTEX
  5
4EC
  8
0
  6
CONTINUOUS
 62
     7
 10
75.7353394134
 20
110.4122563328
 30
0.0
  0
VERTEX
  5
4ED
  8
0
  6
CONTINUOUS
 62
     7
 10
75.7380958954
 20
110.4153175901
 30
0.0
  0
VERTEX
  5
4EE
  8
0
  6
CONTINUOUS
 62
     7
 10
75.7405857863
 20
110.4180826868
 30
0.0
  0
SEQEND
  5
712
  8
0
  6
CONTINUOUS
 62
     7
  0
LINE
  5
17D
  8
0
  6
CONTINUOUS
 62
     7
 10
75.7405857863
 20
110.4180826868
 30
0.0
 11
75.4605110111
 21
110.6702634196
 31
0.0
  0
POLYLINE
  5
17E
  8
0
  6
CONTINUOUS
 62
     7
 66
     1
 10
0.0
 20
0.0
 30
0.0
 70
   128
  0
VERTEX
  5
4EF
  8
0
  6
CONTINUOUS
 62
     7
 10
76.7394725541
 20
113.302741206
 30
0.0
  0
VERTEX
  5
4F0
  8
0
  6
CONTINUOUS
 62
     7
 10
76.7422376508
 20
113.3002513151
 30
0.0
  0
VERTEX
  5
4F1
  8
0
  6
CONTINUOUS
 62
     7
 10
76.7452989081
 20
113.2974946003
 30
0.0
  0
VERTEX
  5
4F2
  8
0
  6
CONTINUOUS
 62
     7
 10
76.7486214014
 20
113.2945036579
 30
0.0
  0
VERTEX
  5
4F3
  8
0
  6
CONTINUOUS
 62
     7
 10
76.7521655495
 20
113.291312481
 30
0.0
  0
VERTEX
  5
4F4
  8
0
  6
CONTINUOUS
 62
     7
 10
76.7558903741
 20
113.2879583228
 30
0.0
  0
VERTEX
  5
4F5
  8
0
  6
CONTINUOUS
 62
     7
 10
76.7597530345
 20
113.2844802986
 30
0.0
  0
VERTEX
  5
4F6
  8
0
  6
CONTINUOUS
 62
     7
 10
76.7637078958
 20
113.2809193868
 30
0.0
  0
VERTEX
  5
4F7
  8
0
  6
CONTINUOUS
 62
     7
 10
76.7677093233
 20
113.2773165654
 30
0.0
  0
SEQEND
  5
713
  8
0
  6
CONTINUOUS
 62
     7
  0
LINE
  5
17F
  8
0
  6
CONTINUOUS
 62
     7
 10
76.7394725541
 20
113.302741206
 30
0.0
 11
76.4872918213
 21
113.0226664308
 31
0.0
  0
LINE
  5
180
  8
0
  6
CONTINUOUS
 62
     7
 10
72.5692902548
 20
114.258817869
 30
0.0
 11
72.7799933362
 21
110.238363507
 31
0.0
  0
POLYLINE
  5
181
  8
0
  6
CONTINUOUS
 62
     7
 66
     1
 10
0.0
 20
0.0
 30
0.0
 70
   128
  0
VERTEX
  5
4F8
  8
0
  6
CONTINUOUS
 62
     7
 10
72.5692902548
 20
114.258817869
 30
0.0
  0
VERTEX
  5
4F9
  8
0
  6
CONTINUOUS
 62
     7
 10
72.596589364
 20
114.2604416299
 30
0.0
  0
VERTEX
  5
4FA
  8
0
  6
CONTINUOUS
 62
     7
 10
72.6266918342
 20
114.2622125398
 30
0.0
  0
SEQEND
  5
714
  8
0
  6
CONTINUOUS
 62
     7
  0
POLYLINE
  5
182
  8
0
  6
CONTINUOUS
 62
     7
 66
     1
 10
0.0
 20
0.0
 30
0.0
 70
   128
  0
VERTEX
  5
4FB
  8
0
  6
CONTINUOUS
 62
     7
 10
72.7799933362
 20
110.238363507
 30
0.0
  0
VERTEX
  5
4FC
  8
0
  6
CONTINUOUS
 62
     7
 10
72.8073126653
 20
110.239602166
 30
0.0
  0
VERTEX
  5
4FD
  8
0
  6
CONTINUOUS
 62
     7
 10
72.8374353045
 20
110.2409870427
 30
0.0
  0
SEQEND
  5
715
  8
0
  6
CONTINUOUS
 62
     7
  0
LINE
  5
183
  8
0
  6
CONTINUOUS
 62
     7
 10
77.0261098939
 20
110.4608927916
 30
0.0
 11
76.8154065432
 21
114.4813471537
 31
0.0
  0
POLYLINE
  5
184
  8
0
  6
CONTINUOUS
 62
     7
 66
     1
 10
0.0
 20
0.0
 30
0.0
 70
   128
  0
VERTEX
  5
4FE
  8
0
  6
CONTINUOUS
 62
     7
 10
77.0261098939
 20
110.4608927916
 30
0.0
  0
VERTEX
  5
4FF
  8
0
  6
CONTINUOUS
 62
     7
 10
76.9988105009
 20
110.4592694964
 30
0.0
  0
VERTEX
  5
500
  8
0
  6
CONTINUOUS
 62
     7
 10
76.9687082926
 20
110.4574981208
 30
0.0
  0
SEQEND
  5
716
  8
0
  6
CONTINUOUS
 62
     7
  0
POLYLINE
  5
185
  8
0
  6
CONTINUOUS
 62
     7
 66
     1
 10
0.0
 20
0.0
 30
0.0
 70
   128
  0
VERTEX
  5
501
  8
0
  6
CONTINUOUS
 62
     7
 10
76.8154065432
 20
114.4813471537
 30
0.0
  0
VERTEX
  5
502
  8
0
  6
CONTINUOUS
 62
     7
 10
76.7880875925
 20
114.4801089603
 30
0.0
  0
VERTEX
  5
503
  8
0
  6
CONTINUOUS
 62
     7
 10
76.7579648952
 20
114.478723618
 30
0.0
  0
SEQEND
  5
717
  8
0
  6
CONTINUOUS
 62
     7
  0
POLYLINE
  5
186
  8
0
  6
CONTINUOUS
 62
     7
 66
     1
 10
0.0
 20
0.0
 30
0.0
 70
   128
  0
VERTEX
  5
504
  8
0
  6
CONTINUOUS
 62
     7
 10
76.9163507345
 20
110.3995828952
 30
0.0
  0
VERTEX
  5
505
  8
0
  6
CONTINUOUS
 62
     7
 10
76.9178198958
 20
110.3694881375
 30
0.0
  0
VERTEX
  5
506
  8
0
  6
CONTINUOUS
 62
     7
 10
76.9191423739
 20
110.3421892102
 30
0.0
  0
SEQEND
  5
718
  8
0
  6
CONTINUOUS
 62
     7
  0
LINE
  5
187
  8
0
  6
CONTINUOUS
 62
     7
 10
72.8987828903
 20
110.1314905162
 30
0.0
 11
76.9191423739
 21
110.3421892102
 31
0.0
  0
POLYLINE
  5
188
  8
0
  6
CONTINUOUS
 62
     7
 66
     1
 10
0.0
 20
0.0
 30
0.0
 70
   128
  0
VERTEX
  5
507
  8
0
  6
CONTINUOUS
 62
     7
 10
72.8987828903
 20
110.1314905162
 30
0.0
  0
VERTEX
  5
508
  8
0
  6
CONTINUOUS
 62
     7
 10
72.8972445201
 20
110.1587782677
 30
0.0
  0
VERTEX
  5
509
  8
0
  6
CONTINUOUS
 62
     7
 10
72.8955595829
 20
110.1888627808
 30
0.0
  0
SEQEND
  5
719
  8
0
  6
CONTINUOUS
 62
     7
  0
POLYLINE
  5
189
  8
0
  6
CONTINUOUS
 62
     7
 66
     1
 10
0.0
 20
0.0
 30
0.0
 70
   128
  0
VERTEX
  5
50A
  8
0
  6
CONTINUOUS
 62
     7
 10
72.6762578403
 20
114.3775219161
 30
0.0
  0
VERTEX
  5
50B
  8
0
  6
CONTINUOUS
 62
     7
 10
72.6775802165
 20
114.3502229888
 30
0.0
  0
VERTEX
  5
50C
  8
0
  6
CONTINUOUS
 62
     7
 10
72.679049145
 20
114.3201277654
 30
0.0
  0
SEQEND
  5
71A
  8
0
  6
CONTINUOUS
 62
     7
  0
LINE
  5
18A
  8
0
  6
CONTINUOUS
 62
     7
 10
76.6966172802
 20
114.5882196787
 30
0.0
 11
72.6762578403
 21
114.3775219161
 31
0.0
  0
POLYLINE
  5
18B
  8
0
  6
CONTINUOUS
 62
     7
 66
     1
 10
0.0
 20
0.0
 30
0.0
 70
   128
  0
VERTEX
  5
50D
  8
0
  6
CONTINUOUS
 62
     7
 10
76.6966172802
 20
114.5882196787
 30
0.0
  0
VERTEX
  5
50E
  8
0
  6
CONTINUOUS
 62
     7
 10
76.6981553594
 20
114.560932393
 30
0.0
  0
VERTEX
  5
50F
  8
0
  6
CONTINUOUS
 62
     7
 10
76.6998405876
 20
114.5308483455
 30
0.0
  0
SEQEND
  5
71B
  8
0
  6
CONTINUOUS
 62
     7
  0
ARC
  5
18C
  8
0
  6
CONTINUOUS
 62
     7
 10
76.7356528279
 20
111.5232169365
 30
0.0
 40
0.1371043557477026
 50
317.9999999997
 51
47.9999999998
  0
ARC
  5
18D
  8
0
  6
CONTINUOUS
 62
     7
 10
73.9610615621
 20
110.4219025817
 30
0.0
 40
0.1371043557477227
 50
227.9999999997
 51
317.9999999997
  0
ARC
  5
18E
  8
0
  6
CONTINUOUS
 62
     7
 10
72.8597472074
 20
113.1964938475
 30
0.0
 40
0.1371043557477026
 50
137.9999999997
 51
227.9999999998
  0
ARC
  5
18F
  8
0
  6
CONTINUOUS
 62
     7
 10
75.6343384732
 20
114.2978082022
 30
0.0
 40
0.1371043557477026
 50
47.9999999997
 51
137.9999999997
  0
ARC
  5
190
  8
0
  6
CONTINUOUS
 62
     7
 10
72.9578160477
 20
111.3252289003
 30
0.0
 40
0.1371043557475597
 50
138.0000000002
 51
228.0000000003
  0
ARC
  5
191
  8
0
  6
CONTINUOUS
 62
     7
 10
73.763073526
 20
114.1997393619
 30
0.0
 40
0.1371043557475692
 50
48.0000000002
 51
138.0000000003
  0
ARC
  5
192
  8
0
  6
CONTINUOUS
 62
     7
 10
75.8323265093
 20
110.5199714221
 30
0.0
 40
0.1371043557475692
 50
228.0000000002
 51
318.0000000003
  0
ARC
  5
193
  8
0
  6
CONTINUOUS
 62
     7
 10
76.6375839875
 20
113.3944818837
 30
0.0
 40
0.1371043557475597
 50
318.0000000002
 51
48.0000000003
  0
ARC
  5
194
  8
0
  6
CONTINUOUS
 62
     7
 10
72.9178486349
 20
110.2721373096
 30
0.0
 40
0.1419322413327169
 50
193.7660055863
 51
262.2801266527
  0
ARC
  5
195
  8
0
  6
CONTINUOUS
 62
     7
 10
76.6775499004
 20
114.4475725592
 30
0.0
 40
0.1419337070400316
 50
13.7661897059
 51
82.2795407186
  0
ARC
  5
196
  8
0
  6
CONTINUOUS
 62
     7
 10
76.8854776599
 20
110.480073224
 30
0.0
 40
0.1419341897376249
 50
283.7204782361
 51
352.233510241
  0
ARC
  5
197
  8
0
  6
CONTINUOUS
 62
     7
 10
72.7099224017
 20
114.2396374407
 30
0.0
 40
0.1419341461904492
 50
103.7204130954
 51
172.2335094856
  0
CIRCLE
  5
198
  8
0
  6
CONTINUOUS
 62
     7
 10
72.9398379539
 20
114.0326819079
 30
0.0
 40
0.0517949192426266
  0
POLYLINE
  5
199
  8
0
  6
CONTINUOUS
 62
     7
 66
     1
 10
0.0
 20
0.0
 30
0.0
 70
   128
  0
VERTEX
  5
510
  8
0
  6
CONTINUOUS
 62
     7
 10
73.8548142678
 20
114.3016279738
 30
0.0
  0
VERTEX
  5
511
  8
0
  6
CONTINUOUS
 62
     7
 10
73.8473448279
 20
114.293332218
 30
0.0
  0
VERTEX
  5
512
  8
0
  6
CONTINUOUS
 62
     7
 10
73.8390750327
 20
114.2841475147
 30
0.0
  0
VERTEX
  5
513
  8
0
  6
CONTINUOUS
 62
     7
 10
73.8301011576
 20
114.2741809662
 30
0.0
  0
VERTEX
  5
514
  8
0
  6
CONTINUOUS
 62
     7
 10
73.8205276272
 20
114.263548522
 30
0.0
  0
VERTEX
  5
515
  8
0
  6
CONTINUOUS
 62
     7
 10
73.8104656181
 20
114.2523735825
 30
0.0
  0
VERTEX
  5
516
  8
0
  6
CONTINUOUS
 62
     7
 10
73.8000322441
 20
114.240786067
 30
0.0
  0
VERTEX
  5
517
  8
0
  6
CONTINUOUS
 62
     7
 10
73.7893490429
 20
114.2289210174
 30
0.0
  0
VERTEX
  5
518
  8
0
  6
CONTINUOUS
 62
     7
 10
73.7785399966
 20
114.2169167351
 30
0.0
  0
SEQEND
  5
71C
  8
0
  6
CONTINUOUS
 62
     7
  0
LINE
  5
19A
  8
0
  6
CONTINUOUS
 62
     7
 10
74.0494779153
 20
113.9729628402
 30
0.0
 11
73.7785399966
 21
114.2169167351
 31
0.0
  0
POLYLINE
  5
19B
  8
0
  6
CONTINUOUS
 62
     7
 66
     1
 10
0.0
 20
0.0
 30
0.0
 70
   128
  0
VERTEX
  5
519
  8
0
  6
CONTINUOUS
 62
     7
 10
74.062949962
 20
110.3301621105
 30
0.0
  0
VERTEX
  5
51A
  8
0
  6
CONTINUOUS
 62
     7
 10
74.0546543226
 20
110.3376313176
 30
0.0
  0
VERTEX
  5
51B
  8
0
  6
CONTINUOUS
 62
     7
 10
74.0454697358
 20
110.345901462
 30
0.0
  0
VERTEX
  5
51C
  8
0
  6
CONTINUOUS
 62
     7
 10
74.0355033037
 20
110.354874755
 30
0.0
  0
VERTEX
  5
51D
  8
0
  6
CONTINUOUS
 62
     7
 10
74.0248707431
 20
110.3644487511
 30
0.0
  0
VERTEX
  5
51E
  8
0
  6
CONTINUOUS
 62
     7
 10
74.0136958035
 20
110.3745107602
 30
0.0
  0
VERTEX
  5
51F
  8
0
  6
CONTINUOUS
 62
     7
 10
74.0021084045
 20
110.3849434357
 30
0.0
  0
VERTEX
  5
520
  8
0
  6
CONTINUOUS
 62
     7
 10
73.9902434713
 20
110.3956275682
 30
0.0
  0
VERTEX
  5
521
  8
0
  6
CONTINUOUS
 62
     7
 10
73.9782387233
 20
110.406436498
 30
0.0
  0
SEQEND
  5
71D
  8
0
  6
CONTINUOUS
 62
     7
  0
LINE
  5
19C
  8
0
  6
CONTINUOUS
 62
     7
 10
73.9782387233
 20
110.406436498
 30
0.0
 11
74.2221923853
 21
110.6773740675
 31
0.0
  0
POLYLINE
  5
19D
  8
0
  6
CONTINUOUS
 62
     7
 66
     1
 10
0.0
 20
0.0
 30
0.0
 70
   128
  0
VERTEX
  5
522
  8
0
  6
CONTINUOUS
 62
     7
 10
76.8273935961
 20
111.6251051489
 30
0.0
  0
VERTEX
  5
523
  8
0
  6
CONTINUOUS
 62
     7
 10
76.8199239234
 20
111.6168098587
 30
0.0
  0
VERTEX
  5
524
  8
0
  6
CONTINUOUS
 62
     7
 10
76.8116542446
 20
111.6076251555
 30
0.0
  0
VERTEX
  5
525
  8
0
  6
CONTINUOUS
 62
     7
 10
76.8026804859
 20
111.597658607
 30
0.0
  0
VERTEX
  5
526
  8
0
  6
CONTINUOUS
 62
     7
 10
76.7931069555
 20
111.5870261628
 30
0.0
  0
VERTEX
  5
527
  8
0
  6
CONTINUOUS
 62
     7
 10
76.7830449464
 20
111.5758512232
 30
0.0
  0
VERTEX
  5
528
  8
0
  6
CONTINUOUS
 62
     7
 10
76.7726118053
 20
111.5642637077
 30
0.0
  0
VERTEX
  5
529
  8
0
  6
CONTINUOUS
 62
     7
 10
76.7619281384
 20
111.5523986581
 30
0.0
  0
VERTEX
  5
52A
  8
0
  6
CONTINUOUS
 62
     7
 10
76.7511192086
 20
111.5403943758
 30
0.0
  0
SEQEND
  5
71E
  8
0
  6
CONTINUOUS
 62
     7
  0
LINE
  5
19E
  8
0
  6
CONTINUOUS
 62
     7
 10
76.7511192086
 20
111.5403943758
 30
0.0
 11
76.4801811735
 21
111.784347805
 31
0.0
  0
POLYLINE
  5
19F
  8
0
  6
CONTINUOUS
 62
     7
 66
     1
 10
0.0
 20
0.0
 30
0.0
 70
   128
  0
VERTEX
  5
52B
  8
0
  6
CONTINUOUS
 62
     7
 10
75.5324500921
 20
114.3895490158
 30
0.0
  0
VERTEX
  5
52C
  8
0
  6
CONTINUOUS
 62
     7
 10
75.5407458479
 20
114.3820793431
 30
0.0
  0
VERTEX
  5
52D
  8
0
  6
CONTINUOUS
 62
     7
 10
75.5499303183
 20
114.3738096643
 30
0.0
  0
VERTEX
  5
52E
  8
0
  6
CONTINUOUS
 62
     7
 10
75.559896634
 20
114.3648359056
 30
0.0
  0
VERTEX
  5
52F
  8
0
  6
CONTINUOUS
 62
     7
 10
75.570529311
 20
114.3552623752
 30
0.0
  0
VERTEX
  5
530
  8
0
  6
CONTINUOUS
 62
     7
 10
75.5817042506
 20
114.3452003661
 30
0.0
  0
VERTEX
  5
531
  8
0
  6
CONTINUOUS
 62
     7
 10
75.5932915332
 20
114.3347667593
 30
0.0
  0
VERTEX
  5
532
  8
0
  6
CONTINUOUS
 62
     7
 10
75.6051565828
 20
114.3240835581
 30
0.0
  0
VERTEX
  5
533
  8
0
  6
CONTINUOUS
 62
     7
 10
75.6171613308
 20
114.3132746283
 30
0.0
  0
SEQEND
  5
71F
  8
0
  6
CONTINUOUS
 62
     7
  0
LINE
  5
1A0
  8
0
  6
CONTINUOUS
 62
     7
 10
75.6171613308
 20
114.3132746283
 30
0.0
 11
75.3732076688
 21
114.0423365932
 31
0.0
  0
POLYLINE
  5
1A1
  8
0
  6
CONTINUOUS
 62
     7
 66
     1
 10
0.0
 20
0.0
 30
0.0
 70
   128
  0
VERTEX
  5
534
  8
0
  6
CONTINUOUS
 62
     7
 10
72.7680064871
 20
113.0946055118
 30
0.0
  0
VERTEX
  5
535
  8
0
  6
CONTINUOUS
 62
     7
 10
72.7754759561
 20
113.1029012676
 30
0.0
  0
VERTEX
  5
536
  8
0
  6
CONTINUOUS
 62
     7
 10
72.7837456931
 20
113.1120855052
 30
0.0
  0
VERTEX
  5
537
  8
0
  6
CONTINUOUS
 62
     7
 10
72.7927195682
 20
113.1220520537
 30
0.0
  0
VERTEX
  5
538
  8
0
  6
CONTINUOUS
 62
     7
 10
72.8022931568
 20
113.1326844979
 30
0.0
  0
VERTEX
  5
539
  8
0
  6
CONTINUOUS
 62
     7
 10
72.8123551368
 20
113.1438594374
 30
0.0
  0
VERTEX
  5
53A
  8
0
  6
CONTINUOUS
 62
     7
 10
72.8227884525
 20
113.1554469529
 30
0.0
  0
VERTEX
  5
53B
  8
0
  6
CONTINUOUS
 62
     7
 10
72.8334717411
 20
113.1673120025
 30
0.0
  0
VERTEX
  5
53C
  8
0
  6
CONTINUOUS
 62
     7
 10
72.8442807582
 20
113.1793167505
 30
0.0
  0
SEQEND
  5
720
  8
0
  6
CONTINUOUS
 62
     7
  0
LINE
  5
1A2
  8
0
  6
CONTINUOUS
 62
     7
 10
72.8442807582
 20
113.1793167505
 30
0.0
 11
73.1152187642
 21
112.9353628557
 31
0.0
  0
POLYLINE
  5
1A3
  8
0
  6
CONTINUOUS
 62
     7
 66
     1
 10
0.0
 20
0.0
 30
0.0
 70
   128
  0
VERTEX
  5
53D
  8
0
  6
CONTINUOUS
 62
     7
 10
76.7394725541
 20
113.302741206
 30
0.0
  0
VERTEX
  5
53E
  8
0
  6
CONTINUOUS
 62
     7
 10
76.7311767983
 20
113.3102104131
 30
0.0
  0
VERTEX
  5
53F
  8
0
  6
CONTINUOUS
 62
     7
 10
76.721992095
 20
113.3184805575
 30
0.0
  0
VERTEX
  5
540
  8
0
  6
CONTINUOUS
 62
     7
 10
76.7120255465
 20
113.3274543162
 30
0.0
  0
VERTEX
  5
541
  8
0
  6
CONTINUOUS
 62
     7
 10
76.7013931023
 20
113.3370278466
 30
0.0
  0
VERTEX
  5
542
  8
0
  6
CONTINUOUS
 62
     7
 10
76.6902181628
 20
113.3470898557
 30
0.0
  0
VERTEX
  5
543
  8
0
  6
CONTINUOUS
 62
     7
 10
76.6786306473
 20
113.3575229968
 30
0.0
  0
VERTEX
  5
544
  8
0
  6
CONTINUOUS
 62
     7
 10
76.6667660634
 20
113.3682061981
 30
0.0
  0
VERTEX
  5
545
  8
0
  6
CONTINUOUS
 62
     7
 10
76.6547613154
 20
113.3790155936
 30
0.0
  0
SEQEND
  5
721
  8
0
  6
CONTINUOUS
 62
     7
  0
LINE
  5
1A4
  8
0
  6
CONTINUOUS
 62
     7
 10
76.4108074205
 20
113.1080775585
 30
0.0
 11
76.6547613154
 21
113.3790155936
 31
0.0
  0
POLYLINE
  5
1A5
  8
0
  6
CONTINUOUS
 62
     7
 66
     1
 10
0.0
 20
0.0
 30
0.0
 70
   128
  0
VERTEX
  5
546
  8
0
  6
CONTINUOUS
 62
     7
 10
75.8168601739
 20
110.5027939256
 30
0.0
  0
VERTEX
  5
547
  8
0
  6
CONTINUOUS
 62
     7
 10
75.8060510112
 20
110.4907891776
 30
0.0
  0
VERTEX
  5
548
  8
0
  6
CONTINUOUS
 62
     7
 10
75.79536781
 20
110.478924128
 30
0.0
  0
VERTEX
  5
549
  8
0
  6
CONTINUOUS
 62
     7
 10
75.784934436
 20
110.4673375438
 30
0.0
  0
VERTEX
  5
54A
  8
0
  6
CONTINUOUS
 62
     7
 10
75.7748724269
 20
110.4561626043
 30
0.0
  0
VERTEX
  5
54B
  8
0
  6
CONTINUOUS
 62
     7
 10
75.7652988965
 20
110.4455296944
 30
0.0
  0
VERTEX
  5
54C
  8
0
  6
CONTINUOUS
 62
     7
 10
75.756324905
 20
110.4355636116
 30
0.0
  0
VERTEX
  5
54D
  8
0
  6
CONTINUOUS
 62
     7
 10
75.7480552262
 20
110.4263789083
 30
0.0
  0
VERTEX
  5
54E
  8
0
  6
CONTINUOUS
 62
     7
 10
75.7405857863
 20
110.4180826868
 30
0.0
  0
SEQEND
  5
722
  8
0
  6
CONTINUOUS
 62
     7
  0
LINE
  5
1A6
  8
0
  6
CONTINUOUS
 62
     7
 10
75.5459221388
 20
110.7467482861
 30
0.0
 11
75.8168601739
 21
110.5027939256
 31
0.0
  0
POLYLINE
  5
1A7
  8
0
  6
CONTINUOUS
 62
     7
 66
     1
 10
0.0
 20
0.0
 30
0.0
 70
   128
  0
VERTEX
  5
54F
  8
0
  6
CONTINUOUS
 62
     7
 10
72.8559276455
 20
111.4169694546
 30
0.0
  0
VERTEX
  5
550
  8
0
  6
CONTINUOUS
 62
     7
 10
72.864223314
 20
111.4095002476
 30
0.0
  0
VERTEX
  5
551
  8
0
  6
CONTINUOUS
 62
     7
 10
72.8734078135
 20
111.4012305688
 30
0.0
  0
VERTEX
  5
552
  8
0
  6
CONTINUOUS
 62
     7
 10
72.8833743039
 20
111.3922563444
 30
0.0
  0
VERTEX
  5
553
  8
0
  6
CONTINUOUS
 62
     7
 10
72.8940068644
 20
111.382682814
 30
0.0
  0
VERTEX
  5
554
  8
0
  6
CONTINUOUS
 62
     7
 10
72.905181804
 20
111.3726208049
 30
0.0
  0
VERTEX
  5
555
  8
0
  6
CONTINUOUS
 62
     7
 10
72.916769174
 20
111.3621876638
 30
0.0
  0
VERTEX
  5
556
  8
0
  6
CONTINUOUS
 62
     7
 10
72.9286341945
 20
111.3515044625
 30
0.0
  0
VERTEX
  5
557
  8
0
  6
CONTINUOUS
 62
     7
 10
72.940638826
 20
111.3406955327
 30
0.0
  0
SEQEND
  5
723
  8
0
  6
CONTINUOUS
 62
     7
  0
LINE
  5
1A8
  8
0
  6
CONTINUOUS
 62
     7
 10
73.1845924589
 20
111.6116331022
 30
0.0
 11
72.940638826
 21
111.3406955327
 31
0.0
  0
LINE
  5
1A9
  8
0
  6
CONTINUOUS
 62
     7
 10
72.4119263929
 20
114.3274540145
 30
0.0
 11
72.4125048461
 21
114.3670445371
 31
0.0
  0
POLYLINE
  5
1AA
  8
0
  6
CONTINUOUS
 62
     7
 66
     1
 10
0.0
 20
0.0
 30
0.0
 70
   128
  0
VERTEX
  5
558
  8
0
  6
CONTINUOUS
 62
     7
 10
72.4125048461
 20
114.3670445371
 30
0.0
  0
VERTEX
  5
559
  8
0
  6
CONTINUOUS
 62
     7
 10
72.4274998744
 20
114.4205103691
 30
0.0
  0
VERTEX
  5
55A
  8
0
  6
CONTINUOUS
 62
     7
 10
72.4577575389
 20
114.466749138
 30
0.0
  0
SEQEND
  5
724
  8
0
  6
CONTINUOUS
 62
     7
  0
ARC
  5
1AB
  8
0
  6
CONTINUOUS
 62
     7
 10
72.5932826462
 20
114.3441435829
 30
0.0
 40
0.1827544167387706
 50
90.5592741374
 51
137.8652877805
  0
LINE
  5
1AC
  8
0
  6
CONTINUOUS
 62
     7
 10
72.5914987767
 20
114.5268892932
 30
0.0
 11
72.6762578403
 21
114.3775219161
 31
0.0
  0
LINE
  5
1AD
  8
0
  6
CONTINUOUS
 62
     7
 10
72.5692901675
 20
114.258817869
 30
0.0
 11
72.4119263929
 21
114.3274540145
 31
0.0
  0
LINE
  5
1AE
  8
0
  6
CONTINUOUS
 62
     7
 10
77.1834736066
 20
110.3922571119
 30
0.0
 11
77.1828952553
 21
110.3526665892
 31
0.0
  0
POLYLINE
  5
1AF
  8
0
  6
CONTINUOUS
 62
     7
 66
     1
 10
0.0
 20
0.0
 30
0.0
 70
   128
  0
VERTEX
  5
55B
  8
0
  6
CONTINUOUS
 62
     7
 10
77.1828952553
 20
110.3526665892
 30
0.0
  0
VERTEX
  5
55C
  8
0
  6
CONTINUOUS
 62
     7
 10
77.1679000305
 20
110.2992002915
 30
0.0
  0
VERTEX
  5
55D
  8
0
  6
CONTINUOUS
 62
     7
 10
77.1376422914
 20
110.2529619883
 30
0.0
  0
SEQEND
  5
725
  8
0
  6
CONTINUOUS
 62
     7
  0
ARC
  5
1B0
  8
0
  6
CONTINUOUS
 62
     7
 10
77.0021153461
 20
110.3755687993
 30
0.0
 40
0.1827566223065741
 50
270.559861342
 51
317.8653824011
  0
LINE
  5
1B1
  8
0
  6
CONTINUOUS
 62
     7
 10
77.0039011101
 20
110.1928209018
 30
0.0
 11
76.9191423739
 21
110.3421892102
 31
0.0
  0
LINE
  5
1B2
  8
0
  6
CONTINUOUS
 62
     7
 10
77.0261098939
 20
110.4608927916
 30
0.0
 11
77.1834736066
 21
110.3922571119
 31
0.0
  0
LINE
  5
1B3
  8
0
  6
CONTINUOUS
 62
     7
 10
72.6306659768
 20
110.1536541309
 30
0.0
 11
72.7799932489
 21
110.238363507
 31
0.0
  0
LINE
  5
1B4
  8
0
  6
CONTINUOUS
 62
     7
 10
72.8301013138
 20
109.9740821
 30
0.0
 11
72.8987828903
 21
110.1314905162
 31
0.0
  0
LINE
  5
1B5
  8
0
  6
CONTINUOUS
 62
     7
 10
72.7905110531
 20
109.9746604513
 30
0.0
 11
72.8301013138
 21
109.9740821
 31
0.0
  0
POLYLINE
  5
1B6
  8
0
  6
CONTINUOUS
 62
     7
 66
     1
 10
0.0
 20
0.0
 30
0.0
 70
   128
  0
VERTEX
  5
55E
  8
0
  6
CONTINUOUS
 62
     7
 10
72.6908063504
 20
110.0199124839
 30
0.0
  0
VERTEX
  5
55F
  8
0
  6
CONTINUOUS
 62
     7
 10
72.7370449882
 20
109.9896556761
 30
0.0
  0
VERTEX
  5
560
  8
0
  6
CONTINUOUS
 62
     7
 10
72.7905110531
 20
109.9746604513
 30
0.0
  0
SEQEND
  5
726
  8
0
  6
CONTINUOUS
 62
     7
  0
ARC
  5
1B7
  8
0
  6
CONTINUOUS
 62
     7
 10
72.8134100605
 20
110.1554370543
 30
0.0
 40
0.1827527809574743
 50
180.5589825183
 51
227.8656038017
  0
LINE
  5
1B8
  8
0
  6
CONTINUOUS
 62
     7
 10
76.8154070089
 20
114.4813471537
 30
0.0
 11
76.9647338735
 21
114.5660565298
 31
0.0
  0
LINE
  5
1B9
  8
0
  6
CONTINUOUS
 62
     7
 10
76.7652985948
 20
114.7456290263
 30
0.0
 11
76.6966172802
 21
114.5882196787
 31
0.0
  0
LINE
  5
1BA
  8
0
  6
CONTINUOUS
 62
     7
 10
76.8048891174
 20
114.745050675
 30
0.0
 11
76.7652985948
 21
114.7456290263
 31
0.0
  0
POLYLINE
  5
1BB
  8
0
  6
CONTINUOUS
 62
     7
 66
     1
 10
0.0
 20
0.0
 30
0.0
 70
   128
  0
VERTEX
  5
561
  8
0
  6
CONTINUOUS
 62
     7
 10
76.9045937183
 20
114.6997977111
 30
0.0
  0
VERTEX
  5
562
  8
0
  6
CONTINUOUS
 62
     7
 10
76.8583549494
 20
114.7300554502
 30
0.0
  0
VERTEX
  5
563
  8
0
  6
CONTINUOUS
 62
     7
 10
76.8048891174
 20
114.745050675
 30
0.0
  0
SEQEND
  5
727
  8
0
  6
CONTINUOUS
 62
     7
  0
ARC
  5
1BC
  8
0
  6
CONTINUOUS
 62
     7
 10
76.7819903984
 20
114.5642736082
 30
0.0
 40
0.1827521724354654
 50
0.5589837921
 51
47.8655961975
  0
LINE
  5
1BD
  8
0
  6
CONTINUOUS
 62
     7
 10
76.7652985948
 20
114.7456290263
 30
0.0
 11
76.6886507469
 21
114.7416122321
 31
0.0
  0
LINE
  5
1BE
  8
0
  6
CONTINUOUS
 62
     7
 10
76.6886507469
 20
114.7416122321
 30
0.0
 11
72.5914987767
 21
114.5268892932
 31
0.0
  0
LINE
  5
1BF
  8
0
  6
CONTINUOUS
 62
     7
 10
72.9067491326
 20
109.9780988942
 30
0.0
 11
77.0039011101
 21
110.1928209018
 31
0.0
  0
LINE
  5
1C0
  8
0
  6
CONTINUOUS
 62
     7
 10
72.8301013138
 20
109.9740821
 30
0.0
 11
72.9067491326
 21
109.9780988942
 31
0.0
  0
LINE
  5
1C1
  8
0
  6
CONTINUOUS
 62
     7
 10
72.4159433363
 20
114.2508061666
 30
0.0
 11
72.6306659768
 21
110.1536541309
 31
0.0
  0
LINE
  5
1C2
  8
0
  6
CONTINUOUS
 62
     7
 10
72.4119263929
 20
114.3274540145
 30
0.0
 11
72.4159433363
 21
114.2508061666
 31
0.0
  0
LINE
  5
1C3
  8
0
  6
CONTINUOUS
 62
     7
 10
76.9647338735
 20
114.5660565298
 30
0.0
 11
77.1794568124
 21
110.4689049597
 31
0.0
  0
LINE
  5
1C4
  8
0
  6
CONTINUOUS
 62
     7
 10
77.1794568124
 20
110.4689049597
 30
0.0
 11
77.1834736066
 21
110.3922571119
 31
0.0
  0
POLYLINE
  5
1C5
  8
0
  6
CONTINUOUS
 62
     7
 66
     1
 10
0.0
 20
0.0
 30
0.0
 70
   128
  0
VERTEX
  5
564
  8
0
  6
CONTINUOUS
 62
     7
 10
73.8693208974
 20
110.3200144197
 30
0.0
  0
VERTEX
  5
565
  8
0
  6
CONTINUOUS
 62
     7
 10
73.8767903373
 20
110.3283097099
 30
0.0
  0
VERTEX
  5
566
  8
0
  6
CONTINUOUS
 62
     7
 10
73.8850600161
 20
110.3374944131
 30
0.0
  0
VERTEX
  5
567
  8
0
  6
CONTINUOUS
 62
     7
 10
73.8940338912
 20
110.347460496
 30
0.0
  0
VERTEX
  5
568
  8
0
  6
CONTINUOUS
 62
     7
 10
73.903607538
 20
110.3580934058
 30
0.0
  0
VERTEX
  5
569
  8
0
  6
CONTINUOUS
 62
     7
 10
73.9136694307
 20
110.3692683454
 30
0.0
  0
VERTEX
  5
56A
  8
0
  6
CONTINUOUS
 62
     7
 10
73.9241028047
 20
110.3808558609
 30
0.0
  0
VERTEX
  5
56B
  8
0
  6
CONTINUOUS
 62
     7
 10
73.9347861223
 20
110.3927209105
 30
0.0
  0
VERTEX
  5
56C
  8
0
  6
CONTINUOUS
 62
     7
 10
73.9455951686
 20
110.4047256585
 30
0.0
  0
SEQEND
  5
728
  8
0
  6
CONTINUOUS
 62
     7
  0
ARC
  5
1C6
  8
0
  6
CONTINUOUS
 62
     7
 10
73.9610615621
 20
110.4219025817
 30
0.0
 40
0.0231142245961124
 50
227.9999999982
 51
317.9999999989
  0
POLYLINE
  5
1C7
  8
0
  6
CONTINUOUS
 62
     7
 66
     1
 10
0.0
 20
0.0
 30
0.0
 70
   128
  0
VERTEX
  5
56D
  8
0
  6
CONTINUOUS
 62
     7
 10
75.9342149673
 20
110.4282303776
 30
0.0
  0
VERTEX
  5
56E
  8
0
  6
CONTINUOUS
 62
     7
 10
75.9259192115
 20
110.435700516
 30
0.0
  0
VERTEX
  5
56F
  8
0
  6
CONTINUOUS
 62
     7
 10
75.9167347411
 20
110.4439697291
 30
0.0
  0
VERTEX
  5
570
  8
0
  6
CONTINUOUS
 62
     7
 10
75.9067681926
 20
110.4529439535
 30
0.0
  0
VERTEX
  5
571
  8
0
  6
CONTINUOUS
 62
     7
 10
75.8961357484
 20
110.4625170182
 30
0.0
  0
VERTEX
  5
572
  8
0
  6
CONTINUOUS
 62
     7
 10
75.8849608088
 20
110.4725790273
 30
0.0
  0
VERTEX
  5
573
  8
0
  6
CONTINUOUS
 62
     7
 10
75.8733732934
 20
110.4830126341
 30
0.0
  0
VERTEX
  5
574
  8
0
  6
CONTINUOUS
 62
     7
 10
75.8615084766
 20
110.4936958354
 30
0.0
  0
VERTEX
  5
575
  8
0
  6
CONTINUOUS
 62
     7
 10
75.8495037286
 20
110.5045047652
 30
0.0
  0
SEQEND
  5
729
  8
0
  6
CONTINUOUS
 62
     7
  0
ARC
  5
1C8
  8
0
  6
CONTINUOUS
 62
     7
 10
75.8323265093
 20
110.5199714221
 30
0.0
 40
0.0231142245960816
 50
228.0000000005
 51
318.000000001
  0
POLYLINE
  5
1C9
  8
0
  6
CONTINUOUS
 62
     7
 66
     1
 10
0.0
 20
0.0
 30
0.0
 70
   128
  0
VERTEX
  5
576
  8
0
  6
CONTINUOUS
 62
     7
 10
72.8660753363
 20
111.2233405064
 30
0.0
  0
VERTEX
  5
577
  8
0
  6
CONTINUOUS
 62
     7
 10
72.8735447762
 20
111.2316362623
 30
0.0
  0
VERTEX
  5
578
  8
0
  6
CONTINUOUS
 62
     7
 10
72.8818145423
 20
111.2408204998
 30
0.0
  0
VERTEX
  5
579
  8
0
  6
CONTINUOUS
 62
     7
 10
72.8907884174
 20
111.2507870484
 30
0.0
  0
VERTEX
  5
57A
  8
0
  6
CONTINUOUS
 62
     7
 10
72.900362006
 20
111.2614194925
 30
0.0
  0
VERTEX
  5
57B
  8
0
  6
CONTINUOUS
 62
     7
 10
72.910423986
 20
111.2725948978
 30
0.0
  0
VERTEX
  5
57C
  8
0
  6
CONTINUOUS
 62
     7
 10
72.9208572726
 20
111.2841819476
 30
0.0
  0
VERTEX
  5
57D
  8
0
  6
CONTINUOUS
 62
     7
 10
72.9315405903
 20
111.2960469972
 30
0.0
  0
VERTEX
  5
57E
  8
0
  6
CONTINUOUS
 62
     7
 10
72.9423496074
 20
111.3080517452
 30
0.0
  0
SEQEND
  5
72A
  8
0
  6
CONTINUOUS
 62
     7
  0
LINE
  5
1CA
  8
0
  6
CONTINUOUS
 62
     7
 10
72.9423496074
 20
111.3080517452
 30
0.0
 11
73.9455951686
 21
110.4047256585
 31
0.0
  0
POLYLINE
  5
1CB
  8
0
  6
CONTINUOUS
 62
     7
 66
     1
 10
0.0
 20
0.0
 30
0.0
 70
   128
  0
VERTEX
  5
57F
  8
0
  6
CONTINUOUS
 62
     7
 10
76.8375412869
 20
111.4314762007
 30
0.0
  0
VERTEX
  5
580
  8
0
  6
CONTINUOUS
 62
     7
 10
76.829245531
 20
111.4389458734
 30
0.0
  0
VERTEX
  5
581
  8
0
  6
CONTINUOUS
 62
     7
 10
76.8200608278
 20
111.4472155522
 30
0.0
  0
VERTEX
  5
582
  8
0
  6
CONTINUOUS
 62
     7
 10
76.8100947449
 20
111.4561893109
 30
0.0
  0
VERTEX
  5
583
  8
0
  6
CONTINUOUS
 62
     7
 10
76.7994618351
 20
111.4657628413
 30
0.0
  0
VERTEX
  5
584
  8
0
  6
CONTINUOUS
 62
     7
 10
76.7882868955
 20
111.4758248504
 30
0.0
  0
VERTEX
  5
585
  8
0
  6
CONTINUOUS
 62
     7
 10
76.7766998457
 20
111.4862579915
 30
0.0
  0
VERTEX
  5
586
  8
0
  6
CONTINUOUS
 62
     7
 10
76.7648347961
 20
111.4969416584
 30
0.0
  0
VERTEX
  5
587
  8
0
  6
CONTINUOUS
 62
     7
 10
76.7528300481
 20
111.5077505882
 30
0.0
  0
SEQEND
  5
72B
  8
0
  6
CONTINUOUS
 62
     7
  0
LINE
  5
1CC
  8
0
  6
CONTINUOUS
 62
     7
 10
75.8495037286
 20
110.5045047652
 30
0.0
 11
76.7528300481
 21
111.5077505882
 31
0.0
  0
ARC
  5
1CD
  8
0
  6
CONTINUOUS
 62
     7
 10
72.9578160477
 20
111.3252289003
 30
0.0
 40
0.0231142245960911
 50
138.0000000003
 51
228.000000001
  0
ARC
  5
1CE
  8
0
  6
CONTINUOUS
 62
     7
 10
76.7356528279
 20
111.5232169365
 30
0.0
 40
0.023114224596123
 50
317.9999999982
 51
47.9999999989
  0
POLYLINE
  5
1CF
  8
0
  6
CONTINUOUS
 62
     7
 66
     1
 10
0.0
 20
0.0
 30
0.0
 70
   128
  0
VERTEX
  5
588
  8
0
  6
CONTINUOUS
 62
     7
 10
72.7578588254
 20
113.2882344599
 30
0.0
  0
VERTEX
  5
589
  8
0
  6
CONTINUOUS
 62
     7
 10
72.766154494
 20
113.2807652529
 30
0.0
  0
VERTEX
  5
58A
  8
0
  6
CONTINUOUS
 62
     7
 10
72.7753389935
 20
113.2724955741
 30
0.0
  0
VERTEX
  5
58B
  8
0
  6
CONTINUOUS
 62
     7
 10
72.7853054547
 20
113.2635213498
 30
0.0
  0
VERTEX
  5
58C
  8
0
  6
CONTINUOUS
 62
     7
 10
72.7959380153
 20
113.2539478194
 30
0.0
  0
VERTEX
  5
58D
  8
0
  6
CONTINUOUS
 62
     7
 10
72.8071129839
 20
113.2438858103
 30
0.0
  0
VERTEX
  5
58E
  8
0
  6
CONTINUOUS
 62
     7
 10
72.8187003539
 20
113.2334526691
 30
0.0
  0
VERTEX
  5
58F
  8
0
  6
CONTINUOUS
 62
     7
 10
72.8305653453
 20
113.2227694679
 30
0.0
  0
VERTEX
  5
590
  8
0
  6
CONTINUOUS
 62
     7
 10
72.8425699769
 20
113.2119600724
 30
0.0
  0
SEQEND
  5
72C
  8
0
  6
CONTINUOUS
 62
     7
  0
ARC
  5
1D0
  8
0
  6
CONTINUOUS
 62
     7
 10
72.8597472074
 20
113.1964938475
 30
0.0
 40
0.0231142245961325
 50
137.9999999982
 51
227.9999999989
  0
POLYLINE
  5
1D1
  8
0
  6
CONTINUOUS
 62
     7
 66
     1
 10
0.0
 20
0.0
 30
0.0
 70
   128
  0
VERTEX
  5
591
  8
0
  6
CONTINUOUS
 62
     7
 10
73.6611850868
 20
114.291480283
 30
0.0
  0
VERTEX
  5
592
  8
0
  6
CONTINUOUS
 62
     7
 10
73.6694808426
 20
114.2840106103
 30
0.0
  0
VERTEX
  5
593
  8
0
  6
CONTINUOUS
 62
     7
 10
73.678665313
 20
114.2757409315
 30
0.0
  0
VERTEX
  5
594
  8
0
  6
CONTINUOUS
 62
     7
 10
73.6886317451
 20
114.2667671728
 30
0.0
  0
VERTEX
  5
595
  8
0
  6
CONTINUOUS
 62
     7
 10
73.6992643057
 20
114.2571931768
 30
0.0
  0
VERTEX
  5
596
  8
0
  6
CONTINUOUS
 62
     7
 10
73.7104392453
 20
114.2471316333
 30
0.0
  0
VERTEX
  5
597
  8
0
  6
CONTINUOUS
 62
     7
 10
73.7220266443
 20
114.2366980265
 30
0.0
  0
VERTEX
  5
598
  8
0
  6
CONTINUOUS
 62
     7
 10
73.7338916939
 20
114.2260148253
 30
0.0
  0
VERTEX
  5
599
  8
0
  6
CONTINUOUS
 62
     7
 10
73.7458963255
 20
114.2152058955
 30
0.0
  0
SEQEND
  5
72D
  8
0
  6
CONTINUOUS
 62
     7
  0
LINE
  5
1D2
  8
0
  6
CONTINUOUS
 62
     7
 10
73.7458963255
 20
114.2152058955
 30
0.0
 11
72.8425699769
 21
113.2119600724
 31
0.0
  0
POLYLINE
  5
1D3
  8
0
  6
CONTINUOUS
 62
     7
 66
     1
 10
0.0
 20
0.0
 30
0.0
 70
   128
  0
VERTEX
  5
59A
  8
0
  6
CONTINUOUS
 62
     7
 10
75.7260792731
 20
114.3996967066
 30
0.0
  0
VERTEX
  5
59B
  8
0
  6
CONTINUOUS
 62
     7
 10
75.7186098332
 20
114.3914009507
 30
0.0
  0
VERTEX
  5
59C
  8
0
  6
CONTINUOUS
 62
     7
 10
75.7103399216
 20
114.3822162475
 30
0.0
  0
VERTEX
  5
59D
  8
0
  6
CONTINUOUS
 62
     7
 10
75.7013661629
 20
114.3722501646
 30
0.0
  0
VERTEX
  5
59E
  8
0
  6
CONTINUOUS
 62
     7
 10
75.6917926325
 20
114.3616172548
 30
0.0
  0
VERTEX
  5
59F
  8
0
  6
CONTINUOUS
 62
     7
 10
75.6817306234
 20
114.3504423152
 30
0.0
  0
VERTEX
  5
5A0
  8
0
  6
CONTINUOUS
 62
     7
 10
75.6712972494
 20
114.3388552654
 30
0.0
  0
VERTEX
  5
5A1
  8
0
  6
CONTINUOUS
 62
     7
 10
75.6606140482
 20
114.3269902158
 30
0.0
  0
VERTEX
  5
5A2
  8
0
  6
CONTINUOUS
 62
     7
 10
75.6498048855
 20
114.3149854678
 30
0.0
  0
SEQEND
  5
72E
  8
0
  6
CONTINUOUS
 62
     7
  0
POLYLINE
  5
1D4
  8
0
  6
CONTINUOUS
 62
     7
 66
     1
 10
0.0
 20
0.0
 30
0.0
 70
   128
  0
VERTEX
  5
5A3
  8
0
  6
CONTINUOUS
 62
     7
 10
76.7293248633
 20
113.4963701542
 30
0.0
  0
VERTEX
  5
5A4
  8
0
  6
CONTINUOUS
 62
     7
 10
76.7218551906
 20
113.4880743984
 30
0.0
  0
VERTEX
  5
5A5
  8
0
  6
CONTINUOUS
 62
     7
 10
76.7135855118
 20
113.4788901608
 30
0.0
  0
VERTEX
  5
5A6
  8
0
  6
CONTINUOUS
 62
     7
 10
76.7046117532
 20
113.4689236123
 30
0.0
  0
VERTEX
  5
5A7
  8
0
  6
CONTINUOUS
 62
     7
 10
76.6950382228
 20
113.4582911681
 30
0.0
  0
VERTEX
  5
5A8
  8
0
  6
CONTINUOUS
 62
     7
 10
76.6849762137
 20
113.4471162285
 30
0.0
  0
VERTEX
  5
5A9
  8
0
  6
CONTINUOUS
 62
     7
 10
76.6745426069
 20
113.4355287131
 30
0.0
  0
VERTEX
  5
5AA
  8
0
  6
CONTINUOUS
 62
     7
 10
76.6638594056
 20
113.4236636635
 30
0.0
  0
VERTEX
  5
5AB
  8
0
  6
CONTINUOUS
 62
     7
 10
76.6530504758
 20
113.4116589155
 30
0.0
  0
SEQEND
  5
72F
  8
0
  6
CONTINUOUS
 62
     7
  0
LINE
  5
1D5
  8
0
  6
CONTINUOUS
 62
     7
 10
76.6530504758
 20
113.4116589155
 30
0.0
 11
75.6498048855
 21
114.3149854678
 31
0.0
  0
ARC
  5
1D6
  8
0
  6
CONTINUOUS
 62
     7
 10
76.6375839875
 20
113.3944818837
 30
0.0
 40
0.0231142245961016
 50
318.0000000003
 51
48.000000001
  0
ARC
  5
1D7
  8
0
  6
CONTINUOUS
 62
     7
 10
75.6343384732
 20
114.2978082022
 30
0.0
 40
0.023114224596122
 50
47.9999999982
 51
137.9999999989
  0
ARC
  5
1D8
  8
0
  6
CONTINUOUS
 62
     7
 10
73.763073526
 20
114.1997393619
 30
0.0
 40
0.0231142245961027
 50
48.0000000004
 51
138.0000000011
  0
CIRCLE
  5
1D9
  8
0
  6
CONTINUOUS
 62
     7
 10
74.7977000176
 20
112.359855392
 30
0.0
 40
1.738187903640669
  0
CIRCLE
  5
1DA
  8
0
  6
CONTINUOUS
 62
     7
 10
74.7977000176
 20
112.359855392
 30
0.0
 40
1.708187903616936
  0
ARC
  5
1DB
  8
0
  6
CONTINUOUS
 62
     7
 10
77.4251160836
 20
109.9941175248
 30
0.0
 40
0.599996569318402
 50
272.9993655347
 51
318.0000924134
  0
LINE
  5
1DC
  8
0
  6
CONTINUOUS
 62
     7
 10
77.4565075832
 20
109.3949428822
 30
0.0
 11
77.2359275567
 21
109.8794103663
 31
0.0
  0
LINE
  5
1DD
  8
0
  6
CONTINUOUS
 62
     7
 10
77.235927091
 20
109.8794103663
 30
0.0
 11
77.3645008291
 21
109.9095246818
 31
0.0
  0
LINE
  5
1DE
  8
0
  6
CONTINUOUS
 62
     7
 10
77.3645012947
 20
109.9095256131
 30
0.0
 11
77.4225217598
 21
109.9402052413
 31
0.0
  0
LINE
  5
1DF
  8
0
  6
CONTINUOUS
 62
     7
 10
77.4225217598
 20
109.9402052413
 30
0.0
 11
77.8710010769
 21
109.5926421757
 31
0.0
  0
ARC
  5
1E0
  8
0
  6
CONTINUOUS
 62
     7
 10
72.1702833717
 20
114.7255938571
 30
0.0
 40
0.5999956156809994
 50
92.9993687049
 51
138.0001330142
  0
LINE
  5
1E1
  8
0
  6
CONTINUOUS
 62
     7
 10
72.1388926455
 20
115.3247677784
 30
0.0
 11
72.3594727011
 21
114.84030076
 31
0.0
  0
LINE
  5
1E2
  8
0
  6
CONTINUOUS
 62
     7
 10
72.3594727739
 20
114.84030076
 30
0.0
 11
72.2308990213
 21
114.8101855132
 31
0.0
  0
LINE
  5
1E3
  8
0
  6
CONTINUOUS
 62
     7
 10
72.230898512
 20
114.8101855132
 30
0.0
 11
72.1728783234
 21
114.779505885
 31
0.0
  0
LINE
  5
1E4
  8
0
  6
CONTINUOUS
 62
     7
 10
72.1728781488
 20
114.779505885
 30
0.0
 11
71.7243988608
 21
115.1270682521
 31
0.0
  0
ARC
  5
1E5
  8
0
  6
CONTINUOUS
 62
     7
 10
77.1634343799
 20
114.9872698943
 30
0.0
 40
0.5999999974144484
 50
2.9995245003
 51
47.9999584599
  0
LINE
  5
1E6
  8
0
  6
CONTINUOUS
 62
     7
 10
77.7626123587
 20
115.0186627701
 30
0.0
 11
77.2781453403
 21
114.7980825107
 31
0.0
  0
LINE
  5
1E7
  8
0
  6
CONTINUOUS
 62
     7
 10
77.2781453403
 20
114.7980825107
 30
0.0
 11
77.2480300935
 21
114.9266562488
 31
0.0
  0
LINE
  5
1E8
  8
0
  6
CONTINUOUS
 62
     7
 10
77.2480300935
 20
114.9266567144
 30
0.0
 11
77.2173504653
 21
114.9846771795
 31
0.0
  0
LINE
  5
1E9
  8
0
  6
CONTINUOUS
 62
     7
 10
77.2173504653
 20
114.9846771795
 30
0.0
 11
77.5649125996
 21
115.4331564966
 31
0.0
  0
ARC
  5
1EA
  8
0
  6
CONTINUOUS
 62
     7
 10
72.431959782
 20
109.7324383544
 30
0.0
 40
0.5999937799444384
 50
182.9989464748
 51
228.0002071923
  0
LINE
  5
1EB
  8
0
  6
CONTINUOUS
 62
     7
 10
71.8327877536
 20
109.7010481234
 30
0.0
 11
72.3172545537
 21
109.9216281499
 31
0.0
  0
LINE
  5
1EC
  8
0
  6
CONTINUOUS
 62
     7
 10
72.3172545392
 20
109.9216281499
 30
0.0
 11
72.3473697568
 21
109.7930544119
 31
0.0
  0
LINE
  5
1ED
  8
0
  6
CONTINUOUS
 62
     7
 10
72.3473700479
 20
109.7930534806
 30
0.0
 11
72.3780495088
 21
109.7350339468
 31
0.0
  0
LINE
  5
1EE
  8
0
  6
CONTINUOUS
 62
     7
 10
72.3780496616
 20
109.7350339468
 30
0.0
 11
72.0304872217
 21
109.2865546297
 31
0.0
  0
LINE
  5
1EF
  8
0
  6
CONTINUOUS
 62
     7
 10
77.4565075832
 20
109.3949428822
 30
0.0
 11
77.1650520461
 21
109.8245005186
 31
0.0
  0
LINE
  5
1F0
  8
0
  6
CONTINUOUS
 62
     7
 10
77.1650492521
 20
109.8245042439
 30
0.0
 11
77.2359266254
 21
109.879409435
 31
0.0
  0
LINE
  5
1F1
  8
0
  6
CONTINUOUS
 62
     7
 10
72.1388926455
 20
115.3247677784
 30
0.0
 11
72.4303478697
 21
114.8952096764
 31
0.0
  0
LINE
  5
1F2
  8
0
  6
CONTINUOUS
 62
     7
 10
72.4303506637
 20
114.8952064167
 30
0.0
 11
72.3594735015
 21
114.8403012257
 31
0.0
  0
LINE
  5
1F3
  8
0
  6
CONTINUOUS
 62
     7
 10
77.3330542567
 20
114.7272074658
 30
0.0
 11
77.7626123587
 21
115.0186627701
 31
0.0
  0
LINE
  5
1F4
  8
0
  6
CONTINUOUS
 62
     7
 10
77.333050997
 20
114.7272046718
 30
0.0
 11
77.2781462716
 21
114.7980820451
 31
0.0
  0
LINE
  5
1F5
  8
0
  6
CONTINUOUS
 62
     7
 10
71.8327877536
 20
109.7010481234
 30
0.0
 11
72.26234555
 21
109.9925036605
 31
0.0
  0
LINE
  5
1F6
  8
0
  6
CONTINUOUS
 62
     7
 10
72.2623492026
 20
109.9925064545
 30
0.0
 11
72.3172539716
 21
109.9216290813
 31
0.0
  0
LINE
  5
1F7
  8
0
  6
CONTINUOUS
 62
     7
 10
77.9988046112
 20
110.5118445184
 30
0.0
 11
77.5036567199
 21
110.5064912762
 31
0.0
  0
LINE
  5
1F8
  8
0
  6
CONTINUOUS
 62
     7
 10
77.9988046112
 20
110.5118445184
 30
0.0
 11
77.5021582218
 21
110.4651656996
 31
0.0
  0
LINE
  5
1F9
  8
0
  6
CONTINUOUS
 62
     7
 10
77.5021586875
 20
110.4651656996
 30
0.0
 11
77.5036567199
 21
110.5064912762
 31
0.0
  0
LINE
  5
1FA
  8
0
  6
CONTINUOUS
 62
     7
 10
72.944336002
 20
109.6538989868
 30
0.0
 11
72.9496893315
 21
109.1587510954
 31
0.0
  0
LINE
  5
1FB
  8
0
  6
CONTINUOUS
 62
     7
 10
72.9496893315
 20
109.1587510954
 30
0.0
 11
72.9030107456
 21
109.6553974848
 31
0.0
  0
LINE
  5
1FC
  8
0
  6
CONTINUOUS
 62
     7
 10
72.9030107456
 20
109.6553965535
 30
0.0
 11
72.944336002
 21
109.6538989868
 31
0.0
  0
LINE
  5
1FD
  8
0
  6
CONTINUOUS
 62
     7
 10
76.6510639647
 20
115.0658121395
 30
0.0
 11
76.6457107226
 21
115.5609597981
 31
0.0
  0
LINE
  5
1FE
  8
0
  6
CONTINUOUS
 62
     7
 10
76.6457107226
 20
115.5609597981
 30
0.0
 11
76.6923890757
 21
115.0643136415
 31
0.0
  0
LINE
  5
1FF
  8
0
  6
CONTINUOUS
 62
     7
 10
76.6923890757
 20
115.0643138744
 30
0.0
 11
76.6510639647
 21
115.0658121395
 31
0.0
  0
LINE
  5
200
  8
0
  6
CONTINUOUS
 62
     7
 10
72.0917433342
 20
114.2132193844
 30
0.0
 11
71.5965956175
 21
114.2078661423
 31
0.0
  0
LINE
  5
201
  8
0
  6
CONTINUOUS
 62
     7
 10
71.5965956175
 20
114.2078661423
 30
0.0
 11
72.0932417741
 21
114.2545444954
 31
0.0
  0
LINE
  5
202
  8
0
  6
CONTINUOUS
 62
     7
 10
72.0932415412
 20
114.2545444954
 30
0.0
 11
72.0917433633
 21
114.2132193844
 31
0.0
  0
LINE
  5
203
  8
0
  6
CONTINUOUS
 62
     7
 10
77.1569057676
 20
115.0439118564
 30
0.0
 11
77.5649125996
 21
115.4331564966
 31
0.0
  0
POLYLINE
  5
204
  8
0
  6
CONTINUOUS
 62
     7
 66
     1
 10
0.0
 20
0.0
 30
0.0
 70
   128
  0
VERTEX
  5
5AC
  8
0
  6
CONTINUOUS
 62
     7
 10
76.9421474385
 20
115.0973516114
 30
0.0
  0
VERTEX
  5
5AD
  8
0
  6
CONTINUOUS
 62
     7
 10
77.0765177282
 20
115.0802131805
 30
0.0
  0
VERTEX
  5
5AE
  8
0
  6
CONTINUOUS
 62
     7
 10
77.1569062332
 20
115.0439111579
 30
0.0
  0
SEQEND
  5
730
  8
0
  6
CONTINUOUS
 62
     7
  0
LINE
  5
205
  8
0
  6
CONTINUOUS
 62
     7
 10
77.1320324699
 20
115.5864470701
 30
0.0
 11
76.9421474385
 21
115.0973516114
 31
0.0
  0
ARC
  5
206
  8
0
  6
CONTINUOUS
 62
     7
 10
77.1634357977
 20
114.9872718466
 30
0.0
 40
0.5999975978767897
 50
47.9999343289
 51
93.0001797504
  0
LINE
  5
207
  8
0
  6
CONTINUOUS
 62
     7
 10
77.4817566695
 20
110.0006499391
 30
0.0
 11
77.8710010769
 21
109.5926421757
 31
0.0
  0
POLYLINE
  5
208
  8
0
  6
CONTINUOUS
 62
     7
 66
     1
 10
0.0
 20
0.0
 30
0.0
 70
   128
  0
VERTEX
  5
5AF
  8
0
  6
CONTINUOUS
 62
     7
 10
77.5351964245
 20
110.2154082682
 30
0.0
  0
VERTEX
  5
5B0
  8
0
  6
CONTINUOUS
 62
     7
 10
77.5180577608
 20
110.0810379784
 30
0.0
  0
VERTEX
  5
5B1
  8
0
  6
CONTINUOUS
 62
     7
 10
77.4817557382
 20
110.0006490077
 30
0.0
  0
SEQEND
  5
731
  8
0
  6
CONTINUOUS
 62
     7
  0
LINE
  5
209
  8
0
  6
CONTINUOUS
 62
     7
 10
78.0242916504
 20
110.0255227711
 30
0.0
 11
77.5351964245
 21
110.2154082682
 31
0.0
  0
ARC
  5
20A
  8
0
  6
CONTINUOUS
 62
     7
 10
77.4251140103
 20
109.994120299
 30
0.0
 40
0.5999999663624398
 50
318.0000280137
 51
3.0000860656
  0
LINE
  5
20B
  8
0
  6
CONTINUOUS
 62
     7
 10
72.1136435592
 20
114.7190611872
 30
0.0
 11
71.7243988608
 21
115.1270682521
 31
0.0
  0
POLYLINE
  5
20C
  8
0
  6
CONTINUOUS
 62
     7
 66
     1
 10
0.0
 20
0.0
 30
0.0
 70
   128
  0
VERTEX
  5
5B2
  8
0
  6
CONTINUOUS
 62
     7
 10
72.0602038333
 20
114.5043023925
 30
0.0
  0
VERTEX
  5
5B3
  8
0
  6
CONTINUOUS
 62
     7
 10
72.077342206
 20
114.6386731479
 30
0.0
  0
VERTEX
  5
5B4
  8
0
  6
CONTINUOUS
 62
     7
 10
72.1136442577
 20
114.7190616529
 30
0.0
  0
SEQEND
  5
732
  8
0
  6
CONTINUOUS
 62
     7
  0
LINE
  5
20D
  8
0
  6
CONTINUOUS
 62
     7
 10
71.5711084037
 20
114.6941878896
 30
0.0
 11
72.0602038333
 21
114.5043023925
 31
0.0
  0
ARC
  5
20E
  8
0
  6
CONTINUOUS
 62
     7
 10
72.1702816841
 20
114.7255918694
 30
0.0
 40
0.599995691570139
 50
137.9998841207
 51
183.0002516398
  0
LINE
  5
20F
  8
0
  6
CONTINUOUS
 62
     7
 10
72.4384942611
 20
109.6757990371
 30
0.0
 11
72.0304872217
 21
109.2865546297
 31
0.0
  0
POLYLINE
  5
210
  8
0
  6
CONTINUOUS
 62
     7
 66
     1
 10
0.0
 20
0.0
 30
0.0
 70
   128
  0
VERTEX
  5
5B5
  8
0
  6
CONTINUOUS
 62
     7
 10
72.6532527903
 20
109.6223588164
 30
0.0
  0
VERTEX
  5
5B6
  8
0
  6
CONTINUOUS
 62
     7
 10
72.5188821877
 20
109.6394979458
 30
0.0
  0
VERTEX
  5
5B7
  8
0
  6
CONTINUOUS
 62
     7
 10
72.4384936172
 20
109.6757999684
 30
0.0
  0
SEQEND
  5
733
  8
0
  6
CONTINUOUS
 62
     7
  0
LINE
  5
211
  8
0
  6
CONTINUOUS
 62
     7
 10
72.463367621
 20
109.1332635905
 30
0.0
 11
72.6532527903
 21
109.6223588164
 31
0.0
  0
ARC
  5
212
  8
0
  6
CONTINUOUS
 62
     7
 10
72.4319637594
 20
109.7324355157
 30
0.0
 40
0.5999943318480013
 50
227.9997435459
 51
273.000246795
  0
LINE
  5
213
  8
0
  6
CONTINUOUS
 62
     7
 10
72.9443315201
 20
109.659968416
 30
0.0
 11
72.944336002
 21
109.6538989868
 31
0.0
  0
POLYLINE
  5
214
  8
0
  6
CONTINUOUS
 62
     7
 66
     1
 10
0.0
 20
0.0
 30
0.0
 70
   128
  0
VERTEX
  5
5B8
  8
0
  6
CONTINUOUS
 62
     7
 10
72.9438680707
 20
109.6788053464
 30
0.0
  0
VERTEX
  5
5B9
  8
0
  6
CONTINUOUS
 62
     7
 10
72.9441234277
 20
109.6682571869
 30
0.0
  0
VERTEX
  5
5BA
  8
0
  6
CONTINUOUS
 62
     7
 10
72.9443315201
 20
109.659968416
 30
0.0
  0
SEQEND
  5
734
  8
0
  6
CONTINUOUS
 62
     7
  0
LINE
  5
215
  8
0
  6
CONTINUOUS
 62
     7
 10
72.9438933619
 20
109.6807452913
 30
0.0
 11
72.9438680707
 21
109.6788053464
 31
0.0
  0
LINE
  5
216
  8
0
  6
CONTINUOUS
 62
     7
 10
77.1063987473
 20
109.8988917719
 30
0.0
 11
72.9438933619
 21
109.6807452913
 31
0.0
  0
LINE
  5
217
  8
0
  6
CONTINUOUS
 62
     7
 10
77.1423040266
 20
109.8590581741
 30
0.0
 11
77.1063987473
 21
109.8988917719
 31
0.0
  0
LINE
  5
218
  8
0
  6
CONTINUOUS
 62
     7
 10
77.1510309848
 20
109.8449644696
 30
0.0
 11
77.1423040266
 21
109.8590581741
 31
0.0
  0
LINE
  5
219
  8
0
  6
CONTINUOUS
 62
     7
 10
77.1650520461
 20
109.8245005186
 30
0.0
 11
77.1510309848
 21
109.8449644696
 31
0.0
  0
LINE
  5
21A
  8
0
  6
CONTINUOUS
 62
     7
 10
72.9496893315
 20
109.1587510954
 30
0.0
 11
77.4565075832
 21
109.3949428822
 31
0.0
  0
LINE
  5
21B
  8
0
  6
CONTINUOUS
 62
     7
 10
72.097812647
 20
114.213224041
 30
0.0
 11
72.0917433342
 21
114.2132193844
 31
0.0
  0
LINE
  5
21C
  8
0
  6
CONTINUOUS
 62
     7
 10
72.1166497812
 20
114.213687374
 30
0.0
 11
72.097812647
 21
114.213224041
 31
0.0
  0
LINE
  5
21D
  8
0
  6
CONTINUOUS
 62
     7
 10
72.1185899589
 20
114.2136622283
 30
0.0
 11
72.1166497812
 21
114.213687374
 31
0.0
  0
LINE
  5
21E
  8
0
  6
CONTINUOUS
 62
     7
 10
72.3367382876
 20
110.0511574249
 30
0.0
 11
72.1185899589
 21
114.2136622283
 31
0.0
  0
LINE
  5
21F
  8
0
  6
CONTINUOUS
 62
     7
 10
72.2969026962
 20
110.0152512144
 30
0.0
 11
72.3367382876
 21
110.0511574249
 31
0.0
  0
LINE
  5
220
  8
0
  6
CONTINUOUS
 62
     7
 10
72.282808817
 20
110.0065237905
 30
0.0
 11
72.2969026962
 21
110.0152512144
 31
0.0
  0
LINE
  5
221
  8
0
  6
CONTINUOUS
 62
     7
 10
72.26234555
 20
109.9925036605
 30
0.0
 11
72.282808817
 21
110.0065237905
 31
0.0
  0
LINE
  5
222
  8
0
  6
CONTINUOUS
 62
     7
 10
71.5965956175
 20
114.2078661423
 30
0.0
 11
71.8327879282
 21
109.7010481234
 31
0.0
  0
LINE
  5
223
  8
0
  6
CONTINUOUS
 62
     7
 10
77.3125912371
 20
114.7131864044
 30
0.0
 11
77.3330542567
 21
114.7272074658
 31
0.0
  0
LINE
  5
224
  8
0
  6
CONTINUOUS
 62
     7
 10
77.5036567199
 20
110.5064912762
 30
0.0
 11
77.4975872906
 21
110.5064866196
 31
0.0
  0
POLYLINE
  5
225
  8
0
  6
CONTINUOUS
 62
     7
 66
     1
 10
0.0
 20
0.0
 30
0.0
 70
   128
  0
VERTEX
  5
5BB
  8
0
  6
CONTINUOUS
 62
     7
 10
77.4787503602
 20
110.5060237523
 30
0.0
  0
VERTEX
  5
5BC
  8
0
  6
CONTINUOUS
 62
     7
 10
77.4892985197
 20
110.5062789347
 30
0.0
  0
VERTEX
  5
5BD
  8
0
  6
CONTINUOUS
 62
     7
 10
77.4975872906
 20
110.5064866196
 30
0.0
  0
SEQEND
  5
735
  8
0
  6
CONTINUOUS
 62
     7
  0
LINE
  5
226
  8
0
  6
CONTINUOUS
 62
     7
 10
77.4768099497
 20
110.506048898
 30
0.0
 11
77.4787503602
 21
110.5060237523
 31
0.0
  0
LINE
  5
227
  8
0
  6
CONTINUOUS
 62
     7
 10
77.2586625377
 20
114.6685532357
 30
0.0
 11
77.4768099497
 21
110.506048898
 31
0.0
  0
LINE
  5
228
  8
0
  6
CONTINUOUS
 62
     7
 10
77.2586625377
 20
114.6685532357
 30
0.0
 11
77.2984975325
 21
114.7044594463
 31
0.0
  0
LINE
  5
229
  8
0
  6
CONTINUOUS
 62
     7
 10
77.2984975325
 20
114.7044594463
 30
0.0
 11
77.3125912371
 21
114.7131864044
 31
0.0
  0
LINE
  5
22A
  8
0
  6
CONTINUOUS
 62
     7
 10
77.7626118931
 20
115.0186706863
 30
0.0
 11
77.9988046112
 21
110.5118445184
 31
0.0
  0
POLYLINE
  5
22B
  8
0
  6
CONTINUOUS
 62
     7
 66
     1
 10
0.0
 20
0.0
 30
0.0
 70
   128
  0
VERTEX
  5
5BE
  8
0
  6
CONTINUOUS
 62
     7
 10
77.1569057676
 20
115.0439118564
 30
0.0
  0
VERTEX
  5
5BF
  8
0
  6
CONTINUOUS
 62
     7
 10
77.1872612956
 20
115.0140066228
 30
0.0
  0
VERTEX
  5
5C0
  8
0
  6
CONTINUOUS
 62
     7
 10
77.2173504653
 20
114.9846771795
 30
0.0
  0
SEQEND
  5
736
  8
0
  6
CONTINUOUS
 62
     7
  0
POLYLINE
  5
22C
  8
0
  6
CONTINUOUS
 62
     7
 66
     1
 10
0.0
 20
0.0
 30
0.0
 70
   128
  0
VERTEX
  5
5C1
  8
0
  6
CONTINUOUS
 62
     7
 10
77.4817562039
 20
110.0006499391
 30
0.0
  0
VERTEX
  5
5C2
  8
0
  6
CONTINUOUS
 62
     7
 10
77.451851436
 20
109.9702944111
 30
0.0
  0
VERTEX
  5
5C3
  8
0
  6
CONTINUOUS
 62
     7
 10
77.4225217598
 20
109.9402052413
 30
0.0
  0
SEQEND
  5
737
  8
0
  6
CONTINUOUS
 62
     7
  0
POLYLINE
  5
22D
  8
0
  6
CONTINUOUS
 62
     7
 66
     1
 10
0.0
 20
0.0
 30
0.0
 70
   128
  0
VERTEX
  5
5C4
  8
0
  6
CONTINUOUS
 62
     7
 10
72.1136436174
 20
114.7190611872
 30
0.0
  0
VERTEX
  5
5C5
  8
0
  6
CONTINUOUS
 62
     7
 10
72.1435488218
 20
114.7494167152
 30
0.0
  0
VERTEX
  5
5C6
  8
0
  6
CONTINUOUS
 62
     7
 10
72.1728781488
 20
114.779505885
 30
0.0
  0
SEQEND
  5
738
  8
0
  6
CONTINUOUS
 62
     7
  0
POLYLINE
  5
22E
  8
0
  6
CONTINUOUS
 62
     7
 66
     1
 10
0.0
 20
0.0
 30
0.0
 70
   128
  0
VERTEX
  5
5C7
  8
0
  6
CONTINUOUS
 62
     7
 10
72.4384943047
 20
109.6757990371
 30
0.0
  0
VERTEX
  5
5C8
  8
0
  6
CONTINUOUS
 62
     7
 10
72.4081386276
 20
109.705703805
 30
0.0
  0
VERTEX
  5
5C9
  8
0
  6
CONTINUOUS
 62
     7
 10
72.3780496616
 20
109.7350339468
 30
0.0
  0
SEQEND
  5
739
  8
0
  6
CONTINUOUS
 62
     7
  0
LINE
  5
22F
  8
0
  6
CONTINUOUS
 62
     7
 10
72.4530958256
 20
114.8606524866
 30
0.0
 11
72.4890014032
 21
114.8208184231
 31
0.0
  0
LINE
  5
230
  8
0
  6
CONTINUOUS
 62
     7
 10
72.444368842
 20
114.8747466567
 30
0.0
 11
72.4530958256
 21
114.8606524866
 31
0.0
  0
LINE
  5
231
  8
0
  6
CONTINUOUS
 62
     7
 10
72.4303478697
 20
114.8952096764
 30
0.0
 11
72.444368842
 21
114.8747466567
 31
0.0
  0
LINE
  5
232
  8
0
  6
CONTINUOUS
 62
     7
 10
76.6457107226
 20
115.5609597981
 30
0.0
 11
72.1388926455
 21
115.3247675456
 31
0.0
  0
LINE
  5
233
  8
0
  6
CONTINUOUS
 62
     7
 10
76.6510686214
 20
115.0597427103
 30
0.0
 11
76.6510639647
 21
115.0658121395
 31
0.0
  0
POLYLINE
  5
234
  8
0
  6
CONTINUOUS
 62
     7
 66
     1
 10
0.0
 20
0.0
 30
0.0
 70
   128
  0
VERTEX
  5
5CA
  8
0
  6
CONTINUOUS
 62
     7
 10
76.6515319543
 20
115.0409055471
 30
0.0
  0
VERTEX
  5
5CB
  8
0
  6
CONTINUOUS
 62
     7
 10
76.651276772
 20
115.0514539394
 30
0.0
  0
VERTEX
  5
5CC
  8
0
  6
CONTINUOUS
 62
     7
 10
76.6510686214
 20
115.0597427103
 30
0.0
  0
SEQEND
  5
73A
  8
0
  6
CONTINUOUS
 62
     7
  0
LINE
  5
235
  8
0
  6
CONTINUOUS
 62
     7
 10
76.6515068086
 20
115.0389653693
 30
0.0
 11
76.6515319543
 21
115.0409055471
 31
0.0
  0
LINE
  5
236
  8
0
  6
CONTINUOUS
 62
     7
 10
72.4890014032
 20
114.8208184231
 30
0.0
 11
76.6515068086
 21
115.0389653693
 31
0.0
  0
LINE
  5
237
  8
0
  6
CONTINUOUS
 62
     7
 10
72.6295094925
 20
109.1419705253
 30
0.0
 11
72.7475027803
 21
109.6325586613
 31
0.0
  0
LINE
  5
238
  8
0
  6
CONTINUOUS
 62
     7
 10
72.7512785949
 20
109.6331342186
 30
0.0
 11
72.7475027803
 21
109.6325586613
 31
0.0
  0
LINE
  5
239
  8
0
  6
CONTINUOUS
 62
     7
 10
72.9030107456
 20
109.6553974848
 30
0.0
 11
72.7512785949
 21
109.6331342186
 31
0.0
  0
LINE
  5
23A
  8
0
  6
CONTINUOUS
 62
     7
 10
72.6295094925
 20
109.1419705253
 30
0.0
 11
72.9496893315
 21
109.1587510954
 31
0.0
  0
LINE
  5
23B
  8
0
  6
CONTINUOUS
 62
     7
 10
71.5798155712
 20
114.5280459959
 30
0.0
 11
72.0704035908
 21
114.4100525479
 31
0.0
  0
LINE
  5
23C
  8
0
  6
CONTINUOUS
 62
     7
 10
72.0709789154
 20
114.4062769662
 30
0.0
 11
72.0704035908
 21
114.4100525479
 31
0.0
  0
LINE
  5
23D
  8
0
  6
CONTINUOUS
 62
     7
 10
72.0932417741
 20
114.2545444954
 30
0.0
 11
72.0709789154
 21
114.4062769662
 31
0.0
  0
LINE
  5
23E
  8
0
  6
CONTINUOUS
 62
     7
 10
71.5798155712
 20
114.5280459959
 30
0.0
 11
71.5965955011
 21
114.2078661423
 31
0.0
  0
LINE
  5
23F
  8
0
  6
CONTINUOUS
 62
     7
 10
78.01558425
 20
110.1916651304
 30
0.0
 11
77.5249965797
 21
110.3096581127
 31
0.0
  0
LINE
  5
240
  8
0
  6
CONTINUOUS
 62
     7
 10
77.5244210223
 20
110.3134336944
 30
0.0
 11
77.5249965797
 21
110.3096581127
 31
0.0
  0
LINE
  5
241
  8
0
  6
CONTINUOUS
 62
     7
 10
77.5021582218
 20
110.4651656996
 30
0.0
 11
77.5244210223
 21
110.3134336944
 31
0.0
  0
LINE
  5
242
  8
0
  6
CONTINUOUS
 62
     7
 10
77.9988046112
 20
110.5118445184
 30
0.0
 11
78.01558425
 21
110.1916651304
 31
0.0
  0
LINE
  5
243
  8
0
  6
CONTINUOUS
 62
     7
 10
76.9658905762
 20
115.5777396697
 30
0.0
 11
76.8478971282
 21
115.0871517665
 31
0.0
  0
LINE
  5
244
  8
0
  6
CONTINUOUS
 62
     7
 10
76.8441215465
 20
115.086576442
 30
0.0
 11
76.8478971282
 21
115.0871517665
 31
0.0
  0
LINE
  5
245
  8
0
  6
CONTINUOUS
 62
     7
 10
76.6923890757
 20
115.0643136415
 30
0.0
 11
76.8441215465
 21
115.086576442
 31
0.0
  0
LINE
  5
246
  8
0
  6
CONTINUOUS
 62
     7
 10
76.6457107226
 20
115.5609597981
 30
0.0
 11
76.9658905762
 21
115.5777396697
 31
0.0
  0
LINE
  5
247
  8
0
  6
CONTINUOUS
 62
     7
 10
72.6623947545
 20
109.6229697641
 30
0.0
 11
72.6532527903
 21
109.6223588164
 31
0.0
  0
LINE
  5
248
  8
0
  6
CONTINUOUS
 62
     7
 10
72.6846692547
 20
109.624935786
 30
0.0
 11
72.6623947545
 21
109.6229697641
 31
0.0
  0
LINE
  5
249
  8
0
  6
CONTINUOUS
 62
     7
 10
72.7475027803
 20
109.6325586613
 30
0.0
 11
72.6846692547
 21
109.624935786
 31
0.0
  0
LINE
  5
24A
  8
0
  6
CONTINUOUS
 62
     7
 10
72.463367621
 20
109.1332635905
 30
0.0
 11
72.6295094925
 21
109.1419705253
 31
0.0
  0
LINE
  5
24B
  8
0
  6
CONTINUOUS
 62
     7
 10
72.060814519
 20
114.4951605301
 30
0.0
 11
72.0602038333
 21
114.5043023925
 31
0.0
  0
LINE
  5
24C
  8
0
  6
CONTINUOUS
 62
     7
 10
72.0627805701
 20
114.4728860881
 30
0.0
 11
72.060814519
 21
114.4951605301
 31
0.0
  0
LINE
  5
24D
  8
0
  6
CONTINUOUS
 62
     7
 10
72.0704035908
 20
114.4100525479
 30
0.0
 11
72.0627805701
 21
114.4728860881
 31
0.0
  0
LINE
  5
24E
  8
0
  6
CONTINUOUS
 62
     7
 10
71.5711084037
 20
114.6941878896
 30
0.0
 11
71.5798155712
 21
114.5280459959
 31
0.0
  0
LINE
  5
24F
  8
0
  6
CONTINUOUS
 62
     7
 10
76.9330051104
 20
115.0967408966
 30
0.0
 11
76.9421474385
 21
115.0973516114
 31
0.0
  0
LINE
  5
250
  8
0
  6
CONTINUOUS
 62
     7
 10
76.9107306684
 20
115.0947748746
 30
0.0
 11
76.9330051104
 21
115.0967408966
 31
0.0
  0
LINE
  5
251
  8
0
  6
CONTINUOUS
 62
     7
 10
76.8478971282
 20
115.0871517665
 30
0.0
 11
76.9107306684
 21
115.0947748746
 31
0.0
  0
LINE
  5
252
  8
0
  6
CONTINUOUS
 62
     7
 10
76.9658905762
 20
115.5777396697
 30
0.0
 11
77.1320324699
 21
115.5864470701
 31
0.0
  0
LINE
  5
253
  8
0
  6
CONTINUOUS
 62
     7
 10
77.5345854769
 20
110.2245501305
 30
0.0
 11
77.5351964245
 21
110.2154082682
 31
0.0
  0
LINE
  5
254
  8
0
  6
CONTINUOUS
 62
     7
 10
77.5326194549
 20
110.2468245726
 30
0.0
 11
77.5345854769
 21
110.2245501305
 31
0.0
  0
LINE
  5
255
  8
0
  6
CONTINUOUS
 62
     7
 10
77.5249965797
 20
110.3096581127
 30
0.0
 11
77.5326194549
 21
110.2468245726
 31
0.0
  0
LINE
  5
256
  8
0
  6
CONTINUOUS
 62
     7
 10
78.01558425
 20
110.1916651304
 30
0.0
 11
78.0242916504
 21
110.0255227711
 31
0.0
  0
CIRCLE
  5
257
  8
0
  6
CONTINUOUS
 62
     7
 10
74.7977000176
 20
112.359855392
 30
0.0
 40
1.662987054583686
  0
LINE
  5
258
  8
0
  6
CONTINUOUS
 62
     7
 10
72.1728783234
 20
114.779505885
 30
0.0
 11
72.2268641099
 21
114.733047324
 31
0.0
  0
POLYLINE
  5
259
  8
0
  6
CONTINUOUS
 62
     7
 66
     1
 10
0.0
 20
0.0
 30
0.0
 70
   128
  0
VERTEX
  5
5CD
  8
0
  6
CONTINUOUS
 62
     7
 10
72.170957878
 20
114.6648121129
 30
0.0
  0
VERTEX
  5
5CE
  8
0
  6
CONTINUOUS
 62
     7
 10
72.1997847856
 20
114.698592114
 30
0.0
  0
VERTEX
  5
5CF
  8
0
  6
CONTINUOUS
 62
     7
 10
72.2268636734
 20
114.7330468583
 30
0.0
  0
SEQEND
  5
73B
  8
0
  6
CONTINUOUS
 62
     7
  0
LINE
  5
25A
  8
0
  6
CONTINUOUS
 62
     7
 10
72.1709585474
 20
114.6648111816
 30
0.0
 11
72.1136442286
 21
114.7190616529
 31
0.0
  0
LINE
  5
25B
  8
0
  6
CONTINUOUS
 62
     7
 10
77.4225217598
 20
109.9402052413
 30
0.0
 11
77.3685357841
 21
109.9866633366
 31
0.0
  0
POLYLINE
  5
25C
  8
0
  6
CONTINUOUS
 62
     7
 66
     1
 10
0.0
 20
0.0
 30
0.0
 70
   128
  0
VERTEX
  5
5D0
  8
0
  6
CONTINUOUS
 62
     7
 10
77.424442147
 20
110.0548985477
 30
0.0
  0
VERTEX
  5
5D1
  8
0
  6
CONTINUOUS
 62
     7
 10
77.395615385
 20
110.0211185466
 30
0.0
  0
VERTEX
  5
5D2
  8
0
  6
CONTINUOUS
 62
     7
 10
77.3685362498
 20
109.9866633366
 30
0.0
  0
SEQEND
  5
73C
  8
0
  6
CONTINUOUS
 62
     7
  0
LINE
  5
25D
  8
0
  6
CONTINUOUS
 62
     7
 10
77.4244416813
 20
110.054899479
 30
0.0
 11
77.4817557382
 21
110.0006490077
 31
0.0
  0
LINE
  5
25E
  8
0
  6
CONTINUOUS
 62
     7
 10
72.3780495088
 20
109.7350339468
 30
0.0
 11
72.4245082735
 21
109.7890199225
 31
0.0
  0
POLYLINE
  5
25F
  8
0
  6
CONTINUOUS
 62
     7
 66
     1
 10
0.0
 20
0.0
 30
0.0
 70
   128
  0
VERTEX
  5
5D3
  8
0
  6
CONTINUOUS
 62
     7
 10
72.4927434973
 20
109.7331135597
 30
0.0
  0
VERTEX
  5
5D4
  8
0
  6
CONTINUOUS
 62
     7
 10
72.4589630796
 20
109.761939856
 30
0.0
  0
VERTEX
  5
5D5
  8
0
  6
CONTINUOUS
 62
     7
 10
72.4245084044
 20
109.7890189912
 30
0.0
  0
SEQEND
  5
73D
  8
0
  6
CONTINUOUS
 62
     7
  0
LINE
  5
260
  8
0
  6
CONTINUOUS
 62
     7
 10
72.4927441867
 20
109.7331135597
 30
0.0
 11
72.4384936754
 21
109.6757999684
 31
0.0
  0
LINE
  5
261
  8
0
  6
CONTINUOUS
 62
     7
 10
77.2173504653
 20
114.9846771795
 30
0.0
 11
77.1708919043
 21
114.9306912038
 31
0.0
  0
POLYLINE
  5
262
  8
0
  6
CONTINUOUS
 62
     7
 66
     1
 10
0.0
 20
0.0
 30
0.0
 70
   128
  0
VERTEX
  5
5D6
  8
0
  6
CONTINUOUS
 62
     7
 10
77.1026566932
 20
114.9865975666
 30
0.0
  0
VERTEX
  5
5D7
  8
0
  6
CONTINUOUS
 62
     7
 10
77.13643716
 20
114.9577708046
 30
0.0
  0
VERTEX
  5
5D8
  8
0
  6
CONTINUOUS
 62
     7
 10
77.1708914387
 20
114.9306916695
 30
0.0
  0
SEQEND
  5
73E
  8
0
  6
CONTINUOUS
 62
     7
  0
LINE
  5
263
  8
0
  6
CONTINUOUS
 62
     7
 10
77.1026557619
 20
114.9865968681
 30
0.0
 11
77.1569062332
 21
115.0439111579
 31
0.0
  0
POLYLINE
  5
264
  8
0
  6
CONTINUOUS
 62
     7
 66
     1
 10
0.0
 20
0.0
 30
0.0
 70
   128
  0
VERTEX
  5
5D9
  8
0
  6
CONTINUOUS
 62
     7
 10
76.9323955598
 20
115.0517966661
 30
0.0
  0
VERTEX
  5
5DA
  8
0
  6
CONTINUOUS
 62
     7
 10
77.0239236141
 20
115.0326232954
 30
0.0
  0
VERTEX
  5
5DB
  8
0
  6
CONTINUOUS
 62
     7
 10
77.1026538993
 20
114.9865940742
 30
0.0
  0
SEQEND
  5
73F
  8
0
  6
CONTINUOUS
 62
     7
  0
LINE
  5
265
  8
0
  6
CONTINUOUS
 62
     7
 10
76.9421474385
 20
115.0973516114
 30
0.0
 11
76.9323950941
 21
115.0517966661
 31
0.0
  0
POLYLINE
  5
266
  8
0
  6
CONTINUOUS
 62
     7
 66
     1
 10
0.0
 20
0.0
 30
0.0
 70
   128
  0
VERTEX
  5
5DC
  8
0
  6
CONTINUOUS
 62
     7
 10
77.4896412464
 20
110.2251601468
 30
0.0
  0
VERTEX
  5
5DD
  8
0
  6
CONTINUOUS
 62
     7
 10
77.4704681086
 20
110.1336316268
 30
0.0
  0
VERTEX
  5
5DE
  8
0
  6
CONTINUOUS
 62
     7
 10
77.4244384217
 20
110.0549013417
 30
0.0
  0
SEQEND
  5
740
  8
0
  6
CONTINUOUS
 62
     7
  0
LINE
  5
267
  8
0
  6
CONTINUOUS
 62
     7
 10
77.5351964245
 20
110.2154082682
 30
0.0
 11
77.4896412464
 21
110.2251601468
 31
0.0
  0
POLYLINE
  5
268
  8
0
  6
CONTINUOUS
 62
     7
 66
     1
 10
0.0
 20
0.0
 30
0.0
 70
   128
  0
VERTEX
  5
5DF
  8
0
  6
CONTINUOUS
 62
     7
 10
72.1057588368
 20
114.4945509795
 30
0.0
  0
VERTEX
  5
5E0
  8
0
  6
CONTINUOUS
 62
     7
 10
72.124932091
 20
114.5860785681
 30
0.0
  0
VERTEX
  5
5E1
  8
0
  6
CONTINUOUS
 62
     7
 10
72.1709613996
 20
114.6648088533
 30
0.0
  0
SEQEND
  5
741
  8
0
  6
CONTINUOUS
 62
     7
  0
LINE
  5
269
  8
0
  6
CONTINUOUS
 62
     7
 10
72.0602038333
 20
114.5043023925
 30
0.0
 11
72.1057587786
 21
114.4945505138
 31
0.0
  0
POLYLINE
  5
26A
  8
0
  6
CONTINUOUS
 62
     7
 66
     1
 10
0.0
 20
0.0
 30
0.0
 70
   128
  0
VERTEX
  5
5E2
  8
0
  6
CONTINUOUS
 62
     7
 10
72.663004538
 20
109.6679144602
 30
0.0
  0
VERTEX
  5
5E3
  8
0
  6
CONTINUOUS
 62
     7
 10
72.571476651
 20
109.687087598
 30
0.0
  0
VERTEX
  5
5E4
  8
0
  6
CONTINUOUS
 62
     7
 10
72.4927463622
 20
109.7331163536
 30
0.0
  0
SEQEND
  5
742
  8
0
  6
CONTINUOUS
 62
     7
  0
LINE
  5
26B
  8
0
  6
CONTINUOUS
 62
     7
 10
72.6532528048
 20
109.6223588164
 30
0.0
 11
72.6630048581
 21
109.6679144602
 31
0.0
  0
LINE
  5
26C
  8
0
  6
CONTINUOUS
 62
     7
 10
72.3647172841
 20
114.5273279462
 30
0.0
 11
72.3860423083
 21
114.5569975551
 31
0.0
  0
LINE
  5
26D
  8
0
  6
CONTINUOUS
 62
     7
 10
72.3647167312
 20
114.5273284118
 30
0.0
 11
72.170957878
 21
114.6648121129
 31
0.0
  0
LINE
  5
26E
  8
0
  6
CONTINUOUS
 62
     7
 10
72.3860425193
 20
114.5569975551
 30
0.0
 11
72.2268636734
 21
114.7330468583
 31
0.0
  0
LINE
  5
26F
  8
0
  6
CONTINUOUS
 62
     7
 10
77.2306828136
 20
110.1923822488
 30
0.0
 11
77.209357855
 21
110.1627131056
 31
0.0
  0
LINE
  5
270
  8
0
  6
CONTINUOUS
 62
     7
 10
77.2306832793
 20
110.1923822488
 30
0.0
 11
77.424442147
 21
110.0548985477
 31
0.0
  0
LINE
  5
271
  8
0
  6
CONTINUOUS
 62
     7
 10
77.2093573893
 20
110.1627131056
 30
0.0
 11
77.3685362498
 21
109.9866633366
 31
0.0
  0
LINE
  5
272
  8
0
  6
CONTINUOUS
 62
     7
 10
72.6302273239
 20
109.9268724273
 30
0.0
 11
72.6005577732
 21
109.9481978517
 31
0.0
  0
LINE
  5
273
  8
0
  6
CONTINUOUS
 62
     7
 10
72.6302269164
 20
109.9268724273
 30
0.0
 11
72.4927434973
 21
109.7331135597
 31
0.0
  0
LINE
  5
274
  8
0
  6
CONTINUOUS
 62
     7
 10
72.6005579187
 20
109.9481978517
 30
0.0
 11
72.4245084044
 21
109.7890189912
 31
0.0
  0
LINE
  5
275
  8
0
  6
CONTINUOUS
 62
     7
 10
76.9651725265
 20
114.7928382333
 30
0.0
 11
76.9948421354
 21
114.7715132746
 31
0.0
  0
LINE
  5
276
  8
0
  6
CONTINUOUS
 62
     7
 10
76.9651729921
 20
114.792838699
 30
0.0
 11
77.1026566932
 21
114.9865975666
 31
0.0
  0
LINE
  5
277
  8
0
  6
CONTINUOUS
 62
     7
 10
76.9948421354
 20
114.771512809
 30
0.0
 11
77.1708914387
 21
114.9306916695
 31
0.0
  0
POLYLINE
  5
278
  8
0
  6
CONTINUOUS
 62
     7
 66
     1
 10
0.0
 20
0.0
 30
0.0
 70
   128
  0
VERTEX
  5
5E5
  8
0
  6
CONTINUOUS
 62
     7
 10
76.8417196656
 20
114.8367310006
 30
0.0
  0
VERTEX
  5
5E6
  8
0
  6
CONTINUOUS
 62
     7
 10
76.9069788354
 20
114.8241292748
 30
0.0
  0
VERTEX
  5
5E7
  8
0
  6
CONTINUOUS
 62
     7
 10
76.9651701982
 20
114.7928400959
 30
0.0
  0
SEQEND
  5
743
  8
0
  6
CONTINUOUS
 62
     7
  0
LINE
  5
279
  8
0
  6
CONTINUOUS
 62
     7
 10
76.9246483529
 20
115.0520793225
 30
0.0
 11
76.8417196656
 21
114.8367310006
 31
0.0
  0
LINE
  5
27A
  8
0
  6
CONTINUOUS
 62
     7
 10
76.9323955598
 20
115.0517966661
 30
0.0
 11
76.9246483529
 21
115.0520793225
 31
0.0
  0
POLYLINE
  5
27B
  8
0
  6
CONTINUOUS
 62
     7
 66
     1
 10
0.0
 20
0.0
 30
0.0
 70
   128
  0
VERTEX
  5
5E8
  8
0
  6
CONTINUOUS
 62
     7
 10
72.7536804176
 20
109.8829791944
 30
0.0
  0
VERTEX
  5
5E9
  8
0
  6
CONTINUOUS
 62
     7
 10
72.6884209713
 20
109.8955818515
 30
0.0
  0
VERTEX
  5
5EA
  8
0
  6
CONTINUOUS
 62
     7
 10
72.6302296086
 20
109.9268705647
 30
0.0
  0
SEQEND
  5
744
  8
0
  6
CONTINUOUS
 62
     7
  0
LINE
  5
27C
  8
0
  6
CONTINUOUS
 62
     7
 10
72.6707517157
 20
109.6676313381
 30
0.0
 11
72.7536804176
 21
109.8829791944
 31
0.0
  0
LINE
  5
27D
  8
0
  6
CONTINUOUS
 62
     7
 10
72.6630045089
 20
109.6679144602
 30
0.0
 11
72.6707517157
 21
109.6676313381
 31
0.0
  0
POLYLINE
  5
27E
  8
0
  6
CONTINUOUS
 62
     7
 66
     1
 10
0.0
 20
0.0
 30
0.0
 70
   128
  0
VERTEX
  5
5EB
  8
0
  6
CONTINUOUS
 62
     7
 10
77.2745760466
 20
110.3158355753
 30
0.0
  0
VERTEX
  5
5EC
  8
0
  6
CONTINUOUS
 62
     7
 10
77.2619738551
 20
110.2505759399
 30
0.0
  0
VERTEX
  5
5ED
  8
0
  6
CONTINUOUS
 62
     7
 10
77.2306846763
 20
110.1923850428
 30
0.0
  0
SEQEND
  5
745
  8
0
  6
CONTINUOUS
 62
     7
  0
LINE
  5
27F
  8
0
  6
CONTINUOUS
 62
     7
 10
77.4899239028
 20
110.232906888
 30
0.0
 11
77.2745760466
 21
110.3158355753
 31
0.0
  0
LINE
  5
280
  8
0
  6
CONTINUOUS
 62
     7
 10
77.4896412464
 20
110.2251601468
 30
0.0
 11
77.4899239028
 21
110.232906888
 31
0.0
  0
POLYLINE
  5
281
  8
0
  6
CONTINUOUS
 62
     7
 66
     1
 10
0.0
 20
0.0
 30
0.0
 70
   128
  0
VERTEX
  5
5EE
  8
0
  6
CONTINUOUS
 62
     7
 10
72.3208241967
 20
114.4038750853
 30
0.0
  0
VERTEX
  5
5EF
  8
0
  6
CONTINUOUS
 62
     7
 10
72.3334261117
 20
114.4691342551
 30
0.0
  0
VERTEX
  5
5F0
  8
0
  6
CONTINUOUS
 62
     7
 10
72.3647154943
 20
114.5273256179
 30
0.0
  0
SEQEND
  5
746
  8
0
  6
CONTINUOUS
 62
     7
  0
LINE
  5
282
  8
0
  6
CONTINUOUS
 62
     7
 10
72.105476064
 20
114.4868037726
 30
0.0
 11
72.3208241967
 21
114.4038750853
 31
0.0
  0
LINE
  5
283
  8
0
  6
CONTINUOUS
 62
     7
 10
72.1057588368
 20
114.4945509795
 30
0.0
 11
72.105476064
 21
114.4868037726
 31
0.0
  0
LINE
  5
284
  8
0
  6
CONTINUOUS
 62
     7
 10
72.2268641099
 20
114.733047324
 30
0.0
 11
72.2681106551
 21
114.7719328355
 31
0.0
  0
LINE
  5
285
  8
0
  6
CONTINUOUS
 62
     7
 10
72.2681106551
 20
114.7719328355
 30
0.0
 11
72.230898512
 21
114.8101855132
 31
0.0
  0
LINE
  5
286
  8
0
  6
CONTINUOUS
 62
     7
 10
77.3685357841
 20
109.9866633366
 30
0.0
 11
77.3272893699
 21
109.9477778252
 31
0.0
  0
LINE
  5
287
  8
0
  6
CONTINUOUS
 62
     7
 10
77.3272893699
 20
109.9477778252
 30
0.0
 11
77.3645012947
 21
109.9095256131
 31
0.0
  0
LINE
  5
288
  8
0
  6
CONTINUOUS
 62
     7
 10
72.4245082735
 20
109.7890199225
 30
0.0
 11
72.3856225074
 21
109.8302663367
 31
0.0
  0
LINE
  5
289
  8
0
  6
CONTINUOUS
 62
     7
 10
72.3856225074
 20
109.8302663367
 30
0.0
 11
72.3473700479
 21
109.7930534806
 31
0.0
  0
LINE
  5
28A
  8
0
  6
CONTINUOUS
 62
     7
 10
77.1708919043
 20
114.9306912038
 30
0.0
 11
77.2097774158
 21
114.8894447896
 31
0.0
  0
LINE
  5
28B
  8
0
  6
CONTINUOUS
 62
     7
 10
77.2097774158
 20
114.8894447896
 30
0.0
 11
77.2480300935
 21
114.9266567144
 31
0.0
  0
LINE
  5
28C
  8
0
  6
CONTINUOUS
 62
     7
 10
72.2681106842
 20
114.7719328355
 30
0.0
 11
72.3778345624
 21
114.8124062519
 31
0.0
  0
POLYLINE
  5
28D
  8
0
  6
CONTINUOUS
 62
     7
 66
     1
 10
0.0
 20
0.0
 30
0.0
 70
   128
  0
VERTEX
  5
5F1
  8
0
  6
CONTINUOUS
 62
     7
 10
72.3778339221
 20
114.8124062519
 30
0.0
  0
VERTEX
  5
5F2
  8
0
  6
CONTINUOUS
 62
     7
 10
72.3922547901
 20
114.7790872555
 30
0.0
  0
VERTEX
  5
5F3
  8
0
  6
CONTINUOUS
 62
     7
 10
72.4209429051
 20
114.7381113905
 30
0.0
  0
SEQEND
  5
747
  8
0
  6
CONTINUOUS
 62
     7
  0
LINE
  5
28E
  8
0
  6
CONTINUOUS
 62
     7
 10
72.4209429597
 20
114.7381113905
 30
0.0
 11
72.5298553504
 21
114.6115195069
 31
0.0
  0
POLYLINE
  5
28F
  8
0
  6
CONTINUOUS
 62
     7
 66
     1
 10
0.0
 20
0.0
 30
0.0
 70
   128
  0
VERTEX
  5
5F4
  8
0
  6
CONTINUOUS
 62
     7
 10
72.5298553467
 20
114.6115195069
 30
0.0
  0
VERTEX
  5
5F5
  8
0
  6
CONTINUOUS
 62
     7
 10
72.4534012467
 20
114.5941992353
 30
0.0
  0
VERTEX
  5
5F6
  8
0
  6
CONTINUOUS
 62
     7
 10
72.388106592
 20
114.5529053237
 30
0.0
  0
SEQEND
  5
748
  8
0
  6
CONTINUOUS
 62
     7
  0
LINE
  5
290
  8
0
  6
CONTINUOUS
 62
     7
 10
72.3881066139
 20
114.5529053237
 30
0.0
 11
72.3860426284
 21
114.5569975551
 31
0.0
  0
LINE
  5
291
  8
0
  6
CONTINUOUS
 62
     7
 10
72.3856225001
 20
109.8302663367
 30
0.0
 11
72.3451490764
 21
109.9399901058
 31
0.0
  0
POLYLINE
  5
292
  8
0
  6
CONTINUOUS
 62
     7
 66
     1
 10
0.0
 20
0.0
 30
0.0
 70
   128
  0
VERTEX
  5
5F7
  8
0
  6
CONTINUOUS
 62
     7
 10
72.34514912
 20
109.9399891745
 30
0.0
  0
VERTEX
  5
5F8
  8
0
  6
CONTINUOUS
 62
     7
 10
72.3784680364
 20
109.9544097732
 30
0.0
  0
VERTEX
  5
5F9
  8
0
  6
CONTINUOUS
 62
     7
 10
72.4194441524
 20
109.9830982338
 30
0.0
  0
SEQEND
  5
749
  8
0
  6
CONTINUOUS
 62
     7
  0
LINE
  5
293
  8
0
  6
CONTINUOUS
 62
     7
 10
72.4194419114
 20
109.9831010278
 30
0.0
 11
72.5460370292
 21
110.092010821
 31
0.0
  0
POLYLINE
  5
294
  8
0
  6
CONTINUOUS
 62
     7
 66
     1
 10
0.0
 20
0.0
 30
0.0
 70
   128
  0
VERTEX
  5
5FA
  8
0
  6
CONTINUOUS
 62
     7
 10
72.5460357777
 20
110.092010821
 30
0.0
  0
VERTEX
  5
5FB
  8
0
  6
CONTINUOUS
 62
     7
 10
72.5633561002
 20
110.0155566882
 30
0.0
  0
VERTEX
  5
5FC
  8
0
  6
CONTINUOUS
 62
     7
 10
72.6046499609
 20
109.9502616625
 30
0.0
  0
SEQEND
  5
74A
  8
0
  6
CONTINUOUS
 62
     7
  0
LINE
  5
295
  8
0
  6
CONTINUOUS
 62
     7
 10
72.6046499609
 20
109.9502616625
 30
0.0
 11
72.6005579187
 21
109.9481978517
 31
0.0
  0
LINE
  5
296
  8
0
  6
CONTINUOUS
 62
     7
 10
77.3272893699
 20
109.9477778252
 30
0.0
 11
77.2175656008
 21
109.9073044087
 31
0.0
  0
POLYLINE
  5
297
  8
0
  6
CONTINUOUS
 62
     7
 66
     1
 10
0.0
 20
0.0
 30
0.0
 70
   128
  0
VERTEX
  5
5FD
  8
0
  6
CONTINUOUS
 62
     7
 10
77.2175660665
 20
109.9073044087
 30
0.0
  0
VERTEX
  5
5FE
  8
0
  6
CONTINUOUS
 62
     7
 10
77.2031454677
 20
109.9406234052
 30
0.0
  0
VERTEX
  5
5FF
  8
0
  6
CONTINUOUS
 62
     7
 10
77.1744570071
 20
109.9815997358
 30
0.0
  0
SEQEND
  5
74B
  8
0
  6
CONTINUOUS
 62
     7
  0
LINE
  5
298
  8
0
  6
CONTINUOUS
 62
     7
 10
77.1744570071
 20
109.9815997358
 30
0.0
 11
77.0655448856
 21
110.1081916194
 31
0.0
  0
POLYLINE
  5
299
  8
0
  6
CONTINUOUS
 62
     7
 66
     1
 10
0.0
 20
0.0
 30
0.0
 70
   128
  0
VERTEX
  5
600
  8
0
  6
CONTINUOUS
 62
     7
 10
77.0655448856
 20
110.1081906881
 30
0.0
  0
VERTEX
  5
601
  8
0
  6
CONTINUOUS
 62
     7
 10
77.1419990184
 20
110.1255114253
 30
0.0
  0
VERTEX
  5
602
  8
0
  6
CONTINUOUS
 62
     7
 10
77.2072935785
 20
110.166805337
 30
0.0
  0
SEQEND
  5
74C
  8
0
  6
CONTINUOUS
 62
     7
  0
LINE
  5
29A
  8
0
  6
CONTINUOUS
 62
     7
 10
77.2072935785
 20
110.166805337
 30
0.0
 11
77.2093573893
 21
110.1627131056
 31
0.0
  0
LINE
  5
29B
  8
0
  6
CONTINUOUS
 62
     7
 10
77.2097774158
 20
114.8894447896
 30
0.0
 11
77.2502508322
 21
114.7797210205
 31
0.0
  0
POLYLINE
  5
29C
  8
0
  6
CONTINUOUS
 62
     7
 66
     1
 10
0.0
 20
0.0
 30
0.0
 70
   128
  0
VERTEX
  5
603
  8
0
  6
CONTINUOUS
 62
     7
 10
77.2502508322
 20
114.7797214862
 30
0.0
  0
VERTEX
  5
604
  8
0
  6
CONTINUOUS
 62
     7
 10
77.2169318358
 20
114.7653004217
 30
0.0
  0
VERTEX
  5
605
  8
0
  6
CONTINUOUS
 62
     7
 10
77.1759559708
 20
114.7366124268
 30
0.0
  0
SEQEND
  5
74D
  8
0
  6
CONTINUOUS
 62
     7
  0
LINE
  5
29D
  8
0
  6
CONTINUOUS
 62
     7
 10
77.1759559708
 20
114.7366124268
 30
0.0
 11
77.0493640872
 21
114.6277003053
 31
0.0
  0
POLYLINE
  5
29E
  8
0
  6
CONTINUOUS
 62
     7
 66
     1
 10
0.0
 20
0.0
 30
0.0
 70
   128
  0
VERTEX
  5
606
  8
0
  6
CONTINUOUS
 62
     7
 10
77.0493640872
 20
114.6276998397
 30
0.0
  0
VERTEX
  5
607
  8
0
  6
CONTINUOUS
 62
     7
 10
77.0320438156
 20
114.7041539725
 30
0.0
  0
VERTEX
  5
608
  8
0
  6
CONTINUOUS
 62
     7
 10
76.990749904
 20
114.7694489982
 30
0.0
  0
SEQEND
  5
74E
  8
0
  6
CONTINUOUS
 62
     7
  0
LINE
  5
29F
  8
0
  6
CONTINUOUS
 62
     7
 10
76.990749904
 20
114.7694489982
 30
0.0
 11
76.9948421354
 21
114.771512809
 31
0.0
  0
POLYLINE
  5
2A0
  8
0
  6
CONTINUOUS
 62
     7
 66
     1
 10
0.0
 20
0.0
 30
0.0
 70
   128
  0
VERTEX
  5
609
  8
0
  6
CONTINUOUS
 62
     7
 10
72.4119263783
 20
114.3274540145
 30
0.0
  0
VERTEX
  5
60A
  8
0
  6
CONTINUOUS
 62
     7
 10
72.405395999
 20
114.3290759127
 30
0.0
  0
VERTEX
  5
60B
  8
0
  6
CONTINUOUS
 62
     7
 10
72.4002153426
 20
114.3303583439
 30
0.0
  0
SEQEND
  5
74F
  8
0
  6
CONTINUOUS
 62
     7
  0
POLYLINE
  5
2A1
  8
0
  6
CONTINUOUS
 62
     7
 66
     1
 10
0.0
 20
0.0
 30
0.0
 70
   128
  0
VERTEX
  5
60C
  8
0
  6
CONTINUOUS
 62
     7
 10
72.4046373276
 20
114.2502138454
 30
0.0
  0
VERTEX
  5
60D
  8
0
  6
CONTINUOUS
 62
     7
 10
72.4060647468
 20
114.2502883512
 30
0.0
  0
VERTEX
  5
60E
  8
0
  6
CONTINUOUS
 62
     7
 10
72.4074881642
 20
114.2503633227
 30
0.0
  0
VERTEX
  5
60F
  8
0
  6
CONTINUOUS
 62
     7
 10
72.4089075653
 20
114.2504373628
 30
0.0
  0
VERTEX
  5
610
  8
0
  6
CONTINUOUS
 62
     7
 10
72.4103229137
 20
114.2505118686
 30
0.0
  0
VERTEX
  5
611
  8
0
  6
CONTINUOUS
 62
     7
 10
72.4117341948
 20
114.2505859088
 30
0.0
  0
VERTEX
  5
612
  8
0
  6
CONTINUOUS
 62
     7
 10
72.4131413723
 20
114.2506594833
 30
0.0
  0
VERTEX
  5
613
  8
0
  6
CONTINUOUS
 62
     7
 10
72.414544428
 20
114.2507330577
 30
0.0
  0
VERTEX
  5
614
  8
0
  6
CONTINUOUS
 62
     7
 10
72.4159433363
 20
114.2508061666
 30
0.0
  0
SEQEND
  5
750
  8
0
  6
CONTINUOUS
 62
     7
  0
LINE
  5
2A2
  8
0
  6
CONTINUOUS
 62
     7
 10
72.4002153426
 20
114.3303583439
 30
0.0
 11
72.4046373276
 21
114.2502138454
 31
0.0
  0
LINE
  5
2A3
  8
0
  6
CONTINUOUS
 62
     7
 10
72.6194238802
 20
110.1473481457
 30
0.0
 11
72.5804641467
 21
110.1254471641
 31
0.0
  0
POLYLINE
  5
2A4
  8
0
  6
CONTINUOUS
 62
     7
 66
     1
 10
0.0
 20
0.0
 30
0.0
 70
   128
  0
VERTEX
  5
615
  8
0
  6
CONTINUOUS
 62
     7
 10
72.5804641467
 20
110.1254471641
 30
0.0
  0
VERTEX
  5
616
  8
0
  6
CONTINUOUS
 62
     7
 10
72.470350987
 20
110.102485406
 30
0.0
  0
VERTEX
  5
617
  8
0
  6
CONTINUOUS
 62
     7
 10
72.3367382876
 20
110.0511574249
 30
0.0
  0
SEQEND
  5
751
  8
0
  6
CONTINUOUS
 62
     7
  0
POLYLINE
  5
2A5
  8
0
  6
CONTINUOUS
 62
     7
 66
     1
 10
0.0
 20
0.0
 30
0.0
 70
   128
  0
VERTEX
  5
618
  8
0
  6
CONTINUOUS
 62
     7
 10
72.1185899589
 20
114.2136622283
 30
0.0
  0
VERTEX
  5
619
  8
0
  6
CONTINUOUS
 62
     7
 10
72.2471073519
 20
114.2210010502
 30
0.0
  0
VERTEX
  5
61A
  8
0
  6
CONTINUOUS
 62
     7
 10
72.3405243467
 20
114.2386002529
 30
0.0
  0
SEQEND
  5
752
  8
0
  6
CONTINUOUS
 62
     7
  0
LINE
  5
2A6
  8
0
  6
CONTINUOUS
 62
     7
 10
72.3405243467
 20
114.2386002529
 30
0.0
 11
72.4046373276
 21
114.2502138454
 31
0.0
  0
LINE
  5
2A7
  8
0
  6
CONTINUOUS
 62
     7
 10
72.6306659768
 20
110.1536541309
 30
0.0
 11
72.6194238802
 21
110.1473481457
 31
0.0
  0
POLYLINE
  5
2A8
  8
0
  6
CONTINUOUS
 62
     7
 66
     1
 10
0.0
 20
0.0
 30
0.0
 70
   128
  0
VERTEX
  5
61B
  8
0
  6
CONTINUOUS
 62
     7
 10
77.1951845224
 20
110.3893523167
 30
0.0
  0
VERTEX
  5
61C
  8
0
  6
CONTINUOUS
 62
     7
 10
77.1885986748
 20
110.3909830626
 30
0.0
  0
VERTEX
  5
61D
  8
0
  6
CONTINUOUS
 62
     7
 10
77.1834736066
 20
110.3922571119
 30
0.0
  0
SEQEND
  5
753
  8
0
  6
CONTINUOUS
 62
     7
  0
POLYLINE
  5
2A9
  8
0
  6
CONTINUOUS
 62
     7
 66
     1
 10
0.0
 20
0.0
 30
0.0
 70
   128
  0
VERTEX
  5
61E
  8
0
  6
CONTINUOUS
 62
     7
 10
77.1907626028
 20
110.4694972809
 30
0.0
  0
VERTEX
  5
61F
  8
0
  6
CONTINUOUS
 62
     7
 10
77.1893353509
 20
110.4694218438
 30
0.0
  0
VERTEX
  5
620
  8
0
  6
CONTINUOUS
 62
     7
 10
77.1879118244
 20
110.469347338
 30
0.0
  0
VERTEX
  5
621
  8
0
  6
CONTINUOUS
 62
     7
 10
77.1864924888
 20
110.4692728322
 30
0.0
  0
VERTEX
  5
622
  8
0
  6
CONTINUOUS
 62
     7
 10
77.1850773441
 20
110.4691992577
 30
0.0
  0
VERTEX
  5
623
  8
0
  6
CONTINUOUS
 62
     7
 10
77.1836659248
 20
110.4691247519
 30
0.0
  0
VERTEX
  5
624
  8
0
  6
CONTINUOUS
 62
     7
 10
77.1822586963
 20
110.4690511774
 30
0.0
  0
VERTEX
  5
625
  8
0
  6
CONTINUOUS
 62
     7
 10
77.1808556589
 20
110.4689776029
 30
0.0
  0
VERTEX
  5
626
  8
0
  6
CONTINUOUS
 62
     7
 10
77.1794568124
 20
110.4689049597
 30
0.0
  0
SEQEND
  5
754
  8
0
  6
CONTINUOUS
 62
     7
  0
LINE
  5
2AA
  8
0
  6
CONTINUOUS
 62
     7
 10
77.1951845224
 20
110.3893523167
 30
0.0
 11
77.1907626028
 21
110.4694972809
 31
0.0
  0
LINE
  5
2AB
  8
0
  6
CONTINUOUS
 62
     7
 10
76.975976334
 20
114.5723625149
 30
0.0
 11
77.0145740668
 21
114.5940572086
 31
0.0
  0
POLYLINE
  5
2AC
  8
0
  6
CONTINUOUS
 62
     7
 66
     1
 10
0.0
 20
0.0
 30
0.0
 70
   128
  0
VERTEX
  5
627
  8
0
  6
CONTINUOUS
 62
     7
 10
77.0145740668
 20
114.5940572086
 30
0.0
  0
VERTEX
  5
628
  8
0
  6
CONTINUOUS
 62
     7
 10
77.126255476
 20
114.617741673
 30
0.0
  0
VERTEX
  5
629
  8
0
  6
CONTINUOUS
 62
     7
 10
77.2586625377
 20
114.6685532357
 30
0.0
  0
SEQEND
  5
755
  8
0
  6
CONTINUOUS
 62
     7
  0
POLYLINE
  5
2AD
  8
0
  6
CONTINUOUS
 62
     7
 66
     1
 10
0.0
 20
0.0
 30
0.0
 70
   128
  0
VERTEX
  5
62A
  8
0
  6
CONTINUOUS
 62
     7
 10
77.4768099497
 20
110.506048898
 30
0.0
  0
VERTEX
  5
62B
  8
0
  6
CONTINUOUS
 62
     7
 10
77.3482925566
 20
110.4987100761
 30
0.0
  0
VERTEX
  5
62C
  8
0
  6
CONTINUOUS
 62
     7
 10
77.2548757801
 20
110.4811108734
 30
0.0
  0
SEQEND
  5
756
  8
0
  6
CONTINUOUS
 62
     7
  0
LINE
  5
2AE
  8
0
  6
CONTINUOUS
 62
     7
 10
77.2548757801
 20
110.4811108734
 30
0.0
 11
77.1907626028
 21
110.4694972809
 31
0.0
  0
LINE
  5
2AF
  8
0
  6
CONTINUOUS
 62
     7
 10
76.975976334
 20
114.5723625149
 30
0.0
 11
76.9647338735
 21
114.5660565298
 31
0.0
  0
LINE
  5
2B0
  8
0
  6
CONTINUOUS
 62
     7
 10
77.0102070952
 20
110.181578907
 30
0.0
 11
77.0319111022
 21
110.1429653417
 31
0.0
  0
POLYLINE
  5
2B1
  8
0
  6
CONTINUOUS
 62
     7
 66
     1
 10
0.0
 20
0.0
 30
0.0
 70
   128
  0
VERTEX
  5
62D
  8
0
  6
CONTINUOUS
 62
     7
 10
77.0319111022
 20
110.1429653417
 30
0.0
  0
VERTEX
  5
62E
  8
0
  6
CONTINUOUS
 62
     7
 10
77.055669141
 20
110.031152616
 30
0.0
  0
VERTEX
  5
62F
  8
0
  6
CONTINUOUS
 62
     7
 10
77.1063987473
 20
109.8988917719
 30
0.0
  0
SEQEND
  5
757
  8
0
  6
CONTINUOUS
 62
     7
  0
POLYLINE
  5
2B2
  8
0
  6
CONTINUOUS
 62
     7
 66
     1
 10
0.0
 20
0.0
 30
0.0
 70
   128
  0
VERTEX
  5
630
  8
0
  6
CONTINUOUS
 62
     7
 10
72.9438933619
 20
109.6807452913
 30
0.0
  0
VERTEX
  5
631
  8
0
  6
CONTINUOUS
 62
     7
 10
72.9365542781
 20
109.80926315
 30
0.0
  0
VERTEX
  5
632
  8
0
  6
CONTINUOUS
 62
     7
 10
72.9189551336
 20
109.9026794608
 30
0.0
  0
SEQEND
  5
758
  8
0
  6
CONTINUOUS
 62
     7
  0
LINE
  5
2B3
  8
0
  6
CONTINUOUS
 62
     7
 10
72.9189551336
 20
109.9026794608
 30
0.0
 11
72.9073416575
 21
109.9667926382
 31
0.0
  0
POLYLINE
  5
2B4
  8
0
  6
CONTINUOUS
 62
     7
 66
     1
 10
0.0
 20
0.0
 30
0.0
 70
   128
  0
VERTEX
  5
633
  8
0
  6
CONTINUOUS
 62
     7
 10
72.9073416575
 20
109.9667926382
 30
0.0
  0
VERTEX
  5
634
  8
0
  6
CONTINUOUS
 62
     7
 10
72.9072668606
 20
109.9682203557
 30
0.0
  0
VERTEX
  5
635
  8
0
  6
CONTINUOUS
 62
     7
 10
72.9071922384
 20
109.9696434166
 30
0.0
  0
VERTEX
  5
636
  8
0
  6
CONTINUOUS
 62
     7
 10
72.9071178781
 20
109.9710627522
 30
0.0
  0
VERTEX
  5
637
  8
0
  6
CONTINUOUS
 62
     7
 10
72.9070436925
 20
109.9724783625
 30
0.0
  0
VERTEX
  5
638
  8
0
  6
CONTINUOUS
 62
     7
 10
72.9069697396
 20
109.9738893162
 30
0.0
  0
VERTEX
  5
639
  8
0
  6
CONTINUOUS
 62
     7
 10
72.9068959905
 20
109.9752965446
 30
0.0
  0
VERTEX
  5
63A
  8
0
  6
CONTINUOUS
 62
     7
 10
72.9068224452
 20
109.9767000477
 30
0.0
  0
VERTEX
  5
63B
  8
0
  6
CONTINUOUS
 62
     7
 10
72.9067491326
 20
109.9780988942
 30
0.0
  0
SEQEND
  5
759
  8
0
  6
CONTINUOUS
 62
     7
  0
LINE
  5
2B5
  8
0
  6
CONTINUOUS
 62
     7
 10
77.0102070952
 20
110.181578907
 30
0.0
 11
77.0039011101
 21
110.1928209018
 31
0.0
  0
POLYLINE
  5
2B6
  8
0
  6
CONTINUOUS
 62
     7
 66
     1
 10
0.0
 20
0.0
 30
0.0
 70
   128
  0
VERTEX
  5
63C
  8
0
  6
CONTINUOUS
 62
     7
 10
76.6515068086
 20
115.0389653693
 30
0.0
  0
VERTEX
  5
63D
  8
0
  6
CONTINUOUS
 62
     7
 10
76.6588456305
 20
114.9104479763
 30
0.0
  0
VERTEX
  5
63E
  8
0
  6
CONTINUOUS
 62
     7
 10
76.6764448332
 20
114.8170311998
 30
0.0
  0
SEQEND
  5
75A
  8
0
  6
CONTINUOUS
 62
     7
  0
LINE
  5
2B7
  8
0
  6
CONTINUOUS
 62
     7
 10
76.6764448332
 20
114.8170311998
 30
0.0
 11
76.6880584257
 21
114.7529180225
 31
0.0
  0
POLYLINE
  5
2B8
  8
0
  6
CONTINUOUS
 62
     7
 66
     1
 10
0.0
 20
0.0
 30
0.0
 70
   128
  0
VERTEX
  5
63F
  8
0
  6
CONTINUOUS
 62
     7
 10
76.6880584257
 20
114.7529180225
 30
0.0
  0
VERTEX
  5
640
  8
0
  6
CONTINUOUS
 62
     7
 10
76.6881333972
 20
114.7514907706
 30
0.0
  0
VERTEX
  5
641
  8
0
  6
CONTINUOUS
 62
     7
 10
76.688207903
 20
114.7500672441
 30
0.0
  0
VERTEX
  5
642
  8
0
  6
CONTINUOUS
 62
     7
 10
76.6882819431
 20
114.7486479085
 30
0.0
  0
VERTEX
  5
643
  8
0
  6
CONTINUOUS
 62
     7
 10
76.6883564489
 20
114.7472322981
 30
0.0
  0
VERTEX
  5
644
  8
0
  6
CONTINUOUS
 62
     7
 10
76.6884304891
 20
114.7458213444
 30
0.0
  0
VERTEX
  5
645
  8
0
  6
CONTINUOUS
 62
     7
 10
76.6885040636
 20
114.744414116
 30
0.0
  0
VERTEX
  5
646
  8
0
  6
CONTINUOUS
 62
     7
 10
76.6885776381
 20
114.7430110786
 30
0.0
  0
VERTEX
  5
647
  8
0
  6
CONTINUOUS
 62
     7
 10
76.6886507469
 20
114.7416122321
 30
0.0
  0
SEQEND
  5
75B
  8
0
  6
CONTINUOUS
 62
     7
  0
LINE
  5
2B9
  8
0
  6
CONTINUOUS
 62
     7
 10
72.5851928352
 20
114.5381317537
 30
0.0
 11
72.5914987767
 21
114.5268892932
 31
0.0
  0
LINE
  5
2BA
  8
0
  6
CONTINUOUS
 62
     7
 10
72.5851928352
 20
114.5381317537
 30
0.0
 11
72.5635624973
 21
114.5766163308
 31
0.0
  0
POLYLINE
  5
2BB
  8
0
  6
CONTINUOUS
 62
     7
 66
     1
 10
0.0
 20
0.0
 30
0.0
 70
   128
  0
VERTEX
  5
648
  8
0
  6
CONTINUOUS
 62
     7
 10
72.5635624973
 20
114.5766163308
 30
0.0
  0
VERTEX
  5
649
  8
0
  6
CONTINUOUS
 62
     7
 10
72.5398020574
 20
114.68841043
 30
0.0
  0
VERTEX
  5
64A
  8
0
  6
CONTINUOUS
 62
     7
 10
72.4890014032
 20
114.8208184231
 30
0.0
  0
SEQEND
  5
75C
  8
0
  6
CONTINUOUS
 62
     7
  0
POLYLINE
  5
2BC
  8
0
  6
CONTINUOUS
 62
     7
 66
     1
 10
0.0
 20
0.0
 30
0.0
 70
   128
  0
VERTEX
  5
64B
  8
0
  6
CONTINUOUS
 62
     7
 10
72.8271970135
 20
109.9623707186
 30
0.0
  0
VERTEX
  5
64C
  8
0
  6
CONTINUOUS
 62
     7
 10
72.8288281085
 20
109.9689570318
 30
0.0
  0
VERTEX
  5
64D
  8
0
  6
CONTINUOUS
 62
     7
 10
72.8301013138
 20
109.9740821
 30
0.0
  0
SEQEND
  5
75D
  8
0
  6
CONTINUOUS
 62
     7
  0
LINE
  5
2BD
  8
0
  6
CONTINUOUS
 62
     7
 10
72.8271970135
 20
109.9623707186
 30
0.0
 11
72.9073416575
 21
109.9667926382
 31
0.0
  0
POLYLINE
  5
2BE
  8
0
  6
CONTINUOUS
 62
     7
 66
     1
 10
0.0
 20
0.0
 30
0.0
 70
   128
  0
VERTEX
  5
64E
  8
0
  6
CONTINUOUS
 62
     7
 10
76.7682029242
 20
114.757339942
 30
0.0
  0
VERTEX
  5
64F
  8
0
  6
CONTINUOUS
 62
     7
 10
76.7665717127
 20
114.7507540945
 30
0.0
  0
VERTEX
  5
650
  8
0
  6
CONTINUOUS
 62
     7
 10
76.7652985948
 20
114.7456290263
 30
0.0
  0
SEQEND
  5
75E
  8
0
  6
CONTINUOUS
 62
     7
  0
LINE
  5
2BF
  8
0
  6
CONTINUOUS
 62
     7
 10
76.7682029242
 20
114.757339942
 30
0.0
 11
76.6880584257
 21
114.7529180225
 31
0.0
  0
POLYLINE
  5
2C0
  8
0
  6
CONTINUOUS
 62
     7
 66
     1
 10
0.0
 20
0.0
 30
0.0
 70
   128
  0
VERTEX
  5
651
  8
0
  6
CONTINUOUS
 62
     7
 10
76.8096109229
 20
114.7570149105
 30
0.0
  0
VERTEX
  5
652
  8
0
  6
CONTINUOUS
 62
     7
 10
76.8656346323
 20
114.7418646205
 30
0.0
  0
VERTEX
  5
653
  8
0
  6
CONTINUOUS
 62
     7
 10
76.914054093
 20
114.7103048924
 30
0.0
  0
SEQEND
  5
75F
  8
0
  6
CONTINUOUS
 62
     7
  0
POLYLINE
  5
2C1
  8
0
  6
CONTINUOUS
 62
     7
 66
     1
 10
0.0
 20
0.0
 30
0.0
 70
   128
  0
VERTEX
  5
654
  8
0
  6
CONTINUOUS
 62
     7
 10
76.9045937183
 20
114.6997977111
 30
0.0
  0
VERTEX
  5
655
  8
0
  6
CONTINUOUS
 62
     7
 10
76.9098743173
 20
114.7056622494
 30
0.0
  0
VERTEX
  5
656
  8
0
  6
CONTINUOUS
 62
     7
 10
76.914054093
 20
114.7103044267
 30
0.0
  0
SEQEND
  5
760
  8
0
  6
CONTINUOUS
 62
     7
  0
LINE
  5
2C2
  8
0
  6
CONTINUOUS
 62
     7
 10
76.8096109229
 20
114.7570149105
 30
0.0
 11
76.8048891174
 21
114.745050675
 31
0.0
  0
POLYLINE
  5
2C3
  8
0
  6
CONTINUOUS
 62
     7
 66
     1
 10
0.0
 20
0.0
 30
0.0
 70
   128
  0
VERTEX
  5
657
  8
0
  6
CONTINUOUS
 62
     7
 10
77.1948594908
 20
110.3479447838
 30
0.0
  0
VERTEX
  5
658
  8
0
  6
CONTINUOUS
 62
     7
 10
77.1797092008
 20
110.2919210743
 30
0.0
  0
VERTEX
  5
659
  8
0
  6
CONTINUOUS
 62
     7
 10
77.1481494727
 20
110.2435006823
 30
0.0
  0
SEQEND
  5
761
  8
0
  6
CONTINUOUS
 62
     7
  0
POLYLINE
  5
2C4
  8
0
  6
CONTINUOUS
 62
     7
 66
     1
 10
0.0
 20
0.0
 30
0.0
 70
   128
  0
VERTEX
  5
65A
  8
0
  6
CONTINUOUS
 62
     7
 10
77.1376422914
 20
110.2529619883
 30
0.0
  0
VERTEX
  5
65B
  8
0
  6
CONTINUOUS
 62
     7
 10
77.1435068297
 20
110.2476813893
 30
0.0
  0
VERTEX
  5
65C
  8
0
  6
CONTINUOUS
 62
     7
 10
77.1481494727
 20
110.2435016136
 30
0.0
  0
SEQEND
  5
762
  8
0
  6
CONTINUOUS
 62
     7
  0
LINE
  5
2C5
  8
0
  6
CONTINUOUS
 62
     7
 10
77.1948594908
 20
110.3479447838
 30
0.0
 11
77.1828952553
 21
110.3526665892
 31
0.0
  0
POLYLINE
  5
2C6
  8
0
  6
CONTINUOUS
 62
     7
 66
     1
 10
0.0
 20
0.0
 30
0.0
 70
   128
  0
VERTEX
  5
65D
  8
0
  6
CONTINUOUS
 62
     7
 10
72.4005405051
 20
114.3717663426
 30
0.0
  0
VERTEX
  5
65E
  8
0
  6
CONTINUOUS
 62
     7
 10
72.4156908315
 20
114.427790052
 30
0.0
  0
VERTEX
  5
65F
  8
0
  6
CONTINUOUS
 62
     7
 10
72.4472507451
 20
114.4762095127
 30
0.0
  0
SEQEND
  5
763
  8
0
  6
CONTINUOUS
 62
     7
  0
POLYLINE
  5
2C7
  8
0
  6
CONTINUOUS
 62
     7
 66
     1
 10
0.0
 20
0.0
 30
0.0
 70
   128
  0
VERTEX
  5
660
  8
0
  6
CONTINUOUS
 62
     7
 10
72.4577575389
 20
114.466749138
 30
0.0
  0
VERTEX
  5
661
  8
0
  6
CONTINUOUS
 62
     7
 10
72.4518930553
 20
114.4720292713
 30
0.0
  0
VERTEX
  5
662
  8
0
  6
CONTINUOUS
 62
     7
 10
72.4472507815
 20
114.4762095127
 30
0.0
  0
SEQEND
  5
764
  8
0
  6
CONTINUOUS
 62
     7
  0
LINE
  5
2C8
  8
0
  6
CONTINUOUS
 62
     7
 10
72.4005405051
 20
114.3717663426
 30
0.0
 11
72.4125048461
 21
114.3670445371
 31
0.0
  0
POLYLINE
  5
2C9
  8
0
  6
CONTINUOUS
 62
     7
 66
     1
 10
0.0
 20
0.0
 30
0.0
 70
   128
  0
VERTEX
  5
663
  8
0
  6
CONTINUOUS
 62
     7
 10
72.7857892768
 20
109.9626957502
 30
0.0
  0
VERTEX
  5
664
  8
0
  6
CONTINUOUS
 62
     7
 10
72.72976548
 20
109.9778465058
 30
0.0
  0
VERTEX
  5
665
  8
0
  6
CONTINUOUS
 62
     7
 10
72.6813457428
 20
110.0094062339
 30
0.0
  0
SEQEND
  5
765
  8
0
  6
CONTINUOUS
 62
     7
  0
POLYLINE
  5
2CA
  8
0
  6
CONTINUOUS
 62
     7
 66
     1
 10
0.0
 20
0.0
 30
0.0
 70
   128
  0
VERTEX
  5
666
  8
0
  6
CONTINUOUS
 62
     7
 10
72.6908063504
 20
110.0199124839
 30
0.0
  0
VERTEX
  5
667
  8
0
  6
CONTINUOUS
 62
     7
 10
72.6855259405
 20
110.0140488769
 30
0.0
  0
VERTEX
  5
668
  8
0
  6
CONTINUOUS
 62
     7
 10
72.6813460193
 20
110.0094062339
 30
0.0
  0
SEQEND
  5
766
  8
0
  6
CONTINUOUS
 62
     7
  0
LINE
  5
2CB
  8
0
  6
CONTINUOUS
 62
     7
 10
72.7857892768
 20
109.9626957502
 30
0.0
 11
72.7905110531
 21
109.9746604513
 31
0.0
  0
ARC
  5
2CC
  8
0
  6
CONTINUOUS
 62
     7
 10
77.0086160671
 20
110.3697274297
 30
0.0
 40
0.1881552496848545
 50
270.4844950375
 51
317.8665312846
  0
ARC
  5
2CD
  8
0
  6
CONTINUOUS
 62
     7
 10
76.7878293024
 20
114.5707725823
 30
0.0
 40
0.1881537493096768
 50
0.4841652928
 51
47.8665390723
  0
ARC
  5
2CE
  8
0
  6
CONTINUOUS
 62
     7
 10
72.5867836475
 20
114.3499827134
 30
0.0
 40
0.1881557653885609
 50
90.4844279741
 51
137.8662696162
  0
ARC
  5
2CF
  8
0
  6
CONTINUOUS
 62
     7
 10
72.8075712045
 20
110.1489379968
 30
0.0
 40
0.1881540413848778
 50
180.4841396836
 51
227.8664037026
  0
LINE
  5
2D0
  8
0
  6
CONTINUOUS
 62
     7
 10
72.8271970135
 20
109.9623707186
 30
0.0
 11
72.7857892768
 21
109.9626957502
 31
0.0
  0
LINE
  5
2D1
  8
0
  6
CONTINUOUS
 62
     7
 10
76.7682029242
 20
114.757339942
 30
0.0
 11
76.8096109229
 21
114.7570149105
 31
0.0
  0
LINE
  5
2D2
  8
0
  6
CONTINUOUS
 62
     7
 10
77.1951845224
 20
110.3893523167
 30
0.0
 11
77.1948594908
 21
110.3479447838
 31
0.0
  0
LINE
  5
2D3
  8
0
  6
CONTINUOUS
 62
     7
 10
72.4002153426
 20
114.3303583439
 30
0.0
 11
72.4005405051
 21
114.3717663426
 31
0.0
  0
LINE
  5
2D4
  8
0
  6
CONTINUOUS
 62
     7
 10
72.3302183457
 20
109.9322498839
 30
0.0
 11
72.3172545392
 21
109.9216281499
 31
0.0
  0
LINE
  5
2D5
  8
0
  6
CONTINUOUS
 62
     7
 10
72.3856224855
 20
109.8302663367
 30
0.0
 11
72.3302271059
 21
109.9322526779
 31
0.0
  0
LINE
  5
2D6
  8
0
  6
CONTINUOUS
 62
     7
 10
77.2651817957
 20
114.7874607768
 30
0.0
 11
77.2781453403
 21
114.7980825107
 31
0.0
  0
LINE
  5
2D7
  8
0
  6
CONTINUOUS
 62
     7
 10
77.2097774158
 20
114.8894447896
 30
0.0
 11
77.2651729482
 21
114.7874579828
 31
0.0
  0
LINE
  5
2D8
  8
0
  6
CONTINUOUS
 62
     7
 10
77.2253053571
 20
109.8923734452
 30
0.0
 11
77.235927091
 21
109.8794103663
 31
0.0
  0
LINE
  5
2D9
  8
0
  6
CONTINUOUS
 62
     7
 10
77.3272893699
 20
109.9477778252
 30
0.0
 11
77.2253030288
 21
109.8923827584
 31
0.0
  0
LINE
  5
2DA
  8
0
  6
CONTINUOUS
 62
     7
 10
72.3700945297
 20
114.8273372154
 30
0.0
 11
72.3594727739
 21
114.84030076
 31
0.0
  0
LINE
  5
2DB
  8
0
  6
CONTINUOUS
 62
     7
 10
72.2681107424
 20
114.7719328355
 30
0.0
 11
72.3700972072
 21
114.8273283679
 31
0.0
  0
ARC
  5
2DC
  8
0
  6
CONTINUOUS
 62
     7
 10
72.8494835004
 20
109.814130312
 30
0.0
 40
0.4114575775902198
 50
130.8331129163
 51
137.518167058
  0
POLYLINE
  5
2DD
  8
0
  6
CONTINUOUS
 62
     7
 66
     1
 10
0.0
 20
0.0
 30
0.0
 70
   128
  0
VERTEX
  5
669
  8
0
  6
CONTINUOUS
 62
     7
 10
72.6813459174
 20
110.0094062339
 30
0.0
  0
VERTEX
  5
66A
  8
0
  6
CONTINUOUS
 62
     7
 10
72.6452975347
 20
109.9791568767
 30
0.0
  0
VERTEX
  5
66B
  8
0
  6
CONTINUOUS
 62
     7
 10
72.6046499609
 20
109.9502616625
 30
0.0
  0
SEQEND
  5
767
  8
0
  6
CONTINUOUS
 62
     7
  0
LINE
  5
2DE
  8
0
  6
CONTINUOUS
 62
     7
 10
72.3223701922
 20
114.3501475516
 30
0.0
 11
72.4002153426
 21
114.3303583439
 31
0.0
  0
LINE
  5
2DF
  8
0
  6
CONTINUOUS
 62
     7
 10
72.3291197634
 20
114.2568867717
 30
0.0
 11
72.4046373276
 21
114.2502138454
 31
0.0
  0
LINE
  5
2E0
  8
0
  6
CONTINUOUS
 62
     7
 10
72.3291197634
 20
114.2568867717
 30
0.0
 11
72.3223701922
 21
114.3501475516
 31
0.0
  0
LINE
  5
2E1
  8
0
  6
CONTINUOUS
 62
     7
 10
77.2730300511
 20
110.3695635747
 30
0.0
 11
77.1951845224
 21
110.3893523167
 31
0.0
  0
LINE
  5
2E2
  8
0
  6
CONTINUOUS
 62
     7
 10
77.2662802907
 20
110.4628234233
 30
0.0
 11
77.1907626028
 21
110.4694972809
 31
0.0
  0
LINE
  5
2E3
  8
0
  6
CONTINUOUS
 62
     7
 10
77.2662802907
 20
110.4628234233
 30
0.0
 11
77.2730300511
 21
110.3695635747
 31
0.0
  0
LINE
  5
2E4
  8
0
  6
CONTINUOUS
 62
     7
 10
72.8074078348
 20
109.8845251899
 30
0.0
 11
72.8271970135
 21
109.9623707186
 31
0.0
  0
LINE
  5
2E5
  8
0
  6
CONTINUOUS
 62
     7
 10
72.9006684111
 20
109.8912754159
 30
0.0
 11
72.9073416575
 21
109.9667926382
 31
0.0
  0
LINE
  5
2E6
  8
0
  6
CONTINUOUS
 62
     7
 10
72.9006684111
 20
109.8912754159
 30
0.0
 11
72.8074078348
 21
109.8845251899
 31
0.0
  0
LINE
  5
2E7
  8
0
  6
CONTINUOUS
 62
     7
 10
76.7879921319
 20
114.8351850051
 30
0.0
 11
76.7682029242
 21
114.757339942
 31
0.0
  0
LINE
  5
2E8
  8
0
  6
CONTINUOUS
 62
     7
 10
76.6947318176
 20
114.8284357104
 30
0.0
 11
76.6880584257
 21
114.7529180225
 31
0.0
  0
LINE
  5
2E9
  8
0
  6
CONTINUOUS
 62
     7
 10
76.6947318176
 20
114.8284357104
 30
0.0
 11
76.7879921319
 21
114.8351850051
 31
0.0
  0
POLYLINE
  5
2EA
  8
0
  6
CONTINUOUS
 62
     7
 66
     1
 10
0.0
 20
0.0
 30
0.0
 70
   128
  0
VERTEX
  5
66C
  8
0
  6
CONTINUOUS
 62
     7
 10
77.0493640872
 20
114.6277003053
 30
0.0
  0
VERTEX
  5
66D
  8
0
  6
CONTINUOUS
 62
     7
 10
77.0311520743
 20
114.6069155138
 30
0.0
  0
VERTEX
  5
66E
  8
0
  6
CONTINUOUS
 62
     7
 10
77.0145954872
 20
114.59405814
 30
0.0
  0
SEQEND
  5
768
  8
0
  6
CONTINUOUS
 62
     7
  0
POLYLINE
  5
2EB
  8
0
  6
CONTINUOUS
 62
     7
 66
     1
 10
0.0
 20
0.0
 30
0.0
 70
   128
  0
VERTEX
  5
66F
  8
0
  6
CONTINUOUS
 62
     7
 10
76.914054093
 20
114.7103044267
 30
0.0
  0
VERTEX
  5
670
  8
0
  6
CONTINUOUS
 62
     7
 10
76.9501023302
 20
114.740553784
 30
0.0
  0
VERTEX
  5
671
  8
0
  6
CONTINUOUS
 62
     7
 10
76.990749904
 20
114.7694489982
 30
0.0
  0
SEQEND
  5
769
  8
0
  6
CONTINUOUS
 62
     7
  0
POLYLINE
  5
2EC
  8
0
  6
CONTINUOUS
 62
     7
 66
     1
 10
0.0
 20
0.0
 30
0.0
 70
   128
  0
VERTEX
  5
672
  8
0
  6
CONTINUOUS
 62
     7
 10
77.0655448856
 20
110.1081916194
 30
0.0
  0
VERTEX
  5
673
  8
0
  6
CONTINUOUS
 62
     7
 10
77.0448392565
 20
110.1262564834
 30
0.0
  0
VERTEX
  5
674
  8
0
  6
CONTINUOUS
 62
     7
 10
77.0319120335
 20
110.1429439213
 30
0.0
  0
SEQEND
  5
76A
  8
0
  6
CONTINUOUS
 62
     7
  0
POLYLINE
  5
2ED
  8
0
  6
CONTINUOUS
 62
     7
 66
     1
 10
0.0
 20
0.0
 30
0.0
 70
   128
  0
VERTEX
  5
675
  8
0
  6
CONTINUOUS
 62
     7
 10
77.148149007
 20
110.2435016136
 30
0.0
  0
VERTEX
  5
676
  8
0
  6
CONTINUOUS
 62
     7
 10
77.1783983643
 20
110.2074529107
 30
0.0
  0
VERTEX
  5
677
  8
0
  6
CONTINUOUS
 62
     7
 10
77.2072935785
 20
110.166805337
 30
0.0
  0
SEQEND
  5
76B
  8
0
  6
CONTINUOUS
 62
     7
  0
POLYLINE
  5
2EE
  8
0
  6
CONTINUOUS
 62
     7
 66
     1
 10
0.0
 20
0.0
 30
0.0
 70
   128
  0
VERTEX
  5
678
  8
0
  6
CONTINUOUS
 62
     7
 10
72.5298553504
 20
114.6115195069
 30
0.0
  0
VERTEX
  5
679
  8
0
  6
CONTINUOUS
 62
     7
 10
72.5505700381
 20
114.5934439327
 30
0.0
  0
VERTEX
  5
67A
  8
0
  6
CONTINUOUS
 62
     7
 10
72.5635615223
 20
114.5766386825
 30
0.0
  0
SEQEND
  5
76C
  8
0
  6
CONTINUOUS
 62
     7
  0
POLYLINE
  5
2EF
  8
0
  6
CONTINUOUS
 62
     7
 66
     1
 10
0.0
 20
0.0
 30
0.0
 70
   128
  0
VERTEX
  5
67B
  8
0
  6
CONTINUOUS
 62
     7
 10
72.4472509361
 20
114.4762095127
 30
0.0
  0
VERTEX
  5
67C
  8
0
  6
CONTINUOUS
 62
     7
 10
72.4170014716
 20
114.5122577499
 30
0.0
  0
VERTEX
  5
67D
  8
0
  6
CONTINUOUS
 62
     7
 10
72.388106592
 20
114.5529053237
 30
0.0
  0
SEQEND
  5
76D
  8
0
  6
CONTINUOUS
 62
     7
  0
LINE
  5
2F0
  8
0
  6
CONTINUOUS
 62
     7
 10
72.3291197488
 20
114.2568867717
 30
0.0
 11
72.3405243322
 21
114.2386002529
 31
0.0
  0
LINE
  5
2F1
  8
0
  6
CONTINUOUS
 62
     7
 10
76.6947318176
 20
114.8284357104
 30
0.0
 11
76.6764448332
 21
114.8170311998
 31
0.0
  0
LINE
  5
2F2
  8
0
  6
CONTINUOUS
 62
     7
 10
77.2662802907
 20
110.4628234233
 30
0.0
 11
77.2548757801
 21
110.4811108734
 31
0.0
  0
LINE
  5
2F3
  8
0
  6
CONTINUOUS
 62
     7
 10
72.9006684111
 20
109.8912754159
 30
0.0
 11
72.9189551045
 21
109.9026794608
 31
0.0
  0
POLYLINE
  5
2F4
  8
0
  6
CONTINUOUS
 62
     7
 66
     1
 10
0.0
 20
0.0
 30
0.0
 70
   128
  0
VERTEX
  5
67E
  8
0
  6
CONTINUOUS
 62
     7
 10
72.7536804176
 20
109.8829791944
 30
0.0
  0
VERTEX
  5
67F
  8
0
  6
CONTINUOUS
 62
     7
 10
72.7701377606
 20
109.9238065134
 30
0.0
  0
VERTEX
  5
680
  8
0
  6
CONTINUOUS
 62
     7
 10
72.7857892768
 20
109.9626957502
 30
0.0
  0
SEQEND
  5
76E
  8
0
  6
CONTINUOUS
 62
     7
  0
LINE
  5
2F5
  8
0
  6
CONTINUOUS
 62
     7
 10
72.6302296231
 20
109.9268705647
 30
0.0
 11
72.6309675216
 21
109.9284035217
 31
0.0
  0
ARC
  5
2F6
  8
0
  6
CONTINUOUS
 62
     7
 10
73.1311861253
 20
109.6734676169
 30
0.0
 40
0.5614365209386076
 50
143.2477920987
 51
152.9943809551
  0
POLYLINE
  5
2F7
  8
0
  6
CONTINUOUS
 62
     7
 66
     1
 10
0.0
 20
0.0
 30
0.0
 70
   128
  0
VERTEX
  5
681
  8
0
  6
CONTINUOUS
 62
     7
 10
77.2745760466
 20
110.3158355753
 30
0.0
  0
VERTEX
  5
682
  8
0
  6
CONTINUOUS
 62
     7
 10
77.2337482619
 20
110.3322929766
 30
0.0
  0
VERTEX
  5
683
  8
0
  6
CONTINUOUS
 62
     7
 10
77.1948594908
 20
110.3479447838
 30
0.0
  0
SEQEND
  5
76F
  8
0
  6
CONTINUOUS
 62
     7
  0
LINE
  5
2F8
  8
0
  6
CONTINUOUS
 62
     7
 10
77.2306846763
 20
110.1923850428
 30
0.0
 11
77.229152185
 21
110.1931226503
 31
0.0
  0
ARC
  5
2F9
  8
0
  6
CONTINUOUS
 62
     7
 10
77.4840516706
 20
110.6932807342
 30
0.0
 40
0.5613660630052463
 50
233.247001613
 51
242.9948879459
  0
POLYLINE
  5
2FA
  8
0
  6
CONTINUOUS
 62
     7
 66
     1
 10
0.0
 20
0.0
 30
0.0
 70
   128
  0
VERTEX
  5
684
  8
0
  6
CONTINUOUS
 62
     7
 10
72.3208241967
 20
114.4038750853
 30
0.0
  0
VERTEX
  5
685
  8
0
  6
CONTINUOUS
 62
     7
 10
72.3616515521
 20
114.3874176841
 30
0.0
  0
VERTEX
  5
686
  8
0
  6
CONTINUOUS
 62
     7
 10
72.4005405051
 20
114.3717663426
 30
0.0
  0
SEQEND
  5
770
  8
0
  6
CONTINUOUS
 62
     7
  0
LINE
  5
2FB
  8
0
  6
CONTINUOUS
 62
     7
 10
72.3647155015
 20
114.5273256179
 30
0.0
 11
72.3662478837
 21
114.5265880104
 31
0.0
  0
ARC
  5
2FC
  8
0
  6
CONTINUOUS
 62
     7
 10
72.1112871873
 20
114.0263281491
 30
0.0
 40
0.5614845338866692
 50
53.2482502172
 51
62.9940393442
  0
POLYLINE
  5
2FD
  8
0
  6
CONTINUOUS
 62
     7
 66
     1
 10
0.0
 20
0.0
 30
0.0
 70
   128
  0
VERTEX
  5
687
  8
0
  6
CONTINUOUS
 62
     7
 10
76.8417196656
 20
114.8367310006
 30
0.0
  0
VERTEX
  5
688
  8
0
  6
CONTINUOUS
 62
     7
 10
76.8252622644
 20
114.7959036816
 30
0.0
  0
VERTEX
  5
689
  8
0
  6
CONTINUOUS
 62
     7
 10
76.8096109229
 20
114.7570149105
 30
0.0
  0
SEQEND
  5
771
  8
0
  6
CONTINUOUS
 62
     7
  0
LINE
  5
2FE
  8
0
  6
CONTINUOUS
 62
     7
 10
76.9651701982
 20
114.7928400959
 30
0.0
 11
76.9644325907
 21
114.7913076046
 31
0.0
  0
ARC
  5
2FF
  8
0
  6
CONTINUOUS
 62
     7
 10
76.4642107593
 20
115.0462441513
 30
0.0
 40
0.5614396881191206
 50
323.2478924105
 51
332.9944721617
  0
LINE
  5
300
  8
0
  6
CONTINUOUS
 62
     7
 10
76.9644325907
 20
114.7913076046
 30
0.0
 11
76.990751301
 21
114.7694499295
 31
0.0
  0
LINE
  5
301
  8
0
  6
CONTINUOUS
 62
     7
 10
77.229152185
 20
110.1931226503
 30
0.0
 11
77.2072945098
 21
110.1668044056
 31
0.0
  0
LINE
  5
302
  8
0
  6
CONTINUOUS
 62
     7
 10
72.3662478837
 20
114.5265880104
 30
0.0
 11
72.3881053188
 21
114.5529067207
 31
0.0
  0
LINE
  5
303
  8
0
  6
CONTINUOUS
 62
     7
 10
72.6309675216
 20
109.9284035217
 30
0.0
 11
72.6046488841
 21
109.9502607312
 31
0.0
  0
LINE
  5
304
  8
0
  6
CONTINUOUS
 62
     7
 10
72.8074078348
 20
109.8845251899
 30
0.0
 11
72.7536804176
 21
109.8829791944
 31
0.0
  0
LINE
  5
305
  8
0
  6
CONTINUOUS
 62
     7
 10
76.7879921319
 20
114.8351850051
 30
0.0
 11
76.8417196656
 21
114.8367310006
 31
0.0
  0
LINE
  5
306
  8
0
  6
CONTINUOUS
 62
     7
 10
77.2730300511
 20
110.3695635747
 30
0.0
 11
77.2745760466
 21
110.3158355753
 31
0.0
  0
LINE
  5
307
  8
0
  6
CONTINUOUS
 62
     7
 10
72.3223701922
 20
114.3501475516
 30
0.0
 11
72.3208241967
 21
114.4038750853
 31
0.0
  0
LINE
  5
308
  8
0
  6
CONTINUOUS
 62
     7
 10
72.3302183457
 20
109.9322498839
 30
0.0
 11
72.3451490764
 21
109.9399901058
 31
0.0
  0
LINE
  5
309
  8
0
  6
CONTINUOUS
 62
     7
 10
77.2651817957
 20
114.7874612424
 30
0.0
 11
77.2502508322
 21
114.7797210205
 31
0.0
  0
LINE
  5
30A
  8
0
  6
CONTINUOUS
 62
     7
 10
77.2253058227
 20
109.8923734452
 30
0.0
 11
77.2175656008
 21
109.9073044087
 31
0.0
  0
LINE
  5
30B
  8
0
  6
CONTINUOUS
 62
     7
 10
72.370094326
 20
114.8273372154
 30
0.0
 11
72.3778345624
 21
114.8124062519
 31
0.0
  0
POLYLINE
  5
30C
  8
0
  6
CONTINUOUS
 62
     7
 66
     1
 10
0.0
 20
0.0
 30
0.0
 70
   128
  0
VERTEX
  5
68A
  8
0
  6
CONTINUOUS
 62
     7
 10
77.1759536425
 20
114.7366096329
 30
0.0
  0
VERTEX
  5
68B
  8
0
  6
CONTINUOUS
 62
     7
 10
77.2173555876
 20
114.7034512896
 30
0.0
  0
VERTEX
  5
68C
  8
0
  6
CONTINUOUS
 62
     7
 10
77.2586625377
 20
114.6685532357
 30
0.0
  0
SEQEND
  5
772
  8
0
  6
CONTINUOUS
 62
     7
  0
POLYLINE
  5
30D
  8
0
  6
CONTINUOUS
 62
     7
 66
     1
 10
0.0
 20
0.0
 30
0.0
 70
   128
  0
VERTEX
  5
68D
  8
0
  6
CONTINUOUS
 62
     7
 10
72.4209447314
 20
114.7381095279
 30
0.0
  0
VERTEX
  5
68E
  8
0
  6
CONTINUOUS
 62
     7
 10
72.4541032511
 20
114.7795119386
 30
0.0
  0
VERTEX
  5
68F
  8
0
  6
CONTINUOUS
 62
     7
 10
72.4890014032
 20
114.8208184231
 30
0.0
  0
SEQEND
  5
773
  8
0
  6
CONTINUOUS
 62
     7
  0
POLYLINE
  5
30E
  8
0
  6
CONTINUOUS
 62
     7
 66
     1
 10
0.0
 20
0.0
 30
0.0
 70
   128
  0
VERTEX
  5
690
  8
0
  6
CONTINUOUS
 62
     7
 10
72.3367382294
 20
110.0511574249
 30
0.0
  0
VERTEX
  5
691
  8
0
  6
CONTINUOUS
 62
     7
 10
72.3780450122
 20
110.0162598367
 30
0.0
  0
VERTEX
  5
692
  8
0
  6
CONTINUOUS
 62
     7
 10
72.4194473502
 20
109.9831019591
 30
0.0
  0
SEQEND
  5
774
  8
0
  6
CONTINUOUS
 62
     7
  0
POLYLINE
  5
30F
  8
0
  6
CONTINUOUS
 62
     7
 66
     1
 10
0.0
 20
0.0
 30
0.0
 70
   128
  0
VERTEX
  5
693
  8
0
  6
CONTINUOUS
 62
     7
 10
77.1744551445
 20
109.9816006671
 30
0.0
  0
VERTEX
  5
694
  8
0
  6
CONTINUOUS
 62
     7
 10
77.1412968012
 20
109.9401987221
 30
0.0
  0
VERTEX
  5
695
  8
0
  6
CONTINUOUS
 62
     7
 10
77.1063987473
 20
109.8988917719
 30
0.0
  0
SEQEND
  5
775
  8
0
  6
CONTINUOUS
 62
     7
  0
LINE
  5
310
  8
0
  6
CONTINUOUS
 62
     7
 10
72.6623947545
 20
109.6229697641
 30
0.0
 11
72.6707517157
 21
109.6676313381
 31
0.0
  0
LINE
  5
311
  8
0
  6
CONTINUOUS
 62
     7
 10
77.5345854769
 20
110.2245501305
 30
0.0
 11
77.4899239028
 21
110.232906888
 31
0.0
  0
LINE
  5
312
  8
0
  6
CONTINUOUS
 62
     7
 10
72.060814519
 20
114.4951605301
 30
0.0
 11
72.105476064
 21
114.4868037726
 31
0.0
  0
LINE
  5
313
  8
0
  6
CONTINUOUS
 62
     7
 10
76.9330051104
 20
115.0967408966
 30
0.0
 11
76.9246483529
 21
115.0520793225
 31
0.0
  0
LINE
  5
314
  8
0
  6
CONTINUOUS
 62
     7
 10
72.6918115821
 20
109.6670092146
 30
0.0
 11
72.6707517157
 21
109.6676313381
 31
0.0
  0
LINE
  5
315
  8
0
  6
CONTINUOUS
 62
     7
 10
72.6918114366
 20
109.6670082833
 30
0.0
 11
72.6846692547
 21
109.624935786
 31
0.0
  0
LINE
  5
316
  8
0
  6
CONTINUOUS
 62
     7
 10
77.490546492
 20
110.2539668854
 30
0.0
 11
77.4899239028
 21
110.232906888
 31
0.0
  0
LINE
  5
317
  8
0
  6
CONTINUOUS
 62
     7
 10
77.4905474233
 20
110.2539668854
 30
0.0
 11
77.5326194549
 21
110.2468245726
 31
0.0
  0
LINE
  5
318
  8
0
  6
CONTINUOUS
 62
     7
 10
72.1048534457
 20
114.4657437753
 30
0.0
 11
72.105476064
 21
114.4868037726
 31
0.0
  0
LINE
  5
319
  8
0
  6
CONTINUOUS
 62
     7
 10
72.1048525726
 20
114.4657437753
 30
0.0
 11
72.0627805701
 21
114.4728860881
 31
0.0
  0
LINE
  5
31A
  8
0
  6
CONTINUOUS
 62
     7
 10
76.9035883556
 20
115.0527019117
 30
0.0
 11
76.9246483529
 21
115.0520793225
 31
0.0
  0
LINE
  5
31B
  8
0
  6
CONTINUOUS
 62
     7
 10
76.9035888212
 20
115.052702843
 30
0.0
 11
76.9107306684
 21
115.0947748746
 31
0.0
  0
LINE
  5
31C
  8
0
  6
CONTINUOUS
 62
     7
 10
72.751221173
 20
109.6649388846
 30
0.0
 11
72.6918114512
 21
109.667004558
 31
0.0
  0
LINE
  5
31D
  8
0
  6
CONTINUOUS
 62
     7
 10
72.7475027803
 20
109.6325586613
 30
0.0
 11
72.751221173
 21
109.6649388846
 31
0.0
  0
LINE
  5
31E
  8
0
  6
CONTINUOUS
 62
     7
 10
77.4926163564
 20
110.3133768837
 30
0.0
 11
77.4905511486
 21
110.2539668854
 31
0.0
  0
LINE
  5
31F
  8
0
  6
CONTINUOUS
 62
     7
 10
77.5249965797
 20
110.3096581127
 30
0.0
 11
77.4926163564
 21
110.3133768837
 31
0.0
  0
LINE
  5
320
  8
0
  6
CONTINUOUS
 62
     7
 10
72.102783494
 20
114.4063342426
 30
0.0
 11
72.1048489055
 21
114.4657437753
 31
0.0
  0
LINE
  5
321
  8
0
  6
CONTINUOUS
 62
     7
 10
72.0704035908
 20
114.4100525479
 30
0.0
 11
72.102783494
 21
114.4063342426
 31
0.0
  0
LINE
  5
322
  8
0
  6
CONTINUOUS
 62
     7
 10
76.8441788229
 20
115.0547720089
 30
0.0
 11
76.9035883556
 21
115.0527065683
 31
0.0
  0
LINE
  5
323
  8
0
  6
CONTINUOUS
 62
     7
 10
76.8478971282
 20
115.0871517665
 30
0.0
 11
76.8441788229
 21
115.0547720089
 31
0.0
  0
LINE
  5
324
  8
0
  6
CONTINUOUS
 62
     7
 10
72.756401975
 20
109.6699968975
 30
0.0
 11
72.8074078348
 21
109.8845251899
 31
0.0
  0
LINE
  5
325
  8
0
  6
CONTINUOUS
 62
     7
 10
72.6918115821
 20
109.6670092146
 30
0.0
 11
72.756401975
 21
109.6699968975
 31
0.0
  0
LINE
  5
326
  8
0
  6
CONTINUOUS
 62
     7
 10
77.4875583435
 20
110.3185568999
 30
0.0
 11
77.2730300511
 21
110.3695635747
 31
0.0
  0
LINE
  5
327
  8
0
  6
CONTINUOUS
 62
     7
 10
77.490546492
 20
110.2539668854
 30
0.0
 11
77.4875583435
 21
110.3185568999
 31
0.0
  0
LINE
  5
328
  8
0
  6
CONTINUOUS
 62
     7
 10
72.1078415942
 20
114.4011532951
 30
0.0
 11
72.3223701922
 21
114.3501475516
 31
0.0
  0
LINE
  5
329
  8
0
  6
CONTINUOUS
 62
     7
 10
72.1048534457
 20
114.4657437753
 30
0.0
 11
72.1078415942
 21
114.4011532951
 31
0.0
  0
LINE
  5
32A
  8
0
  6
CONTINUOUS
 62
     7
 10
76.8389978754
 20
115.0497137632
 30
0.0
 11
76.7879921319
 21
114.8351850051
 31
0.0
  0
LINE
  5
32B
  8
0
  6
CONTINUOUS
 62
     7
 10
76.9035883556
 20
115.0527019117
 30
0.0
 11
76.8389978754
 21
115.0497137632
 31
0.0
  0
LINE
  5
32C
  8
0
  6
CONTINUOUS
 62
     7
 10
72.7551824954
 20
109.6648727607
 30
0.0
 11
72.7563995594
 21
109.6699978288
 31
0.0
  0
LINE
  5
32D
  8
0
  6
CONTINUOUS
 62
     7
 10
72.751221173
 20
109.6649388846
 30
0.0
 11
72.7551824954
 21
109.6648727607
 31
0.0
  0
LINE
  5
32E
  8
0
  6
CONTINUOUS
 62
     7
 10
77.492682946
 20
110.3173377987
 30
0.0
 11
77.4875578778
 21
110.3185550373
 31
0.0
  0
LINE
  5
32F
  8
0
  6
CONTINUOUS
 62
     7
 10
77.4926163564
 20
110.3133768837
 30
0.0
 11
77.492682946
 21
110.3173377987
 31
0.0
  0
LINE
  5
330
  8
0
  6
CONTINUOUS
 62
     7
 10
72.1027171663
 20
114.402372862
 30
0.0
 11
72.1078422345
 21
114.4011556234
 31
0.0
  0
LINE
  5
331
  8
0
  6
CONTINUOUS
 62
     7
 10
72.1027171663
 20
114.402372862
 30
0.0
 11
72.102783494
 21
114.4063342426
 31
0.0
  0
LINE
  5
332
  8
0
  6
CONTINUOUS
 62
     7
 10
76.8402174423
 20
115.0548381328
 30
0.0
 11
76.8390006694
 21
115.0497132975
 31
0.0
  0
LINE
  5
333
  8
0
  6
CONTINUOUS
 62
     7
 10
76.8441788229
 20
115.0547720089
 30
0.0
 11
76.8402174423
 21
115.0548381328
 31
0.0
  0
LINE
  5
334
  8
0
  6
CONTINUOUS
 62
     7
 10
72.7512785949
 20
109.6331342186
 30
0.0
 11
72.7551824954
 21
109.6648727607
 31
0.0
  0
LINE
  5
335
  8
0
  6
CONTINUOUS
 62
     7
 10
77.5244210223
 20
110.3134336944
 30
0.0
 11
77.492682946
 21
110.3173377987
 31
0.0
  0
LINE
  5
336
  8
0
  6
CONTINUOUS
 62
     7
 10
72.0709789154
 20
114.4062769662
 30
0.0
 11
72.1027171663
 21
114.402372862
 31
0.0
  0
LINE
  5
337
  8
0
  6
CONTINUOUS
 62
     7
 10
76.8441215465
 20
115.086576442
 30
0.0
 11
76.8402174423
 21
115.0548381328
 31
0.0
  0
LINE
  5
338
  8
0
  6
CONTINUOUS
 62
     7
 10
72.9027620533
 20
109.6594785403
 30
0.0
 11
72.7551824954
 21
109.6648727607
 31
0.0
  0
LINE
  5
339
  8
0
  6
CONTINUOUS
 62
     7
 10
72.9030107456
 20
109.6553974848
 30
0.0
 11
72.9027620533
 21
109.6594785403
 31
0.0
  0
LINE
  5
33A
  8
0
  6
CONTINUOUS
 62
     7
 10
77.4980767007
 20
110.4649170365
 30
0.0
 11
77.492682946
 21
110.3173377987
 31
0.0
  0
LINE
  5
33B
  8
0
  6
CONTINUOUS
 62
     7
 10
77.5021582218
 20
110.4651656996
 30
0.0
 11
77.4980767007
 21
110.4649170365
 31
0.0
  0
LINE
  5
33C
  8
0
  6
CONTINUOUS
 62
     7
 10
72.0973232952
 20
114.2547931585
 30
0.0
 11
72.1027171663
 21
114.402372862
 31
0.0
  0
LINE
  5
33D
  8
0
  6
CONTINUOUS
 62
     7
 10
72.0932417741
 20
114.2545444954
 30
0.0
 11
72.0973232952
 21
114.2547931585
 31
0.0
  0
LINE
  5
33E
  8
0
  6
CONTINUOUS
 62
     7
 10
76.6926382045
 20
115.0602321203
 30
0.0
 11
76.8402174423
 21
115.0548381328
 31
0.0
  0
LINE
  5
33F
  8
0
  6
CONTINUOUS
 62
     7
 10
76.6923890757
 20
115.0643136415
 30
0.0
 11
76.6926382045
 21
115.0602321203
 31
0.0
  0
LINE
  5
340
  8
0
  6
CONTINUOUS
 62
     7
 10
72.1162381657
 20
114.2562963131
 30
0.0
 11
72.1078415942
 21
114.4011532951
 31
0.0
  0
LINE
  5
341
  8
0
  6
CONTINUOUS
 62
     7
 10
72.0973232952
 20
114.2547931585
 30
0.0
 11
72.1162381657
 21
114.2562963131
 31
0.0
  0
LINE
  5
342
  8
0
  6
CONTINUOUS
 62
     7
 10
72.756401975
 20
109.6699968975
 30
0.0
 11
72.9012592771
 21
109.6783937018
 31
0.0
  0
LINE
  5
343
  8
0
  6
CONTINUOUS
 62
     7
 10
72.9027620533
 20
109.6594785403
 30
0.0
 11
72.9012592771
 21
109.6783937018
 31
0.0
  0
LINE
  5
344
  8
0
  6
CONTINUOUS
 62
     7
 10
77.4875583435
 20
110.3185568999
 30
0.0
 11
77.4791620048
 21
110.4634148132
 31
0.0
  0
LINE
  5
345
  8
0
  6
CONTINUOUS
 62
     7
 10
77.4980767007
 20
110.4649170365
 30
0.0
 11
77.4791620048
 21
110.4634148132
 31
0.0
  0
LINE
  5
346
  8
0
  6
CONTINUOUS
 62
     7
 10
76.8389978754
 20
115.0497137632
 30
0.0
 11
76.6941408935
 21
115.0413171917
 31
0.0
  0
LINE
  5
347
  8
0
  6
CONTINUOUS
 62
     7
 10
76.6926382045
 20
115.0602321203
 30
0.0
 11
76.6941408935
 21
115.0413171917
 31
0.0
  0
POLYLINE
  5
348
  8
0
  6
CONTINUOUS
 62
     7
 66
     1
 10
0.0
 20
0.0
 30
0.0
 70
   128
  0
VERTEX
  5
696
  8
0
  6
CONTINUOUS
 62
     7
 10
72.1212265622
 20
114.2568020213
 30
0.0
  0
VERTEX
  5
697
  8
0
  6
CONTINUOUS
 62
     7
 10
72.2480757528
 20
114.2617459472
 30
0.0
  0
VERTEX
  5
698
  8
0
  6
CONTINUOUS
 62
     7
 10
72.3291197634
 20
114.2568867717
 30
0.0
  0
SEQEND
  5
776
  8
0
  6
CONTINUOUS
 62
     7
  0
LINE
  5
349
  8
0
  6
CONTINUOUS
 62
     7
 10
72.1162381657
 20
114.2562963131
 30
0.0
 11
72.1212265622
 21
114.2568020213
 31
0.0
  0
POLYLINE
  5
34A
  8
0
  6
CONTINUOUS
 62
     7
 66
     1
 10
0.0
 20
0.0
 30
0.0
 70
   128
  0
VERTEX
  5
699
  8
0
  6
CONTINUOUS
 62
     7
 10
72.900753307
 20
109.6833818655
 30
0.0
  0
VERTEX
  5
69A
  8
0
  6
CONTINUOUS
 62
     7
 10
72.895809352
 20
109.8102307941
 30
0.0
  0
VERTEX
  5
69B
  8
0
  6
CONTINUOUS
 62
     7
 10
72.9006684111
 20
109.8912754159
 30
0.0
  0
SEQEND
  5
777
  8
0
  6
CONTINUOUS
 62
     7
  0
LINE
  5
34B
  8
0
  6
CONTINUOUS
 62
     7
 10
72.9012592771
 20
109.6783937018
 30
0.0
 11
72.900753307
 21
109.6833818655
 31
0.0
  0
POLYLINE
  5
34C
  8
0
  6
CONTINUOUS
 62
     7
 66
     1
 10
0.0
 20
0.0
 30
0.0
 70
   128
  0
VERTEX
  5
69C
  8
0
  6
CONTINUOUS
 62
     7
 10
77.4741733755
 20
110.462909105
 30
0.0
  0
VERTEX
  5
69D
  8
0
  6
CONTINUOUS
 62
     7
 10
77.3473244468
 20
110.4579647135
 30
0.0
  0
VERTEX
  5
69E
  8
0
  6
CONTINUOUS
 62
     7
 10
77.2662802907
 20
110.4628234233
 30
0.0
  0
SEQEND
  5
778
  8
0
  6
CONTINUOUS
 62
     7
  0
LINE
  5
34D
  8
0
  6
CONTINUOUS
 62
     7
 10
77.4791620048
 20
110.4634148132
 30
0.0
 11
77.4741733755
 21
110.462909105
 31
0.0
  0
POLYLINE
  5
34E
  8
0
  6
CONTINUOUS
 62
     7
 66
     1
 10
0.0
 20
0.0
 30
0.0
 70
   128
  0
VERTEX
  5
69F
  8
0
  6
CONTINUOUS
 62
     7
 10
76.6946466016
 20
115.0363287951
 30
0.0
  0
VERTEX
  5
6A0
  8
0
  6
CONTINUOUS
 62
     7
 10
76.6995905275
 20
114.9094798665
 30
0.0
  0
VERTEX
  5
6A1
  8
0
  6
CONTINUOUS
 62
     7
 10
76.6947318176
 20
114.8284357104
 30
0.0
  0
SEQEND
  5
779
  8
0
  6
CONTINUOUS
 62
     7
  0
LINE
  5
34F
  8
0
  6
CONTINUOUS
 62
     7
 10
76.6941408935
 20
115.0413171917
 30
0.0
 11
76.6946466016
 21
115.0363287951
 31
0.0
  0
LINE
  5
350
  8
0
  6
CONTINUOUS
 62
     7
 10
72.9438933619
 20
109.6807452913
 30
0.0
 11
72.900753307
 21
109.6833818655
 31
0.0
  0
LINE
  5
351
  8
0
  6
CONTINUOUS
 62
     7
 10
77.4768099497
 20
110.506048898
 30
0.0
 11
77.4741733755
 21
110.462909105
 31
0.0
  0
LINE
  5
352
  8
0
  6
CONTINUOUS
 62
     7
 10
72.1212321793
 20
114.2568015556
 30
0.0
 11
72.1185903082
 21
114.2136622283
 31
0.0
  0
LINE
  5
353
  8
0
  6
CONTINUOUS
 62
     7
 10
76.6515068086
 20
115.0389653693
 30
0.0
 11
76.6946466016
 21
115.0363287951
 31
0.0
  0
LINE
  5
354
  8
0
  6
CONTINUOUS
 62
     7
 10
72.34514912
 20
109.9399891745
 30
0.0
 11
72.2969026962
 21
110.0152512144
 31
0.0
  0
LINE
  5
355
  8
0
  6
CONTINUOUS
 62
     7
 10
77.2502508322
 20
114.7797214862
 30
0.0
 11
77.2984975325
 21
114.7044594463
 31
0.0
  0
LINE
  5
356
  8
0
  6
CONTINUOUS
 62
     7
 10
77.2175660665
 20
109.9073044087
 30
0.0
 11
77.1423040266
 21
109.8590581741
 31
0.0
  0
LINE
  5
357
  8
0
  6
CONTINUOUS
 62
     7
 10
72.3778339221
 20
114.8124062519
 30
0.0
 11
72.4530958256
 21
114.8606524866
 31
0.0
  0
LINE
  5
358
  8
0
  6
CONTINUOUS
 62
     7
 10
72.2828042623
 20
110.0065209966
 30
0.0
 11
72.3302183457
 21
109.9322498839
 31
0.0
  0
LINE
  5
359
  8
0
  6
CONTINUOUS
 62
     7
 10
77.1510309848
 20
109.8449644696
 30
0.0
 11
77.2253025631
 21
109.8923790332
 31
0.0
  0
LINE
  5
35A
  8
0
  6
CONTINUOUS
 62
     7
 10
72.444368842
 20
114.8747466567
 30
0.0
 11
72.370097571
 21
114.8273316275
 31
0.0
  0
LINE
  5
35B
  8
0
  6
CONTINUOUS
 62
     7
 10
77.3125912371
 20
114.7131864044
 30
0.0
 11
77.2651762078
 21
114.7874579828
 31
0.0
  0
ARC
  5
35C
  8
0
  6
CONTINUOUS
 62
     7
 10
73.5217791103
 20
114.2507754159
 30
0.0
 40
1.424461510282348
 50
179.8383950725
 51
181.5105950962
  0
ARC
  5
35D
  8
0
  6
CONTINUOUS
 62
     7
 10
72.9067566446
 20
111.0844875353
 30
0.0
 40
1.425014593829634
 50
269.839388649
 51
271.5109538813
  0
ARC
  5
35E
  8
0
  6
CONTINUOUS
 62
     7
 10
76.0742954184
 20
110.4689421446
 30
0.0
 40
1.423786971814332
 50
359.8380221074
 51
1.5110331684
  0
ARC
  5
35F
  8
0
  6
CONTINUOUS
 62
     7
 10
76.6886130964
 20
113.6364508381
 30
0.0
 40
1.423786971814346
 50
89.8380221074
 51
91.5110331684
  0
ARC
  5
360
  8
0
  6
CONTINUOUS
 62
     7
 10
73.540054077
 20
114.2487443556
 30
0.0
 40
1.423835939042644
 50
179.6961045089
 51
181.4108508088
  0
ARC
  5
361
  8
0
  6
CONTINUOUS
 62
     7
 10
72.9088237881
 20
111.10079719
 30
0.0
 40
1.422423602525384
 50
269.6952970997
 51
271.4117402625
  0
ARC
  5
362
  8
0
  6
CONTINUOUS
 62
     7
 10
76.0534869792
 20
110.4709478376
 30
0.0
 40
1.425694927047273
 50
359.697261662
 51
1.4097719196
  0
ARC
  5
363
  8
0
  6
CONTINUOUS
 62
     7
 10
76.6865850368
 20
113.6180055157
 30
0.0
 40
1.423331731549361
 50
89.6958398927
 51
91.4111936889
  0
CIRCLE
  5
364
  8
0
  6
CONTINUOUS
 62
     7
 10
74.7977000176
 20
112.359855392
 30
0.0
 40
1.606780907343203
  0
POLYLINE
  5
365
  8
0
  6
CONTINUOUS
 62
     7
 66
     1
 10
0.0
 20
0.0
 30
0.0
 70
   128
  0
VERTEX
  5
6A2
  8
0
  6
CONTINUOUS
 62
     7
 10
152.570811783
 20
117.296760326
 30
0.0
  0
VERTEX
  5
6A3
  8
0
  6
CONTINUOUS
 62
     7
 10
153.3866876113
 20
115.9911290805
 30
0.0
  0
VERTEX
  5
6A4
  8
0
  6
CONTINUOUS
 62
     7
 10
154.0954240906
 20
114.7079058054
 30
0.0
  0
VERTEX
  5
6A5
  8
0
  6
CONTINUOUS
 62
     7
 10
154.691530143
 20
113.4570343483
 30
0.0
  0
VERTEX
  5
6A6
  8
0
  6
CONTINUOUS
 62
     7
 10
155.1703789579
 20
112.2482083801
 30
0.0
  0
VERTEX
  5
6A7
  8
0
  6
CONTINUOUS
 62
     7
 10
155.5282675969
 20
111.0907956089
 30
0.0
  0
VERTEX
  5
6A8
  8
0
  6
CONTINUOUS
 62
     7
 10
155.7624169933
 20
109.9937646713
 30
0.0
  0
VERTEX
  5
6A9
  8
0
  6
CONTINUOUS
 62
     7
 10
155.8710166561
 20
108.9656162139
 30
0.0
  0
VERTEX
  5
6AA
  8
0
  6
CONTINUOUS
 62
     7
 10
155.8532246696
 20
108.0143186327
 30
0.0
  0
VERTEX
  5
6AB
  8
0
  6
CONTINUOUS
 62
     7
 10
155.7091751444
 20
107.1472442772
 30
0.0
  0
VERTEX
  5
6AC
  8
0
  6
CONTINUOUS
 62
     7
 10
155.439993118
 20
106.3711107771
 30
0.0
  0
SEQEND
  5
77A
  8
0
  6
CONTINUOUS
 62
     7
  0
LINE
  5
366
  8
0
  6
CONTINUOUS
 62
     7
 10
152.570811783
 20
117.296760326
 30
0.0
 11
152.570811783
 21
133.8827381905
 31
0.0
  0
LINE
  5
367
  8
0
  6
CONTINUOUS
 62
     7
 10
152.570811783
 20
103.882738861
 30
0.0
 11
152.570811783
 21
105.9568286936
 31
0.0
  0
LINE
  5
368
  8
0
  6
CONTINUOUS
 62
     7
 10
153.1661802279
 20
105.8448250468
 30
0.0
 11
152.570811783
 21
105.9568286936
 31
0.0
  0
ARC
  5
369
  8
0
  6
CONTINUOUS
 62
     7
 10
153.8629049029
 20
108.0097693958
 30
0.0
 40
2.274293144461737
 50
252.1607315323
 51
313.9031184763
  0
LINE
  5
36A
  8
0
  6
CONTINUOUS
 62
     7
 10
158.0708154785
 20
103.882738861
 30
0.0
 11
158.0708154785
 21
133.8827381905
 31
0.0
  0
LINE
  5
36B
  8
0
  6
CONTINUOUS
 62
     7
 10
158.5708090412
 20
133.3827381085
 30
0.0
 11
158.5708090412
 21
104.382738943
 31
0.0
  0
LINE
  5
36C
  8
0
  6
CONTINUOUS
 62
     7
 10
142.9312729585
 20
123.724875978
 30
0.0
 11
142.874238764
 21
123.726748402
 31
0.0
  0
ARC
  5
36D
  8
0
  6
CONTINUOUS
 62
     7
 10
125.2422676926
 20
87.9094036224
 30
0.0
 40
40.13061245639058
 50
47.0789496316
 51
62.5903810023
  0
LINE
  5
36E
  8
0
  6
CONTINUOUS
 62
     7
 10
143.7163480865
 20
123.5348777908
 30
0.0
 11
142.9312729585
 21
123.724875978
 31
0.0
  0
LINE
  5
36F
  8
0
  6
CONTINUOUS
 62
     7
 10
155.439993118
 20
106.3711107771
 30
0.0
 11
144.0385856973
 21
117.2814290102
 31
0.0
  0
LINE
  5
370
  8
0
  6
CONTINUOUS
 62
     7
 10
143.7163480865
 20
123.5348777908
 30
0.0
 11
144.0385856973
 21
117.2814290102
 31
0.0
  0
LINE
  5
371
  8
0
  6
CONTINUOUS
 62
     7
 10
160.3003495681
 20
131.382738712
 30
0.0
 11
160.3003495681
 21
106.3827383395
 31
0.0
  0
LINE
  5
372
  8
0
  6
CONTINUOUS
 62
     7
 10
212.3208173858
 20
125.6650686327
 30
0.0
 11
212.3208173858
 21
131.382738712
 31
0.0
  0
LINE
  5
373
  8
0
  6
CONTINUOUS
 62
     7
 10
212.3208173858
 20
106.3827383395
 30
0.0
 11
212.3208173858
 21
112.1004084188
 31
0.0
  0
LINE
  5
374
  8
0
  6
CONTINUOUS
 62
     7
 10
212.3208173858
 20
125.6650686327
 30
0.0
 11
164.57081375
 21
125.6650686327
 31
0.0
  0
ARC
  5
375
  8
0
  6
CONTINUOUS
 62
     7
 10
175.0708049431
 20
118.8827385258
 30
0.0
 40
12.49999266938034
 50
147.1400972413
 51
212.8599027587
  0
LINE
  5
376
  8
0
  6
CONTINUOUS
 62
     7
 10
164.57081375
 20
112.1004084188
 30
0.0
 11
212.3208173858
 21
112.1004084188
 31
0.0
  0
LINE
  5
377
  8
0
  6
CONTINUOUS
 62
     7
 10
159.8298826563
 20
131.2827388819
 30
0.0
 11
159.8298826563
 21
106.4827381696
 31
0.0
  0
LINE
  5
378
  8
0
  6
CONTINUOUS
 62
     7
 10
164.57081375
 20
112.1004084188
 30
0.0
 11
164.57081375
 21
125.6650686327
 31
0.0
  0
POLYLINE
  5
379
  8
0
  6
CONTINUOUS
 62
     7
 66
     1
 10
0.0
 20
0.0
 30
0.0
 70
   128
  0
VERTEX
  5
6AD
  8
0
  6
CONTINUOUS
 62
     7
 10
213.0708077299
 20
112.2116367396
 30
0.0
  0
VERTEX
  5
6AE
  8
0
  6
CONTINUOUS
 62
     7
 10
212.3849668848
 20
112.1098720532
 30
0.0
  0
VERTEX
  5
6AF
  8
0
  6
CONTINUOUS
 62
     7
 10
212.3208173858
 20
112.1004084188
 30
0.0
  0
SEQEND
  5
77B
  8
0
  6
CONTINUOUS
 62
     7
  0
ARC
  5
37A
  8
0
  6
CONTINUOUS
 62
     7
 10
222.5966743421
 20
118.8975790616
 30
0.0
 40
11.638039330082
 50
215.0639551231
 51
219.1452572375
  0
LINE
  5
37B
  8
0
  6
CONTINUOUS
 62
     7
 10
213.5708161938
 20
126.2148595478
 30
0.0
 11
213.5708161938
 21
131.2827388819
 31
0.0
  0
LINE
  5
37C
  8
0
  6
CONTINUOUS
 62
     7
 10
213.5708161938
 20
106.4827381696
 30
0.0
 11
213.5708161938
 21
111.5506175037
 31
0.0
  0
ARC
  5
37D
  8
0
  6
CONTINUOUS
 62
     7
 10
222.5966743421
 20
118.8678979899
 30
0.0
 40
11.63803933008201
 50
140.8547427625
 51
144.9360448769
  0
POLYLINE
  5
37E
  8
0
  6
CONTINUOUS
 62
     7
 66
     1
 10
0.0
 20
0.0
 30
0.0
 70
   128
  0
VERTEX
  5
6B0
  8
0
  6
CONTINUOUS
 62
     7
 10
212.3208173858
 20
125.6650686327
 30
0.0
  0
VERTEX
  5
6B1
  8
0
  6
CONTINUOUS
 62
     7
 10
212.3849668848
 20
125.6556049984
 30
0.0
  0
VERTEX
  5
6B2
  8
0
  6
CONTINUOUS
 62
     7
 10
213.0708077299
 20
125.5538403119
 30
0.0
  0
SEQEND
  5
77C
  8
0
  6
CONTINUOUS
 62
     7
  0
LINE
  5
37F
  8
0
  6
CONTINUOUS
 62
     7
 10
213.5708161938
 20
126.2148595478
 30
0.0
 11
214.5708182203
 21
125.8798809785
 31
0.0
  0
LINE
  5
380
  8
0
  6
CONTINUOUS
 62
     7
 10
214.5708182203
 20
111.885596073
 30
0.0
 11
214.5708182203
 21
125.8798809785
 31
0.0
  0
LINE
  5
381
  8
0
  6
CONTINUOUS
 62
     7
 10
214.5708182203
 20
111.885596073
 30
0.0
 11
213.5708161938
 21
111.5506175037
 31
0.0
  0
LINE
  5
382
  8
0
  6
CONTINUOUS
 62
     7
 10
213.0708077299
 20
112.2116367396
 30
0.0
 11
213.0708077299
 21
125.5538403119
 31
0.0
  0
LINE
  5
383
  8
0
  6
CONTINUOUS
 62
     7
 10
214.5708182203
 20
125.8798809785
 30
0.0
 11
214.5708182203
 21
130.282738718
 31
0.0
  0
LINE
  5
384
  8
0
  6
CONTINUOUS
 62
     7
 10
214.5708182203
 20
107.4827383335
 30
0.0
 11
214.5708182203
 21
111.885596073
 31
0.0
  0
LINE
  5
385
  8
0
  6
CONTINUOUS
 62
     7
 10
144.0385856973
 20
117.2814290102
 30
0.0
 11
143.3708125102
 21
117.2385868912
 31
0.0
  0
POLYLINE
  5
386
  8
0
  6
CONTINUOUS
 62
     7
 66
     1
 10
0.0
 20
0.0
 30
0.0
 70
   128
  0
VERTEX
  5
6B3
  8
0
  6
CONTINUOUS
 62
     7
 10
143.3708125102
 20
117.2385868912
 30
0.0
  0
VERTEX
  5
6B4
  8
0
  6
CONTINUOUS
 62
     7
 10
142.9309153306
 20
117.6938919879
 30
0.0
  0
VERTEX
  5
6B5
  8
0
  6
CONTINUOUS
 62
     7
 10
142.4980067956
 20
118.1007536424
 30
0.0
  0
SEQEND
  5
77D
  8
0
  6
CONTINUOUS
 62
     7
  0
POLYLINE
  5
387
  8
0
  6
CONTINUOUS
 62
     7
 66
     1
 10
0.0
 20
0.0
 30
0.0
 70
   128
  0
VERTEX
  5
6B6
  8
0
  6
CONTINUOUS
 62
     7
 10
142.497626816
 20
118.0962476709
 30
0.0
  0
VERTEX
  5
6B7
  8
0
  6
CONTINUOUS
 62
     7
 10
142.7276336896
 20
120.9273014746
 30
0.0
  0
VERTEX
  5
6B8
  8
0
  6
CONTINUOUS
 62
     7
 10
142.9312729585
 20
123.724875978
 30
0.0
  0
SEQEND
  5
77E
  8
0
  6
CONTINUOUS
 62
     7
  0
ARC
  5
388
  8
0
  6
CONTINUOUS
 62
     7
 10
119.0123305424
 20
72.5368526111
 30
0.0
 40
55.53258552263692
 50
69.4718454956
 51
109.0405781416
  0
ARC
  5
389
  8
0
  6
CONTINUOUS
 62
     7
 10
143.4047607114
 20
138.7818643821
 30
0.0
 40
15.06446051843911
 50
250.9418942429
 51
267.9818092321
  0
ARC
  5
38A
  8
0
  6
CONTINUOUS
 62
     7
 10
78.0340452102
 20
109.8266086556
 30
0.0
 40
0.1937495671285822
 50
226.1215689666
 51
269.3024191937
  0
LINE
  5
38B
  8
0
  6
CONTINUOUS
 62
     7
 10
78.0316863517
 20
109.6328734483
 30
0.0
 11
80.4708122584
 21
109.6328734483
 31
0.0
  0
ARC
  5
38C
  8
0
  6
CONTINUOUS
 62
     7
 10
80.3763296821
 20
196.0363659532
 30
0.0
 40
86.40354416341764
 50
270.0626531468
 51
281.5793816563
  0
LINE
  5
38D
  8
0
  6
CONTINUOUS
 62
     7
 10
72.8650140651
 20
128.0848463129
 30
0.0
 11
80.4708122584
 21
128.0848463129
 31
0.0
  0
POLYLINE
  5
38E
  8
0
  6
CONTINUOUS
 62
     7
 66
     1
 10
0.0
 20
0.0
 30
0.0
 70
   128
  0
VERTEX
  5
6B9
  8
0
  6
CONTINUOUS
 62
     7
 10
80.4708122584
 20
128.0848463129
 30
0.0
  0
VERTEX
  5
6BA
  8
0
  6
CONTINUOUS
 62
     7
 10
84.8665430518
 20
127.8217681747
 30
0.0
  0
VERTEX
  5
6BB
  8
0
  6
CONTINUOUS
 62
     7
 10
89.2622356611
 20
127.336170065
 30
0.0
  0
VERTEX
  5
6BC
  8
0
  6
CONTINUOUS
 62
     7
 10
93.7015244114
 20
126.6312515426
 30
0.0
  0
VERTEX
  5
6BD
  8
0
  6
CONTINUOUS
 62
     7
 10
98.1408038484
 20
125.7296116154
 30
0.0
  0
VERTEX
  5
6BE
  8
0
  6
CONTINUOUS
 62
     7
 10
105.5094913887
 20
123.8611992511
 30
0.0
  0
VERTEX
  5
6BF
  8
0
  6
CONTINUOUS
 62
     7
 10
109.2195415246
 20
122.7795532967
 30
0.0
  0
VERTEX
  5
6C0
  8
0
  6
CONTINUOUS
 62
     7
 10
112.9295953857
 20
121.6287338238
 30
0.0
  0
VERTEX
  5
6C1
  8
0
  6
CONTINUOUS
 62
     7
 10
119.2380466806
 20
119.5711143145
 30
0.0
  0
VERTEX
  5
6C2
  8
0
  6
CONTINUOUS
 62
     7
 10
125.5787627148
 20
117.4674804851
 30
0.0
  0
VERTEX
  5
6C3
  8
0
  6
CONTINUOUS
 62
     7
 10
132.0151293027
 20
115.4076852899
 30
0.0
  0
VERTEX
  5
6C4
  8
0
  6
CONTINUOUS
 62
     7
 10
138.4858095395
 20
113.5241161163
 30
0.0
  0
SEQEND
  5
77F
  8
0
  6
CONTINUOUS
 62
     7
  0
LINE
  5
38F
  8
0
  6
CONTINUOUS
 62
     7
 10
80.9732607874
 20
116.4989138551
 30
0.0
 11
79.9355583573
 21
116.6827385377
 31
0.0
  0
LINE
  5
390
  8
0
  6
CONTINUOUS
 62
     7
 10
72.4708118784
 20
116.6827385377
 30
0.0
 11
79.9355583573
 21
116.6827385377
 31
0.0
  0
LINE
  5
391
  8
0
  6
CONTINUOUS
 62
     7
 10
72.4708118784
 20
116.6827385377
 30
0.0
 11
72.4708118784
 21
126.2663840379
 31
0.0
  0
ARC
  5
392
  8
0
  6
CONTINUOUS
 62
     7
 10
55.7086463229
 20
130.8520070864
 30
0.0
 40
17.37809347572114
 50
344.6999572029
 51
350.8376377013
  0
POLYLINE
  5
393
  8
0
  6
CONTINUOUS
 62
     7
 66
     1
 10
0.0
 20
0.0
 30
0.0
 70
   128
  0
VERTEX
  5
6C5
  8
0
  6
CONTINUOUS
 62
     7
 10
113.0079866695
 20
109.6950951095
 30
0.0
  0
VERTEX
  5
6C6
  8
0
  6
CONTINUOUS
 62
     7
 10
109.418170278
 20
109.7325650107
 30
0.0
  0
VERTEX
  5
6C7
  8
0
  6
CONTINUOUS
 62
     7
 10
103.6506423103
 20
110.305016401
 30
0.0
  0
VERTEX
  5
6C8
  8
0
  6
CONTINUOUS
 62
     7
 10
97.8825201588
 20
111.3500869896
 30
0.0
  0
VERTEX
  5
6C9
  8
0
  6
CONTINUOUS
 62
     7
 10
92.249579479
 20
112.7776145067
 30
0.0
  0
VERTEX
  5
6CA
  8
0
  6
CONTINUOUS
 62
     7
 10
86.6070191684
 20
114.5264096621
 30
0.0
  0
VERTEX
  5
6CB
  8
0
  6
CONTINUOUS
 62
     7
 10
80.9732607874
 20
116.4989138551
 30
0.0
  0
SEQEND
  5
780
  8
0
  6
CONTINUOUS
 62
     7
  0
LINE
  5
394
  8
0
  6
CONTINUOUS
 62
     7
 10
143.3708125102
 20
115.2182824507
 30
0.0
 11
143.3708125102
 21
111.3507887411
 31
0.0
  0
LINE
  5
395
  8
0
  6
CONTINUOUS
 62
     7
 10
142.874238764
 20
111.6612148534
 30
0.0
 11
143.3708125102
 21
111.3507887411
 31
0.0
  0
POLYLINE
  5
396
  8
0
  6
CONTINUOUS
 62
     7
 66
     1
 10
0.0
 20
0.0
 30
0.0
 70
   128
  0
VERTEX
  5
6CC
  8
0
  6
CONTINUOUS
 62
     7
 10
138.4858095395
 20
113.5241161163
 30
0.0
  0
VERTEX
  5
6CD
  8
0
  6
CONTINUOUS
 62
     7
 10
140.7010310637
 20
112.7728167984
 30
0.0
  0
VERTEX
  5
6CE
  8
0
  6
CONTINUOUS
 62
     7
 10
142.874238764
 20
111.6612148534
 30
0.0
  0
SEQEND
  5
781
  8
0
  6
CONTINUOUS
 62
     7
  0
LINE
  5
397
  8
0
  6
CONTINUOUS
 62
     7
 10
71.9708118546
 20
116.6827385377
 30
0.0
 11
72.4708118784
 21
116.6827385377
 31
0.0
  0
LINE
  5
398
  8
0
  6
CONTINUOUS
 62
     7
 10
71.9708118546
 20
116.6827385377
 30
0.0
 11
71.9708118546
 21
121.4610443048
 31
0.0
  0
LINE
  5
399
  8
0
  6
CONTINUOUS
 62
     7
 10
71.9708118546
 20
121.4610443048
 30
0.0
 11
72.1839053573
 21
124.227901927
 31
0.0
  0
LINE
  5
39A
  8
0
  6
CONTINUOUS
 62
     7
 10
72.1839053573
 20
124.227901927
 30
0.0
 11
72.1587981522
 21
124.3172460299
 31
0.0
  0
LINE
  5
39B
  8
0
  6
CONTINUOUS
 62
     7
 10
72.1587981522
 20
124.3172460299
 30
0.0
 11
72.165888049
 21
124.6122410584
 31
0.0
  0
LINE
  5
39C
  8
0
  6
CONTINUOUS
 62
     7
 10
72.165888049
 20
124.6122410584
 30
0.0
 11
72.2916969959
 21
126.0450771141
 31
0.0
  0
POLYLINE
  5
39D
  8
0
  6
CONTINUOUS
 62
     7
 66
     1
 10
0.0
 20
0.0
 30
0.0
 70
   128
  0
VERTEX
  5
6CF
  8
0
  6
CONTINUOUS
 62
     7
 10
72.2916969959
 20
126.0450771141
 30
0.0
  0
VERTEX
  5
6D0
  8
0
  6
CONTINUOUS
 62
     7
 10
72.3447804327
 20
126.0258583415
 30
0.0
  0
VERTEX
  5
6D1
  8
0
  6
CONTINUOUS
 62
     7
 10
72.4708118784
 20
126.2663840379
 30
0.0
  0
SEQEND
  5
782
  8
0
  6
CONTINUOUS
 62
     7
  0
POLYLINE
  5
39E
  8
0
  6
CONTINUOUS
 62
     7
 66
     1
 10
0.0
 20
0.0
 30
0.0
 70
   128
  0
VERTEX
  5
6D2
  8
0
  6
CONTINUOUS
 62
     7
 10
72.4277294381
 20
117.1517468819
 30
0.0
  0
VERTEX
  5
6D3
  8
0
  6
CONTINUOUS
 62
     7
 10
72.4066859463
 20
116.9504405761
 30
0.0
  0
VERTEX
  5
6D4
  8
0
  6
CONTINUOUS
 62
     7
 10
72.3797529123
 20
116.8565747857
 30
0.0
  0
VERTEX
  5
6D5
  8
0
  6
CONTINUOUS
 62
     7
 10
72.3493996471
 20
116.8805440019
 30
0.0
  0
VERTEX
  5
6D6
  8
0
  6
CONTINUOUS
 62
     7
 10
72.3188063845
 20
117.0202954735
 30
0.0
  0
VERTEX
  5
6D7
  8
0
  6
CONTINUOUS
 62
     7
 10
72.2917050868
 20
117.2603257063
 30
0.0
  0
VERTEX
  5
6D8
  8
0
  6
CONTINUOUS
 62
     7
 10
72.2718751191
 20
117.5728817533
 30
0.0
  0
VERTEX
  5
6D9
  8
0
  6
CONTINUOUS
 62
     7
 10
72.2623441094
 20
117.9215702058
 30
0.0
  0
VERTEX
  5
6DA
  8
0
  6
CONTINUOUS
 62
     7
 10
72.2645705379
 20
118.2667051388
 30
0.0
  0
VERTEX
  5
6DB
  8
0
  6
CONTINUOUS
 62
     7
 10
72.2780896891
 20
118.5703801229
 30
0.0
  0
VERTEX
  5
6DC
  8
0
  6
CONTINUOUS
 62
     7
 10
72.3007714247
 20
118.7996503567
 30
0.0
  0
VERTEX
  5
6DD
  8
0
  6
CONTINUOUS
 62
     7
 10
72.3293990583
 20
118.9287928891
 30
0.0
  0
VERTEX
  5
6DE
  8
0
  6
CONTINUOUS
 62
     7
 10
72.360292687
 20
118.9422380148
 30
0.0
  0
VERTEX
  5
6DF
  8
0
  6
CONTINUOUS
 62
     7
 10
72.3898678103
 20
118.8375107039
 30
0.0
  0
VERTEX
  5
6E0
  8
0
  6
CONTINUOUS
 62
     7
 10
72.415050278
 20
118.626349641
 30
0.0
  0
VERTEX
  5
6E1
  8
0
  6
CONTINUOUS
 62
     7
 10
72.4335024703
 20
118.3332440623
 30
0.0
  0
VERTEX
  5
6E2
  8
0
  6
CONTINUOUS
 62
     7
 10
72.443688378
 20
117.9919725463
 30
0.0
  0
VERTEX
  5
6E3
  8
0
  6
CONTINUOUS
 62
     7
 10
72.4448461812
 20
117.6412092818
 30
0.0
  0
VERTEX
  5
6E4
  8
0
  6
CONTINUOUS
 62
     7
 10
72.4369337064
 20
117.3200726106
 30
0.0
  0
VERTEX
  5
6E5
  8
0
  6
CONTINUOUS
 62
     7
 10
72.4277294381
 20
117.1517468819
 30
0.0
  0
SEQEND
  5
783
  8
0
  6
CONTINUOUS
 62
     7
  0
LINE
  5
39F
  8
0
  6
CONTINUOUS
 62
     7
 10
153.1661802279
 20
105.8448250468
 30
0.0
 11
143.3708125102
 21
115.2182824507
 31
0.0
  0
LINE
  5
3A0
  8
0
  6
CONTINUOUS
 62
     7
 10
143.3708125102
 20
117.2385868912
 30
0.0
 11
143.3708125102
 21
115.2182824507
 31
0.0
  0
POLYLINE
  5
3A1
  8
0
  6
CONTINUOUS
 62
     7
 66
     1
 10
0.0
 20
0.0
 30
0.0
 70
   128
  0
VERTEX
  5
6E6
  8
0
  6
CONTINUOUS
 62
     7
 10
152.570811783
 20
105.9568286936
 30
0.0
  0
VERTEX
  5
6E7
  8
0
  6
CONTINUOUS
 62
     7
 10
147.9424217092
 20
108.60416806
 30
0.0
  0
VERTEX
  5
6E8
  8
0
  6
CONTINUOUS
 62
     7
 10
143.3708125102
 20
111.3507887411
 30
0.0
  0
SEQEND
  5
784
  8
0
  6
CONTINUOUS
 62
     7
  0
LINE
  5
3A2
  8
0
  6
CONTINUOUS
 62
     7
 10
72.2916969959
 20
126.0450771141
 30
0.0
 11
72.8650140651
 21
128.0848463129
 31
0.0
  0
LINE
  5
3A3
  8
0
  6
CONTINUOUS
 62
     7
 10
80.4708122584
 20
115.6827386066
 30
0.0
 11
80.4708122584
 21
109.6328734483
 31
0.0
  0
LINE
  5
3A4
  8
0
  6
CONTINUOUS
 62
     7
 10
80.4708122584
 20
116.5244106732
 30
0.0
 11
80.4708122584
 21
115.6827386066
 31
0.0
  0
LINE
  5
3A5
  8
0
  6
CONTINUOUS
 62
     7
 10
76.8285810324
 20
115.6827386066
 30
0.0
 11
71.9708118546
 21
115.6827386066
 31
0.0
  0
LINE
  5
3A6
  8
0
  6
CONTINUOUS
 62
     7
 10
80.4708122584
 20
115.6827386066
 30
0.0
 11
78.4068496274
 21
115.6827386066
 31
0.0
  0
ARC
  5
3A7
  8
0
  6
CONTINUOUS
 62
     7
 10
77.6177153299
 20
115.0685179839
 30
0.0
 40
0.9999999564477459
 50
37.8953130966
 51
142.1046869034
  0
LINE
  5
3A8
  8
0
  6
CONTINUOUS
 62
     7
 10
71.9708118546
 20
115.6827386066
 30
0.0
 11
71.9708118546
 21
116.6827385377
 31
0.0
  0
LINE
  5
3A9
  8
0
  6
CONTINUOUS
 62
     7
 10
78.0174683156
 20
109.904166783
 30
0.0
 11
78.0316863517
 21
109.6328734483
 31
0.0
  0
ARC
  5
3AA
  8
0
  6
CONTINUOUS
 62
     7
 10
77.6177154201
 20
115.0685178958
 30
0.0
 40
1.000000000000002
 50
280.4074066321
 51
37.895311683
  0
LINE
  5
3AB
  8
0
  6
CONTINUOUS
 62
     7
 10
71.9708118546
 20
115.3480920538
 30
0.0
 11
71.9747581012
 21
115.3029822807
 31
0.0
  0
LINE
  5
3AC
  8
0
  6
CONTINUOUS
 62
     7
 10
71.9747581012
 20
115.3029822807
 30
0.0
 11
71.9772342551
 21
115.2890613366
 31
0.0
  0
LINE
  5
3AD
  8
0
  6
CONTINUOUS
 62
     7
 10
71.9747581012
 20
115.3029822807
 30
0.0
 11
72.0242404629
 21
115.3055755484
 31
0.0
  0
ARC
  5
3AE
  8
0
  6
CONTINUOUS
 62
     7
 10
77.6177154201
 20
115.0685178958
 30
0.0
 40
0.9999999999999949
 50
142.104688317
 51
151.0301639408
  0
LINE
  5
3AF
  8
0
  6
CONTINUOUS
 62
     7
 10
71.9708118546
 20
115.6827386066
 30
0.0
 11
71.9708118546
 21
115.3480920538
 31
0.0
  0
POLYLINE
  5
3B0
  8
0
  6
CONTINUOUS
 62
     7
 66
     1
 10
0.0
 20
0.0
 30
0.0
 70
   128
  0
VERTEX
  5
6E9
  8
0
  6
CONTINUOUS
 62
     7
 10
72.0957447326
 20
124.4406695541
 30
0.0
  0
VERTEX
  5
6EA
  8
0
  6
CONTINUOUS
 62
     7
 10
72.1373600378
 20
124.3643974948
 30
0.0
  0
VERTEX
  5
6EB
  8
0
  6
CONTINUOUS
 62
     7
 10
72.1596464124
 20
124.3525403615
 30
0.0
  0
SEQEND
  5
785
  8
0
  6
CONTINUOUS
 62
     7
  0
LINE
  5
3B1
  8
0
  6
CONTINUOUS
 62
     7
 10
71.8074164312
 20
119.6574581617
 30
0.0
 11
72.0064418116
 21
121.9236718088
 31
0.0
  0
LINE
  5
3B2
  8
0
  6
CONTINUOUS
 62
     7
 10
71.8691233038
 20
119.462493697
 30
0.0
 11
71.9708118546
 21
119.3417671374
 31
0.0
  0
LINE
  5
3B3
  8
0
  6
CONTINUOUS
 62
     7
 10
71.71872926
 20
118.5762159065
 30
0.0
 11
71.9708118546
 21
118.6353345173
 31
0.0
  0
LINE
  5
3B4
  8
0
  6
CONTINUOUS
 62
     7
 10
71.9708118546
 20
118.5328789351
 30
0.0
 11
71.8406113289
 21
118.5023442148
 31
0.0
  0
LINE
  5
3B5
  8
0
  6
CONTINUOUS
 62
     7
 10
71.9708118546
 20
118.4909964858
 30
0.0
 11
71.8406113289
 21
118.5023442148
 31
0.0
  0
POLYLINE
  5
3B6
  8
0
  6
CONTINUOUS
 62
     7
 66
     1
 10
0.0
 20
0.0
 30
0.0
 70
   128
  0
VERTEX
  5
6EC
  8
0
  6
CONTINUOUS
 62
     7
 10
72.2024021512
 20
124.5047058973
 30
0.0
  0
VERTEX
  5
6ED
  8
0
  6
CONTINUOUS
 62
     7
 10
72.1031004929
 20
124.5116288837
 30
0.0
  0
VERTEX
  5
6EE
  8
0
  6
CONTINUOUS
 62
     7
 10
72.0157634484
 20
124.49846883
 30
0.0
  0
SEQEND
  5
786
  8
0
  6
CONTINUOUS
 62
     7
  0
LINE
  5
3B7
  8
0
  6
CONTINUOUS
 62
     7
 10
71.7136326554
 20
124.1866513218
 30
0.0
 11
71.694739671
 21
124.0803552854
 31
0.0
  0
ARC
  5
3B8
  8
0
  6
CONTINUOUS
 62
     7
 10
71.8400906863
 20
118.5005818322
 30
0.0
 40
0.0002180805643192
 50
309.8465752306
 51
0.2064956393
  0
LINE
  5
3B9
  8
0
  6
CONTINUOUS
 62
     7
 10
71.7003455344
 20
118.4728988218
 30
0.0
 11
71.7501064488
 21
118.5018502646
 31
0.0
  0
LINE
  5
3BA
  8
0
  6
CONTINUOUS
 62
     7
 10
71.9708118546
 20
118.4465633477
 30
0.0
 11
71.7477570712
 21
118.4660038624
 31
0.0
  0
LINE
  5
3BB
  8
0
  6
CONTINUOUS
 62
     7
 10
71.2458876502
 20
118.969513699
 30
0.0
 11
71.2472225847
 21
118.8787972336
 31
0.0
  0
LINE
  5
3BC
  8
0
  6
CONTINUOUS
 62
     7
 10
71.746012704
 20
118.4517670544
 30
0.0
 11
71.9708118546
 21
118.4321745304
 31
0.0
  0
LINE
  5
3BD
  8
0
  6
CONTINUOUS
 62
     7
 10
142.874238764
 20
123.726748402
 30
0.0
 11
142.874238764
 21
129.1471007343
 31
0.0
  0
ARC
  5
3BE
  8
0
  6
CONTINUOUS
 62
     7
 10
116.2438605634
 20
1.552448007
 30
0.0
 40
119.4642937557048
 50
77.3049188903
 51
90.6773933624
  0
LINE
  5
3BF
  8
0
  6
CONTINUOUS
 62
     7
 10
138.4858095395
 20
124.5431182969
 30
0.0
 11
138.4858095395
 21
128.132738645
 31
0.0
  0
LINE
  5
3C0
  8
0
  6
CONTINUOUS
 62
     7
 10
138.4858095395
 20
109.6327384065
 30
0.0
 11
138.4858095395
 21
113.5241161163
 31
0.0
  0
ARC
  5
3C1
  8
0
  6
CONTINUOUS
 62
     7
 10
94.5328077813
 20
-103.5408743483
 30
0.0
 40
224.1444163687718
 50
77.4150826277
 51
83.3186377363
  0
LINE
  5
3C2
  8
0
  6
CONTINUOUS
 62
     7
 10
142.874238764
 20
108.6183763172
 30
0.0
 11
142.874238764
 21
111.6612148534
 31
0.0
  0
LINE
  5
3C3
  8
0
  6
CONTINUOUS
 62
     7
 10
80.4708122584
 20
115.6827386066
 30
0.0
 11
83.4472782286
 21
115.6327051639
 31
0.0
  0
LINE
  5
3C4
  8
0
  6
CONTINUOUS
 62
     7
 10
71.5754619968
 20
114.6111168501
 30
0.0
 11
71.5754619968
 21
104.0036474446
 31
0.0
  0
LINE
  5
3C5
  8
0
  6
CONTINUOUS
 62
     7
 10
72.4633676209
 20
109.1332637866
 30
0.0
 11
69.883366912
 21
109.1332637866
 31
0.0
  0
LINE
  5
3C6
  8
0
  6
CONTINUOUS
 62
     7
 10
71.860518389
 20
128.6332637866
 30
0.0
 11
67.6483028579
 21
128.6332637866
 31
0.0
  0
LINE
  5
3C7
  8
0
  6
CONTINUOUS
 62
     7
 10
131.5754619968
 20
109.6327385258
 30
0.0
 11
131.5754619968
 21
104.7853278496
 31
0.0
  0
DIMENSION
  5
3C8
  8
0
  6
CONTINUOUS
 62
     7
  2
_D
 10
65.8581112572
 20
109.1332637866
 30
0.0
 11
65.8581112572
 21
118.7490373363
 31
0.0
 70
   160
  1
%%c<>
  3
SLDDIMSTYLE0
 13
67.6483028579
 23
128.6332637866
 33
0.0
 14
69.883366912
 24
109.1332637866
 34
0.0
 50
90.0
  0
DIMENSION
  5
3D6
  8
0
  6
CONTINUOUS
 62
     7
  2
_D_1
 10
214.5708118784
 20
82.7954533136
 30
0.0
 11
138.4104540387
 21
82.7954533136
 31
0.0
 70
   160
  1
<>
  3
SLDDIMSTYLE1
 13
71.5754619968
 23
104.0036474446
 33
0.0
 14
214.5708118784
 24
111.8855962519
 34
0.0
  0
DIMENSION
  5
3E1
  8
0
  6
CONTINUOUS
 62
     7
  2
_D_2
 10
158.5708118784
 20
90.5838495342
 30
0.0
 11
117.4356872359
 21
90.5838495342
 31
0.0
 70
   160
  1
<>
  3
SLDDIMSTYLE1
 13
71.5754619968
 23
104.0036474446
 33
0.0
 14
158.5708118784
 24
104.3827385258
 34
0.0
  0
DIMENSION
  5
3EB
  8
0
  6
CONTINUOUS
 62
     7
  2
_D_3
 10
71.5754619968
 20
100.1514293208
 30
0.0
 11
111.9342725159
 21
100.1514293208
 31
0.0
 70
   160
  1
<>
  3
SLDDIMSTYLE2
 13
131.5754619968
 23
104.7853278496
 33
0.0
 14
71.5754619968
 24
104.0036474446
 34
0.0
  0
DIMENSION
  5
3F6
  8
0
  6
CONTINUOUS
 62
     7
  2
_D_4
 10
214.5708118784
 20
90.5838495342
 30
0.0
 11
186.7473037108
 21
90.5838495342
 31
0.0
 70
   160
  1
<>
  3
SLDDIMSTYLE2
 13
158.5708118784
 23
104.9827385258
 33
0.0
 14
214.5708118784
 24
111.8855962519
 34
0.0
  0
DIMENSION
  5
400
  8
0
  6
CONTINUOUS
 62
     7
  2
_D_5
 10
236.7228287092
 20
103.8827385258
 30
0.0
 11
236.7228287092
 21
118.7490373363
 31
0.0
 70
   160
  1
%%c<>
  3
SLDDIMSTYLE2
 13
158.0708118784
 23
133.8827385258
 33
0.0
 14
158.0708118784
 24
103.8827385258
 34
0.0
 50
90.0
  0
DIMENSION
  5
40B
  8
0
  6
CONTINUOUS
 62
     7
  2
_D_6
 10
230.5186121111
 20
131.3827385258
 30
0.0
 11
230.5186121111
 21
118.7490373363
 31
0.0
 70
   160
  1
%%c<>h6
  3
SLDDIMSTYLE2
 13
212.3208118784
 23
106.3827385258
 33
0.0
 14
212.3208118784
 24
131.3827385258
 34
0.0
 50
90.0
  0
INSERT
  5
41C
  8
0
  6
CONTINUOUS
 62
     7
  2
SW_NOTE_0
 10
55.8010927053
 20
114.7359218228
 30
0.0
  0
INSERT
  5
422
  8
0
  6
CONTINUOUS
 62
     7
  2
SW_NOTE_1
 10
106.7212698243
 20
70.2216998714
 30
0.0
  0
LINE
  5
423
  8
0
  6
CENTERX2
 62
     7
 10
154.5708118784
 20
118.8827385258
 30
0.0
 11
70.4708118784
 21
118.8827385258
 31
0.0
  0
LINE
  5
424
  8
0
  6
CENTERX2
 62
     7
 10
160.3003488674
 20
118.8827385258
 30
0.0
 11
159.8298858565
 21
118.8827385258
 31
0.0
  0
LINE
  5
425
  8
0
  6
CENTERX2
 62
     7
 10
156.5708118784
 20
118.8827385258
 30
0.0
 11
159.8298858565
 21
118.8827385258
 31
0.0
  0
LINE
  5
426
  8
0
  6
CENTERX2
 62
     7
 10
212.3208118784
 20
118.8827385258
 30
0.0
 11
160.3003488674
 21
118.8827385258
 31
0.0
  0
LINE
  5
427
  8
0
  6
CENTERX2
 62
     7
 10
213.5708118784
 20
118.8827385258
 30
0.0
 11
216.5708118784
 21
118.8827385258
 31
0.0
  0
LINE
  5
428
  8
0
  6
CENTERX2
 62
     7
 10
212.3208118784
 20
118.8827385258
 30
0.0
 11
213.5708118784
 21
118.8827385258
 31
0.0
  0
ENDSEC
  0
EOF
