  0
SECTION
  2
HEADER
  9
$ACADVER
  1
AC1009
  9
$DWGCODEPAGE
  3
ansi_1252
  9
$INSBASE
 10
0.0
 20
0.0
 30
0.0
  9
$EXTMIN
 10
0.0
 20
0.0
 30
0.0
  9
$EXTMAX
 10
297.0
 20
210.0
 30
0.0
  9
$LIMMIN
 10
0.0
 20
0.0
  9
$LIMMAX
 10
297.0
 20
210.0
  9
$ORTHOMODE
 70
     0
  9
$REGENMODE
 70
     1
  9
$FILLMODE
 70
     1
  9
$QTEXTMODE
 70
     0
  9
$MIRRTEXT
 70
     1
  9
$DRAGMODE
 70
     2
  9
$LTSCALE
 40
1.0
  9
$OSMODE
 70
    37
  9
$ATTMODE
 70
     1
  9
$TEXTSIZE
 40
3.5
  9
$TRACEWID
 40
1.0
  9
$TEXTSTYLE
  7
STANDARD
  9
$CLAYER
  8
0
  9
$CELTYPE
  6
BYLAYER
  9
$CECOLOR
 62
   256
  9
$DIMSCALE
 40
1.0
  9
$DIMASZ
 40
4.0
  9
$DIMEXO
 40
1.0
  9
$DIMDLI
 40
3.75
  9
$DIMRND
 40
0.0
  9
$DIMDLE
 40
0.0
  9
$DIMEXE
 40
1.0
  9
$DIMTP
 40
0.0
  9
$DIMTM
 40
0.0
  9
$DIMTXT
 40
3.8805555556
  9
$DIMCEN
 40
2.5
  9
$DIMTSZ
 40
0.0
  9
$DIMTOL
 70
     0
  9
$DIMLIM
 70
     0
  9
$DIMTIH
 70
     1
  9
$DIMTOH
 70
     1
  9
$DIMSE1
 70
     0
  9
$DIMSE2
 70
     0
  9
$DIMTAD
 70
     1
  9
$DIMZIN
 70
     0
  9
$DIMBLK
  1

  9
$DIMASO
 70
     1
  9
$DIMSHO
 70
     1
  9
$DIMPOST
  1

  9
$DIMAPOST
  1

  9
$DIMALT
 70
     0
  9
$DIMALTD
 70
     3
  9
$DIMALTF
 40
0.0393700787
  9
$DIMLFAC
 40
0.6666666667
  9
$DIMTOFL
 70
     1
  9
$DIMTVP
 40
0.0
  9
$DIMTIX
 70
     0
  9
$DIMSOXD
 70
     0
  9
$DIMSAH
 70
     0
  9
$DIMBLK1
  1

  9
$DIMBLK2
  1

  9
$DIMSTYLE
  2
ISO-25
  9
$DIMCLRD
 70
     0
  9
$DIMCLRE
 70
     0
  9
$DIMCLRT
 70
     0
  9
$DIMTFAC
 40
1.0
  9
$DIMGAP
 40
1.524
  9
$LUNITS
 70
     2
  9
$LUPREC
 70
     3
  9
$SKETCHINC
 40
1.0
  9
$FILLETRAD
 40
10.0
  9
$AUNITS
 70
     0
  9
$AUPREC
 70
     3
  9
$MENU
  1
.
  9
$ELEVATION
 40
0.0
  9
$PELEVATION
 40
0.0
  9
$THICKNESS
 40
0.0
  9
$LIMCHECK
 70
     0
  9
$CHAMFERA
 40
0.0
  9
$CHAMFERB
 40
0.0
  9
$SKPOLY
 70
     0
  9
$TDCREATE
 40
2457379.364283253
  9
$TDUPDATE
 40
2457379.364286505
  9
$TDINDWG
 40
0.0000000116
  9
$TDUSRTIMER
 40
0.0000000116
  9
$USRTIMER
 70
     1
  9
$ANGBASE
 50
0.0
  9
$ANGDIR
 70
     0
  9
$PDMODE
 70
     0
  9
$PDSIZE
 40
-1.0
  9
$PLINEWID
 40
0.0
  9
$COORDS
 70
     1
  9
$SPLFRAME
 70
     0
  9
$SPLINETYPE
 70
     6
  9
$SPLINESEGS
 70
     8
  9
$ATTDIA
 70
     0
  9
$ATTREQ
 70
     1
  9
$HANDLING
 70
     1
  9
$HANDSEED
  5
853
  9
$SURFTAB1
 70
     6
  9
$SURFTAB2
 70
     6
  9
$SURFTYPE
 70
     6
  9
$SURFU
 70
     6
  9
$SURFV
 70
     6
  9
$UCSNAME
  2

  9
$UCSORG
 10
0.0
 20
0.0
 30
0.0
  9
$UCSXDIR
 10
1.0
 20
0.0
 30
0.0
  9
$UCSYDIR
 10
0.0
 20
1.0
 30
0.0
  9
$PUCSNAME
  2

  9
$PUCSORG
 10
0.0
 20
0.0
 30
0.0
  9
$PUCSXDIR
 10
1.0
 20
0.0
 30
0.0
  9
$PUCSYDIR
 10
0.0
 20
1.0
 30
0.0
  9
$USERI1
 70
     0
  9
$USERI2
 70
     0
  9
$USERI3
 70
     0
  9
$USERI4
 70
     0
  9
$USERI5
 70
     0
  9
$USERR1
 40
0.0
  9
$USERR2
 40
0.0
  9
$USERR3
 40
0.0
  9
$USERR4
 40
0.0
  9
$USERR5
 40
0.0
  9
$WORLDVIEW
 70
     1
  9
$SHADEDGE
 70
     3
  9
$SHADEDIF
 70
    70
  9
$TILEMODE
 70
     1
  9
$MAXACTVP
 70
    64
  9
$PLIMCHECK
 70
     0
  9
$PEXTMIN
 10
1.0000000000E+20
 20
1.0000000000E+20
 30
1.0000000000E+20
  9
$PEXTMAX
 10
-1.0000000000E+20
 20
-1.0000000000E+20
 30
-1.0000000000E+20
  9
$PLIMMIN
 10
0.0
 20
0.0
  9
$PLIMMAX
 10
420.0
 20
297.0
  9
$UNITMODE
 70
     0
  9
$VISRETAIN
 70
     1
  9
$PLINEGEN
 70
     0
  9
$PSLTSCALE
 70
     1
  0
ENDSEC
  0
SECTION
  2
TABLES
  0
TABLE
  2
VPORT
 70
     1
  0
VPORT
  2
*ACTIVE
 70
     0
 10
0.0
 20
0.0
 11
1.0
 21
1.0
 12
148.5
 22
105.0
 13
0.0
 23
0.0
 14
10.0
 24
10.0
 15
10.0
 25
10.0
 16
0.0
 26
0.0
 36
1.0
 17
0.0
 27
0.0
 37
0.0
 40
210.0
 41
1.4142857143
 42
50.0
 43
0.0
 44
0.0
 50
0.0
 51
0.0
 71
     0
 72
  2000
 73
     1
 74
     3
 75
     0
 76
     0
 77
     0
 78
     0
  0
ENDTAB
  0
TABLE
  2
LTYPE
 70
     6
  0
LTYPE
  2
CONTINUOUS
 70
     0
  3
Solid line
 72
    65
 73
     0
 40
0.0
  0
LTYPE
  2
HIDDEN
 70
     0
  3
Hidden __ __ __ __ __ __ __ __ __ __ __ __ __ __
 72
    65
 73
     2
 40
1.905
 49
1.27
 49
-0.635
  0
LTYPE
  2
PHANTOM
 70
     0
  3
Phantom ______  __  __  ______  __  __  ______
 72
    65
 73
     6
 40
12.7
 49
6.35
 49
-1.27
 49
1.27
 49
-1.27
 49
1.27
 49
-1.27
  0
LTYPE
  2
CENTER
 70
     0
  3
Center ____ _ ____ _ ____ _ ____ _ ____ _ ____
 72
    65
 73
     4
 40
10.16
 49
6.35
 49
-1.27
 49
1.27
 49
-1.27
  0
LTYPE
  2
CENTERX2
 70
     0
  3
Center (2x) ________  __  ________  __  _____
 72
    65
 73
     4
 40
20.32
 49
12.7
 49
-2.54
 49
2.54
 49
-2.54
  0
LTYPE
  2
DOT2
 70
     0
  3
Dot (.5x) ........................................
 72
    65
 73
     2
 40
0.635
 49
0.0
 49
-0.635
  0
ENDTAB
  0
TABLE
  2
LAYER
 70
     1
  0
LAYER
  2
0
 70
     0
 62
     7
  6
CONTINUOUS
  0
ENDTAB
  0
TABLE
  2
STYLE
 70
     1
  0
STYLE
  2
STANDARD
 70
     0
 40
0.0
 41
1.0
 50
0.0
 71
     0
 42
3.5
  3
txt
  4

  0
ENDTAB
  0
TABLE
  2
VIEW
 70
     0
  0
ENDTAB
  0
TABLE
  2
UCS
 70
     0
  0
ENDTAB
  0
TABLE
  2
APPID
 70
     1
  0
APPID
  2
ACAD
 70
     0
  0
ENDTAB
  0
TABLE
  2
DIMSTYLE
 70
     2
  0
DIMSTYLE
  2
ISO-25
 70
     0
  3

  4

  5

  6

  7

 40
1.0
 41
2.5
 42
0.625
 43
3.75
 44
1.25
 45
0.0
 46
0.0
 47
0.0
 48
0.0
140
2.5
141
2.5
142
0.0
143
0.0393700787
144
1.0
145
0.0
146
1.0
147
0.625
 71
     0
 72
     0
 73
     0
 74
     0
 75
     0
 76
     0
 77
     1
 78
     8
170
     0
171
     3
172
     1
173
     0
174
     0
175
     0
176
     0
177
     0
178
     0
  0
DIMSTYLE
  2
SLDDIMSTYLE0
 70
     0
  3

  4

  5

  6

  7

 40
1.0
 41
4.0
 42
0.0625
 43
0.38
 44
0.0
 45
0.000000001
 46
0.0
 47
0.0
 48
0.0
140
2.9104166667
141
0.09
142
0.0
143
25.4
144
1.0
145
0.0
146
1.0
147
0.7276041667
 71
     0
 72
     0
 73
     0
 74
     0
 75
     0
 76
     0
 77
     1
 78
    12
170
     0
171
     2
172
     0
173
     1
174
     0
175
     0
176
     0
177
     0
178
     0
  0
ENDTAB
  0
ENDSEC
  0
SECTION
  2
BLOCKS
  0
BLOCK
  8
0
  2
$MODEL_SPACE
 70
     0
 10
0.0
 20
0.0
 30
0.0
  3
$MODEL_SPACE
  1

  0
ENDBLK
  5
21
  8
0
  0
BLOCK
 67
     1
  8
0
  2
$PAPER_SPACE
 70
     0
 10
0.0
 20
0.0
 30
0.0
  3
$PAPER_SPACE
  1

  0
ENDBLK
  5
1D
 67
     1
  8
0
  0
BLOCK
  8
0
  2
SW_NOTE_0
 70
     0
 10
0.0
 20
0.0
 30
0.0
  3
SW_NOTE_0
  1

  0
TEXT
  5
76
  8
0
  6
CONTINUOUS
 62
     0
 10
-0.9346672472
 20
0.0
 30
0.0
 40
2.6458333333
  1
Z=2
 50
90.0
 41
0.7
 11
0.0
 21
0.0
 31
0.0
 73
     1
  0
TEXT
  5
77
  8
0
  6
CONTINUOUS
 62
     0
 10
3.5931106519
 20
0.0
 30
0.0
 40
2.6458333333
  1
Zeff=1
 50
90.0
 41
0.7
 11
4.5277778991
 21
0.0
 31
0.0
 73
     1
  0
ENDBLK
  5
75
  8
0
  0
BLOCK
  8
0
  2
SW_NOTE_1
 70
     0
 10
0.0
 20
0.0
 30
0.0
  3
SW_NOTE_1
  1

  0
TEXT
  5
7C
  8
0
  6
CONTINUOUS
 62
     0
 10
0.0
 20
1.6824010449
 30
0.0
 40
4.7625
  1
Wendeplatte BP0402
 41
0.7
 11
0.0
 21
0.0
 31
0.0
 73
     1
  0
TEXT
  5
7D
  8
0
  6
CONTINUOUS
 62
     0
 10
0.0
 20
-5.6675990423
 30
0.0
 40
4.7625
  1
Spannschraube SS1,8-1
 41
0.7
 11
0.0
 21
-7.3500000872
 31
0.0
 73
     1
  0
ENDBLK
  5
7B
  8
0
  0
BLOCK
  8
0
  2
_D
 70
     0
 10
0.0
 20
0.0
 30
0.0
  3
_D
  1

  0
SOLID
  5
3EE
  8
0
  6
CONTINUOUS
 62
     7
 10
78.7316723127
 20
144.8897824202
 30
0.0
 11
77.9816723127
 21
140.8897824202
 31
0.0
 12
79.4816723127
 22
140.8897824202
 32
0.0
 13
79.4816723127
 23
140.8897824202
 33
0.0
  0
SOLID
  5
3EF
  8
0
  6
CONTINUOUS
 62
     7
 10
78.7316723127
 20
128.8897824202
 30
0.0
 11
79.4816723127
 21
132.8897824202
 31
0.0
 12
77.9816723127
 22
132.8897824202
 32
0.0
 13
77.9816723127
 23
132.8897824202
 33
0.0
  0
LINE
  5
3F0
  8
0
  6
CONTINUOUS
 62
     7
 10
83.4283141933
 20
144.8897824202
 30
0.0
 11
77.7316723127
 21
144.8897824202
 31
0.0
  0
LINE
  5
3F1
  8
0
  6
CONTINUOUS
 62
     7
 10
83.7826814504
 20
128.8897824202
 30
0.0
 11
77.7316723127
 21
128.8897824202
 31
0.0
  0
LINE
  5
3F2
  8
0
  6
CONTINUOUS
 62
     7
 10
78.7316723127
 20
144.8897824202
 30
0.0
 11
78.7316723127
 21
128.8897824202
 31
0.0
  0
TEXT
  5
3F3
  8
0
  6
CONTINUOUS
 62
     7
 10
77.7035381079
 20
132.212356545
 30
0.0
 40
2.9104166667
  1
%%c
 50
90.0
 41
0.7
 11
78.7316720798
 21
132.212356545
 31
0.0
 73
     1
  0
TEXT
  5
3F4
  8
0
  6
CONTINUOUS
 62
     7
 10
77.7035381079
 20
136.6054689251
 30
0.0
 40
2.9104166667
  1
16
 50
90.0
 41
0.7
 11
78.7316720798
 21
136.6054689251
 31
0.0
 73
     1
  0
ENDBLK
  5
3ED
  8
0
  0
BLOCK
  8
0
  2
_D_1
 70
     0
 10
0.0
 20
0.0
 30
0.0
  3
_D_1
  1

  0
SOLID
  5
3F9
  8
0
  6
CONTINUOUS
 62
     7
 10
86.7250087637
 20
107.222102495
 30
0.0
 11
90.7250087637
 21
106.472102495
 31
0.0
 12
90.7250087637
 22
107.972102495
 32
0.0
 13
90.7250087637
 23
107.972102495
 33
0.0
  0
SOLID
  5
3FA
  8
0
  6
CONTINUOUS
 62
     7
 10
161.7252098419
 20
107.222102495
 30
0.0
 11
157.7252098419
 21
107.972102495
 31
0.0
 12
157.7252098419
 22
106.472102495
 32
0.0
 13
157.7252098419
 23
106.472102495
 33
0.0
  0
LINE
  5
3FB
  8
0
  6
CONTINUOUS
 62
     7
 10
86.7250087637
 20
124.1028708997
 30
0.0
 11
86.7250087637
 21
106.222102495
 31
0.0
  0
LINE
  5
3FC
  8
0
  6
CONTINUOUS
 62
     7
 10
161.7252098419
 20
121.3858066181
 30
0.0
 11
161.7252098419
 21
106.222102495
 31
0.0
  0
LINE
  5
3FD
  8
0
  6
CONTINUOUS
 62
     7
 10
86.7250087637
 20
107.222102495
 30
0.0
 11
161.7252098419
 21
107.222102495
 31
0.0
  0
TEXT
  5
3FE
  8
0
  6
CONTINUOUS
 62
     7
 10
124.9208795871
 20
108.2502364669
 30
0.0
 40
2.9104166667
  1
75
 41
0.7
 11
124.9208795871
 21
107.222102495
 31
0.0
 73
     1
  0
ENDBLK
  5
3F8
  8
0
  0
BLOCK
  8
0
  2
_D_2
 70
     0
 10
0.0
 20
0.0
 30
0.0
  3
_D_2
  1

  0
SOLID
  5
403
  8
0
  6
CONTINUOUS
 62
     7
 10
86.7250087637
 20
95.5668745944
 30
0.0
 11
90.7250087637
 21
94.8168745944
 31
0.0
 12
90.7250087637
 22
96.3168745944
 32
0.0
 13
90.7250087637
 23
96.3168745944
 33
0.0
  0
SOLID
  5
404
  8
0
  6
CONTINUOUS
 62
     7
 10
211.7252098419
 20
95.5668745944
 30
0.0
 11
207.7252098419
 21
96.3168745944
 31
0.0
 12
207.7252098419
 22
94.8168745944
 32
0.0
 13
207.7252098419
 23
94.8168745944
 33
0.0
  0
LINE
  5
405
  8
0
  6
CONTINUOUS
 62
     7
 10
86.7250087637
 20
124.1028708997
 30
0.0
 11
86.7250087637
 21
94.5668745944
 31
0.0
  0
LINE
  5
406
  8
0
  6
CONTINUOUS
 62
     7
 10
211.7252098419
 20
129.8063329567
 30
0.0
 11
211.7252098419
 21
94.5668745944
 31
0.0
  0
LINE
  5
407
  8
0
  6
CONTINUOUS
 62
     7
 10
86.7250087637
 20
95.5668745944
 30
0.0
 11
211.7252098419
 21
95.5668745944
 31
0.0
  0
TEXT
  5
408
  8
0
  6
CONTINUOUS
 62
     7
 10
142.7109265032
 20
96.5950085663
 30
0.0
 40
2.9104166667
  1
125
 41
0.7
 11
142.7109265032
 21
95.5668745944
 31
0.0
 73
     1
  0
ENDBLK
  5
402
  8
0
  0
BLOCK
  8
0
  2
_D_3
 70
     0
 10
0.0
 20
0.0
 30
0.0
  3
_D_3
  1

  0
SOLID
  5
40D
  8
0
  6
CONTINUOUS
 62
     7
 10
86.7250087637
 20
120.9597751975
 30
0.0
 11
90.7250087637
 21
120.2097751975
 31
0.0
 12
90.7250087637
 22
121.7097751975
 32
0.0
 13
90.7250087637
 23
121.7097751975
 33
0.0
  0
SOLID
  5
40E
  8
0
  6
CONTINUOUS
 62
     7
 10
134.7250087637
 20
120.9597751975
 30
0.0
 11
130.7250087637
 21
121.7097751975
 31
0.0
 12
130.7250087637
 22
120.2097751975
 32
0.0
 13
130.7250087637
 23
120.2097751975
 33
0.0
  0
LINE
  5
40F
  8
0
  6
CONTINUOUS
 62
     7
 10
86.7250087637
 20
124.1028708997
 30
0.0
 11
86.7250087637
 21
119.9597751975
 31
0.0
  0
LINE
  5
410
  8
0
  6
CONTINUOUS
 62
     7
 10
134.7250087637
 20
124.1028708997
 30
0.0
 11
134.7250087637
 21
119.9597751975
 31
0.0
  0
LINE
  5
411
  8
0
  6
CONTINUOUS
 62
     7
 10
86.7250087637
 20
120.9597751975
 30
0.0
 11
134.7250087637
 21
120.9597751975
 31
0.0
  0
TEXT
  5
412
  8
0
  6
CONTINUOUS
 62
     7
 10
114.9536124456
 20
121.9879091694
 30
0.0
 40
2.9104166667
  1
48
 41
0.7
 11
114.9536124456
 21
120.9597751975
 31
0.0
 73
     1
  0
ENDBLK
  5
40C
  8
0
  0
BLOCK
  8
0
  2
_D_4
 70
     0
 10
0.0
 20
0.0
 30
0.0
  3
_D_4
  1

  0
SOLID
  5
417
  8
0
  6
CONTINUOUS
 62
     7
 10
221.6183886425
 20
126.8858066181
 30
0.0
 11
222.3683886425
 21
130.8858066181
 31
0.0
 12
220.8683886425
 22
130.8858066181
 32
0.0
 13
220.8683886425
 23
130.8858066181
 33
0.0
  0
SOLID
  5
418
  8
0
  6
CONTINUOUS
 62
     7
 10
221.6183886425
 20
146.8858066181
 30
0.0
 11
220.8683886425
 21
142.8858066181
 31
0.0
 12
222.3683886425
 22
142.8858066181
 32
0.0
 13
222.3683886425
 23
142.8858066181
 33
0.0
  0
LINE
  5
419
  8
0
  6
CONTINUOUS
 62
     7
 10
210.4752098419
 20
126.8858066181
 30
0.0
 11
222.6183886425
 21
126.8858066181
 31
0.0
  0
LINE
  5
41A
  8
0
  6
CONTINUOUS
 62
     7
 10
210.4752098419
 20
146.8858066181
 30
0.0
 11
222.6183886425
 21
146.8858066181
 31
0.0
  0
LINE
  5
41B
  8
0
  6
CONTINUOUS
 62
     7
 10
221.6183886425
 20
126.8858066181
 30
0.0
 11
221.6183886425
 21
146.8858066181
 31
0.0
  0
TEXT
  5
41C
  8
0
  6
CONTINUOUS
 62
     7
 10
220.5902544378
 20
129.9540892914
 30
6.0090621718
 40
2.9104166667
  1
%%c
 50
90.0
 41
0.7
 11
221.6183884097
 21
129.9540892914
 31
6.0090621718
 73
     1
  0
TEXT
  5
41D
  8
0
  6
CONTINUOUS
 62
     7
 10
220.5902544378
 20
134.3472016714
 30
6.0090621718
 40
2.9104166667
  1
20
 50
90.0
 41
0.7
 11
221.6183884097
 21
134.3472016714
 31
6.0090621718
 73
     1
  0
TEXT
  5
41E
  8
0
  6
CONTINUOUS
 62
     7
 10
220.5902544378
 20
138.6481513008
 30
6.0090621718
 40
2.9104166667
  1
h6
 50
90.0
 41
0.7
 11
221.6183884097
 21
138.6481513008
 31
6.0090621718
 73
     1
  0
ENDBLK
  5
416
  8
0
  0
BLOCK
  8
0
  2
_D_5
 70
     0
 10
0.0
 20
0.0
 30
0.0
  3
_D_5
  1

  0
SOLID
  5
423
  8
0
  6
CONTINUOUS
 62
     7
 10
228.762877484
 20
151.8858066181
 30
0.0
 11
228.012877484
 21
147.8858066181
 31
0.0
 12
229.512877484
 22
147.8858066181
 32
0.0
 13
229.512877484
 23
147.8858066181
 33
0.0
  0
SOLID
  5
424
  8
0
  6
CONTINUOUS
 62
     7
 10
228.762877484
 20
121.8858066181
 30
0.0
 11
229.512877484
 21
125.8858066181
 31
0.0
 12
228.012877484
 22
125.8858066181
 32
0.0
 13
228.012877484
 23
125.8858066181
 33
0.0
  0
LINE
  5
425
  8
0
  6
CONTINUOUS
 62
     7
 10
162.2252098419
 20
151.8858066181
 30
0.0
 11
229.762877484
 21
151.8858066181
 31
0.0
  0
LINE
  5
426
  8
0
  6
CONTINUOUS
 62
     7
 10
162.2252098419
 20
121.8858066181
 30
0.0
 11
229.762877484
 21
121.8858066181
 31
0.0
  0
LINE
  5
427
  8
0
  6
CONTINUOUS
 62
     7
 10
228.762877484
 20
151.8858066181
 30
0.0
 11
228.762877484
 21
121.8858066181
 31
0.0
  0
TEXT
  5
428
  8
0
  6
CONTINUOUS
 62
     7
 10
227.7347432793
 20
132.212356545
 30
6.0090621718
 40
2.9104166667
  1
%%c
 50
90.0
 41
0.7
 11
228.7628772511
 21
132.212356545
 31
6.0090621718
 73
     1
  0
TEXT
  5
429
  8
0
  6
CONTINUOUS
 62
     7
 10
227.7347432793
 20
136.6054689251
 30
6.0090621718
 40
2.9104166667
  1
30
 50
90.0
 41
0.7
 11
228.7628772511
 21
136.6054689251
 31
6.0090621718
 73
     1
  0
ENDBLK
  5
422
  8
0
  0
BLOCK
  8
0
  2
_D_6
 70
     0
 10
0.0
 20
0.0
 30
0.0
  3
_D_6
  1

  0
SOLID
  5
42E
  8
0
  6
CONTINUOUS
 62
     7
 10
161.7252098419
 20
107.222102495
 30
0.0
 11
165.7252098419
 21
106.472102495
 31
0.0
 12
165.7252098419
 22
107.972102495
 32
0.0
 13
165.7252098419
 23
107.972102495
 33
0.0
  0
SOLID
  5
42F
  8
0
  6
CONTINUOUS
 62
     7
 10
211.7252098419
 20
107.222102495
 30
0.0
 11
207.7252098419
 21
107.972102495
 31
0.0
 12
207.7252098419
 22
106.472102495
 32
0.0
 13
207.7252098419
 23
106.472102495
 33
0.0
  0
LINE
  5
430
  8
0
  6
CONTINUOUS
 62
     7
 10
161.7252098419
 20
121.3858066181
 30
0.0
 11
161.7252098419
 21
106.222102495
 31
0.0
  0
LINE
  5
431
  8
0
  6
CONTINUOUS
 62
     7
 10
211.7252098419
 20
129.8063329567
 30
0.0
 11
211.7252098419
 21
106.222102495
 31
0.0
  0
LINE
  5
432
  8
0
  6
CONTINUOUS
 62
     7
 10
161.7252098419
 20
107.222102495
 30
0.0
 11
211.7252098419
 21
107.222102495
 31
0.0
  0
TEXT
  5
433
  8
0
  6
CONTINUOUS
 62
     7
 10
176.1486965849
 20
108.2502364669
 30
6.0090621718
 40
2.9104166667
  1
50
 41
0.7
 11
176.1486965849
 21
107.222102495
 31
6.0090621718
 73
     1
  0
ENDBLK
  5
42D
  8
0
  0
ENDSEC
  0
SECTION
  2
ENTITIES
  0
INSERT
  5
78
  8
0
  6
CONTINUOUS
 62
     7
  2
SW_NOTE_0
 10
65.8290002183
 20
131.4476772616
 30
0.0
  0
INSERT
  5
7E
  8
0
  6
CONTINUOUS
 62
     7
  2
SW_NOTE_1
 10
117.6007334963
 20
83.5096578474
 30
0.0
  0
LINE
  5
7F
  8
0
  6
CONTINUOUS
 62
     7
 10
155.7252062537
 20
121.8858069534
 30
0.0
 11
161.2252099492
 21
121.8858069534
 31
0.0
  0
LINE
  5
80
  8
0
  6
CONTINUOUS
 62
     7
 10
161.2252099492
 20
151.8858062828
 30
0.0
 11
155.7252062537
 21
151.8858062828
 31
0.0
  0
LINE
  5
81
  8
0
  6
CONTINUOUS
 62
     7
 10
161.2252099492
 20
121.8858069534
 30
0.0
 11
161.7252109625
 21
122.3858070353
 31
0.0
  0
LINE
  5
82
  8
0
  6
CONTINUOUS
 62
     7
 10
161.7252109625
 20
151.3858062009
 30
0.0
 11
161.2252099492
 21
151.8858062828
 31
0.0
  0
LINE
  5
83
  8
0
  6
CONTINUOUS
 62
     7
 10
155.7252062537
 20
151.8858062828
 30
0.0
 11
143.9826441982
 21
145.7292546312
 31
0.0
  0
LINE
  5
84
  8
0
  6
CONTINUOUS
 62
     7
 10
143.9826441982
 20
128.042358605
 30
0.0
 11
155.7252062537
 21
121.8858069534
 31
0.0
  0
LINE
  5
85
  8
0
  6
CONTINUOUS
 62
     7
 10
163.4547440388
 20
146.8858063946
 30
0.0
 11
162.9842845776
 21
146.7858065645
 31
0.0
  0
LINE
  5
86
  8
0
  6
CONTINUOUS
 62
     7
 10
162.9842845776
 20
126.9858066718
 30
0.0
 11
163.4547440388
 21
126.8858068416
 31
0.0
  0
LINE
  5
87
  8
0
  6
CONTINUOUS
 62
     7
 10
163.4547440388
 20
126.8858068416
 30
0.0
 11
209.4752071478
 21
126.8858068416
 31
0.0
  0
LINE
  5
88
  8
0
  6
CONTINUOUS
 62
     7
 10
209.4752071478
 20
146.8858063946
 30
0.0
 11
163.4547440388
 21
146.8858063946
 31
0.0
  0
LINE
  5
89
  8
0
  6
CONTINUOUS
 62
     7
 10
162.9842845776
 20
146.7858065645
 30
0.0
 11
161.7252109625
 21
146.7858065645
 31
0.0
  0
LINE
  5
8A
  8
0
  6
CONTINUOUS
 62
     7
 10
161.7252109625
 20
126.9858066718
 30
0.0
 11
162.9842845776
 21
126.9858066718
 31
0.0
  0
ARC
  5
8B
  8
0
  6
CONTINUOUS
 62
     7
 10
139.3392098419
 20
119.1858066181
 30
0.0
 40
10.00000000000001
 50
62.332264152
 51
90.0
  0
LINE
  5
8C
  8
0
  6
CONTINUOUS
 62
     7
 10
209.4752071478
 20
126.8858068416
 30
0.0
 11
210.7252134063
 21
126.9858066718
 31
0.0
  0
LINE
  5
8D
  8
0
  6
CONTINUOUS
 62
     7
 10
210.7252134063
 20
146.7858065645
 30
0.0
 11
209.4752071478
 21
146.8858063946
 31
0.0
  0
LINE
  5
8E
  8
0
  6
CONTINUOUS
 62
     7
 10
127.2838553467
 20
129.1858066598
 30
0.0
 11
139.3392114022
 21
129.1858066598
 31
0.0
  0
LINE
  5
8F
  8
0
  6
CONTINUOUS
 62
     7
 10
210.7252134063
 20
126.9858066718
 30
0.0
 11
211.7252079823
 21
127.9858068357
 31
0.0
  0
LINE
  5
90
  8
0
  6
CONTINUOUS
 62
     7
 10
211.7252079823
 20
145.7858064006
 30
0.0
 11
210.7252134063
 21
146.7858065645
 31
0.0
  0
ARC
  5
91
  8
0
  6
CONTINUOUS
 62
     7
 10
139.3392098419
 20
154.5858066181
 30
0.0
 40
10.00000000000003
 50
270.0
 51
297.667735848
  0
LINE
  5
92
  8
0
  6
CONTINUOUS
 62
     7
 10
139.3392114022
 20
144.5858065764
 30
0.0
 11
133.140116004
 21
144.5858065764
 31
0.0
  0
LINE
  5
93
  8
0
  6
CONTINUOUS
 62
     7
 10
86.7752098182
 20
134.9008066373
 30
0.0
 11
86.8028013845
 21
134.5854352022
 31
0.0
  0
LINE
  5
94
  8
0
  6
CONTINUOUS
 62
     7
 10
155.7252062537
 20
121.8858069534
 30
0.0
 11
155.7252062537
 21
151.8858062828
 31
0.0
  0
LINE
  5
95
  8
0
  6
CONTINUOUS
 62
     7
 10
161.2252099492
 20
121.8858069534
 30
0.0
 11
161.2252099492
 21
151.8858062828
 31
0.0
  0
LINE
  5
96
  8
0
  6
CONTINUOUS
 62
     7
 10
161.7252109625
 20
151.3858062009
 30
0.0
 11
161.7252109625
 21
122.3858070353
 31
0.0
  0
ARC
  5
97
  8
0
  6
CONTINUOUS
 62
     7
 10
139.9548637384
 20
135.5180750766
 30
0.0
 40
8.517823670167115
 50
351.9734189504
 51
61.7795705768
  0
LINE
  5
98
  8
0
  6
CONTINUOUS
 62
     7
 10
145.6819428184
 20
133.6369269321
 30
0.0
 11
143.9826441982
 21
134.3024186118
 31
0.0
  0
POLYLINE
  5
99
  8
0
  6
CONTINUOUS
 62
     7
 66
     1
 10
0.0
 20
0.0
 30
0.0
 70
   128
  0
VERTEX
  5
435
  8
0
  6
CONTINUOUS
 62
     7
 10
148.3892416634
 20
134.3287100809
 30
0.0
  0
VERTEX
  5
436
  8
0
  6
CONTINUOUS
 62
     7
 10
148.2814727404
 20
134.0034889782
 30
0.0
  0
VERTEX
  5
437
  8
0
  6
CONTINUOUS
 62
     7
 10
148.0971304753
 20
133.7650256956
 30
0.0
  0
VERTEX
  5
438
  8
0
  6
CONTINUOUS
 62
     7
 10
147.7056583443
 20
133.5198242942
 30
0.0
  0
VERTEX
  5
439
  8
0
  6
CONTINUOUS
 62
     7
 10
147.3619034567
 20
133.4218582398
 30
0.0
  0
VERTEX
  5
43A
  8
0
  6
CONTINUOUS
 62
     7
 10
147.001015959
 20
133.3856232724
 30
0.0
  0
VERTEX
  5
43B
  8
0
  6
CONTINUOUS
 62
     7
 10
146.4587627032
 20
133.4235141313
 30
0.0
  0
VERTEX
  5
43C
  8
0
  6
CONTINUOUS
 62
     7
 10
146.0707029381
 20
133.5077031309
 30
0.0
  0
VERTEX
  5
43D
  8
0
  6
CONTINUOUS
 62
     7
 10
145.6819428184
 20
133.6369269321
 30
0.0
  0
SEQEND
  5
7AB
  8
0
  6
CONTINUOUS
 62
     7
  0
LINE
  5
9A
  8
0
  6
CONTINUOUS
 62
     7
 10
148.3892416634
 20
134.3287100809
 30
0.0
 11
141.9188110211
 21
137.9464851253
 31
0.0
  0
LINE
  5
9B
  8
0
  6
CONTINUOUS
 62
     7
 10
141.6986947932
 20
144.0126171129
 30
0.0
 11
141.9188110211
 21
137.9464851253
 31
0.0
  0
LINE
  5
9C
  8
0
  6
CONTINUOUS
 62
     7
 10
141.6986947932
 20
144.0126171129
 30
0.0
 11
143.9826441982
 21
143.0234268101
 31
0.0
  0
LINE
  5
9D
  8
0
  6
CONTINUOUS
 62
     7
 10
145.6819428184
 20
133.6369269321
 30
0.0
 11
141.1752095499
 21
136.1567515324
 31
0.0
  0
LINE
  5
9E
  8
0
  6
CONTINUOUS
 62
     7
 10
141.1752095499
 20
137.3034954214
 30
0.0
 11
141.1752095499
 21
136.1567515324
 31
0.0
  0
LINE
  5
9F
  8
0
  6
CONTINUOUS
 62
     7
 10
141.9188110211
 20
137.9464851253
 30
0.0
 11
141.1752095499
 21
137.3034939371
 31
0.0
  0
LINE
  5
A0
  8
0
  6
CONTINUOUS
 62
     7
 10
163.4547440388
 20
146.8858063946
 30
0.0
 11
163.4547440388
 21
126.8858068416
 31
0.0
  0
LINE
  5
A1
  8
0
  6
CONTINUOUS
 62
     7
 10
162.9842845776
 20
146.7858065645
 30
0.0
 11
162.9842845776
 21
126.9858066718
 31
0.0
  0
LINE
  5
A2
  8
0
  6
CONTINUOUS
 62
     7
 10
209.4752071478
 20
142.8858066703
 30
0.0
 11
209.4752071478
 21
146.8858063946
 31
0.0
  0
LINE
  5
A3
  8
0
  6
CONTINUOUS
 62
     7
 10
209.4752071478
 20
126.8858068416
 30
0.0
 11
209.4752071478
 21
130.885806566
 31
0.0
  0
LINE
  5
A4
  8
0
  6
CONTINUOUS
 62
     7
 10
209.4752071478
 20
142.8858066703
 30
0.0
 11
167.7252082207
 21
142.8858066703
 31
0.0
  0
ARC
  5
A5
  8
0
  6
CONTINUOUS
 62
     7
 10
175.7252216847
 20
136.8858066181
 30
0.0
 40
10.00001080252432
 50
143.130148401
 51
216.869851599
  0
LINE
  5
A6
  8
0
  6
CONTINUOUS
 62
     7
 10
167.7252082207
 20
130.885806566
 30
0.0
 11
209.4752071478
 21
130.885806566
 31
0.0
  0
LINE
  5
A7
  8
0
  6
CONTINUOUS
 62
     7
 10
167.7252082207
 20
130.885806566
 30
0.0
 11
167.7252082207
 21
142.8858066703
 31
0.0
  0
POLYLINE
  5
A8
  8
0
  6
CONTINUOUS
 62
     7
 66
     1
 10
0.0
 20
0.0
 30
0.0
 70
   128
  0
VERTEX
  5
43E
  8
0
  6
CONTINUOUS
 62
     7
 10
143.9826441982
 20
134.3024186118
 30
0.0
  0
VERTEX
  5
43F
  8
0
  6
CONTINUOUS
 62
     7
 10
142.6222203352
 20
134.8120511303
 30
0.0
  0
VERTEX
  5
440
  8
0
  6
CONTINUOUS
 62
     7
 10
141.1752095499
 20
135.3068940135
 30
0.0
  0
SEQEND
  5
7AC
  8
0
  6
CONTINUOUS
 62
     7
  0
LINE
  5
A9
  8
0
  6
CONTINUOUS
 62
     7
 10
141.1752095499
 20
136.1567515324
 30
0.0
 11
141.1752095499
 21
135.3068940135
 31
0.0
  0
LINE
  5
AA
  8
0
  6
CONTINUOUS
 62
     7
 10
139.3392114022
 20
135.841046742
 30
0.0
 11
141.1752095499
 21
135.3068940135
 31
0.0
  0
POLYLINE
  5
AB
  8
0
  6
CONTINUOUS
 62
     7
 66
     1
 10
0.0
 20
0.0
 30
0.0
 70
   128
  0
VERTEX
  5
441
  8
0
  6
CONTINUOUS
 62
     7
 10
210.225212393
 20
130.9863488915
 30
0.0
  0
VERTEX
  5
442
  8
0
  6
CONTINUOUS
 62
     7
 10
209.6721855976
 20
130.9121071155
 30
0.0
  0
VERTEX
  5
443
  8
0
  6
CONTINUOUS
 62
     7
 10
209.4752071478
 20
130.885806566
 30
0.0
  0
SEQEND
  5
7AD
  8
0
  6
CONTINUOUS
 62
     7
  0
ARC
  5
AC
  8
0
  6
CONTINUOUS
 62
     7
 10
217.4489865209
 20
136.9012573156
 30
0.0
 40
9.336436917591982
 50
219.3110070416
 51
223.9319126741
  0
LINE
  5
AD
  8
0
  6
CONTINUOUS
 62
     7
 10
210.7252134063
 20
143.3480043689
 30
0.0
 11
210.7252134063
 21
146.7858065645
 31
0.0
  0
LINE
  5
AE
  8
0
  6
CONTINUOUS
 62
     7
 10
210.7252134063
 20
126.9858066718
 30
0.0
 11
210.7252134063
 21
130.4236088673
 31
0.0
  0
ARC
  5
AF
  8
0
  6
CONTINUOUS
 62
     7
 10
217.4489865209
 20
136.8703559206
 30
0.0
 40
9.336436917591982
 50
136.0680873259
 51
140.6889929584
  0
POLYLINE
  5
B0
  8
0
  6
CONTINUOUS
 62
     7
 66
     1
 10
0.0
 20
0.0
 30
0.0
 70
   128
  0
VERTEX
  5
444
  8
0
  6
CONTINUOUS
 62
     7
 10
209.4752071478
 20
142.8858066703
 30
0.0
  0
VERTEX
  5
445
  8
0
  6
CONTINUOUS
 62
     7
 10
209.6721855976
 20
142.8595061208
 30
0.0
  0
VERTEX
  5
446
  8
0
  6
CONTINUOUS
 62
     7
 10
210.225212393
 20
142.7852643447
 30
0.0
  0
SEQEND
  5
7AE
  8
0
  6
CONTINUOUS
 62
     7
  0
LINE
  5
B1
  8
0
  6
CONTINUOUS
 62
     7
 10
210.7252134063
 20
143.3480043689
 30
0.0
 11
211.7252079823
 21
142.9652801508
 31
0.0
  0
LINE
  5
B2
  8
0
  6
CONTINUOUS
 62
     7
 10
211.7252079823
 20
130.8063330854
 30
0.0
 11
211.7252079823
 21
142.9652801508
 31
0.0
  0
LINE
  5
B3
  8
0
  6
CONTINUOUS
 62
     7
 10
211.7252079823
 20
130.8063330854
 30
0.0
 11
210.7252134063
 21
130.4236088673
 31
0.0
  0
LINE
  5
B4
  8
0
  6
CONTINUOUS
 62
     7
 10
210.225212393
 20
130.9863488915
 30
0.0
 11
210.225212393
 21
142.7852643447
 31
0.0
  0
POLYLINE
  5
B5
  8
0
  6
CONTINUOUS
 62
     7
 66
     1
 10
0.0
 20
0.0
 30
0.0
 70
   128
  0
VERTEX
  5
447
  8
0
  6
CONTINUOUS
 62
     7
 10
95.2752102219
 20
144.5202149244
 30
0.0
  0
VERTEX
  5
448
  8
0
  6
CONTINUOUS
 62
     7
 10
102.7047401347
 20
143.9885247292
 30
0.0
  0
VERTEX
  5
449
  8
0
  6
CONTINUOUS
 62
     7
 10
110.1711904683
 20
142.9520120638
 30
0.0
  0
VERTEX
  5
44A
  8
0
  6
CONTINUOUS
 62
     7
 10
117.6009969839
 20
141.4937350693
 30
0.0
  0
VERTEX
  5
44B
  8
0
  6
CONTINUOUS
 62
     7
 10
125.0305017509
 20
139.7109855226
 30
0.0
  0
VERTEX
  5
44C
  8
0
  6
CONTINUOUS
 62
     7
 10
132.1686161735
 20
137.8105761743
 30
0.0
  0
VERTEX
  5
44D
  8
0
  6
CONTINUOUS
 62
     7
 10
139.3392114022
 20
135.841046742
 30
0.0
  0
SEQEND
  5
7AF
  8
0
  6
CONTINUOUS
 62
     7
  0
LINE
  5
B6
  8
0
  6
CONTINUOUS
 62
     7
 10
87.8577635793
 20
144.5202149244
 30
0.0
 11
95.2752102219
 21
144.5202149244
 31
0.0
  0
POLYLINE
  5
B7
  8
0
  6
CONTINUOUS
 62
     7
 66
     1
 10
0.0
 20
0.0
 30
0.0
 70
   128
  0
VERTEX
  5
44E
  8
0
  6
CONTINUOUS
 62
     7
 10
127.2838553467
 20
129.2043651248
 30
0.0
  0
VERTEX
  5
44F
  8
0
  6
CONTINUOUS
 62
     7
 10
124.6608411946
 20
129.2320882695
 30
0.0
  0
VERTEX
  5
450
  8
0
  6
CONTINUOUS
 62
     7
 10
121.0632016935
 20
129.4448489117
 30
0.0
  0
VERTEX
  5
451
  8
0
  6
CONTINUOUS
 62
     7
 10
117.4652883836
 20
129.8247977885
 30
0.0
  0
VERTEX
  5
452
  8
0
  6
CONTINUOUS
 62
     7
 10
113.8369618037
 20
130.3690585101
 30
0.0
  0
VERTEX
  5
453
  8
0
  6
CONTINUOUS
 62
     7
 10
110.2083874919
 20
131.0616193133
 30
0.0
  0
VERTEX
  5
454
  8
0
  6
CONTINUOUS
 62
     7
 10
106.599829165
 20
131.8820390644
 30
0.0
  0
VERTEX
  5
455
  8
0
  6
CONTINUOUS
 62
     7
 10
102.9911162385
 20
132.8147497753
 30
0.0
  0
VERTEX
  5
456
  8
0
  6
CONTINUOUS
 62
     7
 10
99.3520040118
 20
133.8478619492
 30
0.0
  0
VERTEX
  5
457
  8
0
  6
CONTINUOUS
 62
     7
 10
95.7127027266
 20
134.94985509
 30
0.0
  0
SEQEND
  5
7B0
  8
0
  6
CONTINUOUS
 62
     7
  0
LINE
  5
B8
  8
0
  6
CONTINUOUS
 62
     7
 10
95.7127027266
 20
134.94985509
 30
0.0
 11
94.8168602825
 21
135.085806649
 31
0.0
  0
LINE
  5
B9
  8
0
  6
CONTINUOUS
 62
     7
 10
94.8168602825
 20
135.085806649
 30
0.0
 11
87.2752098419
 21
135.085806649
 31
0.0
  0
LINE
  5
BA
  8
0
  6
CONTINUOUS
 62
     7
 10
87.2752098419
 20
135.085806649
 30
0.0
 11
87.2752098419
 21
142.0171900446
 31
0.0
  0
ARC
  5
BB
  8
0
  6
CONTINUOUS
 62
     7
 10
58.1551792623
 20
150.1138869698
 30
0.0
 40
30.22470317572673
 50
344.4616431166
 51
349.3348129884
  0
CIRCLE
  5
BC
  8
0
  6
CONTINUOUS
 62
     7
 10
89.0290079143
 20
138.2169453215
 30
0.0
 40
0.8040027836905266
  0
LINE
  5
BD
  8
0
  6
CONTINUOUS
 62
     7
 10
87.2752098419
 20
135.085806649
 30
0.0
 11
86.7757000431
 21
135.085806649
 31
0.0
  0
LINE
  5
BE
  8
0
  6
CONTINUOUS
 62
     7
 10
86.7752098182
 20
135.0857168928
 30
0.0
 11
86.7757000431
 21
135.085806649
 31
0.0
  0
LINE
  5
BF
  8
0
  6
CONTINUOUS
 62
     7
 10
86.7752098182
 20
135.0857168928
 30
0.0
 11
86.7752098182
 21
137.4832015045
 31
0.0
  0
LINE
  5
C0
  8
0
  6
CONTINUOUS
 62
     7
 10
86.7752098182
 20
137.4832015045
 30
0.0
 11
87.0247649198
 21
141.1853499504
 31
0.0
  0
LINE
  5
C1
  8
0
  6
CONTINUOUS
 62
     7
 10
87.0247649198
 20
141.1853499504
 30
0.0
 11
87.0031609718
 21
141.2591363097
 31
0.0
  0
LINE
  5
C2
  8
0
  6
CONTINUOUS
 62
     7
 10
87.0031609718
 20
141.2591363097
 30
0.0
 11
87.0059024072
 21
141.4489342625
 31
0.0
  0
LINE
  5
C3
  8
0
  6
CONTINUOUS
 62
     7
 10
87.0059024072
 20
141.4489342625
 30
0.0
 11
87.0110558515
 21
141.5077659095
 31
0.0
  0
ARC
  5
C4
  8
0
  6
CONTINUOUS
 62
     7
 10
85.5841761799
 20
142.5708507966
 30
0.0
 40
1.779363671238693
 50
323.3123520811
 51
341.8710535344
  0
POLYLINE
  5
C5
  8
0
  6
CONTINUOUS
 62
     7
 66
     1
 10
0.0
 20
0.0
 30
0.0
 70
   128
  0
VERTEX
  5
458
  8
0
  6
CONTINUOUS
 62
     7
 10
87.2294115123
 20
135.5566126787
 30
0.0
  0
VERTEX
  5
459
  8
0
  6
CONTINUOUS
 62
     7
 10
87.2091333056
 20
135.3650234433
 30
0.0
  0
VERTEX
  5
45A
  8
0
  6
CONTINUOUS
 62
     7
 10
87.1833787949
 20
135.2758047197
 30
0.0
  0
VERTEX
  5
45B
  8
0
  6
CONTINUOUS
 62
     7
 10
87.1544424934
 20
135.2988407508
 30
0.0
  0
VERTEX
  5
45C
  8
0
  6
CONTINUOUS
 62
     7
 10
87.1253282874
 20
135.4321371092
 30
0.0
  0
VERTEX
  5
45D
  8
0
  6
CONTINUOUS
 62
     7
 10
87.0996381034
 20
135.6608982224
 30
0.0
  0
VERTEX
  5
45E
  8
0
  6
CONTINUOUS
 62
     7
 10
87.0810994437
 20
135.9586544478
 30
0.0
  0
VERTEX
  5
45F
  8
0
  6
CONTINUOUS
 62
     7
 10
87.0727215859
 20
136.2906846826
 30
0.0
  0
VERTEX
  5
460
  8
0
  6
CONTINUOUS
 62
     7
 10
87.0758750441
 20
136.6192074694
 30
0.0
  0
VERTEX
  5
461
  8
0
  6
CONTINUOUS
 62
     7
 10
87.0899052005
 20
136.9082689654
 30
0.0
  0
VERTEX
  5
462
  8
0
  6
CONTINUOUS
 62
     7
 10
87.1124824678
 20
137.1265690888
 30
0.0
  0
VERTEX
  5
463
  8
0
  6
CONTINUOUS
 62
     7
 10
87.1402964747
 20
137.2494981534
 30
0.0
  0
VERTEX
  5
464
  8
0
  6
CONTINUOUS
 62
     7
 10
87.1697388773
 20
137.2621346292
 30
0.0
  0
VERTEX
  5
465
  8
0
  6
CONTINUOUS
 62
     7
 10
87.1974483214
 20
137.1621856143
 30
0.0
  0
VERTEX
  5
466
  8
0
  6
CONTINUOUS
 62
     7
 10
87.2206538241
 20
136.9609456143
 30
0.0
  0
VERTEX
  5
467
  8
0
  6
CONTINUOUS
 62
     7
 10
87.2373165819
 20
136.6817729196
 30
0.0
  0
VERTEX
  5
468
  8
0
  6
CONTINUOUS
 62
     7
 10
87.2461363013
 20
136.3567892605
 30
0.0
  0
VERTEX
  5
469
  8
0
  6
CONTINUOUS
 62
     7
 10
87.2464985785
 20
136.022769546
 30
0.0
  0
VERTEX
  5
46A
  8
0
  6
CONTINUOUS
 62
     7
 10
87.2384180346
 20
135.7169588356
 30
0.0
  0
VERTEX
  5
46B
  8
0
  6
CONTINUOUS
 62
     7
 10
87.2294115123
 20
135.5566126787
 30
0.0
  0
SEQEND
  5
7B1
  8
0
  6
CONTINUOUS
 62
     7
  0
LINE
  5
C6
  8
0
  6
CONTINUOUS
 62
     7
 10
211.7252079823
 20
142.9652801508
 30
0.0
 11
211.7252079823
 21
145.7858064006
 31
0.0
  0
LINE
  5
C7
  8
0
  6
CONTINUOUS
 62
     7
 10
211.7252079823
 20
127.9858068357
 30
0.0
 11
211.7252079823
 21
130.8063330854
 31
0.0
  0
LINE
  5
C8
  8
0
  6
CONTINUOUS
 62
     7
 10
140.3966052511
 20
144.1699626649
 30
0.0
 11
139.3392114022
 21
144.239527339
 31
0.0
  0
POLYLINE
  5
C9
  8
0
  6
CONTINUOUS
 62
     7
 66
     1
 10
0.0
 20
0.0
 30
0.0
 70
   128
  0
VERTEX
  5
46C
  8
0
  6
CONTINUOUS
 62
     7
 10
141.6986947932
 20
144.0126171129
 30
0.0
  0
VERTEX
  5
46D
  8
0
  6
CONTINUOUS
 62
     7
 10
141.1113506236
 20
144.1318808848
 30
0.0
  0
VERTEX
  5
46E
  8
0
  6
CONTINUOUS
 62
     7
 10
140.3862936475
 20
144.1701754721
 30
0.0
  0
SEQEND
  5
7B2
  8
0
  6
CONTINUOUS
 62
     7
  0
LINE
  5
CA
  8
0
  6
CONTINUOUS
 62
     7
 10
87.0110558515
 20
141.5077659095
 30
0.0
 11
87.8577635793
 21
144.5202149244
 31
0.0
  0
LINE
  5
CB
  8
0
  6
CONTINUOUS
 62
     7
 10
141.1752095499
 20
137.3034954214
 30
0.0
 11
140.027268795
 21
138.4530421839
 31
0.0
  0
LINE
  5
CC
  8
0
  6
CONTINUOUS
 62
     7
 10
140.017746953
 20
138.4622377137
 30
0.0
 11
140.3862936475
 21
144.1701754721
 31
0.0
  0
ARC
  5
CD
  8
0
  6
CONTINUOUS
 62
     7
 10
91.8420369282
 20
129.3622886329
 30
0.0
 40
0.1784104008109569
 50
227.7955818629
 51
258.8134425963
  0
LINE
  5
CE
  8
0
  6
CONTINUOUS
 62
     7
 10
91.8074245618
 20
129.187267905
 30
0.0
 11
95.2752102219
 21
129.187267905
 31
0.0
  0
ARC
  5
CF
  8
0
  6
CONTINUOUS
 62
     7
 10
95.327868308
 20
221.5969092727
 30
0.0
 40
92.40965637090332
 50
269.9673509634
 51
280.4209194927
  0
ARC
  5
D0
  8
0
  6
CONTINUOUS
 62
     7
 10
133.124497133
 20
84.7552670944
 30
0.0
 40
59.80802530003346
 50
84.0355692948
 51
107.1413745584
  0
LINE
  5
D1
  8
0
  6
CONTINUOUS
 62
     7
 10
95.2752102219
 20
134.085806718
 30
0.0
 11
95.2752102219
 21
129.187267905
 31
0.0
  0
LINE
  5
D2
  8
0
  6
CONTINUOUS
 62
     7
 10
95.2752102219
 20
134.9194449632
 30
0.0
 11
95.2752102219
 21
134.085806718
 31
0.0
  0
LINE
  5
D3
  8
0
  6
CONTINUOUS
 62
     7
 10
90.6985295058
 20
134.085806718
 30
0.0
 11
86.8468647002
 21
134.085806718
 31
0.0
  0
ARC
  5
D4
  8
0
  6
CONTINUOUS
 62
     7
 10
157.0064217068
 20
140.5029136722
 30
0.0
 40
70.45241444415645
 50
184.5414909836
 51
185.2259875836
  0
LINE
  5
D5
  8
0
  6
CONTINUOUS
 62
     7
 10
95.2752102219
 20
134.085806718
 30
0.0
 11
92.2996974603
 21
134.085806718
 31
0.0
  0
ARC
  5
D6
  8
0
  6
CONTINUOUS
 62
     7
 10
91.4991134831
 20
133.4865855108
 30
0.0
 40
1.000000379858886
 50
36.8141247638
 51
143.1858752362
  0
LINE
  5
D7
  8
0
  6
CONTINUOUS
 62
     7
 10
86.7752098182
 20
134.9244212525
 30
0.0
 11
86.7752098182
 21
135.0857168928
 31
0.0
  0
LINE
  5
D8
  8
0
  6
CONTINUOUS
 62
     7
 10
86.8468647002
 20
134.085806718
 30
0.0
 11
86.8780853978
 21
133.7285001556
 31
0.0
  0
LINE
  5
D9
  8
0
  6
CONTINUOUS
 62
     7
 10
86.8780853978
 20
133.7285001556
 30
0.0
 11
86.8940083654
 21
133.6463412064
 31
0.0
  0
LINE
  5
DA
  8
0
  6
CONTINUOUS
 62
     7
 10
86.7752098182
 20
134.9008066373
 30
0.0
 11
86.7752098182
 21
134.9244212525
 31
0.0
  0
LINE
  5
DB
  8
0
  6
CONTINUOUS
 62
     7
 10
91.7951641657
 20
129.4212040285
 30
0.0
 11
91.8074245618
 21
129.187267905
 31
0.0
  0
ARC
  5
DC
  8
0
  6
CONTINUOUS
 62
     7
 10
91.4991133837
 20
133.4865859881
 30
0.0
 40
0.9999999999999984
 50
280.0292067235
 51
36.8140997496
  0
LINE
  5
DD
  8
0
  6
CONTINUOUS
 62
     7
 10
91.7221847974
 20
129.2301306295
 30
0.0
 11
91.721705632
 21
129.2392752858
 31
0.0
  0
LINE
  5
DE
  8
0
  6
CONTINUOUS
 62
     7
 10
86.8780853978
 20
133.7285001556
 30
0.0
 11
87.003924278
 21
133.7350950836
 31
0.0
  0
ARC
  5
DF
  8
0
  6
CONTINUOUS
 62
     7
 10
91.4991133837
 20
133.4865859881
 30
0.0
 40
0.9999999999999993
 50
143.1859002504
 51
151.4713972819
  0
LINE
  5
E0
  8
0
  6
CONTINUOUS
 62
     7
 10
88.4819552355
 20
131.1148197184
 30
0.0
 11
88.7899748103
 21
131.0845298486
 31
0.0
  0
POLYLINE
  5
E1
  8
0
  6
CONTINUOUS
 62
     7
 66
     1
 10
0.0
 20
0.0
 30
0.0
 70
   128
  0
VERTEX
  5
46F
  8
0
  6
CONTINUOUS
 62
     7
 10
88.7899748103
 20
131.0845298486
 30
0.0
  0
VERTEX
  5
470
  8
0
  6
CONTINUOUS
 62
     7
 10
88.7897867995
 20
131.0826173777
 30
0.0
  0
VERTEX
  5
471
  8
0
  6
CONTINUOUS
 62
     7
 10
88.7892298686
 20
131.0769540051
 30
0.0
  0
VERTEX
  5
472
  8
0
  6
CONTINUOUS
 62
     7
 10
88.7883255544
 20
131.0677576604
 30
0.0
  0
VERTEX
  5
473
  8
0
  6
CONTINUOUS
 62
     7
 10
88.7871084322
 20
131.055380849
 30
0.0
  0
VERTEX
  5
474
  8
0
  6
CONTINUOUS
 62
     7
 10
88.7856254174
 20
131.0402999426
 30
0.0
  0
VERTEX
  5
475
  8
0
  6
CONTINUOUS
 62
     7
 10
88.7839334371
 20
131.0230942237
 30
0.0
  0
VERTEX
  5
476
  8
0
  6
CONTINUOUS
 62
     7
 10
88.7820975675
 20
131.0044249313
 30
0.0
  0
VERTEX
  5
477
  8
0
  6
CONTINUOUS
 62
     7
 10
88.7801882398
 20
130.9850096496
 30
0.0
  0
SEQEND
  5
7B3
  8
0
  6
CONTINUOUS
 62
     7
  0
LINE
  5
E2
  8
0
  6
CONTINUOUS
 62
     7
 10
88.7801882398
 20
130.9850096496
 30
0.0
 11
88.4721686651
 21
131.0152995194
 31
0.0
  0
POLYLINE
  5
E3
  8
0
  6
CONTINUOUS
 62
     7
 66
     1
 10
0.0
 20
0.0
 30
0.0
 70
   128
  0
VERTEX
  5
478
  8
0
  6
CONTINUOUS
 62
     7
 10
88.4819552355
 20
131.1148197184
 30
0.0
  0
VERTEX
  5
479
  8
0
  6
CONTINUOUS
 62
     7
 10
88.4817672248
 20
131.1129072475
 30
0.0
  0
VERTEX
  5
47A
  8
0
  6
CONTINUOUS
 62
     7
 10
88.4812102939
 20
131.1072443406
 30
0.0
  0
VERTEX
  5
47B
  8
0
  6
CONTINUOUS
 62
     7
 10
88.4803058632
 20
131.0980475301
 30
0.0
  0
VERTEX
  5
47C
  8
0
  6
CONTINUOUS
 62
     7
 10
88.4790888575
 20
131.0856707188
 30
0.0
  0
VERTEX
  5
47D
  8
0
  6
CONTINUOUS
 62
     7
 10
88.4776058427
 20
131.0705898123
 30
0.0
  0
VERTEX
  5
47E
  8
0
  6
CONTINUOUS
 62
     7
 10
88.4759138624
 20
131.0533845591
 30
0.0
  0
VERTEX
  5
47F
  8
0
  6
CONTINUOUS
 62
     7
 10
88.4740778764
 20
131.0347152668
 30
0.0
  0
VERTEX
  5
480
  8
0
  6
CONTINUOUS
 62
     7
 10
88.4721686651
 20
131.0152995194
 30
0.0
  0
SEQEND
  5
7B4
  8
0
  6
CONTINUOUS
 62
     7
  0
ARC
  5
E4
  8
0
  6
CONTINUOUS
 62
     7
 10
88.4892951829
 20
131.1894596218
 30
0.0
 40
0.0749999999999983
 50
130.9861878664
 51
264.3837096094
  0
ARC
  5
E5
  8
0
  6
CONTINUOUS
 62
     7
 10
88.4892951829
 20
131.1894596218
 30
0.0
 40
0.1749999999999793
 50
130.9861878664
 51
264.3837096094
  0
POLYLINE
  5
E6
  8
0
  6
CONTINUOUS
 62
     7
 66
     1
 10
0.0
 20
0.0
 30
0.0
 70
   128
  0
VERTEX
  5
481
  8
0
  6
CONTINUOUS
 62
     7
 10
88.440104393
 20
131.2460747341
 30
0.0
  0
VERTEX
  5
482
  8
0
  6
CONTINUOUS
 62
     7
 10
88.4388441971
 20
131.247525269
 30
0.0
  0
VERTEX
  5
483
  8
0
  6
CONTINUOUS
 62
     7
 10
88.4351118055
 20
131.2518209944
 30
0.0
  0
VERTEX
  5
484
  8
0
  6
CONTINUOUS
 62
     7
 10
88.4290508746
 20
131.2587966005
 30
0.0
  0
VERTEX
  5
485
  8
0
  6
CONTINUOUS
 62
     7
 10
88.4208942351
 20
131.268184332
 30
0.0
  0
VERTEX
  5
486
  8
0
  6
CONTINUOUS
 62
     7
 10
88.410955277
 20
131.2796233016
 30
0.0
  0
VERTEX
  5
487
  8
0
  6
CONTINUOUS
 62
     7
 10
88.3996160754
 20
131.2926739248
 30
0.0
  0
VERTEX
  5
488
  8
0
  6
CONTINUOUS
 62
     7
 10
88.3873122564
 20
131.3068346845
 30
0.0
  0
VERTEX
  5
489
  8
0
  6
CONTINUOUS
 62
     7
 10
88.3745166992
 20
131.3215616884
 30
0.0
  0
SEQEND
  5
7B5
  8
0
  6
CONTINUOUS
 62
     7
  0
LINE
  5
E7
  8
0
  6
CONTINUOUS
 62
     7
 10
89.8283422046
 20
130.7192330042
 30
0.0
 11
89.5357234456
 21
130.8200682307
 31
0.0
  0
POLYLINE
  5
E8
  8
0
  6
CONTINUOUS
 62
     7
 66
     1
 10
0.0
 20
0.0
 30
0.0
 70
   128
  0
VERTEX
  5
48A
  8
0
  6
CONTINUOUS
 62
     7
 10
89.5357234456
 20
130.8200682307
 30
0.0
  0
VERTEX
  5
48B
  8
0
  6
CONTINUOUS
 62
     7
 10
89.5420794894
 20
130.8385130743
 30
0.0
  0
VERTEX
  5
48C
  8
0
  6
CONTINUOUS
 62
     7
 10
89.5481910609
 20
130.8562487157
 30
0.0
  0
VERTEX
  5
48D
  8
0
  6
CONTINUOUS
 62
     7
 10
89.5538236999
 20
130.8725943583
 30
0.0
  0
VERTEX
  5
48E
  8
0
  6
CONTINUOUS
 62
     7
 10
89.5587606408
 20
130.8869213591
 30
0.0
  0
VERTEX
  5
48F
  8
0
  6
CONTINUOUS
 62
     7
 10
89.5628123597
 20
130.8986788409
 30
0.0
  0
VERTEX
  5
490
  8
0
  6
CONTINUOUS
 62
     7
 10
89.5658230928
 20
130.907415578
 30
0.0
  0
VERTEX
  5
491
  8
0
  6
CONTINUOUS
 62
     7
 10
89.5676771232
 20
130.9127958285
 30
0.0
  0
VERTEX
  5
492
  8
0
  6
CONTINUOUS
 62
     7
 10
89.5683029719
 20
130.9146123732
 30
0.0
  0
SEQEND
  5
7B6
  8
0
  6
CONTINUOUS
 62
     7
  0
LINE
  5
E9
  8
0
  6
CONTINUOUS
 62
     7
 10
89.5683029719
 20
130.9146123732
 30
0.0
 11
89.8609217309
 21
130.8137766811
 31
0.0
  0
POLYLINE
  5
EA
  8
0
  6
CONTINUOUS
 62
     7
 66
     1
 10
0.0
 20
0.0
 30
0.0
 70
   128
  0
VERTEX
  5
493
  8
0
  6
CONTINUOUS
 62
     7
 10
89.8283422046
 20
130.7192330042
 30
0.0
  0
VERTEX
  5
494
  8
0
  6
CONTINUOUS
 62
     7
 10
89.8346982484
 20
130.7376773822
 30
0.0
  0
VERTEX
  5
495
  8
0
  6
CONTINUOUS
 62
     7
 10
89.8408098199
 20
130.7554130236
 30
0.0
  0
VERTEX
  5
496
  8
0
  6
CONTINUOUS
 62
     7
 10
89.8464424589
 20
130.7717586661
 30
0.0
  0
VERTEX
  5
497
  8
0
  6
CONTINUOUS
 62
     7
 10
89.8513793998
 20
130.7860856669
 30
0.0
  0
VERTEX
  5
498
  8
0
  6
CONTINUOUS
 62
     7
 10
89.8554311187
 20
130.7978431488
 30
0.0
  0
VERTEX
  5
499
  8
0
  6
CONTINUOUS
 62
     7
 10
89.8584418517
 20
130.8065798859
 30
0.0
  0
VERTEX
  5
49A
  8
0
  6
CONTINUOUS
 62
     7
 10
89.8602958821
 20
130.8119601364
 30
0.0
  0
VERTEX
  5
49B
  8
0
  6
CONTINUOUS
 62
     7
 10
89.8609217309
 20
130.8137766811
 30
0.0
  0
SEQEND
  5
7B7
  8
0
  6
CONTINUOUS
 62
     7
  0
ARC
  5
EB
  8
0
  6
CONTINUOUS
 62
     7
 10
89.8853565439
 20
130.8846848259
 30
0.0
 40
0.1750000000000215
 50
250.9861878664
 51
24.3837096094
  0
ARC
  5
EC
  8
0
  6
CONTINUOUS
 62
     7
 10
89.8853565439
 20
130.8846848259
 30
0.0
 40
0.075000000000018
 50
250.9861878664
 51
24.3837096094
  0
POLYLINE
  5
ED
  8
0
  6
CONTINUOUS
 62
     7
 66
     1
 10
0.0
 20
0.0
 30
0.0
 70
   128
  0
VERTEX
  5
49C
  8
0
  6
CONTINUOUS
 62
     7
 10
90.0447466464
 20
130.9569326023
 30
0.0
  0
VERTEX
  5
49D
  8
0
  6
CONTINUOUS
 62
     7
 10
90.026977943
 20
130.9488785247
 30
0.0
  0
VERTEX
  5
49E
  8
0
  6
CONTINUOUS
 62
     7
 10
90.009891899
 20
130.9411336461
 30
0.0
  0
VERTEX
  5
49F
  8
0
  6
CONTINUOUS
 62
     7
 10
89.9941453297
 20
130.9339964556
 30
0.0
  0
VERTEX
  5
4A0
  8
0
  6
CONTINUOUS
 62
     7
 10
89.980343362
 20
130.9277402962
 30
0.0
  0
VERTEX
  5
4A1
  8
0
  6
CONTINUOUS
 62
     7
 10
89.969016384
 20
130.9226059148
 30
0.0
  0
VERTEX
  5
4A2
  8
0
  6
CONTINUOUS
 62
     7
 10
89.9605997891
 20
130.9187907519
 30
0.0
  0
VERTEX
  5
4A3
  8
0
  6
CONTINUOUS
 62
     7
 10
89.9554167461
 20
130.9164414907
 30
0.0
  0
VERTEX
  5
4A4
  8
0
  6
CONTINUOUS
 62
     7
 10
89.9536665582
 20
130.9156484696
 30
0.0
  0
SEQEND
  5
7B8
  8
0
  6
CONTINUOUS
 62
     7
  0
LINE
  5
EE
  8
0
  6
CONTINUOUS
 62
     7
 10
88.9823105006
 20
131.9655484314
 30
0.0
 11
88.6896917416
 21
132.0663841235
 31
0.0
  0
POLYLINE
  5
EF
  8
0
  6
CONTINUOUS
 62
     7
 66
     1
 10
0.0
 20
0.0
 30
0.0
 70
   128
  0
VERTEX
  5
4A5
  8
0
  6
CONTINUOUS
 62
     7
 10
88.6896917416
 20
132.0663841235
 30
0.0
  0
VERTEX
  5
4A6
  8
0
  6
CONTINUOUS
 62
     7
 10
88.6903177068
 20
132.0682006682
 30
0.0
  0
VERTEX
  5
4A7
  8
0
  6
CONTINUOUS
 62
     7
 10
88.6921716208
 20
132.0735809187
 30
0.0
  0
VERTEX
  5
4A8
  8
0
  6
CONTINUOUS
 62
     7
 10
88.6951823539
 20
132.0823176558
 30
0.0
  0
VERTEX
  5
4A9
  8
0
  6
CONTINUOUS
 62
     7
 10
88.6992340727
 20
132.0940751376
 30
0.0
  0
VERTEX
  5
4AA
  8
0
  6
CONTINUOUS
 62
     7
 10
88.7041710137
 20
132.1084021384
 30
0.0
  0
VERTEX
  5
4AB
  8
0
  6
CONTINUOUS
 62
     7
 10
88.7098036526
 20
132.1247477809
 30
0.0
  0
VERTEX
  5
4AC
  8
0
  6
CONTINUOUS
 62
     7
 10
88.7159153406
 20
132.1424834224
 30
0.0
  0
VERTEX
  5
4AD
  8
0
  6
CONTINUOUS
 62
     7
 10
88.722271268
 20
132.160928266
 30
0.0
  0
SEQEND
  5
7B9
  8
0
  6
CONTINUOUS
 62
     7
  0
LINE
  5
F0
  8
0
  6
CONTINUOUS
 62
     7
 10
88.722271268
 20
132.160928266
 30
0.0
 11
89.0148900269
 21
132.0600925738
 31
0.0
  0
POLYLINE
  5
F1
  8
0
  6
CONTINUOUS
 62
     7
 66
     1
 10
0.0
 20
0.0
 30
0.0
 70
   128
  0
VERTEX
  5
4AE
  8
0
  6
CONTINUOUS
 62
     7
 10
88.9823105006
 20
131.9655484314
 30
0.0
  0
VERTEX
  5
4AF
  8
0
  6
CONTINUOUS
 62
     7
 10
88.9829364658
 20
131.967364976
 30
0.0
  0
VERTEX
  5
4B0
  8
0
  6
CONTINUOUS
 62
     7
 10
88.9847903798
 20
131.9727452266
 30
0.0
  0
VERTEX
  5
4B1
  8
0
  6
CONTINUOUS
 62
     7
 10
88.9878011129
 20
131.9814819636
 30
0.0
  0
VERTEX
  5
4B2
  8
0
  6
CONTINUOUS
 62
     7
 10
88.9918528317
 20
131.9932399111
 30
0.0
  0
VERTEX
  5
4B3
  8
0
  6
CONTINUOUS
 62
     7
 10
88.9967897727
 20
132.0075664463
 30
0.0
  0
VERTEX
  5
4B4
  8
0
  6
CONTINUOUS
 62
     7
 10
89.0024224116
 20
132.0239120888
 30
0.0
  0
VERTEX
  5
4B5
  8
0
  6
CONTINUOUS
 62
     7
 10
89.0085340996
 20
132.0416477302
 30
0.0
  0
VERTEX
  5
4B6
  8
0
  6
CONTINUOUS
 62
     7
 10
89.0148900269
 20
132.0600925738
 30
0.0
  0
SEQEND
  5
7BA
  8
0
  6
CONTINUOUS
 62
     7
  0
ARC
  5
F2
  8
0
  6
CONTINUOUS
 62
     7
 10
88.6652569934
 20
131.9954760244
 30
0.0
 40
0.075000000000005
 50
70.9861878664
 51
204.3837096094
  0
POLYLINE
  5
F3
  8
0
  6
CONTINUOUS
 62
     7
 66
     1
 10
0.0
 20
0.0
 30
0.0
 70
   128
  0
VERTEX
  5
4B7
  8
0
  6
CONTINUOUS
 62
     7
 10
88.5969469144
 20
131.9645128007
 30
0.0
  0
VERTEX
  5
4B8
  8
0
  6
CONTINUOUS
 62
     7
 10
88.5951968428
 20
131.9637193138
 30
0.0
  0
VERTEX
  5
4B9
  8
0
  6
CONTINUOUS
 62
     7
 10
88.5900137999
 20
131.9613700526
 30
0.0
  0
VERTEX
  5
4BA
  8
0
  6
CONTINUOUS
 62
     7
 10
88.5815970885
 20
131.9575548897
 30
0.0
  0
VERTEX
  5
4BB
  8
0
  6
CONTINUOUS
 62
     7
 10
88.5702701106
 20
131.9524205083
 30
0.0
  0
VERTEX
  5
4BC
  8
0
  6
CONTINUOUS
 62
     7
 10
88.5564682592
 20
131.9461643489
 30
0.0
  0
VERTEX
  5
4BD
  8
0
  6
CONTINUOUS
 62
     7
 10
88.54072169
 20
131.9390271584
 30
0.0
  0
VERTEX
  5
4BE
  8
0
  6
CONTINUOUS
 62
     7
 10
88.523635646
 20
131.9312822799
 30
0.0
  0
VERTEX
  5
4BF
  8
0
  6
CONTINUOUS
 62
     7
 10
88.5058668262
 20
131.9232282022
 30
0.0
  0
SEQEND
  5
7BB
  8
0
  6
CONTINUOUS
 62
     7
  0
ARC
  5
F4
  8
0
  6
CONTINUOUS
 62
     7
 10
88.6652569934
 20
131.9954760244
 30
0.0
 40
0.1750000000000387
 50
70.9861878664
 51
204.3837096094
  0
LINE
  5
F5
  8
0
  6
CONTINUOUS
 62
     7
 10
89.3902983569
 20
132.2897734845
 30
0.0
 11
89.2100567051
 21
132.0381655151
 31
0.0
  0
POLYLINE
  5
F6
  8
0
  6
CONTINUOUS
 62
     7
 66
     1
 10
0.0
 20
0.0
 30
0.0
 70
   128
  0
VERTEX
  5
4C0
  8
0
  6
CONTINUOUS
 62
     7
 10
89.2100567051
 20
132.0381655151
 30
0.0
  0
VERTEX
  5
4C1
  8
0
  6
CONTINUOUS
 62
     7
 10
89.2084946443
 20
132.0392844992
 30
0.0
  0
VERTEX
  5
4C2
  8
0
  6
CONTINUOUS
 62
     7
 10
89.2038686487
 20
132.0425986106
 30
0.0
  0
VERTEX
  5
4C3
  8
0
  6
CONTINUOUS
 62
     7
 10
89.1963562515
 20
132.0479797924
 30
0.0
  0
VERTEX
  5
4C4
  8
0
  6
CONTINUOUS
 62
     7
 10
89.1862463957
 20
132.0552222224
 30
0.0
  0
VERTEX
  5
4C5
  8
0
  6
CONTINUOUS
 62
     7
 10
89.1739274428
 20
132.0640469695
 30
0.0
  0
VERTEX
  5
4C6
  8
0
  6
CONTINUOUS
 62
     7
 10
89.1598728538
 20
132.0741154978
 30
0.0
  0
VERTEX
  5
4C7
  8
0
  6
CONTINUOUS
 62
     7
 10
89.1446227959
 20
132.0850399116
 30
0.0
  0
VERTEX
  5
4C8
  8
0
  6
CONTINUOUS
 62
     7
 10
89.1287631874
 20
132.0964011157
 30
0.0
  0
SEQEND
  5
7BC
  8
0
  6
CONTINUOUS
 62
     7
  0
LINE
  5
F7
  8
0
  6
CONTINUOUS
 62
     7
 10
89.1287631874
 20
132.0964011157
 30
0.0
 11
89.3090048392
 21
132.3480086195
 31
0.0
  0
POLYLINE
  5
F8
  8
0
  6
CONTINUOUS
 62
     7
 66
     1
 10
0.0
 20
0.0
 30
0.0
 70
   128
  0
VERTEX
  5
4C9
  8
0
  6
CONTINUOUS
 62
     7
 10
89.3902983569
 20
132.2897734845
 30
0.0
  0
VERTEX
  5
4CA
  8
0
  6
CONTINUOUS
 62
     7
 10
89.3887362961
 20
132.2908924686
 30
0.0
  0
VERTEX
  5
4CB
  8
0
  6
CONTINUOUS
 62
     7
 10
89.3841104169
 20
132.2942061143
 30
0.0
  0
VERTEX
  5
4CC
  8
0
  6
CONTINUOUS
 62
     7
 10
89.3765979034
 20
132.2995877618
 30
0.0
  0
VERTEX
  5
4CD
  8
0
  6
CONTINUOUS
 62
     7
 10
89.366488164
 20
132.3068301918
 30
0.0
  0
VERTEX
  5
4CE
  8
0
  6
CONTINUOUS
 62
     7
 10
89.3541690946
 20
132.3156549389
 30
0.0
  0
VERTEX
  5
4CF
  8
0
  6
CONTINUOUS
 62
     7
 10
89.3401145057
 20
132.3257230016
 30
0.0
  0
VERTEX
  5
4D0
  8
0
  6
CONTINUOUS
 62
     7
 10
89.3248645642
 20
132.3366474154
 30
0.0
  0
VERTEX
  5
4D1
  8
0
  6
CONTINUOUS
 62
     7
 10
89.3090048392
 20
132.3480086195
 30
0.0
  0
SEQEND
  5
7BD
  8
0
  6
CONTINUOUS
 62
     7
  0
ARC
  5
F9
  8
0
  6
CONTINUOUS
 62
     7
 10
89.0474696747
 20
132.1546364122
 30
0.0
 40
0.2000000000000375
 50
250.9861878664
 51
324.3837096094
  0
ARC
  5
FA
  8
0
  6
CONTINUOUS
 62
     7
 10
89.0474696747
 20
132.1546364122
 30
0.0
 40
0.1000000000000113
 50
250.9861878664
 51
324.3837096094
  0
ARC
  5
FB
  8
0
  6
CONTINUOUS
 62
     7
 10
89.0993449582
 20
130.6340640225
 30
0.0
 40
0.1750000000000086
 50
190.9861878664
 51
324.3837096094
  0
POLYLINE
  5
FC
  8
0
  6
CONTINUOUS
 62
     7
 66
     1
 10
0.0
 20
0.0
 30
0.0
 70
   128
  0
VERTEX
  5
4D2
  8
0
  6
CONTINUOUS
 62
     7
 10
88.9275521093
 20
130.6007138247
 30
0.0
  0
VERTEX
  5
4D3
  8
0
  6
CONTINUOUS
 62
     7
 10
88.9467035939
 20
130.6044316644
 30
0.0
  0
VERTEX
  5
4D4
  8
0
  6
CONTINUOUS
 62
     7
 10
88.9651192172
 20
130.6080065461
 30
0.0
  0
VERTEX
  5
4D5
  8
0
  6
CONTINUOUS
 62
     7
 10
88.9820909413
 20
130.6113015654
 30
0.0
  0
VERTEX
  5
4D6
  8
0
  6
CONTINUOUS
 62
     7
 10
88.9969669568
 20
130.614189131
 30
0.0
  0
VERTEX
  5
4D7
  8
0
  6
CONTINUOUS
 62
     7
 10
89.0091753152
 20
130.616559347
 30
0.0
  0
VERTEX
  5
4D8
  8
0
  6
CONTINUOUS
 62
     7
 10
89.0182469792
 20
130.618320478
 30
0.0
  0
VERTEX
  5
4D9
  8
0
  6
CONTINUOUS
 62
     7
 10
89.0238331684
 20
130.6194050031
 30
0.0
  0
VERTEX
  5
4DA
  8
0
  6
CONTINUOUS
 62
     7
 10
89.0257194458
 20
130.6197710129
 30
0.0
  0
SEQEND
  5
7BE
  8
0
  6
CONTINUOUS
 62
     7
  0
ARC
  5
FD
  8
0
  6
CONTINUOUS
 62
     7
 10
89.0993449582
 20
130.6340640225
 30
0.0
 40
0.0750000000000295
 50
190.9861878664
 51
324.3837096094
  0
POLYLINE
  5
FE
  8
0
  6
CONTINUOUS
 62
     7
 66
     1
 10
0.0
 20
0.0
 30
0.0
 70
   128
  0
VERTEX
  5
4DB
  8
0
  6
CONTINUOUS
 62
     7
 10
89.2416085169
 20
130.5321521851
 30
0.0
  0
VERTEX
  5
4DC
  8
0
  6
CONTINUOUS
 62
     7
 10
89.2257490248
 20
130.5435133892
 30
0.0
  0
VERTEX
  5
4DD
  8
0
  6
CONTINUOUS
 62
     7
 10
89.2104989669
 20
130.554437803
 30
0.0
  0
VERTEX
  5
4DE
  8
0
  6
CONTINUOUS
 62
     7
 10
89.1964443779
 20
130.5645058657
 30
0.0
  0
VERTEX
  5
4DF
  8
0
  6
CONTINUOUS
 62
     7
 10
89.184125425
 20
130.5733306127
 30
0.0
  0
VERTEX
  5
4E0
  8
0
  6
CONTINUOUS
 62
     7
 10
89.1740155692
 20
130.5805730427
 30
0.0
  0
VERTEX
  5
4E1
  8
0
  6
CONTINUOUS
 62
     7
 10
89.1665031721
 20
130.5859546902
 30
0.0
  0
VERTEX
  5
4E2
  8
0
  6
CONTINUOUS
 62
     7
 10
89.1618771764
 20
130.5892683359
 30
0.0
  0
VERTEX
  5
4E3
  8
0
  6
CONTINUOUS
 62
     7
 10
89.1603151156
 20
130.59038732
 30
0.0
  0
SEQEND
  5
7BF
  8
0
  6
CONTINUOUS
 62
     7
  0
ARC
  5
FF
  8
0
  6
CONTINUOUS
 62
     7
 10
89.4512685791
 20
132.2460968277
 30
0.0
 40
0.0749999999999907
 50
10.9861878664
 51
144.3837096094
  0
ARC
  5
100
  8
0
  6
CONTINUOUS
 62
     7
 10
89.4512685791
 20
132.2460968277
 30
0.0
 40
0.1750000000000252
 50
10.9861878664
 51
144.3837096094
  0
POLYLINE
  5
101
  8
0
  6
CONTINUOUS
 62
     7
 66
     1
 10
0.0
 20
0.0
 30
0.0
 70
   128
  0
VERTEX
  5
4E4
  8
0
  6
CONTINUOUS
 62
     7
 10
89.5248940267
 20
132.2603897917
 30
0.0
  0
VERTEX
  5
4E5
  8
0
  6
CONTINUOUS
 62
     7
 10
89.5267804206
 20
132.2607558014
 30
0.0
  0
VERTEX
  5
4E6
  8
0
  6
CONTINUOUS
 62
     7
 10
89.5323664934
 20
132.2618403266
 30
0.0
  0
VERTEX
  5
4E7
  8
0
  6
CONTINUOUS
 62
     7
 10
89.5414382738
 20
132.2636014576
 30
0.0
  0
VERTEX
  5
4E8
  8
0
  6
CONTINUOUS
 62
     7
 10
89.5536465158
 20
132.2659716735
 30
0.0
  0
VERTEX
  5
4E9
  8
0
  6
CONTINUOUS
 62
     7
 10
89.5685225312
 20
132.2688592391
 30
0.0
  0
VERTEX
  5
4EA
  8
0
  6
CONTINUOUS
 62
     7
 10
89.5854944882
 20
132.2721542584
 30
0.0
  0
VERTEX
  5
4EB
  8
0
  6
CONTINUOUS
 62
     7
 10
89.6039099951
 20
132.2757291401
 30
0.0
  0
VERTEX
  5
4EC
  8
0
  6
CONTINUOUS
 62
     7
 10
89.6230614797
 20
132.2794469798
 30
0.0
  0
SEQEND
  5
7C0
  8
0
  6
CONTINUOUS
 62
     7
  0
LINE
  5
102
  8
0
  6
CONTINUOUS
 62
     7
 10
89.4218504016
 20
130.7837596888
 30
0.0
 11
89.2416085169
 21
130.5321521851
 31
0.0
  0
LINE
  5
103
  8
0
  6
CONTINUOUS
 62
     7
 10
89.1603151156
 20
130.59038732
 30
0.0
 11
89.3405568839
 21
130.8419952894
 31
0.0
  0
POLYLINE
  5
104
  8
0
  6
CONTINUOUS
 62
     7
 66
     1
 10
0.0
 20
0.0
 30
0.0
 70
   128
  0
VERTEX
  5
4ED
  8
0
  6
CONTINUOUS
 62
     7
 10
89.4218504016
 20
130.7837596888
 30
0.0
  0
VERTEX
  5
4EE
  8
0
  6
CONTINUOUS
 62
     7
 10
89.4059906767
 20
130.7951208929
 30
0.0
  0
VERTEX
  5
4EF
  8
0
  6
CONTINUOUS
 62
     7
 10
89.3907407352
 20
130.8060457724
 30
0.0
  0
VERTEX
  5
4F0
  8
0
  6
CONTINUOUS
 62
     7
 10
89.3766861462
 20
130.8161138351
 30
0.0
  0
VERTEX
  5
4F1
  8
0
  6
CONTINUOUS
 62
     7
 10
89.3643670768
 20
130.8249385821
 30
0.0
  0
VERTEX
  5
4F2
  8
0
  6
CONTINUOUS
 62
     7
 10
89.3542573374
 20
130.8321810121
 30
0.0
  0
VERTEX
  5
4F3
  8
0
  6
CONTINUOUS
 62
     7
 10
89.3467448239
 20
130.8375621939
 30
0.0
  0
VERTEX
  5
4F4
  8
0
  6
CONTINUOUS
 62
     7
 10
89.3421189447
 20
130.8408763053
 30
0.0
  0
VERTEX
  5
4F5
  8
0
  6
CONTINUOUS
 62
     7
 10
89.3405568839
 20
130.8419952894
 30
0.0
  0
SEQEND
  5
7C1
  8
0
  6
CONTINUOUS
 62
     7
  0
LINE
  5
105
  8
0
  6
CONTINUOUS
 62
     7
 10
90.1760968898
 20
131.5585995818
 30
0.0
 11
89.9424613506
 21
131.3556019942
 31
0.0
  0
POLYLINE
  5
106
  8
0
  6
CONTINUOUS
 62
     7
 66
     1
 10
0.0
 20
0.0
 30
0.0
 70
   128
  0
VERTEX
  5
4F6
  8
0
  6
CONTINUOUS
 62
     7
 10
89.9424613506
 20
131.3556019942
 30
0.0
  0
VERTEX
  5
4F7
  8
0
  6
CONTINUOUS
 62
     7
 10
89.9296656769
 20
131.3703285324
 30
0.0
  0
VERTEX
  5
4F8
  8
0
  6
CONTINUOUS
 62
     7
 10
89.9173619744
 20
131.3844892921
 30
0.0
  0
VERTEX
  5
4F9
  8
0
  6
CONTINUOUS
 62
     7
 10
89.9060226564
 20
131.3975399154
 30
0.0
  0
VERTEX
  5
4FA
  8
0
  6
CONTINUOUS
 62
     7
 10
89.8960838147
 20
131.4089793506
 30
0.0
  0
VERTEX
  5
4FB
  8
0
  6
CONTINUOUS
 62
     7
 10
89.8879270588
 20
131.4183670821
 30
0.0
  0
VERTEX
  5
4FC
  8
0
  6
CONTINUOUS
 62
     7
 10
89.8818660115
 20
131.4253426882
 30
0.0
  0
VERTEX
  5
4FD
  8
0
  6
CONTINUOUS
 62
     7
 10
89.8781337362
 20
131.4296384136
 30
0.0
  0
VERTEX
  5
4FE
  8
0
  6
CONTINUOUS
 62
     7
 10
89.876873424
 20
131.4310884828
 30
0.0
  0
SEQEND
  5
7C2
  8
0
  6
CONTINUOUS
 62
     7
  0
LINE
  5
107
  8
0
  6
CONTINUOUS
 62
     7
 10
89.876873424
 20
131.4310884828
 30
0.0
 11
90.110509196
 21
131.6340860704
 31
0.0
  0
POLYLINE
  5
108
  8
0
  6
CONTINUOUS
 62
     7
 66
     1
 10
0.0
 20
0.0
 30
0.0
 70
   128
  0
VERTEX
  5
4FF
  8
0
  6
CONTINUOUS
 62
     7
 10
90.1760968898
 20
131.5585995818
 30
0.0
  0
VERTEX
  5
500
  8
0
  6
CONTINUOUS
 62
     7
 10
90.1633012161
 20
131.57332612
 30
0.0
  0
VERTEX
  5
501
  8
0
  6
CONTINUOUS
 62
     7
 10
90.1509975136
 20
131.5874868798
 30
0.0
  0
VERTEX
  5
502
  8
0
  6
CONTINUOUS
 62
     7
 10
90.1396581956
 20
131.600537503
 30
0.0
  0
VERTEX
  5
503
  8
0
  6
CONTINUOUS
 62
     7
 10
90.1297193539
 20
131.6119764725
 30
0.0
  0
VERTEX
  5
504
  8
0
  6
CONTINUOUS
 62
     7
 10
90.121562598
 20
131.6213642041
 30
0.0
  0
VERTEX
  5
505
  8
0
  6
CONTINUOUS
 62
     7
 10
90.1155017835
 20
131.6283402758
 30
0.0
  0
VERTEX
  5
506
  8
0
  6
CONTINUOUS
 62
     7
 10
90.1117692754
 20
131.6326355355
 30
0.0
  0
VERTEX
  5
507
  8
0
  6
CONTINUOUS
 62
     7
 10
90.110509196
 20
131.6340860704
 30
0.0
  0
SEQEND
  5
7C3
  8
0
  6
CONTINUOUS
 62
     7
  0
LINE
  5
109
  8
0
  6
CONTINUOUS
 62
     7
 10
88.6737400486
 20
131.4490723217
 30
0.0
 11
88.440104393
 21
131.2460747341
 31
0.0
  0
LINE
  5
10A
  8
0
  6
CONTINUOUS
 62
     7
 10
88.3745166992
 20
131.3215616884
 30
0.0
 11
88.6081522384
 21
131.5245588104
 31
0.0
  0
POLYLINE
  5
10B
  8
0
  6
CONTINUOUS
 62
     7
 66
     1
 10
0.0
 20
0.0
 30
0.0
 70
   128
  0
VERTEX
  5
508
  8
0
  6
CONTINUOUS
 62
     7
 10
88.6737400486
 20
131.4490723217
 30
0.0
  0
VERTEX
  5
509
  8
0
  6
CONTINUOUS
 62
     7
 10
88.6724797363
 20
131.450522391
 30
0.0
  0
VERTEX
  5
50A
  8
0
  6
CONTINUOUS
 62
     7
 10
88.6687474611
 20
131.4548181164
 30
0.0
  0
VERTEX
  5
50B
  8
0
  6
CONTINUOUS
 62
     7
 10
88.6626865302
 20
131.4617941881
 30
0.0
  0
VERTEX
  5
50C
  8
0
  6
CONTINUOUS
 62
     7
 10
88.6545297743
 20
131.4711819197
 30
0.0
  0
VERTEX
  5
50D
  8
0
  6
CONTINUOUS
 62
     7
 10
88.6445908162
 20
131.4826208892
 30
0.0
  0
VERTEX
  5
50E
  8
0
  6
CONTINUOUS
 62
     7
 10
88.6332516146
 20
131.4956715124
 30
0.0
  0
VERTEX
  5
50F
  8
0
  6
CONTINUOUS
 62
     7
 10
88.6209477956
 20
131.5098322722
 30
0.0
  0
VERTEX
  5
510
  8
0
  6
CONTINUOUS
 62
     7
 10
88.6081522384
 20
131.5245588104
 30
0.0
  0
SEQEND
  5
7C4
  8
0
  6
CONTINUOUS
 62
     7
  0
ARC
  5
10C
  8
0
  6
CONTINUOUS
 62
     7
 10
90.0613183544
 20
131.6907012284
 30
0.0
 40
0.1750000000000008
 50
310.9861878664
 51
84.3837096094
  0
ARC
  5
10D
  8
0
  6
CONTINUOUS
 62
     7
 10
90.0613183544
 20
131.6907012284
 30
0.0
 40
0.0749999999999769
 50
310.9861878664
 51
84.3837096094
  0
POLYLINE
  5
10E
  8
0
  6
CONTINUOUS
 62
     7
 66
     1
 10
0.0
 20
0.0
 30
0.0
 70
   128
  0
VERTEX
  5
511
  8
0
  6
CONTINUOUS
 62
     7
 10
90.0784449239
 20
131.8648612852
 30
0.0
  0
VERTEX
  5
512
  8
0
  6
CONTINUOUS
 62
     7
 10
90.0765357126
 20
131.8454460035
 30
0.0
  0
VERTEX
  5
513
  8
0
  6
CONTINUOUS
 62
     7
 10
90.0746996102
 20
131.8267767111
 30
0.0
  0
VERTEX
  5
514
  8
0
  6
CONTINUOUS
 62
     7
 10
90.0730076299
 20
131.8095709922
 30
0.0
  0
VERTEX
  5
515
  8
0
  6
CONTINUOUS
 62
     7
 10
90.0715247315
 20
131.7944900858
 30
0.0
  0
VERTEX
  5
516
  8
0
  6
CONTINUOUS
 62
     7
 10
90.0703077257
 20
131.7821132744
 30
0.0
  0
VERTEX
  5
517
  8
0
  6
CONTINUOUS
 62
     7
 10
90.0694031787
 20
131.7729169297
 30
0.0
  0
VERTEX
  5
518
  8
0
  6
CONTINUOUS
 62
     7
 10
90.0688462478
 20
131.7672535571
 30
0.0
  0
VERTEX
  5
519
  8
0
  6
CONTINUOUS
 62
     7
 10
90.0686583535
 20
131.7653410862
 30
0.0
  0
SEQEND
  5
7C5
  8
0
  6
CONTINUOUS
 62
     7
  0
ARC
  5
10F
  8
0
  6
CONTINUOUS
 62
     7
 10
89.5031438626
 20
130.7255244381
 30
0.0
 40
0.1000000000000125
 50
70.9861878664
 51
144.3837096094
  0
LINE
  5
110
  8
0
  6
CONTINUOUS
 62
     7
 10
89.9169689563
 20
131.2388304415
 30
0.0
 11
90.0447466464
 21
130.9569326023
 31
0.0
  0
ARC
  5
111
  8
0
  6
CONTINUOUS
 62
     7
 10
90.0080489528
 20
131.2801151429
 30
0.0
 40
0.0999999999999997
 50
130.9861878664
 51
204.3837096094
  0
LINE
  5
112
  8
0
  6
CONTINUOUS
 62
     7
 10
89.7704253492
 20
131.8951511549
 30
0.0
 11
90.0784449239
 21
131.8648612852
 31
0.0
  0
ARC
  5
113
  8
0
  6
CONTINUOUS
 62
     7
 10
89.7802118589
 20
131.9946711299
 30
0.0
 40
0.1000000000000628
 50
190.9861878664
 51
264.3837096094
  0
LINE
  5
114
  8
0
  6
CONTINUOUS
 62
     7
 10
89.6230614797
 20
132.2794469798
 30
0.0
 11
89.6820444667
 21
131.9756137001
 31
0.0
  0
LINE
  5
115
  8
0
  6
CONTINUOUS
 62
     7
 10
88.6336447491
 20
131.6413303631
 30
0.0
 11
88.5058668262
 21
131.9232282022
 31
0.0
  0
ARC
  5
116
  8
0
  6
CONTINUOUS
 62
     7
 10
88.5425645845
 20
131.6000457074
 30
0.0
 40
0.1000000000000035
 50
310.9861878664
 51
24.3837096094
  0
ARC
  5
117
  8
0
  6
CONTINUOUS
 62
     7
 10
88.7704016784
 20
130.8854897203
 30
0.0
 40
0.0999999999999985
 50
10.9861878664
 51
84.3837096094
  0
LINE
  5
118
  8
0
  6
CONTINUOUS
 62
     7
 10
88.9275521093
 20
130.6007138247
 30
0.0
 11
88.8685690059
 21
130.9045471045
 31
0.0
  0
CIRCLE
  5
119
  8
0
  6
CONTINUOUS
 62
     7
 10
89.2753067686
 20
131.4400804251
 30
0.0
 40
1.125000000000028
  0
POLYLINE
  5
11A
  8
0
  6
CONTINUOUS
 62
     7
 66
     1
 10
0.0
 20
0.0
 30
0.0
 70
   128
  0
VERTEX
  5
51A
  8
0
  6
CONTINUOUS
 62
     7
 10
88.8685690059
 20
130.9045471045
 30
0.0
  0
VERTEX
  5
51B
  8
0
  6
CONTINUOUS
 62
     7
 10
88.8877204905
 20
130.9082649442
 30
0.0
  0
VERTEX
  5
51C
  8
0
  6
CONTINUOUS
 62
     7
 10
88.9061359974
 20
130.9118398259
 30
0.0
  0
VERTEX
  5
51D
  8
0
  6
CONTINUOUS
 62
     7
 10
88.923107838
 20
130.9151343795
 30
0.0
  0
VERTEX
  5
51E
  8
0
  6
CONTINUOUS
 62
     7
 10
88.937983737
 20
130.9180224108
 30
0.0
  0
VERTEX
  5
51F
  8
0
  6
CONTINUOUS
 62
     7
 10
88.9501920954
 20
130.9203926268
 30
0.0
  0
VERTEX
  5
520
  8
0
  6
CONTINUOUS
 62
     7
 10
88.9592637594
 20
130.9221537577
 30
0.0
  0
VERTEX
  5
521
  8
0
  6
CONTINUOUS
 62
     7
 10
88.964850065
 20
130.9232378172
 30
0.0
  0
VERTEX
  5
522
  8
0
  6
CONTINUOUS
 62
     7
 10
88.9667363425
 20
130.9236042926
 30
0.0
  0
SEQEND
  5
7C6
  8
0
  6
CONTINUOUS
 62
     7
  0
LINE
  5
11B
  8
0
  6
CONTINUOUS
 62
     7
 10
88.9667363425
 20
130.9236042926
 30
0.0
 11
89.0257194458
 21
130.6197710129
 31
0.0
  0
LINE
  5
11C
  8
0
  6
CONTINUOUS
 62
     7
 10
89.9536665582
 20
130.9156484696
 30
0.0
 11
89.8258886353
 21
131.1975458431
 31
0.0
  0
POLYLINE
  5
11D
  8
0
  6
CONTINUOUS
 62
     7
 66
     1
 10
0.0
 20
0.0
 30
0.0
 70
   128
  0
VERTEX
  5
523
  8
0
  6
CONTINUOUS
 62
     7
 10
89.9169689563
 20
131.2388304415
 30
0.0
  0
VERTEX
  5
524
  8
0
  6
CONTINUOUS
 62
     7
 10
89.8992000201
 20
131.2307763638
 30
0.0
  0
VERTEX
  5
525
  8
0
  6
CONTINUOUS
 62
     7
 10
89.8821139761
 20
131.2230314853
 30
0.0
  0
VERTEX
  5
526
  8
0
  6
CONTINUOUS
 62
     7
 10
89.8663674068
 20
131.2158942948
 30
0.0
  0
VERTEX
  5
527
  8
0
  6
CONTINUOUS
 62
     7
 10
89.8525654391
 20
131.2096381354
 30
0.0
  0
VERTEX
  5
528
  8
0
  6
CONTINUOUS
 62
     7
 10
89.8412384611
 20
131.204503754
 30
0.0
  0
VERTEX
  5
529
  8
0
  6
CONTINUOUS
 62
     7
 10
89.8328218662
 20
131.2006885911
 30
0.0
  0
VERTEX
  5
52A
  8
0
  6
CONTINUOUS
 62
     7
 10
89.8276388232
 20
131.1983393299
 30
0.0
  0
VERTEX
  5
52B
  8
0
  6
CONTINUOUS
 62
     7
 10
89.8258886353
 20
131.1975458431
 30
0.0
  0
SEQEND
  5
7C7
  8
0
  6
CONTINUOUS
 62
     7
  0
ARC
  5
11E
  8
0
  6
CONTINUOUS
 62
     7
 10
88.7704016784
 20
130.8854897203
 30
0.0
 40
0.2000000000000334
 50
10.9861878664
 51
84.3837096094
  0
ARC
  5
11F
  8
0
  6
CONTINUOUS
 62
     7
 10
88.5425645845
 20
131.6000457074
 30
0.0
 40
0.1999999999999953
 50
310.9861878664
 51
24.3837096094
  0
POLYLINE
  5
120
  8
0
  6
CONTINUOUS
 62
     7
 66
     1
 10
0.0
 20
0.0
 30
0.0
 70
   128
  0
VERTEX
  5
52C
  8
0
  6
CONTINUOUS
 62
     7
 10
88.7247248373
 20
131.6826149615
 30
0.0
  0
VERTEX
  5
52D
  8
0
  6
CONTINUOUS
 62
     7
 10
88.7229747657
 20
131.6818214747
 30
0.0
  0
VERTEX
  5
52E
  8
0
  6
CONTINUOUS
 62
     7
 10
88.7177917228
 20
131.6794722135
 30
0.0
  0
VERTEX
  5
52F
  8
0
  6
CONTINUOUS
 62
     7
 10
88.7093750114
 20
131.6756570505
 30
0.0
  0
VERTEX
  5
530
  8
0
  6
CONTINUOUS
 62
     7
 10
88.6980480335
 20
131.6705226692
 30
0.0
  0
VERTEX
  5
531
  8
0
  6
CONTINUOUS
 62
     7
 10
88.6842460657
 20
131.6642665098
 30
0.0
  0
VERTEX
  5
532
  8
0
  6
CONTINUOUS
 62
     7
 10
88.6684994965
 20
131.6571293192
 30
0.0
  0
VERTEX
  5
533
  8
0
  6
CONTINUOUS
 62
     7
 10
88.6514135689
 20
131.6493844407
 30
0.0
  0
VERTEX
  5
534
  8
0
  6
CONTINUOUS
 62
     7
 10
88.6336447491
 20
131.6413303631
 30
0.0
  0
SEQEND
  5
7C8
  8
0
  6
CONTINUOUS
 62
     7
  0
LINE
  5
121
  8
0
  6
CONTINUOUS
 62
     7
 10
88.5969469144
 20
131.9645128007
 30
0.0
 11
88.7247248373
 21
131.6826149615
 31
0.0
  0
LINE
  5
122
  8
0
  6
CONTINUOUS
 62
     7
 10
90.0686583535
 20
131.7653410862
 30
0.0
 11
89.7606387787
 21
131.7956314216
 31
0.0
  0
POLYLINE
  5
123
  8
0
  6
CONTINUOUS
 62
     7
 66
     1
 10
0.0
 20
0.0
 30
0.0
 70
   128
  0
VERTEX
  5
535
  8
0
  6
CONTINUOUS
 62
     7
 10
89.7704253492
 20
131.8951511549
 30
0.0
  0
VERTEX
  5
536
  8
0
  6
CONTINUOUS
 62
     7
 10
89.7685159051
 20
131.8757358732
 30
0.0
  0
VERTEX
  5
537
  8
0
  6
CONTINUOUS
 62
     7
 10
89.7666800354
 20
131.8570665809
 30
0.0
  0
VERTEX
  5
538
  8
0
  6
CONTINUOUS
 62
     7
 10
89.7649880552
 20
131.839860862
 30
0.0
  0
VERTEX
  5
539
  8
0
  6
CONTINUOUS
 62
     7
 10
89.7635051568
 20
131.8247799555
 30
0.0
  0
VERTEX
  5
53A
  8
0
  6
CONTINUOUS
 62
     7
 10
89.7622879182
 20
131.8124031442
 30
0.0
  0
VERTEX
  5
53B
  8
0
  6
CONTINUOUS
 62
     7
 10
89.761383604
 20
131.8032067994
 30
0.0
  0
VERTEX
  5
53C
  8
0
  6
CONTINUOUS
 62
     7
 10
89.7608266731
 20
131.7975434268
 30
0.0
  0
VERTEX
  5
53D
  8
0
  6
CONTINUOUS
 62
     7
 10
89.7606387787
 20
131.7956314216
 30
0.0
  0
SEQEND
  5
7C9
  8
0
  6
CONTINUOUS
 62
     7
  0
ARC
  5
124
  8
0
  6
CONTINUOUS
 62
     7
 10
90.0080489528
 20
131.2801151429
 30
0.0
 40
0.2000000000000151
 50
130.9861878664
 51
204.3837096094
  0
LINE
  5
125
  8
0
  6
CONTINUOUS
 62
     7
 10
89.5838772465
 20
131.9565565119
 30
0.0
 11
89.5248940267
 21
132.2603897917
 31
0.0
  0
POLYLINE
  5
126
  8
0
  6
CONTINUOUS
 62
     7
 66
     1
 10
0.0
 20
0.0
 30
0.0
 70
   128
  0
VERTEX
  5
53E
  8
0
  6
CONTINUOUS
 62
     7
 10
89.5838772465
 20
131.9565565119
 30
0.0
  0
VERTEX
  5
53F
  8
0
  6
CONTINUOUS
 62
     7
 10
89.5857634076
 20
131.9569229873
 30
0.0
  0
VERTEX
  5
540
  8
0
  6
CONTINUOUS
 62
     7
 10
89.5913497132
 20
131.9580075125
 30
0.0
  0
VERTEX
  5
541
  8
0
  6
CONTINUOUS
 62
     7
 10
89.6004214936
 20
131.9597681778
 30
0.0
  0
VERTEX
  5
542
  8
0
  6
CONTINUOUS
 62
     7
 10
89.6126297355
 20
131.9621383937
 30
0.0
  0
VERTEX
  5
543
  8
0
  6
CONTINUOUS
 62
     7
 10
89.627505751
 20
131.9650264251
 30
0.0
  0
VERTEX
  5
544
  8
0
  6
CONTINUOUS
 62
     7
 10
89.6444774751
 20
131.9683209787
 30
0.0
  0
VERTEX
  5
545
  8
0
  6
CONTINUOUS
 62
     7
 10
89.6628929821
 20
131.9718958604
 30
0.0
  0
VERTEX
  5
546
  8
0
  6
CONTINUOUS
 62
     7
 10
89.6820444667
 20
131.9756137001
 30
0.0
  0
SEQEND
  5
7CA
  8
0
  6
CONTINUOUS
 62
     7
  0
CIRCLE
  5
127
  8
0
  6
CONTINUOUS
 62
     7
 10
89.2753067686
 20
131.4400804251
 30
0.0
 40
1.225000000000038
  0
ARC
  5
128
  8
0
  6
CONTINUOUS
 62
     7
 10
89.7802118589
 20
131.9946711299
 30
0.0
 40
0.2000000000000026
 50
190.9861878664
 51
264.3837096094
  0
ARC
  5
129
  8
0
  6
CONTINUOUS
 62
     7
 10
89.5031438626
 20
130.7255244381
 30
0.0
 40
0.2000000000000325
 50
70.9861878664
 51
144.3837096094
  0
LINE
  5
12A
  8
0
  6
CONTINUOUS
 62
     7
 10
89.8853566085
 20
130.8846847879
 30
0.0
 11
89.9536665582
 21
130.9156484696
 31
0.0
  0
LINE
  5
12B
  8
0
  6
CONTINUOUS
 62
     7
 10
89.636167051
 20
131.1115493792
 30
0.0
 11
89.8853566085
 21
130.8846847879
 31
0.0
  0
LINE
  5
12C
  8
0
  6
CONTINUOUS
 62
     7
 10
89.636167051
 20
131.1115493792
 30
0.0
 11
89.8258886353
 21
131.1975458431
 31
0.0
  0
LINE
  5
12D
  8
0
  6
CONTINUOUS
 62
     7
 10
89.2753067945
 20
131.4400804023
 30
0.0
 11
89.7402530589
 21
131.588329261
 31
0.0
  0
LINE
  5
12E
  8
0
  6
CONTINUOUS
 62
     7
 10
89.7402530589
 20
131.588329261
 30
0.0
 11
89.876873424
 21
131.4310884828
 31
0.0
  0
LINE
  5
12F
  8
0
  6
CONTINUOUS
 62
     7
 10
89.2753067945
 20
131.4400804023
 30
0.0
 11
89.636167051
 21
131.1115493792
 31
0.0
  0
LINE
  5
130
  8
0
  6
CONTINUOUS
 62
     7
 10
88.4892952216
 20
131.1894596348
 30
0.0
 11
88.4819552355
 21
131.1148197184
 31
0.0
  0
LINE
  5
131
  8
0
  6
CONTINUOUS
 62
     7
 10
88.8103605301
 20
131.2918315435
 30
0.0
 11
88.4892952216
 21
131.1894596348
 31
0.0
  0
LINE
  5
132
  8
0
  6
CONTINUOUS
 62
     7
 10
88.8103605301
 20
131.2918315435
 30
0.0
 11
88.7899748103
 21
131.0845298486
 31
0.0
  0
LINE
  5
133
  8
0
  6
CONTINUOUS
 62
     7
 10
88.4892952216
 20
131.1894596348
 30
0.0
 11
88.440104393
 21
131.2460747341
 31
0.0
  0
LINE
  5
134
  8
0
  6
CONTINUOUS
 62
     7
 10
89.3793928024
 20
131.9168602841
 30
0.0
 11
89.5838772465
 21
131.9565565119
 31
0.0
  0
LINE
  5
135
  8
0
  6
CONTINUOUS
 62
     7
 10
89.7402530589
 20
131.588329261
 30
0.0
 11
89.7606387787
 21
131.7956314216
 31
0.0
  0
POLYLINE
  5
136
  8
0
  6
CONTINUOUS
 62
     7
 66
     1
 10
0.0
 20
0.0
 30
0.0
 70
   128
  0
VERTEX
  5
547
  8
0
  6
CONTINUOUS
 62
     7
 10
89.3793928024
 20
131.9168602841
 30
0.0
  0
VERTEX
  5
548
  8
0
  6
CONTINUOUS
 62
     7
 10
89.3014271331
 20
131.5597283448
 30
0.0
  0
VERTEX
  5
549
  8
0
  6
CONTINUOUS
 62
     7
 10
89.2753067945
 20
131.4400804023
 30
0.0
  0
SEQEND
  5
7CB
  8
0
  6
CONTINUOUS
 62
     7
  0
LINE
  5
137
  8
0
  6
CONTINUOUS
 62
     7
 10
88.914446538
 20
131.7686114254
 30
0.0
 11
88.9823105006
 21
131.9655484314
 31
0.0
  0
LINE
  5
138
  8
0
  6
CONTINUOUS
 62
     7
 10
88.914446538
 20
131.7686114254
 30
0.0
 11
88.6652569805
 21
131.9954760166
 31
0.0
  0
LINE
  5
139
  8
0
  6
CONTINUOUS
 62
     7
 10
88.6652569805
 20
131.9954760166
 30
0.0
 11
88.6896917416
 21
132.0663841235
 31
0.0
  0
LINE
  5
13A
  8
0
  6
CONTINUOUS
 62
     7
 10
89.3793928024
 20
131.9168602841
 30
0.0
 11
89.4512685534
 21
132.2460967841
 31
0.0
  0
LINE
  5
13B
  8
0
  6
CONTINUOUS
 62
     7
 10
89.4512685534
 20
132.2460967841
 30
0.0
 11
89.5248940267
 21
132.2603897917
 31
0.0
  0
LINE
  5
13C
  8
0
  6
CONTINUOUS
 62
     7
 10
88.6652569805
 20
131.9954760166
 30
0.0
 11
88.5969469144
 21
131.9645128007
 31
0.0
  0
LINE
  5
13D
  8
0
  6
CONTINUOUS
 62
     7
 10
89.2753067945
 20
131.4400804023
 30
0.0
 11
89.1712207866
 21
130.9633009861
 31
0.0
  0
LINE
  5
13E
  8
0
  6
CONTINUOUS
 62
     7
 10
89.1712207866
 20
130.9633009861
 30
0.0
 11
88.9667363425
 21
130.9236042926
 31
0.0
  0
LINE
  5
13F
  8
0
  6
CONTINUOUS
 62
     7
 10
89.2753067945
 20
131.4400804023
 30
0.0
 11
88.8103605301
 21
131.2918315435
 31
0.0
  0
LINE
  5
140
  8
0
  6
CONTINUOUS
 62
     7
 10
89.8853566085
 20
130.8846847879
 30
0.0
 11
89.8609217309
 21
130.8137766811
 31
0.0
  0
LINE
  5
141
  8
0
  6
CONTINUOUS
 62
     7
 10
89.0993449191
 20
130.6340640204
 30
0.0
 11
89.1603151156
 21
130.59038732
 31
0.0
  0
LINE
  5
142
  8
0
  6
CONTINUOUS
 62
     7
 10
89.0993449191
 20
130.6340640204
 30
0.0
 11
89.0257194458
 21
130.6197710129
 31
0.0
  0
LINE
  5
143
  8
0
  6
CONTINUOUS
 62
     7
 10
89.1712207866
 20
130.9633009861
 30
0.0
 11
89.0993449191
 21
130.6340640204
 31
0.0
  0
LINE
  5
144
  8
0
  6
CONTINUOUS
 62
     7
 10
89.1712207866
 20
130.9633009861
 30
0.0
 11
89.3405568839
 21
130.8419952894
 31
0.0
  0
LINE
  5
145
  8
0
  6
CONTINUOUS
 62
     7
 10
90.0613183674
 20
131.6907011697
 30
0.0
 11
90.0686583535
 21
131.7653410862
 31
0.0
  0
LINE
  5
146
  8
0
  6
CONTINUOUS
 62
     7
 10
89.7402530589
 20
131.588329261
 30
0.0
 11
90.0613183674
 21
131.6907011697
 31
0.0
  0
LINE
  5
147
  8
0
  6
CONTINUOUS
 62
     7
 10
90.0613183674
 20
131.6907011697
 30
0.0
 11
90.110509196
 21
131.6340860704
 31
0.0
  0
LINE
  5
148
  8
0
  6
CONTINUOUS
 62
     7
 10
89.636167051
 20
131.1115493792
 30
0.0
 11
89.5683029719
 21
130.9146123732
 31
0.0
  0
LINE
  5
149
  8
0
  6
CONTINUOUS
 62
     7
 10
88.8103605301
 20
131.2918315435
 30
0.0
 11
88.6737400486
 21
131.4490723217
 31
0.0
  0
LINE
  5
14A
  8
0
  6
CONTINUOUS
 62
     7
 10
88.914446538
 20
131.7686114254
 30
0.0
 11
88.7247248373
 21
131.6826149615
 31
0.0
  0
LINE
  5
14B
  8
0
  6
CONTINUOUS
 62
     7
 10
89.2753067945
 20
131.4400804023
 30
0.0
 11
88.914446538
 21
131.7686114254
 31
0.0
  0
LINE
  5
14C
  8
0
  6
CONTINUOUS
 62
     7
 10
89.3793928024
 20
131.9168602841
 30
0.0
 11
89.2100567051
 21
132.0381655151
 31
0.0
  0
LINE
  5
14D
  8
0
  6
CONTINUOUS
 62
     7
 10
89.4512685534
 20
132.2460967841
 30
0.0
 11
89.3902983569
 21
132.2897734845
 31
0.0
  0
ARC
  5
14E
  8
0
  6
CONTINUOUS
 62
     7
 10
89.0261744207
 20
138.5346277655
 30
0.0
 40
0.800519508382461
 50
191.7101870153
 51
346.4965147543
  0
POLYLINE
  5
14F
  8
0
  6
CONTINUOUS
 62
     7
 66
     1
 10
0.0
 20
0.0
 30
0.0
 70
   128
  0
VERTEX
  5
54A
  8
0
  6
CONTINUOUS
 62
     7
 10
86.9230585575
 20
140.9854033756
 30
0.0
  0
VERTEX
  5
54B
  8
0
  6
CONTINUOUS
 62
     7
 10
86.9107101806
 20
141.0677411387
 30
0.0
  0
VERTEX
  5
54C
  8
0
  6
CONTINUOUS
 62
     7
 10
86.8677347369
 20
141.1195985767
 30
0.0
  0
SEQEND
  5
7CC
  8
0
  6
CONTINUOUS
 62
     7
  0
ARC
  5
150
  8
0
  6
CONTINUOUS
 62
     7
 10
87.0117324117
 20
140.860268939
 30
0.0
 40
0.1533677920624118
 50
125.3224813527
 51
168.0002778637
  0
POLYLINE
  5
151
  8
0
  6
CONTINUOUS
 62
     7
 66
     1
 10
0.0
 20
0.0
 30
0.0
 70
   128
  0
VERTEX
  5
54D
  8
0
  6
CONTINUOUS
 62
     7
 10
86.99940358
 20
139.459825985
 30
0.0
  0
VERTEX
  5
54E
  8
0
  6
CONTINUOUS
 62
     7
 10
86.835497006
 20
139.4818298778
 30
0.0
  0
VERTEX
  5
54F
  8
0
  6
CONTINUOUS
 62
     7
 10
86.7367999797
 20
139.4697925335
 30
0.0
  0
SEQEND
  5
7CD
  8
0
  6
CONTINUOUS
 62
     7
  0
LINE
  5
152
  8
0
  6
CONTINUOUS
 62
     7
 10
86.7367999797
 20
139.4697925335
 30
0.0
 11
86.8617159193
 21
140.8921551684
 31
0.0
  0
LINE
  5
153
  8
0
  6
CONTINUOUS
 62
     7
 10
86.7367999797
 20
139.4697925335
 30
0.0
 11
86.7379143072
 21
139.4435657913
 31
0.0
  0
POLYLINE
  5
154
  8
0
  6
CONTINUOUS
 62
     7
 66
     1
 10
0.0
 20
0.0
 30
0.0
 70
   128
  0
VERTEX
  5
550
  8
0
  6
CONTINUOUS
 62
     7
 10
86.7379143072
 20
139.4435657913
 30
0.0
  0
VERTEX
  5
551
  8
0
  6
CONTINUOUS
 62
     7
 10
86.8400390662
 20
139.42746043
 30
0.0
  0
VERTEX
  5
552
  8
0
  6
CONTINUOUS
 62
     7
 10
87.0148133889
 20
139.3783615696
 30
0.0
  0
SEQEND
  5
7CE
  8
0
  6
CONTINUOUS
 62
     7
  0
ARC
  5
155
  8
0
  6
CONTINUOUS
 62
     7
 10
86.8318525948
 20
139.4106271678
 30
0.0
 40
0.099545742262904
 50
160.6772371597
 51
174.614442545
  0
LINE
  5
156
  8
0
  6
CONTINUOUS
 62
     7
 10
86.7327462818
 20
139.4199702682
 30
0.0
 11
86.6591009597
 21
138.5814038132
 31
0.0
  0
LINE
  5
157
  8
0
  6
CONTINUOUS
 62
     7
 10
86.6597873444
 20
138.5539689128
 30
0.0
 11
86.6541913763
 21
138.5291653479
 31
0.0
  0
POLYLINE
  5
158
  8
0
  6
CONTINUOUS
 62
     7
 66
     1
 10
0.0
 20
0.0
 30
0.0
 70
   128
  0
VERTEX
  5
553
  8
0
  6
CONTINUOUS
 62
     7
 10
86.9271982863
 20
138.3807306903
 30
0.0
  0
VERTEX
  5
554
  8
0
  6
CONTINUOUS
 62
     7
 10
86.7570148601
 20
138.4827530038
 30
0.0
  0
VERTEX
  5
555
  8
0
  6
CONTINUOUS
 62
     7
 10
86.6597873444
 20
138.5539689128
 30
0.0
  0
SEQEND
  5
7CF
  8
0
  6
CONTINUOUS
 62
     7
  0
POLYLINE
  5
159
  8
0
  6
CONTINUOUS
 62
     7
 66
     1
 10
0.0
 20
0.0
 30
0.0
 70
   128
  0
VERTEX
  5
556
  8
0
  6
CONTINUOUS
 62
     7
 10
86.6541913763
 20
138.5291653479
 30
0.0
  0
VERTEX
  5
557
  8
0
  6
CONTINUOUS
 62
     7
 10
86.7430289562
 20
138.4297324604
 30
0.0
  0
VERTEX
  5
558
  8
0
  6
CONTINUOUS
 62
     7
 10
86.8978227425
 20
138.3031700299
 30
0.0
  0
SEQEND
  5
7D0
  8
0
  6
CONTINUOUS
 62
     7
  0
ARC
  5
15A
  8
0
  6
CONTINUOUS
 62
     7
 10
86.8004845954
 20
138.5712150074
 30
0.0
 40
0.1417502881741221
 50
175.8781076738
 51
186.9882228561
  0
LINE
  5
15B
  8
0
  6
CONTINUOUS
 62
     7
 10
86.5292754077
 20
137.1068024656
 30
0.0
 11
86.6541913763
 21
138.5291653479
 31
0.0
  0
ARC
  5
15C
  8
0
  6
CONTINUOUS
 62
     7
 10
86.6904457236
 20
137.1093161948
 30
0.0
 40
0.1611899176306415
 50
180.8935541048
 51
223.2074286523
  0
ARC
  5
15D
  8
0
  6
CONTINUOUS
 62
     7
 10
86.7340977174
 20
136.9011891635
 30
0.0
 40
0.2359279277941534
 50
175.0864211082
 51
265.1288334388
  0
POLYLINE
  5
15E
  8
0
  6
CONTINUOUS
 62
     7
 66
     1
 10
0.0
 20
0.0
 30
0.0
 70
   128
  0
VERTEX
  5
559
  8
0
  6
CONTINUOUS
 62
     7
 10
86.5729576379
 20
136.9989588694
 30
0.0
  0
VERTEX
  5
55A
  8
0
  6
CONTINUOUS
 62
     7
 10
86.54847503
 20
136.9431289732
 30
0.0
  0
VERTEX
  5
55B
  8
0
  6
CONTINUOUS
 62
     7
 10
86.4990368189
 20
136.9213971103
 30
0.0
  0
SEQEND
  5
7D1
  8
0
  6
CONTINUOUS
 62
     7
  0
ARC
  5
15F
  8
0
  6
CONTINUOUS
 62
     7
 10
86.9775848961
 20
140.8771897334
 30
0.0
 40
0.1211747248908702
 50
116.7424727534
 51
171.4621621206
  0
ARC
  5
160
  8
0
  6
CONTINUOUS
 62
     7
 10
86.8678737984
 20
140.9060484253
 30
0.0
 40
0.015196778041125
 50
234.1898274298
 51
246.0957425475
  0
ARC
  5
161
  8
0
  6
CONTINUOUS
 62
     7
 10
86.8608564052
 20
140.8965542026
 30
0.0
 40
0.0033941705021916
 50
203.889742863
 51
236.4818047973
  0
POLYLINE
  5
162
  8
0
  6
CONTINUOUS
 62
     7
 66
     1
 10
0.0
 20
0.0
 30
0.0
 70
   128
  0
VERTEX
  5
55C
  8
0
  6
CONTINUOUS
 62
     7
 10
86.8185856432
 20
141.0222958567
 30
0.0
  0
VERTEX
  5
55D
  8
0
  6
CONTINUOUS
 62
     7
 10
86.8497581449
 20
140.9749339128
 30
0.0
  0
VERTEX
  5
55E
  8
0
  6
CONTINUOUS
 62
     7
 10
86.8577530253
 20
140.8951796385
 30
0.0
  0
SEQEND
  5
7D2
  8
0
  6
CONTINUOUS
 62
     7
  0
POLYLINE
  5
163
  8
0
  6
CONTINUOUS
 62
     7
 66
     1
 10
0.0
 20
0.0
 30
0.0
 70
   128
  0
VERTEX
  5
55F
  8
0
  6
CONTINUOUS
 62
     7
 10
86.8677347369
 20
141.1195985767
 30
0.0
  0
VERTEX
  5
560
  8
0
  6
CONTINUOUS
 62
     7
 10
86.8355175242
 20
141.0745407248
 30
0.0
  0
VERTEX
  5
561
  8
0
  6
CONTINUOUS
 62
     7
 10
86.8185866328
 20
141.0222958567
 30
0.0
  0
SEQEND
  5
7D3
  8
0
  6
CONTINUOUS
 62
     7
  0
ARC
  5
164
  8
0
  6
CONTINUOUS
 62
     7
 10
86.7390509722
 20
139.4768505568
 30
0.0
 40
0.0074082832084314
 50
212.9881325867
 51
252.3111260424
  0
LINE
  5
165
  8
0
  6
CONTINUOUS
 62
     7
 10
86.8577530253
 20
140.8951796385
 30
0.0
 11
86.7328370276
 21
139.4728170036
 31
0.0
  0
POLYLINE
  5
166
  8
0
  6
CONTINUOUS
 62
     7
 66
     1
 10
0.0
 20
0.0
 30
0.0
 70
   128
  0
VERTEX
  5
562
  8
0
  6
CONTINUOUS
 62
     7
 10
86.7328370276
 20
139.4728170036
 30
0.0
  0
VERTEX
  5
563
  8
0
  6
CONTINUOUS
 62
     7
 10
86.7300634907
 20
139.4475099424
 30
0.0
  0
VERTEX
  5
564
  8
0
  6
CONTINUOUS
 62
     7
 10
86.7276790139
 20
139.4231295472
 30
0.0
  0
SEQEND
  5
7D4
  8
0
  6
CONTINUOUS
 62
     7
  0
LINE
  5
167
  8
0
  6
CONTINUOUS
 62
     7
 10
86.7276790139
 20
139.4231295472
 30
0.0
 11
86.65403375
 21
138.5845632086
 31
0.0
  0
POLYLINE
  5
168
  8
0
  6
CONTINUOUS
 62
     7
 66
     1
 10
0.0
 20
0.0
 30
0.0
 70
   128
  0
VERTEX
  5
565
  8
0
  6
CONTINUOUS
 62
     7
 10
86.65403375
 20
138.5845632086
 30
0.0
  0
VERTEX
  5
566
  8
0
  6
CONTINUOUS
 62
     7
 10
86.6520761682
 20
138.5595055091
 30
0.0
  0
VERTEX
  5
567
  8
0
  6
CONTINUOUS
 62
     7
 10
86.6502284824
 20
138.532189818
 30
0.0
  0
SEQEND
  5
7D5
  8
0
  6
CONTINUOUS
 62
     7
  0
LINE
  5
169
  8
0
  6
CONTINUOUS
 62
     7
 10
86.6502284824
 20
138.532189818
 30
0.0
 11
86.5253125137
 21
137.1098269357
 31
0.0
  0
POLYLINE
  5
16A
  8
0
  6
CONTINUOUS
 62
     7
 66
     1
 10
0.0
 20
0.0
 30
0.0
 70
   128
  0
VERTEX
  5
568
  8
0
  6
CONTINUOUS
 62
     7
 10
86.5253125137
 20
137.1098269357
 30
0.0
  0
VERTEX
  5
569
  8
0
  6
CONTINUOUS
 62
     7
 10
86.5050901246
 20
137.0502449628
 30
0.0
  0
VERTEX
  5
56A
  8
0
  6
CONTINUOUS
 62
     7
 10
86.4675489191
 20
137.02518006
 30
0.0
  0
SEQEND
  5
7D6
  8
0
  6
CONTINUOUS
 62
     7
  0
LINE
  5
16B
  8
0
  6
CONTINUOUS
 62
     7
 10
86.4675489191
 20
137.02518006
 30
0.0
 11
86.4682127774
 21
137.0634414107
 31
0.0
  0
LINE
  5
16C
  8
0
  6
CONTINUOUS
 62
     7
 10
86.4682127774
 20
137.0634414107
 30
0.0
 11
86.8126522744
 21
140.9854215363
 31
0.0
  0
LINE
  5
16D
  8
0
  6
CONTINUOUS
 62
     7
 10
86.8126522744
 20
140.9854215363
 30
0.0
 11
86.8185856432
 21
141.0222958567
 31
0.0
  0
LINE
  5
16E
  8
0
  6
CONTINUOUS
 62
     7
 10
86.7379143072
 20
139.4435657913
 30
0.0
 11
86.7328370276
 21
139.4728170036
 31
0.0
  0
ARC
  5
16F
  8
0
  6
CONTINUOUS
 62
     7
 10
86.7363266501
 20
139.4313563501
 30
0.0
 40
0.0119357403409459
 50
223.5713908831
 51
252.5441772918
  0
POLYLINE
  5
170
  8
0
  6
CONTINUOUS
 62
     7
 66
     1
 10
0.0
 20
0.0
 30
0.0
 70
   128
  0
VERTEX
  5
56B
  8
0
  6
CONTINUOUS
 62
     7
 10
86.8070385239
 20
141.0490141044
 30
0.0
  0
VERTEX
  5
56C
  8
0
  6
CONTINUOUS
 62
     7
 10
86.8297279283
 20
141.0885729621
 30
0.0
  0
VERTEX
  5
56D
  8
0
  6
CONTINUOUS
 62
     7
 10
86.8677347369
 20
141.1195985767
 30
0.0
  0
SEQEND
  5
7D7
  8
0
  6
CONTINUOUS
 62
     7
  0
LINE
  5
171
  8
0
  6
CONTINUOUS
 62
     7
 10
86.8105065072
 20
141.0359653438
 30
0.0
 11
86.8185866328
 21
141.0222958567
 31
0.0
  0
LINE
  5
172
  8
0
  6
CONTINUOUS
 62
     7
 10
86.8070385239
 20
141.0490141044
 30
0.0
 11
86.8105065072
 21
141.0359653438
 31
0.0
  0
ARC
  5
173
  8
0
  6
CONTINUOUS
 62
     7
 10
86.6626825928
 20
138.5927914612
 30
0.0
 40
0.0119376138203577
 50
223.5724404904
 51
252.5406409954
  0
ARC
  5
174
  8
0
  6
CONTINUOUS
 62
     7
 10
87.1550378693
 20
141.0492341356
 30
0.0
 40
0.343445823155189
 50
105.9298386641
 51
165.8780020421
  0
LINE
  5
175
  8
0
  6
CONTINUOUS
 62
     7
 10
86.6502284824
 20
138.532189818
 30
0.0
 11
86.6597873444
 21
138.5539689128
 31
0.0
  0
ARC
  5
176
  8
0
  6
CONTINUOUS
 62
     7
 10
86.6564421953
 20
138.5362230242
 30
0.0
 40
0.0074078998737574
 50
212.9868574042
 51
252.3115894835
  0
ARC
  5
177
  8
0
  6
CONTINUOUS
 62
     7
 10
86.5354141794
 20
137.1206624361
 30
0.0
 40
0.0151586048217586
 50
234.174781987
 51
246.11078799
  0
ARC
  5
178
  8
0
  6
CONTINUOUS
 62
     7
 10
86.5284131842
 20
137.1111992112
 30
0.0
 40
0.0033907665197029
 50
203.8729267053
 51
236.4986209552
  0
LINE
  5
179
  8
0
  6
CONTINUOUS
 62
     7
 10
86.8126522744
 20
140.9854215363
 30
0.0
 11
86.7968928704
 21
140.9912418368
 31
0.0
  0
LINE
  5
17A
  8
0
  6
CONTINUOUS
 62
     7
 10
86.7968928704
 20
140.9912418368
 30
0.0
 11
86.8070384366
 21
141.0490136387
 31
0.0
  0
LINE
  5
17B
  8
0
  6
CONTINUOUS
 62
     7
 10
86.7968928704
 20
140.9912418368
 30
0.0
 11
86.7574507773
 21
141.0208900253
 31
0.0
  0
ARC
  5
17C
  8
0
  6
CONTINUOUS
 62
     7
 10
87.2275064002
 20
140.9794168179
 30
0.0
 40
0.4718817948211753
 50
129.8632511258
 51
174.9582243564
  0
LINE
  5
17D
  8
0
  6
CONTINUOUS
 62
     7
 10
87.0051115106
 20
141.3941790143
 30
0.0
 11
86.925050249
 21
141.3416221532
 31
0.0
  0
ARC
  5
17E
  8
0
  6
CONTINUOUS
 62
     7
 10
86.6627759576
 20
137.1032296335
 30
0.0
 40
0.1376216654596987
 50
177.2523040164
 51
229.2585531058
  0
LINE
  5
17F
  8
0
  6
CONTINUOUS
 62
     7
 10
86.4524533443
 20
137.0692616093
 30
0.0
 11
86.4682127774
 21
137.0634414107
 31
0.0
  0
LINE
  5
180
  8
0
  6
CONTINUOUS
 62
     7
 10
86.4524533443
 20
137.0692615802
 30
0.0
 11
86.7968928704
 21
140.9912418368
 31
0.0
  0
LINE
  5
181
  8
0
  6
CONTINUOUS
 62
     7
 10
86.424472165
 20
137.229409962
 30
0.0
 11
86.4130112512
 21
137.0989101034
 31
0.0
  0
LINE
  5
182
  8
0
  6
CONTINUOUS
 62
     7
 10
86.4465590037
 20
137.4809023601
 30
0.0
 11
86.424472165
 21
137.229409962
 31
0.0
  0
LINE
  5
183
  8
0
  6
CONTINUOUS
 62
     7
 10
86.7574507773
 20
141.0208900253
 30
0.0
 11
86.4465589455
 21
137.4809024183
 31
0.0
  0
LINE
  5
184
  8
0
  6
CONTINUOUS
 62
     7
 10
86.4130112512
 20
137.0989101034
 30
0.0
 11
86.4524533443
 21
137.0692615657
 31
0.0
  0
POLYLINE
  5
185
  8
0
  6
CONTINUOUS
 62
     7
 66
     1
 10
0.0
 20
0.0
 30
0.0
 70
   128
  0
VERTEX
  5
56E
  8
0
  6
CONTINUOUS
 62
     7
 10
86.467545543
 20
137.0251802056
 30
0.0
  0
VERTEX
  5
56F
  8
0
  6
CONTINUOUS
 62
     7
 10
86.475070513
 20
136.9702967623
 30
0.0
  0
VERTEX
  5
570
  8
0
  6
CONTINUOUS
 62
     7
 10
86.4990368189
 20
136.9213971103
 30
0.0
  0
SEQEND
  5
7D8
  8
0
  6
CONTINUOUS
 62
     7
  0
POLYLINE
  5
186
  8
0
  6
CONTINUOUS
 62
     7
 66
     1
 10
0.0
 20
0.0
 30
0.0
 70
   128
  0
VERTEX
  5
571
  8
0
  6
CONTINUOUS
 62
     7
 10
86.4990368189
 20
136.9213971103
 30
0.0
  0
VERTEX
  5
572
  8
0
  6
CONTINUOUS
 62
     7
 10
86.467323539
 20
136.9620511306
 30
0.0
  0
VERTEX
  5
573
  8
0
  6
CONTINUOUS
 62
     7
 10
86.4522705722
 20
137.0094052746
 30
0.0
  0
SEQEND
  5
7D9
  8
0
  6
CONTINUOUS
 62
     7
  0
LINE
  5
187
  8
0
  6
CONTINUOUS
 62
     7
 10
86.457572126
 20
137.0172610096
 30
0.0
 11
86.4522705722
 21
137.0094052746
 31
0.0
  0
LINE
  5
188
  8
0
  6
CONTINUOUS
 62
     7
 10
86.467545543
 20
137.0251802056
 30
0.0
 11
86.457572126
 21
137.0172610096
 31
0.0
  0
LINE
  5
189
  8
0
  6
CONTINUOUS
 62
     7
 10
86.4522658574
 20
137.0094052892
 30
0.0
 11
86.4524533443
 21
137.0692616093
 31
0.0
  0
ARC
  5
18A
  8
0
  6
CONTINUOUS
 62
     7
 10
86.8288400692
 20
136.9921022949
 30
0.0
 40
0.379438925019672
 50
188.2428167212
 51
253.1127032718
  0
ARC
  5
18B
  8
0
  6
CONTINUOUS
 62
     7
 10
86.8523339417
 20
137.0144048741
 30
0.0
 40
0.4204717901298441
 50
218.2559515702
 51
259.4308064748
  0
ARC
  5
18C
  8
0
  6
CONTINUOUS
 62
     7
 10
86.8824617917
 20
137.0577942016
 30
0.0
 40
0.4712476310014724
 50
174.9946306592
 51
220.1307527501
  0
ARC
  5
18D
  8
0
  6
CONTINUOUS
 62
     7
 10
89.2753067686
 20
131.4400804251
 30
0.0
 40
1.600000000000017
 50
248.1737642681
 51
297.8262357319
  0
ARC
  5
18E
  8
0
  6
CONTINUOUS
 62
     7
 10
90.057227701
 20
129.9431251942
 30
0.0
 40
0.0891485648882757
 50
113.1544606954
 51
174.1906445042
  0
ARC
  5
18F
  8
0
  6
CONTINUOUS
 62
     7
 10
89.9395062417
 20
129.9558020972
 30
0.0
 40
0.0292597233082973
 50
290.915125212
 51
352.8272734261
  0
ARC
  5
190
  8
0
  6
CONTINUOUS
 62
     7
 10
89.2753067686
 20
131.4400804251
 30
0.0
 40
1.655328000001853
 50
282.006984372
 51
294.0516193426
  0
POLYLINE
  5
191
  8
0
  6
CONTINUOUS
 62
     7
 66
     1
 10
0.0
 20
0.0
 30
0.0
 70
   128
  0
VERTEX
  5
574
  8
0
  6
CONTINUOUS
 62
     7
 10
89.6196661104
 20
129.8209672587
 30
0.0
  0
VERTEX
  5
575
  8
0
  6
CONTINUOUS
 62
     7
 10
89.4970167481
 20
129.800866058
 30
0.0
  0
VERTEX
  5
576
  8
0
  6
CONTINUOUS
 62
     7
 10
89.1020771867
 20
129.7938415574
 30
0.0
  0
SEQEND
  5
7DA
  8
0
  6
CONTINUOUS
 62
     7
  0
ARC
  5
192
  8
0
  6
CONTINUOUS
 62
     7
 10
89.2753067686
 20
131.4400804251
 30
0.0
 40
1.655328000000003
 50
251.948380658
 51
263.9930156262
  0
ARC
  5
193
  8
0
  6
CONTINUOUS
 62
     7
 10
88.7690025699
 20
129.8936393209
 30
0.0
 40
0.0282004111597389
 50
191.8723058907
 51
256.3846503359
  0
ARC
  5
194
  8
0
  6
CONTINUOUS
 62
     7
 10
88.6529648946
 20
129.8685191615
 30
0.0
 40
0.0905258353959102
 50
12.3218324155
 51
72.3330410727
  0
POLYLINE
  5
195
  8
0
  6
CONTINUOUS
 62
     7
 66
     1
 10
0.0
 20
0.0
 30
0.0
 70
   128
  0
VERTEX
  5
577
  8
0
  6
CONTINUOUS
 62
     7
 10
90.0004678459
 20
129.8829849603
 30
0.0
  0
VERTEX
  5
578
  8
0
  6
CONTINUOUS
 62
     7
 10
90.0033158303
 20
129.8861477318
 30
0.0
  0
VERTEX
  5
579
  8
0
  6
CONTINUOUS
 62
     7
 10
90.00613052
 20
129.889273716
 30
0.0
  0
VERTEX
  5
57A
  8
0
  6
CONTINUOUS
 62
     7
 10
90.0088793185
 20
129.8923265914
 30
0.0
  0
VERTEX
  5
57B
  8
0
  6
CONTINUOUS
 62
     7
 10
90.0115303282
 20
129.8952709677
 30
0.0
  0
VERTEX
  5
57C
  8
0
  6
CONTINUOUS
 62
     7
 10
90.0140525826
 20
129.898072386
 30
0.0
  0
VERTEX
  5
57D
  8
0
  6
CONTINUOUS
 62
     7
 10
90.0164169778
 20
129.90069825
 30
0.0
  0
VERTEX
  5
57E
  8
0
  6
CONTINUOUS
 62
     7
 10
90.018595807
 20
129.9031178261
 30
0.0
  0
VERTEX
  5
57F
  8
0
  6
CONTINUOUS
 62
     7
 10
90.0205636916
 20
129.9053036401
 30
0.0
  0
SEQEND
  5
7DB
  8
0
  6
CONTINUOUS
 62
     7
  0
LINE
  5
196
  8
0
  6
CONTINUOUS
 62
     7
 10
89.9499515124
 20
129.9284702892
 30
0.0
 11
90.0004678459
 21
129.8829849603
 31
0.0
  0
LINE
  5
197
  8
0
  6
CONTINUOUS
 62
     7
 10
90.0205636916
 20
129.9053036401
 30
0.0
 11
89.9685369857
 21
129.9521487
 31
0.0
  0
ARC
  5
198
  8
0
  6
CONTINUOUS
 62
     7
 10
89.2753067686
 20
131.4400804251
 30
0.0
 40
1.600000000000002
 50
158.1737642682
 51
207.8262357319
  0
ARC
  5
199
  8
0
  6
CONTINUOUS
 62
     7
 10
87.7783505636
 20
130.6581584702
 30
0.0
 40
0.0891499086511493
 50
23.1548082787
 51
84.1901467994
  0
ARC
  5
19A
  8
0
  6
CONTINUOUS
 62
     7
 10
87.7910175128
 20
130.7758673517
 30
0.0
 40
0.0292446407867511
 50
200.8973992486
 51
262.8449993896
  0
ARC
  5
19B
  8
0
  6
CONTINUOUS
 62
     7
 10
89.2753067686
 20
131.4400804251
 30
0.0
 40
1.655328000001836
 50
192.0063086257
 51
204.0516193426
  0
POLYLINE
  5
19C
  8
0
  6
CONTINUOUS
 62
     7
 66
     1
 10
0.0
 20
0.0
 30
0.0
 70
   128
  0
VERTEX
  5
580
  8
0
  6
CONTINUOUS
 62
     7
 10
87.6561895473
 20
131.0957401785
 30
0.0
  0
VERTEX
  5
581
  8
0
  6
CONTINUOUS
 62
     7
 10
87.6360922755
 20
131.2183716128
 30
0.0
  0
VERTEX
  5
582
  8
0
  6
CONTINUOUS
 62
     7
 10
87.6290658833
 20
131.6132905687
 30
0.0
  0
SEQEND
  5
7DC
  8
0
  6
CONTINUOUS
 62
     7
  0
ARC
  5
19D
  8
0
  6
CONTINUOUS
 62
     7
 10
89.2753067686
 20
131.4400804251
 30
0.0
 40
1.65532800002412
 50
161.948380658
 51
173.9936913725
  0
ARC
  5
19E
  8
0
  6
CONTINUOUS
 62
     7
 10
87.7288658676
 20
131.9463848086
 30
0.0
 40
0.0282005468285024
 50
101.8731125352
 51
166.3850970356
  0
ARC
  5
19F
  8
0
  6
CONTINUOUS
 62
     7
 10
87.7037540091
 20
132.0624131099
 30
0.0
 40
0.0905147674283012
 50
282.3177146025
 51
342.3369162247
  0
POLYLINE
  5
1A0
  8
0
  6
CONTINUOUS
 62
     7
 66
     1
 10
0.0
 20
0.0
 30
0.0
 70
   128
  0
VERTEX
  5
583
  8
0
  6
CONTINUOUS
 62
     7
 10
87.7405298868
 20
130.6948235052
 30
0.0
  0
VERTEX
  5
584
  8
0
  6
CONTINUOUS
 62
     7
 10
87.7383442474
 20
130.6967913898
 30
0.0
  0
VERTEX
  5
585
  8
0
  6
CONTINUOUS
 62
     7
 10
87.7359244385
 20
130.698970219
 30
0.0
  0
VERTEX
  5
586
  8
0
  6
CONTINUOUS
 62
     7
 10
87.7332986036
 20
130.7013343813
 30
0.0
  0
VERTEX
  5
587
  8
0
  6
CONTINUOUS
 62
     7
 10
87.7304973017
 20
130.7038568685
 30
0.0
  0
VERTEX
  5
588
  8
0
  6
CONTINUOUS
 62
     7
 10
87.7275530709
 20
130.7065078782
 30
0.0
  0
VERTEX
  5
589
  8
0
  6
CONTINUOUS
 62
     7
 10
87.7245001664
 20
130.7092566768
 30
0.0
  0
VERTEX
  5
58A
  8
0
  6
CONTINUOUS
 62
     7
 10
87.7213741531
 20
130.7120715993
 30
0.0
  0
VERTEX
  5
58B
  8
0
  6
CONTINUOUS
 62
     7
 10
87.7182113234
 20
130.7149191181
 30
0.0
  0
SEQEND
  5
7DD
  8
0
  6
CONTINUOUS
 62
     7
  0
LINE
  5
1A1
  8
0
  6
CONTINUOUS
 62
     7
 10
87.763696565
 20
130.7654359172
 30
0.0
 11
87.7182113234
 21
130.7149191181
 31
0.0
  0
LINE
  5
1A2
  8
0
  6
CONTINUOUS
 62
     7
 10
87.7405298868
 20
130.6948235052
 30
0.0
 11
87.7873749758
 21
130.7468504439
 31
0.0
  0
ARC
  5
1A3
  8
0
  6
CONTINUOUS
 62
     7
 10
89.2753067686
 20
131.4400804251
 30
0.0
 40
1.600000000000021
 50
338.1737642682
 51
27.8262357319
  0
ARC
  5
1A4
  8
0
  6
CONTINUOUS
 62
     7
 10
90.7722618828
 20
132.2220015309
 30
0.0
 40
0.0891485421918501
 50
203.1546222505
 51
264.1907203547
  0
ARC
  5
1A5
  8
0
  6
CONTINUOUS
 62
     7
 10
90.7595995857
 20
132.1042987993
 30
0.0
 40
0.0292393466061981
 50
20.8901462699
 51
82.8508579236
  0
ARC
  5
1A6
  8
0
  6
CONTINUOUS
 62
     7
 10
89.2753067686
 20
131.4400804251
 30
0.0
 40
1.655328000001861
 50
12.0063086257
 51
24.0516193426
  0
POLYLINE
  5
1A7
  8
0
  6
CONTINUOUS
 62
     7
 66
     1
 10
0.0
 20
0.0
 30
0.0
 70
   128
  0
VERTEX
  5
58C
  8
0
  6
CONTINUOUS
 62
     7
 10
90.8944238961
 20
131.7844206261
 30
0.0
  0
VERTEX
  5
58D
  8
0
  6
CONTINUOUS
 62
     7
 10
90.9145213716
 20
131.6617896574
 30
0.0
  0
VERTEX
  5
58E
  8
0
  6
CONTINUOUS
 62
     7
 10
90.9215477348
 20
131.2668702359
 30
0.0
  0
SEQEND
  5
7DE
  8
0
  6
CONTINUOUS
 62
     7
  0
ARC
  5
1A8
  8
0
  6
CONTINUOUS
 62
     7
 10
89.2753067686
 20
131.4400804251
 30
0.0
 40
1.655328000024152
 50
341.948380658
 51
353.9936913725
  0
ARC
  5
1A9
  8
0
  6
CONTINUOUS
 62
     7
 10
90.8217499794
 20
130.9337742512
 30
0.0
 40
0.0281979132875511
 50
281.8694886995
 51
346.3874484609
  0
ARC
  5
1AA
  8
0
  6
CONTINUOUS
 62
     7
 10
90.846861618
 20
130.8177461415
 30
0.0
 40
0.0905171806982715
 50
102.318720397
 51
162.3363709484
  0
POLYLINE
  5
1AB
  8
0
  6
CONTINUOUS
 62
     7
 66
     1
 10
0.0
 20
0.0
 30
0.0
 70
   128
  0
VERTEX
  5
58F
  8
0
  6
CONTINUOUS
 62
     7
 10
90.8100835566
 20
132.1853372993
 30
0.0
  0
VERTEX
  5
590
  8
0
  6
CONTINUOUS
 62
     7
 10
90.8122693707
 20
132.1833694147
 30
0.0
  0
VERTEX
  5
591
  8
0
  6
CONTINUOUS
 62
     7
 10
90.8146891796
 20
132.1811905856
 30
0.0
  0
VERTEX
  5
592
  8
0
  6
CONTINUOUS
 62
     7
 10
90.8173148107
 20
132.1788264232
 30
0.0
  0
VERTEX
  5
593
  8
0
  6
CONTINUOUS
 62
     7
 10
90.8201162291
 20
132.176303936
 30
0.0
  0
VERTEX
  5
594
  8
0
  6
CONTINUOUS
 62
     7
 10
90.8230603725
 20
132.1736529263
 30
0.0
  0
VERTEX
  5
595
  8
0
  6
CONTINUOUS
 62
     7
 10
90.8261132479
 20
132.1709041277
 30
0.0
  0
VERTEX
  5
596
  8
0
  6
CONTINUOUS
 62
     7
 10
90.829239465
 20
132.1680892053
 30
0.0
  0
VERTEX
  5
597
  8
0
  6
CONTINUOUS
 62
     7
 10
90.8324022365
 20
132.1652416865
 30
0.0
  0
SEQEND
  5
7DF
  8
0
  6
CONTINUOUS
 62
     7
  0
LINE
  5
1AC
  8
0
  6
CONTINUOUS
 62
     7
 10
90.7869169076
 20
132.1147248874
 30
0.0
 11
90.8324022365
 21
132.1652416865
 31
0.0
  0
LINE
  5
1AD
  8
0
  6
CONTINUOUS
 62
     7
 10
90.8100835566
 20
132.1853372993
 30
0.0
 11
90.7632384968
 21
132.1333108264
 31
0.0
  0
ARC
  5
1AE
  8
0
  6
CONTINUOUS
 62
     7
 10
89.2753067686
 20
131.4400804251
 30
0.0
 40
1.600000000000029
 50
68.1737642681
 51
117.8262357319
  0
ARC
  5
1AF
  8
0
  6
CONTINUOUS
 62
     7
 10
88.4933854698
 20
132.9370359178
 30
0.0
 40
0.0891490120615461
 50
293.1546301072
 51
354.1904750924
  0
ARC
  5
1B0
  8
0
  6
CONTINUOUS
 62
     7
 10
88.6110839684
 20
132.9243770577
 30
0.0
 40
0.0292342401291746
 50
110.8851631419
 51
172.8572354962
  0
ARC
  5
1B1
  8
0
  6
CONTINUOUS
 62
     7
 10
89.2753067686
 20
131.4400804251
 30
0.0
 40
1.655328000001857
 50
102.006984372
 51
114.0516193426
  0
POLYLINE
  5
1B2
  8
0
  6
CONTINUOUS
 62
     7
 66
     1
 10
0.0
 20
0.0
 30
0.0
 70
   128
  0
VERTEX
  5
598
  8
0
  6
CONTINUOUS
 62
     7
 10
88.9309473621
 20
133.0591935458
 30
0.0
  0
VERTEX
  5
599
  8
0
  6
CONTINUOUS
 62
     7
 10
89.0535968409
 20
133.0792947466
 30
0.0
  0
VERTEX
  5
59A
  8
0
  6
CONTINUOUS
 62
     7
 10
89.4485362858
 20
133.0863192471
 30
0.0
  0
SEQEND
  5
7E0
  8
0
  6
CONTINUOUS
 62
     7
  0
ARC
  5
1B3
  8
0
  6
CONTINUOUS
 62
     7
 10
89.2753067686
 20
131.4400804251
 30
0.0
 40
1.655328000000012
 50
71.948380658
 51
83.9930156262
  0
ARC
  5
1B4
  8
0
  6
CONTINUOUS
 62
     7
 10
89.7816116481
 20
132.9865220313
 30
0.0
 40
0.0281997308635983
 50
11.8719428984
 51
76.3856304707
  0
ARC
  5
1B5
  8
0
  6
CONTINUOUS
 62
     7
 10
89.897648372
 20
133.0116412823
 30
0.0
 40
0.0905253937623788
 50
192.32150888
 51
252.3331661828
  0
POLYLINE
  5
1B6
  8
0
  6
CONTINUOUS
 62
     7
 66
     1
 10
0.0
 20
0.0
 30
0.0
 70
   128
  0
VERTEX
  5
59B
  8
0
  6
CONTINUOUS
 62
     7
 10
88.5300498974
 20
132.9748571644
 30
0.0
  0
VERTEX
  5
59C
  8
0
  6
CONTINUOUS
 62
     7
 10
88.532017782
 20
132.9770429785
 30
0.0
  0
VERTEX
  5
59D
  8
0
  6
CONTINUOUS
 62
     7
 10
88.5341966112
 20
132.9794625545
 30
0.0
  0
VERTEX
  5
59E
  8
0
  6
CONTINUOUS
 62
     7
 10
88.53656089
 20
132.9820886514
 30
0.0
  0
VERTEX
  5
59F
  8
0
  6
CONTINUOUS
 62
     7
 10
88.5390832607
 20
132.9848898368
 30
0.0
  0
VERTEX
  5
5A0
  8
0
  6
CONTINUOUS
 62
     7
 10
88.5417342705
 20
132.9878342132
 30
0.0
  0
VERTEX
  5
5A1
  8
0
  6
CONTINUOUS
 62
     7
 10
88.544483069
 20
132.9908870886
 30
0.0
  0
VERTEX
  5
5A2
  8
0
  6
CONTINUOUS
 62
     7
 10
88.5472977587
 20
132.9940130728
 30
0.0
  0
VERTEX
  5
5A3
  8
0
  6
CONTINUOUS
 62
     7
 10
88.5501456267
 20
132.9971758442
 30
0.0
  0
SEQEND
  5
7E1
  8
0
  6
CONTINUOUS
 62
     7
  0
LINE
  5
1B7
  8
0
  6
CONTINUOUS
 62
     7
 10
88.6006620765
 20
132.9516905154
 30
0.0
 11
88.5501456267
 21
132.9971758442
 31
0.0
  0
LINE
  5
1B8
  8
0
  6
CONTINUOUS
 62
     7
 10
88.5300498974
 20
132.9748571644
 30
0.0
 11
88.5820766032
 21
132.9280121046
 31
0.0
  0
ARC
  5
1B9
  8
0
  6
CONTINUOUS
 62
     7
 10
90.093124333
 20
129.9849028307
 30
0.0
 40
0.1377406145928909
 50
227.7251174749
 51
318.2749159822
  0
LINE
  5
1BA
  8
0
  6
CONTINUOUS
 62
     7
 10
90.1959266101
 20
129.8932285773
 30
0.0
 11
90.9099157487
 21
130.6861938702
 31
0.0
  0
ARC
  5
1BB
  8
0
  6
CONTINUOUS
 62
     7
 10
90.8079982047
 20
130.7788503612
 30
0.0
 40
0.1377403756443791
 50
317.7250249461
 51
48.2748795174
  0
LINE
  5
1BC
  8
0
  6
CONTINUOUS
 62
     7
 10
90.8996723645
 20
130.8816524016
 30
0.0
 11
90.8491557983
 21
130.9271377305
 31
0.0
  0
LINE
  5
1BD
  8
0
  6
CONTINUOUS
 62
     7
 10
90.9215477348
 20
131.2668702359
 30
0.0
 11
90.991271665
 21
129.9364573116
 31
0.0
  0
ARC
  5
1BE
  8
0
  6
CONTINUOUS
 62
     7
 10
90.9474348421
 20
129.9344935513
 30
0.0
 40
0.0438807862298622
 50
273.2052477803
 51
2.5649670145
  0
LINE
  5
1BF
  8
0
  6
CONTINUOUS
 62
     7
 10
90.9498883464
 20
129.8906814101
 30
0.0
 11
89.6196661104
 21
129.8209672587
 31
0.0
  0
LINE
  5
1C0
  8
0
  6
CONTINUOUS
 62
     7
 10
90.8875973017
 20
130.7062894831
 30
0.0
 11
90.1736081631
 21
129.9133241902
 31
0.0
  0
POLYLINE
  5
1C1
  8
0
  6
CONTINUOUS
 62
     7
 66
     1
 10
0.0
 20
0.0
 30
0.0
 70
   128
  0
VERTEX
  5
5A4
  8
0
  6
CONTINUOUS
 62
     7
 10
90.8875973017
 20
130.7062894831
 30
0.0
  0
VERTEX
  5
5A5
  8
0
  6
CONTINUOUS
 62
     7
 10
90.8897828829
 20
130.7043215985
 30
0.0
  0
VERTEX
  5
5A6
  8
0
  6
CONTINUOUS
 62
     7
 10
90.8922026918
 20
130.7021427693
 30
0.0
  0
VERTEX
  5
5A7
  8
0
  6
CONTINUOUS
 62
     7
 10
90.8948285558
 20
130.699778607
 30
0.0
  0
VERTEX
  5
5A8
  8
0
  6
CONTINUOUS
 62
     7
 10
90.8976297413
 20
130.6972561198
 30
0.0
  0
VERTEX
  5
5A9
  8
0
  6
CONTINUOUS
 62
     7
 10
90.9005741176
 20
130.6946051101
 30
0.0
  0
VERTEX
  5
5AA
  8
0
  6
CONTINUOUS
 62
     7
 10
90.903626993
 20
130.6918563115
 30
0.0
  0
VERTEX
  5
5AB
  8
0
  6
CONTINUOUS
 62
     7
 10
90.9067529772
 20
130.689041389
 30
0.0
  0
VERTEX
  5
5AC
  8
0
  6
CONTINUOUS
 62
     7
 10
90.9099157487
 20
130.6861938702
 30
0.0
  0
SEQEND
  5
7E2
  8
0
  6
CONTINUOUS
 62
     7
  0
POLYLINE
  5
1C2
  8
0
  6
CONTINUOUS
 62
     7
 66
     1
 10
0.0
 20
0.0
 30
0.0
 70
   128
  0
VERTEX
  5
5AD
  8
0
  6
CONTINUOUS
 62
     7
 10
90.1736081631
 20
129.9133241902
 30
0.0
  0
VERTEX
  5
5AE
  8
0
  6
CONTINUOUS
 62
     7
 10
90.1757937443
 20
129.9113563056
 30
0.0
  0
VERTEX
  5
5AF
  8
0
  6
CONTINUOUS
 62
     7
 10
90.1782135532
 20
129.9091774764
 30
0.0
  0
VERTEX
  5
5B0
  8
0
  6
CONTINUOUS
 62
     7
 10
90.1808394172
 20
129.906813314
 30
0.0
  0
VERTEX
  5
5B1
  8
0
  6
CONTINUOUS
 62
     7
 10
90.1836408355
 20
129.9042908268
 30
0.0
  0
VERTEX
  5
5B2
  8
0
  6
CONTINUOUS
 62
     7
 10
90.186584979
 20
129.9016398171
 30
0.0
  0
VERTEX
  5
5B3
  8
0
  6
CONTINUOUS
 62
     7
 10
90.1896378544
 20
129.8988910186
 30
0.0
  0
VERTEX
  5
5B4
  8
0
  6
CONTINUOUS
 62
     7
 10
90.1927638386
 20
129.8960765617
 30
0.0
  0
VERTEX
  5
5B5
  8
0
  6
CONTINUOUS
 62
     7
 10
90.1959266101
 20
129.8932285773
 30
0.0
  0
SEQEND
  5
7E3
  8
0
  6
CONTINUOUS
 62
     7
  0
ARC
  5
1C3
  8
0
  6
CONTINUOUS
 62
     7
 10
88.457489139
 20
132.8952579848
 30
0.0
 40
0.1377406068636348
 50
47.7251142288
 51
138.2749192283
  0
LINE
  5
1C4
  8
0
  6
CONTINUOUS
 62
     7
 10
88.3546868625
 20
132.9869322272
 30
0.0
 11
87.6406977239
 21
132.1939669343
 31
0.0
  0
ARC
  5
1C5
  8
0
  6
CONTINUOUS
 62
     7
 10
87.7426154253
 20
132.1013105335
 30
0.0
 40
0.1377404315118308
 50
137.7250967562
 51
228.2749098032
  0
LINE
  5
1C6
  8
0
  6
CONTINUOUS
 62
     7
 10
87.6509412827
 20
131.9985084029
 30
0.0
 11
87.7014577616
 21
131.953023074
 31
0.0
  0
LINE
  5
1C7
  8
0
  6
CONTINUOUS
 62
     7
 10
87.6290658833
 20
131.6132905687
 30
0.0
 11
87.5593418949
 21
132.943703493
 31
0.0
  0
ARC
  5
1C8
  8
0
  6
CONTINUOUS
 62
     7
 10
87.6031789663
 20
132.9456672562
 30
0.0
 40
0.0438810345960068
 50
93.2056687601
 51
182.5649562532
  0
LINE
  5
1C9
  8
0
  6
CONTINUOUS
 62
     7
 10
87.6007251262
 20
132.9894796273
 30
0.0
 11
88.9309473621
 21
133.0591935458
 31
0.0
  0
CIRCLE
  5
1CA
  8
0
  6
CONTINUOUS
 62
     7
 10
87.8068525935
 20
132.7622825033
 30
0.0
 40
0.1778400000001067
  0
ARC
  5
1CB
  8
0
  6
CONTINUOUS
 62
     7
 10
90.7304843719
 20
132.2578980514
 30
0.0
 40
0.1377405281128373
 50
317.7251534423
 51
48.274887149
  0
LINE
  5
1CC
  8
0
  6
CONTINUOUS
 62
     7
 10
90.8221586195
 20
132.3607002179
 30
0.0
 11
90.0291933265
 21
133.0746895893
 31
0.0
  0
ARC
  5
1CD
  8
0
  6
CONTINUOUS
 62
     7
 10
89.9365368566
 20
132.972771391
 30
0.0
 40
0.1377408456779574
 50
47.7252145256
 51
138.2748189315
  0
LINE
  5
1CE
  8
0
  6
CONTINUOUS
 62
     7
 10
89.8337345623
 20
133.0644459723
 30
0.0
 11
89.7882494663
 21
133.013929406
 31
0.0
  0
LINE
  5
1CF
  8
0
  6
CONTINUOUS
 62
     7
 10
89.4485362858
 20
133.0863192471
 30
0.0
 11
90.7787585218
 21
133.1560331656
 31
0.0
  0
ARC
  5
1D0
  8
0
  6
CONTINUOUS
 62
     7
 10
90.7808980337
 20
133.1122045855
 30
0.0
 40
0.0438807696996362
 50
3.4350403827
 51
92.7947007981
  0
LINE
  5
1D1
  8
0
  6
CONTINUOUS
 62
     7
 10
90.8246999659
 20
133.1148337832
 30
0.0
 11
90.8944238961
 21
131.7844206261
 31
0.0
  0
LINE
  5
1D2
  8
0
  6
CONTINUOUS
 62
     7
 10
87.6630162873
 20
132.1738713215
 30
0.0
 11
88.3770054259
 21
132.9668366144
 31
0.0
  0
POLYLINE
  5
1D3
  8
0
  6
CONTINUOUS
 62
     7
 66
     1
 10
0.0
 20
0.0
 30
0.0
 70
   128
  0
VERTEX
  5
5B6
  8
0
  6
CONTINUOUS
 62
     7
 10
87.6630162873
 20
132.1738713215
 30
0.0
  0
VERTEX
  5
5B7
  8
0
  6
CONTINUOUS
 62
     7
 10
87.6608306478
 20
132.1758392061
 30
0.0
  0
VERTEX
  5
5B8
  8
0
  6
CONTINUOUS
 62
     7
 10
87.658410839
 20
132.1780180352
 30
0.0
  0
VERTEX
  5
5B9
  8
0
  6
CONTINUOUS
 62
     7
 10
87.6557850041
 20
132.1803821976
 30
0.0
  0
VERTEX
  5
5BA
  8
0
  6
CONTINUOUS
 62
     7
 10
87.6529836731
 20
132.1829046848
 30
0.0
  0
VERTEX
  5
5BB
  8
0
  6
CONTINUOUS
 62
     7
 10
87.6500394423
 20
132.1855556945
 30
0.0
  0
VERTEX
  5
5BC
  8
0
  6
CONTINUOUS
 62
     7
 10
87.6469865669
 20
132.1883044931
 30
0.0
  0
VERTEX
  5
5BD
  8
0
  6
CONTINUOUS
 62
     7
 10
87.6438605245
 20
132.1911194155
 30
0.0
  0
VERTEX
  5
5BE
  8
0
  6
CONTINUOUS
 62
     7
 10
87.6406977239
 20
132.1939669343
 30
0.0
  0
SEQEND
  5
7E4
  8
0
  6
CONTINUOUS
 62
     7
  0
POLYLINE
  5
1D4
  8
0
  6
CONTINUOUS
 62
     7
 66
     1
 10
0.0
 20
0.0
 30
0.0
 70
   128
  0
VERTEX
  5
5BF
  8
0
  6
CONTINUOUS
 62
     7
 10
88.3770054259
 20
132.9668366144
 30
0.0
  0
VERTEX
  5
5C0
  8
0
  6
CONTINUOUS
 62
     7
 10
88.3748197282
 20
132.968804499
 30
0.0
  0
VERTEX
  5
5C1
  8
0
  6
CONTINUOUS
 62
     7
 10
88.3723999194
 20
132.9709833282
 30
0.0
  0
VERTEX
  5
5C2
  8
0
  6
CONTINUOUS
 62
     7
 10
88.3697741718
 20
132.9733474905
 30
0.0
  0
VERTEX
  5
5C3
  8
0
  6
CONTINUOUS
 62
     7
 10
88.3669727535
 20
132.9758699777
 30
0.0
  0
VERTEX
  5
5C4
  8
0
  6
CONTINUOUS
 62
     7
 10
88.36402861
 20
132.9785209874
 30
0.0
  0
VERTEX
  5
5C5
  8
0
  6
CONTINUOUS
 62
     7
 10
88.3609757346
 20
132.981269786
 30
0.0
  0
VERTEX
  5
5C6
  8
0
  6
CONTINUOUS
 62
     7
 10
88.357849634
 20
132.9840844756
 30
0.0
  0
VERTEX
  5
5C7
  8
0
  6
CONTINUOUS
 62
     7
 10
88.3546868625
 20
132.9869322272
 30
0.0
  0
SEQEND
  5
7E5
  8
0
  6
CONTINUOUS
 62
     7
  0
LINE
  5
1D5
  8
0
  6
CONTINUOUS
 62
     7
 10
90.0090977137
 20
133.0523709095
 30
0.0
 11
90.8020630066
 21
132.3383820037
 31
0.0
  0
POLYLINE
  5
1D6
  8
0
  6
CONTINUOUS
 62
     7
 66
     1
 10
0.0
 20
0.0
 30
0.0
 70
   128
  0
VERTEX
  5
5C8
  8
0
  6
CONTINUOUS
 62
     7
 10
90.0090977137
 20
133.0523709095
 30
0.0
  0
VERTEX
  5
5C9
  8
0
  6
CONTINUOUS
 62
     7
 10
90.0110655983
 20
133.0545564907
 30
0.0
  0
VERTEX
  5
5CA
  8
0
  6
CONTINUOUS
 62
     7
 10
90.0132444274
 20
133.0569762996
 30
0.0
  0
VERTEX
  5
5CB
  8
0
  6
CONTINUOUS
 62
     7
 10
90.0156088226
 20
133.0596021636
 30
0.0
  0
VERTEX
  5
5CC
  8
0
  6
CONTINUOUS
 62
     7
 10
90.018131077
 20
133.0624035819
 30
0.0
  0
VERTEX
  5
5CD
  8
0
  6
CONTINUOUS
 62
     7
 10
90.0207820867
 20
133.0653477254
 30
0.0
  0
VERTEX
  5
5CE
  8
0
  6
CONTINUOUS
 62
     7
 10
90.0235308853
 20
133.0684006008
 30
0.0
  0
VERTEX
  5
5CF
  8
0
  6
CONTINUOUS
 62
     7
 10
90.0263455749
 20
133.071526585
 30
0.0
  0
VERTEX
  5
5D0
  8
0
  6
CONTINUOUS
 62
     7
 10
90.0291933265
 20
133.0746895893
 30
0.0
  0
SEQEND
  5
7E6
  8
0
  6
CONTINUOUS
 62
     7
  0
POLYLINE
  5
1D7
  8
0
  6
CONTINUOUS
 62
     7
 66
     1
 10
0.0
 20
0.0
 30
0.0
 70
   128
  0
VERTEX
  5
5D1
  8
0
  6
CONTINUOUS
 62
     7
 10
90.8020630066
 20
132.3383820037
 30
0.0
  0
VERTEX
  5
5D2
  8
0
  6
CONTINUOUS
 62
     7
 10
90.8040308912
 20
132.3405673521
 30
0.0
  0
VERTEX
  5
5D3
  8
0
  6
CONTINUOUS
 62
     7
 10
90.8062097204
 20
132.3429873938
 30
0.0
  0
VERTEX
  5
5D4
  8
0
  6
CONTINUOUS
 62
     7
 10
90.8085738827
 20
132.3456132578
 30
0.0
  0
VERTEX
  5
5D5
  8
0
  6
CONTINUOUS
 62
     7
 10
90.8110963699
 20
132.3484142105
 30
0.0
  0
VERTEX
  5
5D6
  8
0
  6
CONTINUOUS
 62
     7
 10
90.8137473796
 20
132.3513585868
 30
0.0
  0
VERTEX
  5
5D7
  8
0
  6
CONTINUOUS
 62
     7
 10
90.8164961782
 20
132.3544114622
 30
0.0
  0
VERTEX
  5
5D8
  8
0
  6
CONTINUOUS
 62
     7
 10
90.8193108679
 20
132.3575374464
 30
0.0
  0
VERTEX
  5
5D9
  8
0
  6
CONTINUOUS
 62
     7
 10
90.8221586195
 20
132.3607002179
 30
0.0
  0
SEQEND
  5
7E7
  8
0
  6
CONTINUOUS
 62
     7
  0
POLYLINE
  5
1D8
  8
0
  6
CONTINUOUS
 62
     7
 66
     1
 10
0.0
 20
0.0
 30
0.0
 70
   128
  0
VERTEX
  5
5DA
  8
0
  6
CONTINUOUS
 62
     7
 10
90.8795765188
 20
130.8593341874
 30
0.0
  0
VERTEX
  5
5DB
  8
0
  6
CONTINUOUS
 62
     7
 10
90.8815444034
 20
130.8615195359
 30
0.0
  0
VERTEX
  5
5DC
  8
0
  6
CONTINUOUS
 62
     7
 10
90.8837232326
 20
130.8639395776
 30
0.0
  0
VERTEX
  5
5DD
  8
0
  6
CONTINUOUS
 62
     7
 10
90.8860876278
 20
130.8665654416
 30
0.0
  0
VERTEX
  5
5DE
  8
0
  6
CONTINUOUS
 62
     7
 10
90.8886098821
 20
130.8693663942
 30
0.0
  0
VERTEX
  5
5DF
  8
0
  6
CONTINUOUS
 62
     7
 10
90.8912608919
 20
130.8723107705
 30
0.0
  0
VERTEX
  5
5E0
  8
0
  6
CONTINUOUS
 62
     7
 10
90.8940096904
 20
130.8753636459
 30
0.0
  0
VERTEX
  5
5E1
  8
0
  6
CONTINUOUS
 62
     7
 10
90.8968243801
 20
130.8784896302
 30
0.0
  0
VERTEX
  5
5E2
  8
0
  6
CONTINUOUS
 62
     7
 10
90.8996723645
 20
130.8816524016
 30
0.0
  0
SEQEND
  5
7E8
  8
0
  6
CONTINUOUS
 62
     7
  0
LINE
  5
1D9
  8
0
  6
CONTINUOUS
 62
     7
 10
90.827549813
 20
130.9061792473
 30
0.0
 11
90.8795765188
 21
130.8593341874
 31
0.0
  0
POLYLINE
  5
1DA
  8
0
  6
CONTINUOUS
 62
     7
 66
     1
 10
0.0
 20
0.0
 30
0.0
 70
   128
  0
VERTEX
  5
5E3
  8
0
  6
CONTINUOUS
 62
     7
 10
87.6710370119
 20
132.0208270828
 30
0.0
  0
VERTEX
  5
5E4
  8
0
  6
CONTINUOUS
 62
     7
 10
87.66906904
 20
132.0186412687
 30
0.0
  0
VERTEX
  5
5E5
  8
0
  6
CONTINUOUS
 62
     7
 10
87.66689024
 20
132.016221227
 30
0.0
  0
VERTEX
  5
5E6
  8
0
  6
CONTINUOUS
 62
     7
 10
87.6645259321
 20
132.0135958286
 30
0.0
  0
VERTEX
  5
5E7
  8
0
  6
CONTINUOUS
 62
     7
 10
87.6620036195
 20
132.0107944103
 30
0.0
  0
VERTEX
  5
5E8
  8
0
  6
CONTINUOUS
 62
     7
 10
87.6593526098
 20
132.007850034
 30
0.0
  0
VERTEX
  5
5E9
  8
0
  6
CONTINUOUS
 62
     7
 10
87.6566037821
 20
132.0047971586
 30
0.0
  0
VERTEX
  5
5EA
  8
0
  6
CONTINUOUS
 62
     7
 10
87.6537890925
 20
132.0016711744
 30
0.0
  0
VERTEX
  5
5EB
  8
0
  6
CONTINUOUS
 62
     7
 10
87.6509412827
 20
131.9985084029
 30
0.0
  0
SEQEND
  5
7E9
  8
0
  6
CONTINUOUS
 62
     7
  0
LINE
  5
1DB
  8
0
  6
CONTINUOUS
 62
     7
 10
87.7230637469
 20
131.9739820229
 30
0.0
 11
87.6710370119
 21
132.0208270828
 31
0.0
  0
POLYLINE
  5
1DC
  8
0
  6
CONTINUOUS
 62
     7
 66
     1
 10
0.0
 20
0.0
 30
0.0
 70
   128
  0
VERTEX
  5
5EC
  8
0
  6
CONTINUOUS
 62
     7
 10
89.8560532422
 20
133.0443501266
 30
0.0
  0
VERTEX
  5
5ED
  8
0
  6
CONTINUOUS
 62
     7
 10
89.8538676609
 20
133.046318244
 30
0.0
  0
VERTEX
  5
5EE
  8
0
  6
CONTINUOUS
 62
     7
 10
89.851447852
 20
133.0484968404
 30
0.0
  0
VERTEX
  5
5EF
  8
0
  6
CONTINUOUS
 62
     7
 10
89.848821988
 20
133.0508612356
 30
0.0
  0
VERTEX
  5
5F0
  8
0
  6
CONTINUOUS
 62
     7
 10
89.8460205697
 20
133.0533834899
 30
0.0
  0
VERTEX
  5
5F1
  8
0
  6
CONTINUOUS
 62
     7
 10
89.8430764262
 20
133.0560344996
 30
0.0
  0
VERTEX
  5
5F2
  8
0
  6
CONTINUOUS
 62
     7
 10
89.8400235508
 20
133.0587832982
 30
0.0
  0
VERTEX
  5
5F3
  8
0
  6
CONTINUOUS
 62
     7
 10
89.8368975666
 20
133.0615982207
 30
0.0
  0
VERTEX
  5
5F4
  8
0
  6
CONTINUOUS
 62
     7
 10
89.8337345623
 20
133.0644459723
 30
0.0
  0
SEQEND
  5
7EA
  8
0
  6
CONTINUOUS
 62
     7
  0
LINE
  5
1DD
  8
0
  6
CONTINUOUS
 62
     7
 10
89.8092081823
 20
132.9923234208
 30
0.0
 11
89.8560532422
 21
133.0443501266
 31
0.0
  0
ARC
  5
1DE
  8
0
  6
CONTINUOUS
 62
     7
 10
87.8201290248
 20
130.6222627172
 30
0.0
 40
0.1377404315118308
 50
137.7250967562
 51
228.2749098032
  0
LINE
  5
1DF
  8
0
  6
CONTINUOUS
 62
     7
 10
87.7284548822
 20
130.5194605867
 30
0.0
 11
88.521420146
 21
129.8054714481
 31
0.0
  0
ARC
  5
1E0
  8
0
  6
CONTINUOUS
 62
     7
 10
88.6140766328
 20
129.9073893254
 30
0.0
 40
0.1377406194724254
 50
227.7251195242
 51
318.2749139329
  0
LINE
  5
1E1
  8
0
  6
CONTINUOUS
 62
     7
 10
88.7168789102
 20
129.8157150651
 30
0.0
 11
88.7623641227
 21
129.8662313985
 31
0.0
  0
LINE
  5
1E2
  8
0
  6
CONTINUOUS
 62
     7
 10
89.1020771867
 20
129.7938415574
 30
0.0
 11
87.7718549507
 21
129.7241274061
 31
0.0
  0
ARC
  5
1E3
  8
0
  6
CONTINUOUS
 62
     7
 10
87.7697156925
 20
129.7679562084
 30
0.0
 40
0.0438809792102379
 50
183.4347054213
 51
272.7943559116
  0
LINE
  5
1E4
  8
0
  6
CONTINUOUS
 62
     7
 10
87.7259135357
 20
129.7653272542
 30
0.0
 11
87.6561895473
 21
131.0957401785
 31
0.0
  0
LINE
  5
1E5
  8
0
  6
CONTINUOUS
 62
     7
 10
88.5415158753
 20
129.8277901279
 30
0.0
 11
87.7485506115
 21
130.5417792665
 31
0.0
  0
POLYLINE
  5
1E6
  8
0
  6
CONTINUOUS
 62
     7
 66
     1
 10
0.0
 20
0.0
 30
0.0
 70
   128
  0
VERTEX
  5
5F5
  8
0
  6
CONTINUOUS
 62
     7
 10
88.5415158753
 20
129.8277901279
 30
0.0
  0
VERTEX
  5
5F6
  8
0
  6
CONTINUOUS
 62
     7
 10
88.5395478743
 20
129.8256043138
 30
0.0
  0
VERTEX
  5
5F7
  8
0
  6
CONTINUOUS
 62
     7
 10
88.5373691615
 20
129.8231842721
 30
0.0
  0
VERTEX
  5
5F8
  8
0
  6
CONTINUOUS
 62
     7
 10
88.5350047664
 20
129.8205588738
 30
0.0
  0
VERTEX
  5
5F9
  8
0
  6
CONTINUOUS
 62
     7
 10
88.532482512
 20
129.8177574555
 30
0.0
  0
VERTEX
  5
5FA
  8
0
  6
CONTINUOUS
 62
     7
 10
88.5298315023
 20
129.8148130792
 30
0.0
  0
VERTEX
  5
5FB
  8
0
  6
CONTINUOUS
 62
     7
 10
88.5270827037
 20
129.8117602038
 30
0.0
  0
VERTEX
  5
5FC
  8
0
  6
CONTINUOUS
 62
     7
 10
88.5242678976
 20
129.8086342195
 30
0.0
  0
VERTEX
  5
5FD
  8
0
  6
CONTINUOUS
 62
     7
 10
88.521420146
 20
129.8054714481
 30
0.0
  0
SEQEND
  5
7EB
  8
0
  6
CONTINUOUS
 62
     7
  0
POLYLINE
  5
1E7
  8
0
  6
CONTINUOUS
 62
     7
 66
     1
 10
0.0
 20
0.0
 30
0.0
 70
   128
  0
VERTEX
  5
5FE
  8
0
  6
CONTINUOUS
 62
     7
 10
87.7485506115
 20
130.5417792665
 30
0.0
  0
VERTEX
  5
5FF
  8
0
  6
CONTINUOUS
 62
     7
 10
87.7465826687
 20
130.5395934524
 30
0.0
  0
VERTEX
  5
600
  8
0
  6
CONTINUOUS
 62
     7
 10
87.7444038686
 20
130.5371734107
 30
0.0
  0
VERTEX
  5
601
  8
0
  6
CONTINUOUS
 62
     7
 10
87.7420395316
 20
130.5345480124
 30
0.0
  0
VERTEX
  5
602
  8
0
  6
CONTINUOUS
 62
     7
 10
87.7395172191
 20
130.5317465941
 30
0.0
  0
VERTEX
  5
603
  8
0
  6
CONTINUOUS
 62
     7
 10
87.7368662094
 20
130.5288022178
 30
0.0
  0
VERTEX
  5
604
  8
0
  6
CONTINUOUS
 62
     7
 10
87.7341173817
 20
130.5257493424
 30
0.0
  0
VERTEX
  5
605
  8
0
  6
CONTINUOUS
 62
     7
 10
87.731302692
 20
130.5226233581
 30
0.0
  0
VERTEX
  5
606
  8
0
  6
CONTINUOUS
 62
     7
 10
87.7284548822
 20
130.5194605867
 30
0.0
  0
SEQEND
  5
7EC
  8
0
  6
CONTINUOUS
 62
     7
  0
POLYLINE
  5
1E8
  8
0
  6
CONTINUOUS
 62
     7
 66
     1
 10
0.0
 20
0.0
 30
0.0
 70
   128
  0
VERTEX
  5
607
  8
0
  6
CONTINUOUS
 62
     7
 10
88.6945603468
 20
129.8358106779
 30
0.0
  0
VERTEX
  5
608
  8
0
  6
CONTINUOUS
 62
     7
 10
88.6967459281
 20
129.8338427933
 30
0.0
  0
VERTEX
  5
609
  8
0
  6
CONTINUOUS
 62
     7
 10
88.699165737
 20
129.8316639642
 30
0.0
  0
VERTEX
  5
60A
  8
0
  6
CONTINUOUS
 62
     7
 10
88.701791601
 20
129.8292998018
 30
0.0
  0
VERTEX
  5
60B
  8
0
  6
CONTINUOUS
 62
     7
 10
88.7045929028
 20
129.8267773146
 30
0.0
  0
VERTEX
  5
60C
  8
0
  6
CONTINUOUS
 62
     7
 10
88.7075371627
 20
129.8241263049
 30
0.0
  0
VERTEX
  5
60D
  8
0
  6
CONTINUOUS
 62
     7
 10
88.7105900381
 20
129.8213775063
 30
0.0
  0
VERTEX
  5
60E
  8
0
  6
CONTINUOUS
 62
     7
 10
88.7137160224
 20
129.8185625839
 30
0.0
  0
VERTEX
  5
60F
  8
0
  6
CONTINUOUS
 62
     7
 10
88.7168789102
 20
129.8157150651
 30
0.0
  0
SEQEND
  5
7ED
  8
0
  6
CONTINUOUS
 62
     7
  0
LINE
  5
1E9
  8
0
  6
CONTINUOUS
 62
     7
 10
88.7414054067
 20
129.8878376166
 30
0.0
 11
88.6945603468
 21
129.8358106779
 31
0.0
  0
POLYLINE
  5
1EA
  8
0
  6
CONTINUOUS
 62
     7
 66
     1
 10
0.0
 20
0.0
 30
0.0
 70
   128
  0
VERTEX
  5
610
  8
0
  6
CONTINUOUS
 62
     7
 10
87.6805114147
 20
129.7632531988
 30
0.0
  0
VERTEX
  5
611
  8
0
  6
CONTINUOUS
 62
     7
 10
87.7021045943
 20
129.7642320188
 30
0.0
  0
VERTEX
  5
612
  8
0
  6
CONTINUOUS
 62
     7
 10
87.7259135357
 20
129.7653272542
 30
0.0
  0
SEQEND
  5
7EE
  8
0
  6
CONTINUOUS
 62
     7
  0
LINE
  5
1EB
  8
0
  6
CONTINUOUS
 62
     7
 10
87.5139717007
 20
132.9410203526
 30
0.0
 11
87.6805114147
 21
129.7632531988
 31
0.0
  0
POLYLINE
  5
1EC
  8
0
  6
CONTINUOUS
 62
     7
 66
     1
 10
0.0
 20
0.0
 30
0.0
 70
   128
  0
VERTEX
  5
613
  8
0
  6
CONTINUOUS
 62
     7
 10
87.5139717007
 20
132.9410203526
 30
0.0
  0
VERTEX
  5
614
  8
0
  6
CONTINUOUS
 62
     7
 10
87.5355489023
 20
132.9423037151
 30
0.0
  0
VERTEX
  5
615
  8
0
  6
CONTINUOUS
 62
     7
 10
87.5593418949
 20
132.943703493
 30
0.0
  0
SEQEND
  5
7EF
  8
0
  6
CONTINUOUS
 62
     7
  0
POLYLINE
  5
1ED
  8
0
  6
CONTINUOUS
 62
     7
 66
     1
 10
0.0
 20
0.0
 30
0.0
 70
   128
  0
VERTEX
  5
616
  8
0
  6
CONTINUOUS
 62
     7
 10
90.8701021743
 20
133.1169076058
 30
0.0
  0
VERTEX
  5
617
  8
0
  6
CONTINUOUS
 62
     7
 10
90.8485089947
 20
133.1159287857
 30
0.0
  0
VERTEX
  5
618
  8
0
  6
CONTINUOUS
 62
     7
 10
90.8246999659
 20
133.1148337832
 30
0.0
  0
SEQEND
  5
7F0
  8
0
  6
CONTINUOUS
 62
     7
  0
LINE
  5
1EE
  8
0
  6
CONTINUOUS
 62
     7
 10
91.0366417427
 20
129.9391404519
 30
0.0
 11
90.8701021743
 21
133.1169076058
 31
0.0
  0
POLYLINE
  5
1EF
  8
0
  6
CONTINUOUS
 62
     7
 66
     1
 10
0.0
 20
0.0
 30
0.0
 70
   128
  0
VERTEX
  5
619
  8
0
  6
CONTINUOUS
 62
     7
 10
91.0366417427
 20
129.9391404519
 30
0.0
  0
VERTEX
  5
61A
  8
0
  6
CONTINUOUS
 62
     7
 10
91.0150646285
 20
129.9378570894
 30
0.0
  0
VERTEX
  5
61B
  8
0
  6
CONTINUOUS
 62
     7
 10
90.991271665
 20
129.9364573116
 30
0.0
  0
SEQEND
  5
7F1
  8
0
  6
CONTINUOUS
 62
     7
  0
POLYLINE
  5
1F0
  8
0
  6
CONTINUOUS
 62
     7
 66
     1
 10
0.0
 20
0.0
 30
0.0
 70
   128
  0
VERTEX
  5
61C
  8
0
  6
CONTINUOUS
 62
     7
 10
90.9498883464
 20
129.8906814101
 30
0.0
  0
VERTEX
  5
61D
  8
0
  6
CONTINUOUS
 62
     7
 10
90.9510494728
 20
129.8668940345
 30
0.0
  0
VERTEX
  5
61E
  8
0
  6
CONTINUOUS
 62
     7
 10
90.9520946496
 20
129.8453166875
 30
0.0
  0
SEQEND
  5
7F2
  8
0
  6
CONTINUOUS
 62
     7
  0
LINE
  5
1F1
  8
0
  6
CONTINUOUS
 62
     7
 10
87.7744027001
 20
129.67878131
 30
0.0
 11
90.9520946496
 21
129.8453166875
 31
0.0
  0
POLYLINE
  5
1F2
  8
0
  6
CONTINUOUS
 62
     7
 66
     1
 10
0.0
 20
0.0
 30
0.0
 70
   128
  0
VERTEX
  5
61F
  8
0
  6
CONTINUOUS
 62
     7
 10
87.7744027001
 20
129.67878131
 30
0.0
  0
VERTEX
  5
620
  8
0
  6
CONTINUOUS
 62
     7
 10
87.773186742
 20
129.7003493438
 30
0.0
  0
VERTEX
  5
621
  8
0
  6
CONTINUOUS
 62
     7
 10
87.7718549507
 20
129.7241274061
 30
0.0
  0
SEQEND
  5
7F3
  8
0
  6
CONTINUOUS
 62
     7
  0
POLYLINE
  5
1F3
  8
0
  6
CONTINUOUS
 62
     7
 66
     1
 10
0.0
 20
0.0
 30
0.0
 70
   128
  0
VERTEX
  5
622
  8
0
  6
CONTINUOUS
 62
     7
 10
87.5985188812
 20
133.0348438843
 30
0.0
  0
VERTEX
  5
623
  8
0
  6
CONTINUOUS
 62
     7
 10
87.599564087
 20
133.0132670029
 30
0.0
  0
VERTEX
  5
624
  8
0
  6
CONTINUOUS
 62
     7
 10
87.6007251262
 20
132.9894796273
 30
0.0
  0
SEQEND
  5
7F4
  8
0
  6
CONTINUOUS
 62
     7
  0
LINE
  5
1F4
  8
0
  6
CONTINUOUS
 62
     7
 10
90.7762108889
 20
133.2013797274
 30
0.0
 11
87.5985188812
 21
133.0348438843
 31
0.0
  0
POLYLINE
  5
1F5
  8
0
  6
CONTINUOUS
 62
     7
 66
     1
 10
0.0
 20
0.0
 30
0.0
 70
   128
  0
VERTEX
  5
625
  8
0
  6
CONTINUOUS
 62
     7
 10
90.7762108889
 20
133.2013797274
 30
0.0
  0
VERTEX
  5
626
  8
0
  6
CONTINUOUS
 62
     7
 10
90.7774267305
 20
133.1798116936
 30
0.0
  0
VERTEX
  5
627
  8
0
  6
CONTINUOUS
 62
     7
 10
90.7787585218
 20
133.1560331656
 30
0.0
  0
SEQEND
  5
7F5
  8
0
  6
CONTINUOUS
 62
     7
  0
ARC
  5
1F6
  8
0
  6
CONTINUOUS
 62
     7
 10
88.6140277334
 20
129.9083225239
 30
0.0
 40
0.1083672827829946
 50
227.9999999997
 51
317.9999999998
  0
ARC
  5
1F7
  8
0
  6
CONTINUOUS
 62
     7
 10
90.8070646699
 20
130.7788013899
 30
0.0
 40
0.108367282782966
 50
317.9999999997
 51
47.9999999998
  0
ARC
  5
1F8
  8
0
  6
CONTINUOUS
 62
     7
 10
87.7435488674
 20
132.1013594604
 30
0.0
 40
0.1083672827829851
 50
137.9999999997
 51
227.9999999998
  0
ARC
  5
1F9
  8
0
  6
CONTINUOUS
 62
     7
 10
89.9365858039
 20
132.9718383263
 30
0.0
 40
0.1083672827829946
 50
47.9999999997
 51
137.9999999998
  0
ARC
  5
1FA
  8
0
  6
CONTINUOUS
 62
     7
 10
87.8210624788
 20
130.6223116461
 30
0.0
 40
0.1083672827828982
 50
138.0000000002
 51
228.0000000003
  0
ARC
  5
1FB
  8
0
  6
CONTINUOUS
 62
     7
 10
88.4575379896
 20
132.8943247149
 30
0.0
 40
0.1083672827828581
 50
48.0000000002
 51
138.0000000003
  0
ARC
  5
1FC
  8
0
  6
CONTINUOUS
 62
     7
 10
90.0930755476
 20
129.9858361353
 30
0.0
 40
0.1083672827829067
 50
228.0000000002
 51
318.0000000003
  0
ARC
  5
1FD
  8
0
  6
CONTINUOUS
 62
     7
 10
90.7295510585
 20
132.2578492041
 30
0.0
 40
0.1083672827828676
 50
318.0000000002
 51
48.0000000003
  0
ARC
  5
1FE
  8
0
  6
CONTINUOUS
 62
     7
 10
87.7894730702
 20
129.7899486531
 30
0.0
 40
0.1121842055974774
 50
193.7662220873
 51
262.2797480266
  0
ARC
  5
1FF
  8
0
  6
CONTINUOUS
 62
     7
 10
90.7611398452
 20
133.09021143
 30
0.0
 40
0.1121850032517222
 50
13.7665016802
 51
82.2794860951
  0
ARC
  5
200
  8
0
  6
CONTINUOUS
 62
     7
 10
90.9254861318
 20
129.9543008492
 30
0.0
 40
0.1121849332075211
 50
283.7204216195
 51
352.2334260357
  0
ARC
  5
201
  8
0
  6
CONTINUOUS
 62
     7
 10
87.6251279098
 20
132.9258598861
 30
0.0
 40
0.1121853477915031
 50
103.7206384889
 51
172.2334192417
  0
CIRCLE
  5
202
  8
0
  6
CONTINUOUS
 62
     7
 10
87.8068525935
 20
132.7622825033
 30
0.0
 40
0.0409387041693682
  0
LINE
  5
203
  8
0
  6
CONTINUOUS
 62
     7
 10
88.5284401064
 20
132.8550681265
 30
0.0
 11
88.4697627096
 21
132.9079015905
 31
0.0
  0
LINE
  5
204
  8
0
  6
CONTINUOUS
 62
     7
 10
90.0221734826
 20
130.025092678
 30
0.0
 11
90.0808507629
 21
129.972259214
 31
0.0
  0
LINE
  5
205
  8
0
  6
CONTINUOUS
 62
     7
 10
87.8603190702
 20
130.6932137141
 30
0.0
 11
87.8074856062
 21
130.634536201
 31
0.0
  0
POLYLINE
  5
206
  8
0
  6
CONTINUOUS
 62
     7
 66
     1
 10
0.0
 20
0.0
 30
0.0
 70
   128
  0
VERTEX
  5
628
  8
0
  6
CONTINUOUS
 62
     7
 10
87.7405298868
 20
130.6948235052
 30
0.0
  0
VERTEX
  5
629
  8
0
  6
CONTINUOUS
 62
     7
 10
87.7470868052
 20
130.6889198514
 30
0.0
  0
VERTEX
  5
62A
  8
0
  6
CONTINUOUS
 62
     7
 10
87.7543462028
 20
130.6823833639
 30
0.0
  0
VERTEX
  5
62B
  8
0
  6
CONTINUOUS
 62
     7
 10
87.7622237365
 20
130.6752904112
 30
0.0
  0
VERTEX
  5
62C
  8
0
  6
CONTINUOUS
 62
     7
 10
87.7706277004
 20
130.6677234153
 30
0.0
  0
VERTEX
  5
62D
  8
0
  6
CONTINUOUS
 62
     7
 10
87.7794603637
 20
130.6597703861
 30
0.0
  0
VERTEX
  5
62E
  8
0
  6
CONTINUOUS
 62
     7
 10
87.7886190481
 20
130.6515239904
 30
0.0
  0
VERTEX
  5
62F
  8
0
  6
CONTINUOUS
 62
     7
 10
87.7979971172
 20
130.6430796886
 30
0.0
  0
VERTEX
  5
630
  8
0
  6
CONTINUOUS
 62
     7
 10
87.8074856062
 20
130.634536201
 30
0.0
  0
SEQEND
  5
7F6
  8
0
  6
CONTINUOUS
 62
     7
  0
LINE
  5
207
  8
0
  6
CONTINUOUS
 62
     7
 10
90.6902945188
 20
132.1869470904
 30
0.0
 11
90.7431279828
 21
132.2456246036
 31
0.0
  0
POLYLINE
  5
208
  8
0
  6
CONTINUOUS
 62
     7
 66
     1
 10
0.0
 20
0.0
 30
0.0
 70
   128
  0
VERTEX
  5
631
  8
0
  6
CONTINUOUS
 62
     7
 10
90.8100835566
 20
132.1853372993
 30
0.0
  0
VERTEX
  5
632
  8
0
  6
CONTINUOUS
 62
     7
 10
90.8035268129
 20
132.1912414188
 30
0.0
  0
VERTEX
  5
633
  8
0
  6
CONTINUOUS
 62
     7
 10
90.7962673862
 20
132.1977774406
 30
0.0
  0
VERTEX
  5
634
  8
0
  6
CONTINUOUS
 62
     7
 10
90.7883897942
 20
132.2048703934
 30
0.0
  0
VERTEX
  5
635
  8
0
  6
CONTINUOUS
 62
     7
 10
90.7799857721
 20
132.2124373893
 30
0.0
  0
VERTEX
  5
636
  8
0
  6
CONTINUOUS
 62
     7
 10
90.7711531088
 20
132.2203904184
 30
0.0
  0
VERTEX
  5
637
  8
0
  6
CONTINUOUS
 62
     7
 10
90.7619944826
 20
132.2286368141
 30
0.0
  0
VERTEX
  5
638
  8
0
  6
CONTINUOUS
 62
     7
 10
90.7526162972
 20
132.2370811159
 30
0.0
  0
VERTEX
  5
639
  8
0
  6
CONTINUOUS
 62
     7
 10
90.7431279828
 20
132.2456246036
 30
0.0
  0
SEQEND
  5
7F7
  8
0
  6
CONTINUOUS
 62
     7
  0
POLYLINE
  5
209
  8
0
  6
CONTINUOUS
 62
     7
 66
     1
 10
0.0
 20
0.0
 30
0.0
 70
   128
  0
VERTEX
  5
63A
  8
0
  6
CONTINUOUS
 62
     7
 10
88.6945603468
 20
129.8358106779
 30
0.0
  0
VERTEX
  5
63B
  8
0
  6
CONTINUOUS
 62
     7
 10
88.6880033702
 20
129.8417143317
 30
0.0
  0
VERTEX
  5
63C
  8
0
  6
CONTINUOUS
 62
     7
 10
88.6807439436
 20
129.8482508192
 30
0.0
  0
VERTEX
  5
63D
  8
0
  6
CONTINUOUS
 62
     7
 10
88.672866468
 20
129.855343772
 30
0.0
  0
VERTEX
  5
63E
  8
0
  6
CONTINUOUS
 62
     7
 10
88.6644625623
 20
129.8629107679
 30
0.0
  0
VERTEX
  5
63F
  8
0
  6
CONTINUOUS
 62
     7
 10
88.6556297826
 20
129.870863797
 30
0.0
  0
VERTEX
  5
640
  8
0
  6
CONTINUOUS
 62
     7
 10
88.6464711564
 20
129.8791101927
 30
0.0
  0
VERTEX
  5
641
  8
0
  6
CONTINUOUS
 62
     7
 10
88.6370930874
 20
129.8875544945
 30
0.0
  0
VERTEX
  5
642
  8
0
  6
CONTINUOUS
 62
     7
 10
88.6276046566
 20
129.8960979822
 30
0.0
  0
SEQEND
  5
7F8
  8
0
  6
CONTINUOUS
 62
     7
  0
POLYLINE
  5
20A
  8
0
  6
CONTINUOUS
 62
     7
 66
     1
 10
0.0
 20
0.0
 30
0.0
 70
   128
  0
VERTEX
  5
643
  8
0
  6
CONTINUOUS
 62
     7
 10
89.8560532422
 20
133.0443501266
 30
0.0
  0
VERTEX
  5
644
  8
0
  6
CONTINUOUS
 62
     7
 10
89.8626102187
 20
133.03844624
 30
0.0
  0
VERTEX
  5
645
  8
0
  6
CONTINUOUS
 62
     7
 10
89.8698696454
 20
133.0319099853
 30
0.0
  0
VERTEX
  5
646
  8
0
  6
CONTINUOUS
 62
     7
 10
89.8777470046
 20
133.0248170326
 30
0.0
  0
VERTEX
  5
647
  8
0
  6
CONTINUOUS
 62
     7
 10
89.8861510266
 20
133.0172500367
 30
0.0
  0
VERTEX
  5
648
  8
0
  6
CONTINUOUS
 62
     7
 10
89.8949836899
 20
133.0092970075
 30
0.0
  0
VERTEX
  5
649
  8
0
  6
CONTINUOUS
 62
     7
 10
89.9041423161
 20
133.0010506118
 30
0.0
  0
VERTEX
  5
64A
  8
0
  6
CONTINUOUS
 62
     7
 10
89.9135205016
 20
132.9926065429
 30
0.0
  0
VERTEX
  5
64B
  8
0
  6
CONTINUOUS
 62
     7
 10
89.923008816
 20
132.9840630552
 30
0.0
  0
SEQEND
  5
7F9
  8
0
  6
CONTINUOUS
 62
     7
  0
POLYLINE
  5
20B
  8
0
  6
CONTINUOUS
 62
     7
 66
     1
 10
0.0
 20
0.0
 30
0.0
 70
   128
  0
VERTEX
  5
64C
  8
0
  6
CONTINUOUS
 62
     7
 10
87.6710370119
 20
132.0208270828
 30
0.0
  0
VERTEX
  5
64D
  8
0
  6
CONTINUOUS
 62
     7
 10
87.6769408695
 20
132.0273835937
 30
0.0
  0
VERTEX
  5
64E
  8
0
  6
CONTINUOUS
 62
     7
 10
87.6834772697
 20
132.0346432532
 30
0.0
  0
VERTEX
  5
64F
  8
0
  6
CONTINUOUS
 62
     7
 10
87.6905702224
 20
132.0425208452
 30
0.0
  0
VERTEX
  5
650
  8
0
  6
CONTINUOUS
 62
     7
 10
87.6981371892
 20
132.0509246344
 30
0.0
  0
VERTEX
  5
651
  8
0
  6
CONTINUOUS
 62
     7
 10
87.7060901601
 20
132.0597572977
 30
0.0
  0
VERTEX
  5
652
  8
0
  6
CONTINUOUS
 62
     7
 10
87.7143366723
 20
132.0689159239
 30
0.0
  0
VERTEX
  5
653
  8
0
  6
CONTINUOUS
 62
     7
 10
87.7227807412
 20
132.0782943422
 30
0.0
  0
VERTEX
  5
654
  8
0
  6
CONTINUOUS
 62
     7
 10
87.7313241998
 20
132.0877826566
 30
0.0
  0
SEQEND
  5
7FA
  8
0
  6
CONTINUOUS
 62
     7
  0
LINE
  5
20C
  8
0
  6
CONTINUOUS
 62
     7
 10
87.7313241998
 20
132.0877826566
 30
0.0
 11
87.7900016547
 21
132.0349491926
 31
0.0
  0
POLYLINE
  5
20D
  8
0
  6
CONTINUOUS
 62
     7
 66
     1
 10
0.0
 20
0.0
 30
0.0
 70
   128
  0
VERTEX
  5
655
  8
0
  6
CONTINUOUS
 62
     7
 10
90.8795765188
 20
130.8593341874
 30
0.0
  0
VERTEX
  5
656
  8
0
  6
CONTINUOUS
 62
     7
 10
90.8736726322
 20
130.8527772109
 30
0.0
  0
VERTEX
  5
657
  8
0
  6
CONTINUOUS
 62
     7
 10
90.8671363775
 20
130.8455175514
 30
0.0
  0
VERTEX
  5
658
  8
0
  6
CONTINUOUS
 62
     7
 10
90.8600434248
 20
130.8376399594
 30
0.0
  0
VERTEX
  5
659
  8
0
  6
CONTINUOUS
 62
     7
 10
90.8524764289
 20
130.8292361701
 30
0.0
  0
VERTEX
  5
65A
  8
0
  6
CONTINUOUS
 62
     7
 10
90.8445233998
 20
130.8204035068
 30
0.0
  0
VERTEX
  5
65B
  8
0
  6
CONTINUOUS
 62
     7
 10
90.8362767712
 20
130.8112448806
 30
0.0
  0
VERTEX
  5
65C
  8
0
  6
CONTINUOUS
 62
     7
 10
90.8278327022
 20
130.801866928
 30
0.0
  0
VERTEX
  5
65D
  8
0
  6
CONTINUOUS
 62
     7
 10
90.8192894474
 20
130.7923781479
 30
0.0
  0
SEQEND
  5
7FB
  8
0
  6
CONTINUOUS
 62
     7
  0
LINE
  5
20E
  8
0
  6
CONTINUOUS
 62
     7
 10
90.8192894474
 20
130.7923781479
 30
0.0
 11
90.7606119343
 21
130.8452116119
 31
0.0
  0
LINE
  5
20F
  8
0
  6
CONTINUOUS
 62
     7
 10
87.3895912935
 20
132.9952703583
 30
0.0
 11
87.3900485074
 21
133.0265625639
 31
0.0
  0
POLYLINE
  5
210
  8
0
  6
CONTINUOUS
 62
     7
 66
     1
 10
0.0
 20
0.0
 30
0.0
 70
   128
  0
VERTEX
  5
65E
  8
0
  6
CONTINUOUS
 62
     7
 10
87.3900485074
 20
133.0265625639
 30
0.0
  0
VERTEX
  5
65F
  8
0
  6
CONTINUOUS
 62
     7
 10
87.4019005767
 20
133.0688222571
 30
0.0
  0
VERTEX
  5
660
  8
0
  6
CONTINUOUS
 62
     7
 10
87.4258162274
 20
133.1053692175
 30
0.0
  0
SEQEND
  5
7FC
  8
0
  6
CONTINUOUS
 62
     7
  0
ARC
  5
211
  8
0
  6
CONTINUOUS
 62
     7
 10
87.5329354595
 20
133.0084618514
 30
0.0
 40
0.1444491866171246
 50
90.5593496588
 51
137.8653566274
  0
LINE
  5
212
  8
0
  6
CONTINUOUS
 62
     7
 10
87.5315252977
 20
133.1529041546
 30
0.0
 11
87.5985188812
 21
133.0348438843
 31
0.0
  0
LINE
  5
213
  8
0
  6
CONTINUOUS
 62
     7
 10
87.513971628
 20
132.9410203526
 30
0.0
 11
87.3895912935
 21
132.9952703583
 31
0.0
  0
LINE
  5
214
  8
0
  6
CONTINUOUS
 62
     7
 10
91.1610222009
 20
129.8848904463
 30
0.0
 11
91.1605649215
 21
129.8535984734
 31
0.0
  0
POLYLINE
  5
215
  8
0
  6
CONTINUOUS
 62
     7
 66
     1
 10
0.0
 20
0.0
 30
0.0
 70
   128
  0
VERTEX
  5
661
  8
0
  6
CONTINUOUS
 62
     7
 10
91.1605649215
 20
129.8535984734
 30
0.0
  0
VERTEX
  5
662
  8
0
  6
CONTINUOUS
 62
     7
 10
91.1487129104
 20
129.8113387803
 30
0.0
  0
VERTEX
  5
663
  8
0
  6
CONTINUOUS
 62
     7
 10
91.1247972452
 20
129.7747918198
 30
0.0
  0
SEQEND
  5
7FD
  8
0
  6
CONTINUOUS
 62
     7
  0
ARC
  5
216
  8
0
  6
CONTINUOUS
 62
     7
 10
91.0176781404
 20
129.8716981954
 30
0.0
 40
0.1444484275982828
 50
270.5593020906
 51
317.8656141379
  0
LINE
  5
217
  8
0
  6
CONTINUOUS
 62
     7
 10
91.0190881748
 20
129.72725665
 30
0.0
 11
90.9520946496
 21
129.8453171531
 31
0.0
  0
LINE
  5
218
  8
0
  6
CONTINUOUS
 62
     7
 10
91.0366419756
 20
129.9391404519
 30
0.0
 11
91.1610222009
 21
129.8848904463
 31
0.0
  0
LINE
  5
219
  8
0
  6
CONTINUOUS
 62
     7
 10
87.5624830713
 20
129.6962990219
 30
0.0
 11
87.6805113565
 21
129.7632531988
 31
0.0
  0
LINE
  5
21A
  8
0
  6
CONTINUOUS
 62
     7
 10
87.7201167512
 20
129.5543649959
 30
0.0
 11
87.7744026419
 21
129.67878131
 31
0.0
  0
LINE
  5
21B
  8
0
  6
CONTINUOUS
 62
     7
 10
87.6888246037
 20
129.5548222753
 30
0.0
 11
87.7201167512
 21
129.5543649959
 31
0.0
  0
POLYLINE
  5
21C
  8
0
  6
CONTINUOUS
 62
     7
 66
     1
 10
0.0
 20
0.0
 30
0.0
 70
   128
  0
VERTEX
  5
664
  8
0
  6
CONTINUOUS
 62
     7
 10
87.6100180083
 20
129.5905897187
 30
0.0
  0
VERTEX
  5
665
  8
0
  6
CONTINUOUS
 62
     7
 10
87.646565027
 20
129.5666742864
 30
0.0
  0
VERTEX
  5
666
  8
0
  6
CONTINUOUS
 62
     7
 10
87.6888246037
 20
129.5548222753
 30
0.0
  0
SEQEND
  5
7FE
  8
0
  6
CONTINUOUS
 62
     7
  0
ARC
  5
21D
  8
0
  6
CONTINUOUS
 62
     7
 10
87.7069245424
 20
129.6977085736
 30
0.0
 40
0.1444483486405352
 50
180.5591108968
 51
227.8655009832
  0
LINE
  5
21E
  8
0
  6
CONTINUOUS
 62
     7
 10
90.8701021743
 20
133.1169076058
 30
0.0
 11
90.9881305468
 21
133.1838617826
 31
0.0
  0
LINE
  5
21F
  8
0
  6
CONTINUOUS
 62
     7
 10
90.8304967505
 20
133.3257958087
 30
0.0
 11
90.7762108889
 21
133.2013797274
 31
0.0
  0
LINE
  5
220
  8
0
  6
CONTINUOUS
 62
     7
 10
90.8617889561
 20
133.3253387621
 30
0.0
 11
90.8304967505
 21
133.3257958087
 31
0.0
  0
POLYLINE
  5
221
  8
0
  6
CONTINUOUS
 62
     7
 66
     1
 10
0.0
 20
0.0
 30
0.0
 70
   128
  0
VERTEX
  5
667
  8
0
  6
CONTINUOUS
 62
     7
 10
90.9405956098
 20
133.289570853
 30
0.0
  0
VERTEX
  5
668
  8
0
  6
CONTINUOUS
 62
     7
 10
90.9040484165
 20
133.3134865182
 30
0.0
  0
VERTEX
  5
669
  8
0
  6
CONTINUOUS
 62
     7
 10
90.8617889561
 20
133.3253387621
 30
0.0
  0
SEQEND
  5
7FF
  8
0
  6
CONTINUOUS
 62
     7
  0
ARC
  5
222
  8
0
  6
CONTINUOUS
 62
     7
 10
90.8436905663
 20
133.1824526653
 30
0.0
 40
0.1444468538579832
 50
0.558944383
 51
47.8657619032
  0
LINE
  5
223
  8
0
  6
CONTINUOUS
 62
     7
 10
90.8304967505
 20
133.3257958087
 30
0.0
 11
90.7699144498
 21
133.32262093
 31
0.0
  0
LINE
  5
224
  8
0
  6
CONTINUOUS
 62
     7
 10
90.7699144498
 20
133.32262093
 30
0.0
 11
87.5315252977
 21
133.1529041546
 31
0.0
  0
LINE
  5
225
  8
0
  6
CONTINUOUS
 62
     7
 10
87.7806991974
 20
129.5575398745
 30
0.0
 11
91.0190881748
 21
129.72725665
 31
0.0
  0
LINE
  5
226
  8
0
  6
CONTINUOUS
 62
     7
 10
87.7201167512
 20
129.5543649959
 30
0.0
 11
87.7806991974
 21
129.5575398745
 31
0.0
  0
LINE
  5
227
  8
0
  6
CONTINUOUS
 62
     7
 10
87.3927662886
 20
132.9346878248
 30
0.0
 11
87.5624830713
 21
129.6962990219
 31
0.0
  0
LINE
  5
228
  8
0
  6
CONTINUOUS
 62
     7
 10
87.3895912935
 20
132.9952703583
 30
0.0
 11
87.3927662886
 21
132.9346878248
 31
0.0
  0
LINE
  5
229
  8
0
  6
CONTINUOUS
 62
     7
 10
90.9881305468
 20
133.1838617826
 30
0.0
 11
91.1578473222
 21
129.9454729798
 31
0.0
  0
LINE
  5
22A
  8
0
  6
CONTINUOUS
 62
     7
 10
91.1578473222
 20
129.9454729798
 30
0.0
 11
91.1610222009
 21
129.8848904463
 31
0.0
  0
POLYLINE
  5
22B
  8
0
  6
CONTINUOUS
 62
     7
 66
     1
 10
0.0
 20
0.0
 30
0.0
 70
   128
  0
VERTEX
  5
66A
  8
0
  6
CONTINUOUS
 62
     7
 10
88.5415158753
 20
129.8277901279
 30
0.0
  0
VERTEX
  5
66B
  8
0
  6
CONTINUOUS
 62
     7
 10
88.5474197619
 20
129.8343466388
 30
0.0
  0
VERTEX
  5
66C
  8
0
  6
CONTINUOUS
 62
     7
 10
88.553956133
 20
129.8416062983
 30
0.0
  0
VERTEX
  5
66D
  8
0
  6
CONTINUOUS
 62
     7
 10
88.5610490857
 20
129.8494838903
 30
0.0
  0
VERTEX
  5
66E
  8
0
  6
CONTINUOUS
 62
     7
 10
88.5686160817
 20
129.8578876796
 30
0.0
  0
VERTEX
  5
66F
  8
0
  6
CONTINUOUS
 62
     7
 10
88.5765689944
 20
129.8667203429
 30
0.0
  0
VERTEX
  5
670
  8
0
  6
CONTINUOUS
 62
     7
 10
88.5848155065
 20
129.8758789691
 30
0.0
  0
VERTEX
  5
671
  8
0
  6
CONTINUOUS
 62
     7
 10
88.5932595755
 20
129.8852573874
 30
0.0
  0
VERTEX
  5
672
  8
0
  6
CONTINUOUS
 62
     7
 10
88.6018030631
 20
129.8947457018
 30
0.0
  0
SEQEND
  5
800
  8
0
  6
CONTINUOUS
 62
     7
  0
ARC
  5
22C
  8
0
  6
CONTINUOUS
 62
     7
 10
88.6140277334
 20
129.9083225239
 30
0.0
 40
0.0182694831207863
 50
227.9999999982
 51
317.999999999
  0
POLYLINE
  5
22D
  8
0
  6
CONTINUOUS
 62
     7
 66
     1
 10
0.0
 20
0.0
 30
0.0
 70
   128
  0
VERTEX
  5
673
  8
0
  6
CONTINUOUS
 62
     7
 10
90.1736081631
 20
129.9133241902
 30
0.0
  0
VERTEX
  5
674
  8
0
  6
CONTINUOUS
 62
     7
 10
90.1670511865
 20
129.9192283096
 30
0.0
  0
VERTEX
  5
675
  8
0
  6
CONTINUOUS
 62
     7
 10
90.1597917598
 20
129.9257643314
 30
0.0
  0
VERTEX
  5
676
  8
0
  6
CONTINUOUS
 62
     7
 10
90.1519144007
 20
129.9328572842
 30
0.0
  0
VERTEX
  5
677
  8
0
  6
CONTINUOUS
 62
     7
 10
90.1435103786
 20
129.9404242801
 30
0.0
  0
VERTEX
  5
678
  8
0
  6
CONTINUOUS
 62
     7
 10
90.1346777153
 20
129.9483773092
 30
0.0
  0
VERTEX
  5
679
  8
0
  6
CONTINUOUS
 62
     7
 10
90.1255190891
 20
129.956623705
 30
0.0
  0
VERTEX
  5
67A
  8
0
  6
CONTINUOUS
 62
     7
 10
90.1161409036
 20
129.9650680067
 30
0.0
  0
VERTEX
  5
67B
  8
0
  6
CONTINUOUS
 62
     7
 10
90.1066523564
 20
129.9736114944
 30
0.0
  0
SEQEND
  5
801
  8
0
  6
CONTINUOUS
 62
     7
  0
LINE
  5
22E
  8
0
  6
CONTINUOUS
 62
     7
 10
88.2458663598
 20
130.2152324262
 30
0.0
 11
88.6018030631
 21
129.8947457018
 31
0.0
  0
POLYLINE
  5
22F
  8
0
  6
CONTINUOUS
 62
     7
 66
     1
 10
0.0
 20
0.0
 30
0.0
 70
   128
  0
VERTEX
  5
67C
  8
0
  6
CONTINUOUS
 62
     7
 10
87.7485506115
 20
130.5417792665
 30
0.0
  0
VERTEX
  5
67D
  8
0
  6
CONTINUOUS
 62
     7
 10
87.754454469
 20
130.5483357775
 30
0.0
  0
VERTEX
  5
67E
  8
0
  6
CONTINUOUS
 62
     7
 10
87.7609908983
 20
130.5555954369
 30
0.0
  0
VERTEX
  5
67F
  8
0
  6
CONTINUOUS
 62
     7
 10
87.768083851
 20
130.5634730289
 30
0.0
  0
VERTEX
  5
680
  8
0
  6
CONTINUOUS
 62
     7
 10
87.7756507887
 20
130.5718768182
 30
0.0
  0
VERTEX
  5
681
  8
0
  6
CONTINUOUS
 62
     7
 10
87.7836037596
 20
130.5807094815
 30
0.0
  0
VERTEX
  5
682
  8
0
  6
CONTINUOUS
 62
     7
 10
87.7918502718
 20
130.5898681077
 30
0.0
  0
VERTEX
  5
683
  8
0
  6
CONTINUOUS
 62
     7
 10
87.8002943408
 20
130.599246526
 30
0.0
  0
VERTEX
  5
684
  8
0
  6
CONTINUOUS
 62
     7
 10
87.8088378284
 20
130.6087348404
 30
0.0
  0
SEQEND
  5
802
  8
0
  6
CONTINUOUS
 62
     7
  0
LINE
  5
230
  8
0
  6
CONTINUOUS
 62
     7
 10
87.8088378284
 20
130.6087348404
 30
0.0
 11
88.1647744735
 21
130.288248116
 31
0.0
  0
LINE
  5
231
  8
0
  6
CONTINUOUS
 62
     7
 10
88.1652178994
 20
130.2887077237
 30
0.0
 11
88.2462774223
 21
130.2157213705
 31
0.0
  0
LINE
  5
232
  8
0
  6
CONTINUOUS
 62
     7
 10
90.5001547706
 20
130.4106402005
 30
0.0
 11
90.820641495
 21
130.7665767873
 31
0.0
  0
POLYLINE
  5
233
  8
0
  6
CONTINUOUS
 62
     7
 66
     1
 10
0.0
 20
0.0
 30
0.0
 70
   128
  0
VERTEX
  5
685
  8
0
  6
CONTINUOUS
 62
     7
 10
90.8875973017
 20
130.7062894831
 30
0.0
  0
VERTEX
  5
686
  8
0
  6
CONTINUOUS
 62
     7
 10
90.8810403251
 20
130.7121936026
 30
0.0
  0
VERTEX
  5
687
  8
0
  6
CONTINUOUS
 62
     7
 10
90.8737808984
 20
130.7187296244
 30
0.0
  0
VERTEX
  5
688
  8
0
  6
CONTINUOUS
 62
     7
 10
90.8659033065
 20
130.7258225771
 30
0.0
  0
VERTEX
  5
689
  8
0
  6
CONTINUOUS
 62
     7
 10
90.8574995172
 20
130.733389573
 30
0.0
  0
VERTEX
  5
68A
  8
0
  6
CONTINUOUS
 62
     7
 10
90.8486668539
 20
130.7413426022
 30
0.0
  0
VERTEX
  5
68B
  8
0
  6
CONTINUOUS
 62
     7
 10
90.8395079949
 20
130.7495889979
 30
0.0
  0
VERTEX
  5
68C
  8
0
  6
CONTINUOUS
 62
     7
 10
90.8301300422
 20
130.7580332997
 30
0.0
  0
VERTEX
  5
68D
  8
0
  6
CONTINUOUS
 62
     7
 10
90.820641495
 20
130.7665767873
 30
0.0
  0
SEQEND
  5
803
  8
0
  6
CONTINUOUS
 62
     7
  0
LINE
  5
234
  8
0
  6
CONTINUOUS
 62
     7
 10
90.1066523564
 20
129.9736114944
 30
0.0
 11
90.4271393136
 21
130.3295480812
 31
0.0
  0
LINE
  5
235
  8
0
  6
CONTINUOUS
 62
     7
 10
90.4266794731
 20
130.3299913908
 30
0.0
 11
90.4996655934
 21
130.4110509137
 31
0.0
  0
ARC
  5
236
  8
0
  6
CONTINUOUS
 62
     7
 10
87.8210624788
 20
130.6223116461
 30
0.0
 40
0.0182694831207639
 50
138.0000000003
 51
228.0000000011
  0
ARC
  5
237
  8
0
  6
CONTINUOUS
 62
     7
 10
90.8070646699
 20
130.7788013899
 30
0.0
 40
0.0182694831207662
 50
317.9999999982
 51
47.999999999
  0
POLYLINE
  5
238
  8
0
  6
CONTINUOUS
 62
     7
 66
     1
 10
0.0
 20
0.0
 30
0.0
 70
   128
  0
VERTEX
  5
68E
  8
0
  6
CONTINUOUS
 62
     7
 10
87.6630162873
 20
132.1738713215
 30
0.0
  0
VERTEX
  5
68F
  8
0
  6
CONTINUOUS
 62
     7
 10
87.6695731766
 20
132.1679676677
 30
0.0
  0
VERTEX
  5
690
  8
0
  6
CONTINUOUS
 62
     7
 10
87.6768326032
 20
132.1614311802
 30
0.0
  0
VERTEX
  5
691
  8
0
  6
CONTINUOUS
 62
     7
 10
87.6847101079
 20
132.1543382274
 30
0.0
  0
VERTEX
  5
692
  8
0
  6
CONTINUOUS
 62
     7
 10
87.6931141009
 20
132.1467712315
 30
0.0
  0
VERTEX
  5
693
  8
0
  6
CONTINUOUS
 62
     7
 10
87.7019467642
 20
132.1388182024
 30
0.0
  0
VERTEX
  5
694
  8
0
  6
CONTINUOUS
 62
     7
 10
87.7111054195
 20
132.1305718067
 30
0.0
  0
VERTEX
  5
695
  8
0
  6
CONTINUOUS
 62
     7
 10
87.7204835177
 20
132.1221275049
 30
0.0
  0
VERTEX
  5
696
  8
0
  6
CONTINUOUS
 62
     7
 10
87.7299720067
 20
132.1135840172
 30
0.0
  0
SEQEND
  5
804
  8
0
  6
CONTINUOUS
 62
     7
  0
ARC
  5
239
  8
0
  6
CONTINUOUS
 62
     7
 10
87.7435488674
 20
132.1013594604
 30
0.0
 40
0.0182694831207852
 50
137.9999999981
 51
227.9999999989
  0
LINE
  5
23A
  8
0
  6
CONTINUOUS
 62
     7
 10
88.0504588184
 20
132.4695206041
 30
0.0
 11
87.7299720067
 21
132.1135840172
 31
0.0
  0
POLYLINE
  5
23B
  8
0
  6
CONTINUOUS
 62
     7
 66
     1
 10
0.0
 20
0.0
 30
0.0
 70
   128
  0
VERTEX
  5
697
  8
0
  6
CONTINUOUS
 62
     7
 10
88.3770054259
 20
132.9668366144
 30
0.0
  0
VERTEX
  5
698
  8
0
  6
CONTINUOUS
 62
     7
 10
88.3835622861
 20
132.9609324949
 30
0.0
  0
VERTEX
  5
699
  8
0
  6
CONTINUOUS
 62
     7
 10
88.3908217127
 20
132.9543964731
 30
0.0
  0
VERTEX
  5
69A
  8
0
  6
CONTINUOUS
 62
     7
 10
88.3986991883
 20
132.9473035204
 30
0.0
  0
VERTEX
  5
69B
  8
0
  6
CONTINUOUS
 62
     7
 10
88.4071032104
 20
132.9397365245
 30
0.0
  0
VERTEX
  5
69C
  8
0
  6
CONTINUOUS
 62
     7
 10
88.4159358737
 20
132.9317834953
 30
0.0
  0
VERTEX
  5
69D
  8
0
  6
CONTINUOUS
 62
     7
 10
88.4250944999
 20
132.9235370996
 30
0.0
  0
VERTEX
  5
69E
  8
0
  6
CONTINUOUS
 62
     7
 10
88.4344726854
 20
132.9150927978
 30
0.0
  0
VERTEX
  5
69F
  8
0
  6
CONTINUOUS
 62
     7
 10
88.4439611162
 20
132.9065493102
 30
0.0
  0
SEQEND
  5
805
  8
0
  6
CONTINUOUS
 62
     7
  0
LINE
  5
23C
  8
0
  6
CONTINUOUS
 62
     7
 10
88.4439611162
 20
132.9065493102
 30
0.0
 11
88.1234742754
 21
132.5506127233
 31
0.0
  0
LINE
  5
23D
  8
0
  6
CONTINUOUS
 62
     7
 10
88.1239341741
 20
132.5501694138
 30
0.0
 11
88.0509478791
 21
132.4691098908
 31
0.0
  0
LINE
  5
23E
  8
0
  6
CONTINUOUS
 62
     7
 10
90.3047472291
 20
132.6649283784
 30
0.0
 11
89.9488104095
 21
132.9854151028
 31
0.0
  0
POLYLINE
  5
23F
  8
0
  6
CONTINUOUS
 62
     7
 66
     1
 10
0.0
 20
0.0
 30
0.0
 70
   128
  0
VERTEX
  5
6A0
  8
0
  6
CONTINUOUS
 62
     7
 10
90.0090977137
 20
133.0523709095
 30
0.0
  0
VERTEX
  5
6A1
  8
0
  6
CONTINUOUS
 62
     7
 10
90.003193827
 20
133.0458139329
 30
0.0
  0
VERTEX
  5
6A2
  8
0
  6
CONTINUOUS
 62
     7
 10
89.9966573396
 20
133.0385545062
 30
0.0
  0
VERTEX
  5
6A3
  8
0
  6
CONTINUOUS
 62
     7
 10
89.9895643868
 20
133.0306771471
 30
0.0
  0
VERTEX
  5
6A4
  8
0
  6
CONTINUOUS
 62
     7
 10
89.9819973909
 20
133.022273125
 30
0.0
  0
VERTEX
  5
6A5
  8
0
  6
CONTINUOUS
 62
     7
 10
89.9740445946
 20
133.0134404617
 30
0.0
  0
VERTEX
  5
6A6
  8
0
  6
CONTINUOUS
 62
     7
 10
89.965797966
 20
133.0042818355
 30
0.0
  0
VERTEX
  5
6A7
  8
0
  6
CONTINUOUS
 62
     7
 10
89.9573538971
 20
132.99490365
 30
0.0
  0
VERTEX
  5
6A8
  8
0
  6
CONTINUOUS
 62
     7
 10
89.9488104095
 20
132.9854151028
 30
0.0
  0
SEQEND
  5
806
  8
0
  6
CONTINUOUS
 62
     7
  0
POLYLINE
  5
240
  8
0
  6
CONTINUOUS
 62
     7
 66
     1
 10
0.0
 20
0.0
 30
0.0
 70
   128
  0
VERTEX
  5
6A9
  8
0
  6
CONTINUOUS
 62
     7
 10
90.8020630066
 20
132.3383820037
 30
0.0
  0
VERTEX
  5
6AA
  8
0
  6
CONTINUOUS
 62
     7
 10
90.79615912
 20
132.3318250271
 30
0.0
  0
VERTEX
  5
6AB
  8
0
  6
CONTINUOUS
 62
     7
 10
90.7896226325
 20
132.3245653676
 30
0.0
  0
VERTEX
  5
6AC
  8
0
  6
CONTINUOUS
 62
     7
 10
90.7825296798
 20
132.3166877756
 30
0.0
  0
VERTEX
  5
6AD
  8
0
  6
CONTINUOUS
 62
     7
 10
90.7749626838
 20
132.3082839864
 30
0.0
  0
VERTEX
  5
6AE
  8
0
  6
CONTINUOUS
 62
     7
 10
90.7670096547
 20
132.2994513231
 30
0.0
  0
VERTEX
  5
6AF
  8
0
  6
CONTINUOUS
 62
     7
 10
90.758763259
 20
132.2902926969
 30
0.0
  0
VERTEX
  5
6B0
  8
0
  6
CONTINUOUS
 62
     7
 10
90.75031919
 20
132.2809147442
 30
0.0
  0
VERTEX
  5
6B1
  8
0
  6
CONTINUOUS
 62
     7
 10
90.7417757024
 20
132.2714259642
 30
0.0
  0
SEQEND
  5
807
  8
0
  6
CONTINUOUS
 62
     7
  0
LINE
  5
241
  8
0
  6
CONTINUOUS
 62
     7
 10
90.7417757024
 20
132.2714259642
 30
0.0
 11
90.3858391155
 21
132.5919126885
 31
0.0
  0
LINE
  5
242
  8
0
  6
CONTINUOUS
 62
     7
 10
90.3853955732
 20
132.5914530809
 30
0.0
 11
90.3043360502
 21
132.664439434
 31
0.0
  0
ARC
  5
243
  8
0
  6
CONTINUOUS
 62
     7
 10
90.7295510585
 20
132.2578492041
 30
0.0
 40
0.0182694831207523
 50
318.0000000004
 51
48.000000001
  0
ARC
  5
244
  8
0
  6
CONTINUOUS
 62
     7
 10
89.9365858039
 20
132.9718383263
 30
0.0
 40
0.0182694831207863
 50
47.9999999982
 51
137.9999999989
  0
CIRCLE
  5
245
  8
0
  6
CONTINUOUS
 62
     7
 10
89.2753067686
 20
131.4400804251
 30
0.0
 40
1.477314948768384
  0
ARC
  5
246
  8
0
  6
CONTINUOUS
 62
     7
 10
89.2753067686
 20
131.4400804251
 30
0.0
 40
1.598722349105488
 50
229.9541631385
 51
316.0458368616
  0
ARC
  5
247
  8
0
  6
CONTINUOUS
 62
     7
 10
89.2753067686
 20
131.4400804251
 30
0.0
 40
1.598722349105466
 50
139.9541631385
 51
226.0458368615
  0
ARC
  5
248
  8
0
  6
CONTINUOUS
 62
     7
 10
89.2753067686
 20
131.4400804251
 30
0.0
 40
1.598722349105497
 50
49.9541631385
 51
136.0458368615
  0
ARC
  5
249
  8
0
  6
CONTINUOUS
 62
     7
 10
89.2753067686
 20
131.4400804251
 30
0.0
 40
1.598722349105498
 50
319.9541631385
 51
46.0458368615
  0
ARC
  5
24A
  8
0
  6
CONTINUOUS
 62
     7
 10
91.3520179783
 20
129.570198587
 30
0.0
 40
0.4742342631069015
 50
272.999195108
 51
318.0002377506
  0
LINE
  5
24B
  8
0
  6
CONTINUOUS
 62
     7
 10
91.376828035
 20
129.0966138969
 30
0.0
 11
91.2024816551
 21
129.4795364866
 31
0.0
  0
LINE
  5
24C
  8
0
  6
CONTINUOUS
 62
     7
 10
91.2024816551
 20
129.4795364866
 30
0.0
 11
91.3041061775
 21
129.503339229
 31
0.0
  0
LINE
  5
24D
  8
0
  6
CONTINUOUS
 62
     7
 10
91.3041066431
 20
129.5033396947
 30
0.0
 11
91.349965898
 21
129.5275885405
 31
0.0
  0
LINE
  5
24E
  8
0
  6
CONTINUOUS
 62
     7
 10
91.349965898
 20
129.5275890062
 30
0.0
 11
91.7044440337
 21
129.2528753894
 31
0.0
  0
ARC
  5
24F
  8
0
  6
CONTINUOUS
 62
     7
 10
87.198596282
 20
133.3099607585
 30
0.0
 40
0.4742357815396037
 50
92.9993274533
 51
138.000165728
  0
LINE
  5
250
  8
0
  6
CONTINUOUS
 62
     7
 10
87.1737854084
 20
133.7835471405
 30
0.0
 11
87.3481318975
 21
133.4006245507
 31
0.0
  0
LINE
  5
251
  8
0
  6
CONTINUOUS
 62
     7
 10
87.3481319557
 20
133.4006245507
 30
0.0
 11
87.2465072551
 21
133.3768215755
 31
0.0
  0
LINE
  5
252
  8
0
  6
CONTINUOUS
 62
     7
 10
87.2465068585
 20
133.3768213427
 30
0.0
 11
87.2006477128
 21
133.352572264
 31
0.0
  0
LINE
  5
253
  8
0
  6
CONTINUOUS
 62
     7
 10
87.2006475673
 20
133.3525720312
 30
0.0
 11
86.8461695262
 21
133.6272854152
 31
0.0
  0
ARC
  5
254
  8
0
  6
CONTINUOUS
 62
     7
 10
91.1451861963
 20
133.5167898552
 30
0.0
 40
0.4742370085537395
 50
2.9994153049
 51
48.0001818889
  0
LINE
  5
255
  8
0
  6
CONTINUOUS
 62
     7
 10
91.6187735327
 20
133.5416018757
 30
0.0
 11
91.235850943
 21
133.3672552629
 31
0.0
  0
LINE
  5
256
  8
0
  6
CONTINUOUS
 62
     7
 10
91.235850943
 20
133.3672552629
 30
0.0
 11
91.2120477349
 21
133.4688800181
 31
0.0
  0
LINE
  5
257
  8
0
  6
CONTINUOUS
 62
     7
 10
91.2120477349
 20
133.4688802509
 30
0.0
 11
91.1877984234
 21
133.5147395058
 31
0.0
  0
LINE
  5
258
  8
0
  6
CONTINUOUS
 62
     7
 10
91.1877984234
 20
133.5147397386
 30
0.0
 11
91.4625115745
 21
133.8692176415
 31
0.0
  0
ARC
  5
259
  8
0
  6
CONTINUOUS
 62
     7
 10
87.4054248548
 20
129.3633694819
 30
0.0
 40
0.4742342221027018
 50
182.9989173881
 51
228.0002487844
  0
LINE
  5
25A
  8
0
  6
CONTINUOUS
 62
     7
 10
86.9318400854
 20
129.3385589289
 30
0.0
 11
87.3147626715
 21
129.5129057745
 31
0.0
  0
LINE
  5
25B
  8
0
  6
CONTINUOUS
 62
     7
 10
87.3147626606
 20
129.5129057745
 30
0.0
 11
87.3385657304
 21
129.4112807865
 31
0.0
  0
LINE
  5
25C
  8
0
  6
CONTINUOUS
 62
     7
 10
87.3385659632
 20
129.4112803208
 30
0.0
 11
87.3628150055
 21
129.3654215316
 31
0.0
  0
LINE
  5
25D
  8
0
  6
CONTINUOUS
 62
     7
 10
87.3628151292
 20
129.3654210659
 30
0.0
 11
87.0881017671
 21
129.0109433959
 31
0.0
  0
LINE
  5
25E
  8
0
  6
CONTINUOUS
 62
     7
 10
91.376828035
 20
129.0966138969
 30
0.0
 11
91.1464619037
 21
129.436136389
 31
0.0
  0
LINE
  5
25F
  8
0
  6
CONTINUOUS
 62
     7
 10
91.1464598083
 20
129.436139183
 30
0.0
 11
91.2024811894
 21
129.479536021
 31
0.0
  0
LINE
  5
260
  8
0
  6
CONTINUOUS
 62
     7
 10
87.1737854084
 20
133.7835471405
 30
0.0
 11
87.404151627
 21
133.4440246484
 31
0.0
  0
LINE
  5
261
  8
0
  6
CONTINUOUS
 62
     7
 10
87.4041538389
 20
133.4440216216
 30
0.0
 11
87.3481325305
 21
133.4006250164
 31
0.0
  0
LINE
  5
262
  8
0
  6
CONTINUOUS
 62
     7
 10
91.2792510406
 20
133.3112355115
 30
0.0
 11
91.6187735327
 21
133.5416018757
 31
0.0
  0
LINE
  5
263
  8
0
  6
CONTINUOUS
 62
     7
 10
91.2792482466
 20
133.3112334161
 30
0.0
 11
91.2358514086
 21
133.3672545644
 31
0.0
  0
LINE
  5
264
  8
0
  6
CONTINUOUS
 62
     7
 10
86.9318400854
 20
129.3385589289
 30
0.0
 11
87.271362603
 21
129.568925293
 31
0.0
  0
LINE
  5
265
  8
0
  6
CONTINUOUS
 62
     7
 10
87.2713654842
 20
129.5689276213
 30
0.0
 11
87.3147622167
 21
129.5129062402
 31
0.0
  0
LINE
  5
266
  8
0
  6
CONTINUOUS
 62
     7
 10
91.8054594711
 20
129.9794127027
 30
0.0
 11
91.4140949079
 21
129.9751817042
 31
0.0
  0
LINE
  5
267
  8
0
  6
CONTINUOUS
 62
     7
 10
91.8054594711
 20
129.9794127027
 30
0.0
 11
91.4129107312
 21
129.9425178932
 31
0.0
  0
LINE
  5
268
  8
0
  6
CONTINUOUS
 62
     7
 10
91.4129107312
 20
129.9425178932
 30
0.0
 11
91.4140949079
 21
129.9751817042
 31
0.0
  0
LINE
  5
269
  8
0
  6
CONTINUOUS
 62
     7
 10
87.8104078636
 20
129.3012920561
 30
0.0
 11
87.8146390949
 21
128.9099274928
 31
0.0
  0
LINE
  5
26A
  8
0
  6
CONTINUOUS
 62
     7
 10
87.8146390949
 20
128.9099274928
 30
0.0
 11
87.7777444019
 21
129.3024766984
 31
0.0
  0
LINE
  5
26B
  8
0
  6
CONTINUOUS
 62
     7
 10
87.7777443437
 20
129.3024762327
 30
0.0
 11
87.8104078636
 21
129.3012920561
 31
0.0
  0
LINE
  5
26C
  8
0
  6
CONTINUOUS
 62
     7
 10
90.7402057254
 20
133.5788685156
 30
0.0
 11
90.7359744941
 21
133.9702333117
 31
0.0
  0
LINE
  5
26D
  8
0
  6
CONTINUOUS
 62
     7
 10
90.7359744941
 20
133.9702333117
 30
0.0
 11
90.7728690707
 21
133.5776841062
 31
0.0
  0
LINE
  5
26E
  8
0
  6
CONTINUOUS
 62
     7
 10
90.7728690707
 20
133.577684339
 30
0.0
 11
90.7402057254
 21
133.5788685156
 31
0.0
  0
LINE
  5
26F
  8
0
  6
CONTINUOUS
 62
     7
 10
87.1365186084
 20
132.904979566
 30
0.0
 11
86.7451538268
 21
132.9007481018
 31
0.0
  0
LINE
  5
270
  8
0
  6
CONTINUOUS
 62
     7
 10
86.7451538268
 20
132.9007481018
 30
0.0
 11
87.1377029742
 21
132.9376429113
 31
0.0
  0
LINE
  5
271
  8
0
  6
CONTINUOUS
 62
     7
 10
87.137702785
 20
132.9376429113
 30
0.0
 11
87.1365186375
 21
132.904979566
 31
0.0
  0
LINE
  5
272
  8
0
  6
CONTINUOUS
 62
     7
 10
91.1400229723
 20
133.5615587214
 30
0.0
 11
91.4625115745
 21
133.8692176415
 31
0.0
  0
POLYLINE
  5
273
  8
0
  6
CONTINUOUS
 62
     7
 66
     1
 10
0.0
 20
0.0
 30
0.0
 70
   128
  0
VERTEX
  5
6B2
  8
0
  6
CONTINUOUS
 62
     7
 10
90.9702777915
 20
133.6037974598
 30
0.0
  0
VERTEX
  5
6B3
  8
0
  6
CONTINUOUS
 62
     7
 10
91.076484421
 20
133.5902511402
 30
0.0
  0
VERTEX
  5
6B4
  8
0
  6
CONTINUOUS
 62
     7
 10
91.140023438
 20
133.5615580229
 30
0.0
  0
SEQEND
  5
808
  8
0
  6
CONTINUOUS
 62
     7
  0
LINE
  5
274
  8
0
  6
CONTINUOUS
 62
     7
 10
91.1203632184
 20
133.9903785175
 30
0.0
 11
90.9702777915
 21
133.6037974598
 31
0.0
  0
ARC
  5
275
  8
0
  6
CONTINUOUS
 62
     7
 10
91.1451852279
 20
133.5167939752
 30
0.0
 40
0.4742345947943685
 50
47.9997618714
 51
93.0003010601
  0
LINE
  5
276
  8
0
  6
CONTINUOUS
 62
     7
 10
91.3967848808
 20
129.5753639916
 30
0.0
 11
91.7044440337
 21
129.2528753894
 31
0.0
  0
POLYLINE
  5
277
  8
0
  6
CONTINUOUS
 62
     7
 66
     1
 10
0.0
 20
0.0
 30
0.0
 70
   128
  0
VERTEX
  5
6B5
  8
0
  6
CONTINUOUS
 62
     7
 10
91.4390236192
 20
129.7451091724
 30
0.0
  0
VERTEX
  5
6B6
  8
0
  6
CONTINUOUS
 62
     7
 10
91.4254775324
 20
129.6389030086
 30
0.0
  0
VERTEX
  5
6B7
  8
0
  6
CONTINUOUS
 62
     7
 10
91.3967844152
 20
129.575363526
 30
0.0
  0
SEQEND
  5
809
  8
0
  6
CONTINUOUS
 62
     7
  0
LINE
  5
278
  8
0
  6
CONTINUOUS
 62
     7
 10
91.8256049097
 20
129.5950242112
 30
0.0
 11
91.4390236192
 21
129.7451091724
 31
0.0
  0
ARC
  5
279
  8
0
  6
CONTINUOUS
 62
     7
 10
91.3520176633
 20
129.5702027274
 30
0.0
 40
0.4742372677046648
 50
317.9998914717
 51
3.0002205335
  0
LINE
  5
27A
  8
0
  6
CONTINUOUS
 62
     7
 10
87.1538285481
 20
133.3047965801
 30
0.0
 11
86.8461695262
 21
133.6272854152
 31
0.0
  0
POLYLINE
  5
27B
  8
0
  6
CONTINUOUS
 62
     7
 66
     1
 10
0.0
 20
0.0
 30
0.0
 70
   128
  0
VERTEX
  5
6B8
  8
0
  6
CONTINUOUS
 62
     7
 10
87.1115897806
 20
133.1350513993
 30
0.0
  0
VERTEX
  5
6B9
  8
0
  6
CONTINUOUS
 62
     7
 10
87.1251359402
 20
133.2412580287
 30
0.0
  0
VERTEX
  5
6BA
  8
0
  6
CONTINUOUS
 62
     7
 10
87.1538291011
 20
133.3047972786
 30
0.0
  0
SEQEND
  5
80A
  8
0
  6
CONTINUOUS
 62
     7
  0
LINE
  5
27C
  8
0
  6
CONTINUOUS
 62
     7
 10
86.7250087375
 20
133.2851368262
 30
0.0
 11
87.1115897806
 21
133.1350513993
 31
0.0
  0
ARC
  5
27D
  8
0
  6
CONTINUOUS
 62
     7
 10
87.198595023
 20
133.3099585542
 30
0.0
 40
0.4742363208774882
 50
137.9998660339
 51
183.0002560795
  0
LINE
  5
27E
  8
0
  6
CONTINUOUS
 62
     7
 10
87.4105905439
 20
129.3186020831
 30
0.0
 11
87.0881017671
 21
129.0109433959
 31
0.0
  0
POLYLINE
  5
27F
  8
0
  6
CONTINUOUS
 62
     7
 66
     1
 10
0.0
 20
0.0
 30
0.0
 70
   128
  0
VERTEX
  5
6BB
  8
0
  6
CONTINUOUS
 62
     7
 10
87.580335681
 20
129.2763633447
 30
0.0
  0
VERTEX
  5
6BC
  8
0
  6
CONTINUOUS
 62
     7
 10
87.4741291535
 20
129.2899094316
 30
0.0
  0
VERTEX
  5
6BD
  8
0
  6
CONTINUOUS
 62
     7
 10
87.4105900346
 20
129.3186025488
 30
0.0
  0
SEQEND
  5
80B
  8
0
  6
CONTINUOUS
 62
     7
  0
LINE
  5
280
  8
0
  6
CONTINUOUS
 62
     7
 10
87.4302504433
 20
128.8897820542
 30
0.0
 11
87.580335681
 21
129.2763633447
 31
0.0
  0
ARC
  5
281
  8
0
  6
CONTINUOUS
 62
     7
 10
87.405428845
 20
129.3633672796
 30
0.0
 40
0.4742352553961031
 50
227.9997124842
 51
273.0002471389
  0
LINE
  5
282
  8
0
  6
CONTINUOUS
 62
     7
 10
87.810404313
 20
129.3060892987
 30
0.0
 11
87.8104078636
 21
129.3012920561
 31
0.0
  0
POLYLINE
  5
283
  8
0
  6
CONTINUOUS
 62
     7
 66
     1
 10
0.0
 20
0.0
 30
0.0
 70
   128
  0
VERTEX
  5
6BE
  8
0
  6
CONTINUOUS
 62
     7
 10
87.8100380122
 20
129.3209783527
 30
0.0
  0
VERTEX
  5
6BF
  8
0
  6
CONTINUOUS
 62
     7
 10
87.8102398181
 20
129.3126406873
 30
0.0
  0
VERTEX
  5
6C0
  8
0
  6
CONTINUOUS
 62
     7
 10
87.810404313
 20
129.3060892987
 30
0.0
  0
SEQEND
  5
80C
  8
0
  6
CONTINUOUS
 62
     7
  0
LINE
  5
284
  8
0
  6
CONTINUOUS
 62
     7
 10
87.8100579774
 20
129.3225117753
 30
0.0
 11
87.8100380122
 21
129.3209783527
 31
0.0
  0
LINE
  5
285
  8
0
  6
CONTINUOUS
 62
     7
 10
91.100102063
 20
129.4949349741
 30
0.0
 11
87.8100579774
 21
129.3225117753
 31
0.0
  0
LINE
  5
286
  8
0
  6
CONTINUOUS
 62
     7
 10
91.128482023
 20
129.4634502175
 30
0.0
 11
91.100102063
 21
129.4949349741
 31
0.0
  0
LINE
  5
287
  8
0
  6
CONTINUOUS
 62
     7
 10
91.1353796308
 20
129.4523102025
 30
0.0
 11
91.128482023
 21
129.4634502175
 31
0.0
  0
LINE
  5
288
  8
0
  6
CONTINUOUS
 62
     7
 10
91.1464619037
 20
129.436136389
 30
0.0
 11
91.1353796308
 21
129.4523102025
 31
0.0
  0
LINE
  5
289
  8
0
  6
CONTINUOUS
 62
     7
 10
87.8146390949
 20
128.9099274928
 30
0.0
 11
91.376828035
 21
129.0966138969
 31
0.0
  0
LINE
  5
28A
  8
0
  6
CONTINUOUS
 62
     7
 10
87.1413157927
 20
132.9049828256
 30
0.0
 11
87.1365186084
 21
132.904979566
 31
0.0
  0
LINE
  5
28B
  8
0
  6
CONTINUOUS
 62
     7
 10
87.1562046721
 20
132.905349301
 30
0.0
 11
87.1413157927
 21
132.9049828256
 31
0.0
  0
LINE
  5
28C
  8
0
  6
CONTINUOUS
 62
     7
 10
87.1577381748
 20
132.9053292776
 30
0.0
 11
87.1562046721
 21
132.905349301
 31
0.0
  0
LINE
  5
28D
  8
0
  6
CONTINUOUS
 62
     7
 10
87.3301626178
 20
129.6152860651
 30
0.0
 11
87.1577381748
 21
132.9053292776
 31
0.0
  0
LINE
  5
28E
  8
0
  6
CONTINUOUS
 62
     7
 10
87.2986765606
 20
129.5869054066
 30
0.0
 11
87.3301626178
 21
129.6152860651
 31
0.0
  0
LINE
  5
28F
  8
0
  6
CONTINUOUS
 62
     7
 10
87.2875367675
 20
129.580007566
 30
0.0
 11
87.2986765606
 21
129.5869054066
 31
0.0
  0
LINE
  5
290
  8
0
  6
CONTINUOUS
 62
     7
 10
87.271362603
 20
129.568925293
 30
0.0
 11
87.2875367675
 21
129.580007566
 31
0.0
  0
LINE
  5
291
  8
0
  6
CONTINUOUS
 62
     7
 10
86.7451538268
 20
132.9007481018
 30
0.0
 11
86.93184026
 21
129.3385589289
 31
0.0
  0
LINE
  5
292
  8
0
  6
CONTINUOUS
 62
     7
 10
91.2630767614
 20
133.3001534714
 30
0.0
 11
91.2792510406
 21
133.3112355115
 31
0.0
  0
LINE
  5
293
  8
0
  6
CONTINUOUS
 62
     7
 10
91.4140949079
 20
129.9751817042
 30
0.0
 11
91.4092976653
 21
129.975177979
 31
0.0
  0
POLYLINE
  5
294
  8
0
  6
CONTINUOUS
 62
     7
 66
     1
 10
0.0
 20
0.0
 30
0.0
 70
   128
  0
VERTEX
  5
6C1
  8
0
  6
CONTINUOUS
 62
     7
 10
91.3944090769
 20
129.9748115035
 30
0.0
  0
VERTEX
  5
6C2
  8
0
  6
CONTINUOUS
 62
     7
 10
91.4027462766
 20
129.9750136005
 30
0.0
  0
VERTEX
  5
6C3
  8
0
  6
CONTINUOUS
 62
     7
 10
91.4092976653
 20
129.975177979
 30
0.0
  0
SEQEND
  5
80D
  8
0
  6
CONTINUOUS
 62
     7
  0
LINE
  5
295
  8
0
  6
CONTINUOUS
 62
     7
 10
91.3928751887
 20
129.974831527
 30
0.0
 11
91.3944090769
 21
129.9748115035
 31
0.0
  0
LINE
  5
296
  8
0
  6
CONTINUOUS
 62
     7
 10
91.2204515242
 20
133.2648754379
 30
0.0
 11
91.3928751887
 21
129.974831527
 31
0.0
  0
LINE
  5
297
  8
0
  6
CONTINUOUS
 62
     7
 10
91.2204515242
 20
133.2648754379
 30
0.0
 11
91.2519367465
 21
133.2932556307
 31
0.0
  0
LINE
  5
298
  8
0
  6
CONTINUOUS
 62
     7
 10
91.2519367465
 20
133.2932556307
 30
0.0
 11
91.2630767614
 21
133.3001534714
 31
0.0
  0
LINE
  5
299
  8
0
  6
CONTINUOUS
 62
     7
 10
91.6187730671
 20
133.5416079292
 30
0.0
 11
91.8054599368
 21
129.9794127027
 31
0.0
  0
POLYLINE
  5
29A
  8
0
  6
CONTINUOUS
 62
     7
 66
     1
 10
0.0
 20
0.0
 30
0.0
 70
   128
  0
VERTEX
  5
6C4
  8
0
  6
CONTINUOUS
 62
     7
 10
91.1400229723
 20
133.5615587214
 30
0.0
  0
VERTEX
  5
6C5
  8
0
  6
CONTINUOUS
 62
     7
 10
91.1640161701
 20
133.5379215217
 30
0.0
  0
VERTEX
  5
6C6
  8
0
  6
CONTINUOUS
 62
     7
 10
91.1877984234
 20
133.5147397386
 30
0.0
  0
SEQEND
  5
80E
  8
0
  6
CONTINUOUS
 62
     7
  0
POLYLINE
  5
29B
  8
0
  6
CONTINUOUS
 62
     7
 66
     1
 10
0.0
 20
0.0
 30
0.0
 70
   128
  0
VERTEX
  5
6C7
  8
0
  6
CONTINUOUS
 62
     7
 10
91.3967848808
 20
129.5753644573
 30
0.0
  0
VERTEX
  5
6C8
  8
0
  6
CONTINUOUS
 62
     7
 10
91.3731479139
 20
129.5513712595
 30
0.0
  0
VERTEX
  5
6C9
  8
0
  6
CONTINUOUS
 62
     7
 10
91.349965898
 20
129.5275890062
 30
0.0
  0
SEQEND
  5
80F
  8
0
  6
CONTINUOUS
 62
     7
  0
POLYLINE
  5
29C
  8
0
  6
CONTINUOUS
 62
     7
 66
     1
 10
0.0
 20
0.0
 30
0.0
 70
   128
  0
VERTEX
  5
6CA
  8
0
  6
CONTINUOUS
 62
     7
 10
87.1538285845
 20
133.3047965801
 30
0.0
  0
VERTEX
  5
6CB
  8
0
  6
CONTINUOUS
 62
     7
 10
87.1774656678
 20
133.3287897779
 30
0.0
  0
VERTEX
  5
6CC
  8
0
  6
CONTINUOUS
 62
     7
 10
87.2006475673
 20
133.3525720312
 30
0.0
  0
SEQEND
  5
810
  8
0
  6
CONTINUOUS
 62
     7
  0
POLYLINE
  5
29D
  8
0
  6
CONTINUOUS
 62
     7
 66
     1
 10
0.0
 20
0.0
 30
0.0
 70
   128
  0
VERTEX
  5
6CD
  8
0
  6
CONTINUOUS
 62
     7
 10
87.410590573
 20
129.3186020831
 30
0.0
  0
VERTEX
  5
6CE
  8
0
  6
CONTINUOUS
 62
     7
 10
87.386597448
 20
129.3422395157
 30
0.0
  0
VERTEX
  5
6CF
  8
0
  6
CONTINUOUS
 62
     7
 10
87.3628151292
 20
129.3654210659
 30
0.0
  0
SEQEND
  5
811
  8
0
  6
CONTINUOUS
 62
     7
  0
LINE
  5
29E
  8
0
  6
CONTINUOUS
 62
     7
 10
87.4221316097
 20
133.4167105871
 30
0.0
 11
87.4505113805
 21
133.3852255976
 31
0.0
  0
LINE
  5
29F
  8
0
  6
CONTINUOUS
 62
     7
 10
87.4152338127
 20
133.4278503692
 30
0.0
 11
87.4221316097
 21
133.4167105871
 31
0.0
  0
LINE
  5
2A0
  8
0
  6
CONTINUOUS
 62
     7
 10
87.404151627
 20
133.4440246484
 30
0.0
 11
87.4152338127
 21
133.4278503692
 31
0.0
  0
LINE
  5
2A1
  8
0
  6
CONTINUOUS
 62
     7
 10
90.7359744941
 20
133.9702333117
 30
0.0
 11
87.173785423
 21
133.7835469077
 31
0.0
  0
LINE
  5
2A2
  8
0
  6
CONTINUOUS
 62
     7
 10
90.7402092178
 20
133.5740715059
 30
0.0
 11
90.7402057254
 21
133.5788685156
 31
0.0
  0
POLYLINE
  5
2A3
  8
0
  6
CONTINUOUS
 62
     7
 66
     1
 10
0.0
 20
0.0
 30
0.0
 70
   128
  0
VERTEX
  5
6D0
  8
0
  6
CONTINUOUS
 62
     7
 10
90.7405754604
 20
133.5591824519
 30
0.0
  0
VERTEX
  5
6D1
  8
0
  6
CONTINUOUS
 62
     7
 10
90.7403735962
 20
133.5675198844
 30
0.0
  0
VERTEX
  5
6D2
  8
0
  6
CONTINUOUS
 62
     7
 10
90.7402092178
 20
133.5740715059
 30
0.0
  0
SEQEND
  5
812
  8
0
  6
CONTINUOUS
 62
     7
  0
LINE
  5
2A4
  8
0
  6
CONTINUOUS
 62
     7
 10
90.740555437
 20
133.5576490293
 30
0.0
 11
90.7405754604
 21
133.5591824519
 31
0.0
  0
LINE
  5
2A5
  8
0
  6
CONTINUOUS
 62
     7
 10
87.4505113805
 20
133.3852255976
 30
0.0
 11
90.740555437
 21
133.5576490293
 31
0.0
  0
LINE
  5
2A6
  8
0
  6
CONTINUOUS
 62
     7
 10
87.5615689782
 20
128.896664528
 30
0.0
 11
87.6548308641
 21
129.2844253386
 31
0.0
  0
LINE
  5
2A7
  8
0
  6
CONTINUOUS
 62
     7
 10
87.6578152582
 20
129.2848802897
 30
0.0
 11
87.6548308641
 21
129.2844253386
 31
0.0
  0
LINE
  5
2A8
  8
0
  6
CONTINUOUS
 62
     7
 10
87.7777444019
 20
129.3024766984
 30
0.0
 11
87.6578152582
 21
129.2848802897
 31
0.0
  0
LINE
  5
2A9
  8
0
  6
CONTINUOUS
 62
     7
 10
87.5615689782
 20
128.896664528
 30
0.0
 11
87.8146391531
 21
128.9099274928
 31
0.0
  0
LINE
  5
2AA
  8
0
  6
CONTINUOUS
 62
     7
 10
86.7318909202
 20
133.1538182477
 30
0.0
 11
87.1196516871
 21
133.0605563036
 31
0.0
  0
LINE
  5
2AB
  8
0
  6
CONTINUOUS
 62
     7
 10
87.1201064054
 20
133.0575718804
 30
0.0
 11
87.1196516726
 21
133.0605563036
 31
0.0
  0
LINE
  5
2AC
  8
0
  6
CONTINUOUS
 62
     7
 10
87.1377029742
 20
132.9376429113
 30
0.0
 11
87.1201064054
 21
133.0575718804
 31
0.0
  0
LINE
  5
2AD
  8
0
  6
CONTINUOUS
 62
     7
 10
86.7318909202
 20
133.1538182477
 30
0.0
 11
86.7451537686
 21
132.9007481018
 31
0.0
  0
LINE
  5
2AE
  8
0
  6
CONTINUOUS
 62
     7
 10
91.8187224359
 20
129.7263425569
 30
0.0
 11
91.4309616253
 21
129.8196047338
 31
0.0
  0
LINE
  5
2AF
  8
0
  6
CONTINUOUS
 62
     7
 10
91.4305071399
 20
129.8225886913
 30
0.0
 11
91.430962091
 21
129.8196047338
 31
0.0
  0
LINE
  5
2B0
  8
0
  6
CONTINUOUS
 62
     7
 10
91.4129107312
 20
129.9425178932
 30
0.0
 11
91.4305071399
 21
129.8225886913
 31
0.0
  0
LINE
  5
2B1
  8
0
  6
CONTINUOUS
 62
     7
 10
91.8054594711
 20
129.9794127027
 30
0.0
 11
91.8187224359
 21
129.7263425569
 31
0.0
  0
LINE
  5
2B2
  8
0
  6
CONTINUOUS
 62
     7
 10
90.9890446399
 20
133.9834962765
 30
0.0
 11
90.8957826958
 21
133.595735466
 31
0.0
  0
LINE
  5
2B3
  8
0
  6
CONTINUOUS
 62
     7
 10
90.8927982726
 20
133.5952807477
 30
0.0
 11
90.8957826958
 21
133.595735466
 31
0.0
  0
LINE
  5
2B4
  8
0
  6
CONTINUOUS
 62
     7
 10
90.7728690707
 20
133.5776841062
 30
0.0
 11
90.8927982726
 21
133.5952807477
 31
0.0
  0
LINE
  5
2B5
  8
0
  6
CONTINUOUS
 62
     7
 10
90.7359744941
 20
133.9702333117
 30
0.0
 11
90.9890446399
 21
133.9834962765
 31
0.0
  0
LINE
  5
2B6
  8
0
  6
CONTINUOUS
 62
     7
 10
87.5875614927
 20
129.2768462355
 30
0.0
 11
87.580335681
 21
129.2763633447
 31
0.0
  0
LINE
  5
2B7
  8
0
  6
CONTINUOUS
 62
     7
 10
87.6051672438
 20
129.2784001472
 30
0.0
 11
87.5875614927
 21
129.2768462355
 31
0.0
  0
LINE
  5
2B8
  8
0
  6
CONTINUOUS
 62
     7
 10
87.6548308641
 20
129.2844253386
 30
0.0
 11
87.6051672438
 21
129.2784001472
 31
0.0
  0
LINE
  5
2B9
  8
0
  6
CONTINUOUS
 62
     7
 10
87.4302504433
 20
128.8897820542
 30
0.0
 11
87.5615689782
 21
128.896664528
 31
0.0
  0
LINE
  5
2BA
  8
0
  6
CONTINUOUS
 62
     7
 10
87.1120724822
 20
133.1278257331
 30
0.0
 11
87.1115897806
 21
133.1350513993
 31
0.0
  0
LINE
  5
2BB
  8
0
  6
CONTINUOUS
 62
     7
 10
87.1136264375
 20
133.1102200112
 30
0.0
 11
87.1120724822
 21
133.1278257331
 31
0.0
  0
LINE
  5
2BC
  8
0
  6
CONTINUOUS
 62
     7
 10
87.1196516871
 20
133.0605563036
 30
0.0
 11
87.1136264375
 21
133.1102200112
 31
0.0
  0
LINE
  5
2BD
  8
0
  6
CONTINUOUS
 62
     7
 10
86.7250087375
 20
133.2851368262
 30
0.0
 11
86.7318909202
 21
133.1538182477
 31
0.0
  0
LINE
  5
2BE
  8
0
  6
CONTINUOUS
 62
     7
 10
90.9630521253
 20
133.6033148019
 30
0.0
 11
90.9702777915
 21
133.6037974598
 31
0.0
  0
LINE
  5
2BF
  8
0
  6
CONTINUOUS
 62
     7
 10
90.9454461706
 20
133.6017606574
 30
0.0
 11
90.9630521253
 21
133.6033148019
 31
0.0
  0
LINE
  5
2C0
  8
0
  6
CONTINUOUS
 62
     7
 10
90.8957826958
 20
133.595735466
 30
0.0
 11
90.9454461706
 21
133.6017606574
 31
0.0
  0
LINE
  5
2C1
  8
0
  6
CONTINUOUS
 62
     7
 10
90.9890446399
 20
133.9834962765
 30
0.0
 11
91.1203632184
 21
133.9903785175
 31
0.0
  0
LINE
  5
2C2
  8
0
  6
CONTINUOUS
 62
     7
 10
91.4385411941
 20
129.7523353042
 30
0.0
 11
91.4390236192
 21
129.7451091724
 31
0.0
  0
LINE
  5
2C3
  8
0
  6
CONTINUOUS
 62
     7
 10
91.4369872824
 20
129.7699410262
 30
0.0
 11
91.4385411941
 21
129.7523353042
 31
0.0
  0
LINE
  5
2C4
  8
0
  6
CONTINUOUS
 62
     7
 10
91.4309616253
 20
129.8196047338
 30
0.0
 11
91.4369872824
 21
129.7699410262
 31
0.0
  0
LINE
  5
2C5
  8
0
  6
CONTINUOUS
 62
     7
 10
91.8187224359
 20
129.7263425569
 30
0.0
 11
91.8256049097
 21
129.5950242112
 31
0.0
  0
LINE
  5
2C6
  8
0
  6
CONTINUOUS
 62
     7
 10
87.2006477128
 20
133.352572264
 30
0.0
 11
87.2433180719
 21
133.3158511462
 31
0.0
  0
POLYLINE
  5
2C7
  8
0
  6
CONTINUOUS
 62
     7
 66
     1
 10
0.0
 20
0.0
 30
0.0
 70
   128
  0
VERTEX
  5
6D3
  8
0
  6
CONTINUOUS
 62
     7
 10
87.1991297807
 20
133.2619180231
 30
0.0
  0
VERTEX
  5
6D4
  8
0
  6
CONTINUOUS
 62
     7
 10
87.221914562
 20
133.28861811
 30
0.0
  0
VERTEX
  5
6D5
  8
0
  6
CONTINUOUS
 62
     7
 10
87.2433177263
 20
133.3158511462
 30
0.0
  0
SEQEND
  5
813
  8
0
  6
CONTINUOUS
 62
     7
  0
LINE
  5
2C8
  8
0
  6
CONTINUOUS
 62
     7
 10
87.1991303118
 20
133.2619175574
 30
0.0
 11
87.153829072
 21
133.3047970457
 31
0.0
  0
LINE
  5
2C9
  8
0
  6
CONTINUOUS
 62
     7
 10
91.349965898
 20
129.5275885405
 30
0.0
 11
91.3072954916
 21
129.5643096583
 31
0.0
  0
POLYLINE
  5
2CA
  8
0
  6
CONTINUOUS
 62
     7
 66
     1
 10
0.0
 20
0.0
 30
0.0
 70
   128
  0
VERTEX
  5
6D6
  8
0
  6
CONTINUOUS
 62
     7
 10
91.3514839538
 20
129.6182430143
 30
0.0
  0
VERTEX
  5
6D7
  8
0
  6
CONTINUOUS
 62
     7
 10
91.328699147
 20
129.5915429274
 30
0.0
  0
VERTEX
  5
6D8
  8
0
  6
CONTINUOUS
 62
     7
 10
91.3072959573
 20
129.5643096583
 30
0.0
  0
SEQEND
  5
814
  8
0
  6
CONTINUOUS
 62
     7
  0
LINE
  5
2CB
  8
0
  6
CONTINUOUS
 62
     7
 10
91.3514830225
 20
129.61824348
 30
0.0
 11
91.3967844152
 21
129.575363526
 31
0.0
  0
LINE
  5
2CC
  8
0
  6
CONTINUOUS
 62
     7
 10
87.3628150055
 20
129.3654215316
 30
0.0
 11
87.3995360215
 21
129.408091938
 31
0.0
  0
POLYLINE
  5
2CD
  8
0
  6
CONTINUOUS
 62
     7
 66
     1
 10
0.0
 20
0.0
 30
0.0
 70
   128
  0
VERTEX
  5
6D9
  8
0
  6
CONTINUOUS
 62
     7
 10
87.45346913
 20
129.3639034758
 30
0.0
  0
VERTEX
  5
6DA
  8
0
  6
CONTINUOUS
 62
     7
 10
87.4267690868
 20
129.3866882826
 30
0.0
  0
VERTEX
  5
6DB
  8
0
  6
CONTINUOUS
 62
     7
 10
87.3995361233
 20
129.4080914723
 30
0.0
  0
SEQEND
  5
815
  8
0
  6
CONTINUOUS
 62
     7
  0
LINE
  5
2CE
  8
0
  6
CONTINUOUS
 62
     7
 10
87.453469683
 20
129.3639039414
 30
0.0
 11
87.4105900783
 21
129.3186025488
 31
0.0
  0
LINE
  5
2CF
  8
0
  6
CONTINUOUS
 62
     7
 10
91.1877984234
 20
133.5147395058
 30
0.0
 11
91.1510775384
 21
133.4720690994
 31
0.0
  0
POLYLINE
  5
2D0
  8
0
  6
CONTINUOUS
 62
     7
 66
     1
 10
0.0
 20
0.0
 30
0.0
 70
   128
  0
VERTEX
  5
6DC
  8
0
  6
CONTINUOUS
 62
     7
 10
91.0971444153
 20
133.5162573288
 30
0.0
  0
VERTEX
  5
6DD
  8
0
  6
CONTINUOUS
 62
     7
 10
91.1238445022
 20
133.493472522
 30
0.0
  0
VERTEX
  5
6DE
  8
0
  6
CONTINUOUS
 62
     7
 10
91.1510773056
 20
133.4720695651
 30
0.0
  0
SEQEND
  5
816
  8
0
  6
CONTINUOUS
 62
     7
  0
LINE
  5
2D1
  8
0
  6
CONTINUOUS
 62
     7
 10
91.0971439496
 20
133.5162568631
 30
0.0
 11
91.140023438
 21
133.5615580229
 31
0.0
  0
POLYLINE
  5
2D2
  8
0
  6
CONTINUOUS
 62
     7
 66
     1
 10
0.0
 20
0.0
 30
0.0
 70
   128
  0
VERTEX
  5
6DF
  8
0
  6
CONTINUOUS
 62
     7
 10
90.9625701659
 20
133.5677906664
 30
0.0
  0
VERTEX
  5
6E0
  8
0
  6
CONTINUOUS
 62
     7
 10
91.0349136737
 20
133.5526361855
 30
0.0
  0
VERTEX
  5
6E1
  8
0
  6
CONTINUOUS
 62
     7
 10
91.097142087
 20
133.5162545348
 30
0.0
  0
SEQEND
  5
817
  8
0
  6
CONTINUOUS
 62
     7
  0
LINE
  5
2D3
  8
0
  6
CONTINUOUS
 62
     7
 10
90.9702777915
 20
133.6037974598
 30
0.0
 11
90.9625699331
 21
133.5677908993
 31
0.0
  0
POLYLINE
  5
2D4
  8
0
  6
CONTINUOUS
 62
     7
 66
     1
 10
0.0
 20
0.0
 30
0.0
 70
   128
  0
VERTEX
  5
6E2
  8
0
  6
CONTINUOUS
 62
     7
 10
91.4030172915
 20
129.7528172637
 30
0.0
  0
VERTEX
  5
6E3
  8
0
  6
CONTINUOUS
 62
     7
 10
91.3878623449
 20
129.6804735231
 30
0.0
  0
VERTEX
  5
6E4
  8
0
  6
CONTINUOUS
 62
     7
 10
91.3514811598
 20
129.6182448769
 30
0.0
  0
SEQEND
  5
818
  8
0
  6
CONTINUOUS
 62
     7
  0
LINE
  5
2D5
  8
0
  6
CONTINUOUS
 62
     7
 10
91.4390236192
 20
129.7451091724
 30
0.0
 11
91.4030172915
 21
129.7528172637
 31
0.0
  0
POLYLINE
  5
2D6
  8
0
  6
CONTINUOUS
 62
     7
 66
     1
 10
0.0
 20
0.0
 30
0.0
 70
   128
  0
VERTEX
  5
6E5
  8
0
  6
CONTINUOUS
 62
     7
 10
87.1475964721
 20
133.1273437737
 30
0.0
  0
VERTEX
  5
6E6
  8
0
  6
CONTINUOUS
 62
     7
 10
87.162751004
 20
133.1996872815
 30
0.0
  0
VERTEX
  5
6E7
  8
0
  6
CONTINUOUS
 62
     7
 10
87.1991325747
 20
133.2619156948
 30
0.0
  0
SEQEND
  5
819
  8
0
  6
CONTINUOUS
 62
     7
  0
LINE
  5
2D7
  8
0
  6
CONTINUOUS
 62
     7
 10
87.1115897806
 20
133.1350513993
 30
0.0
 11
87.1475964139
 21
133.1273435409
 31
0.0
  0
POLYLINE
  5
2D8
  8
0
  6
CONTINUOUS
 62
     7
 66
     1
 10
0.0
 20
0.0
 30
0.0
 70
   128
  0
VERTEX
  5
6E8
  8
0
  6
CONTINUOUS
 62
     7
 10
87.5880434522
 20
129.3123701381
 30
0.0
  0
VERTEX
  5
6E9
  8
0
  6
CONTINUOUS
 62
     7
 10
87.5156998134
 20
129.327524619
 30
0.0
  0
VERTEX
  5
6EA
  8
0
  6
CONTINUOUS
 62
     7
 10
87.4534714001
 20
129.3639062697
 30
0.0
  0
SEQEND
  5
81A
  8
0
  6
CONTINUOUS
 62
     7
  0
LINE
  5
2D9
  8
0
  6
CONTINUOUS
 62
     7
 10
87.580335681
 20
129.2763633447
 30
0.0
 11
87.5880437141
 21
129.3123701381
 31
0.0
  0
LINE
  5
2DA
  8
0
  6
CONTINUOUS
 62
     7
 10
87.3522772143
 20
133.1532508394
 30
0.0
 11
87.3691325158
 21
133.1767015418
 31
0.0
  0
LINE
  5
2DB
  8
0
  6
CONTINUOUS
 62
     7
 10
87.3522767777
 20
133.1532510722
 30
0.0
 11
87.1991297807
 21
133.2619180231
 31
0.0
  0
LINE
  5
2DC
  8
0
  6
CONTINUOUS
 62
     7
 10
87.3691326831
 20
133.1767015418
 30
0.0
 11
87.2433177263
 21
133.3158511462
 31
0.0
  0
LINE
  5
2DD
  8
0
  6
CONTINUOUS
 62
     7
 10
91.1983363383
 20
129.726910198
 30
0.0
 11
91.1814807967
 21
129.7034590299
 31
0.0
  0
LINE
  5
2DE
  8
0
  6
CONTINUOUS
 62
     7
 10
91.198336804
 20
129.7269097323
 30
0.0
 11
91.3514839538
 21
129.6182430143
 31
0.0
  0
LINE
  5
2DF
  8
0
  6
CONTINUOUS
 62
     7
 10
91.1814807967
 20
129.7034594955
 30
0.0
 11
91.3072959573
 21
129.5643096583
 31
0.0
  0
LINE
  5
2E0
  8
0
  6
CONTINUOUS
 62
     7
 10
87.5621363573
 20
129.5170510913
 30
0.0
 11
87.5386855385
 21
129.5339061672
 31
0.0
  0
LINE
  5
2E1
  8
0
  6
CONTINUOUS
 62
     7
 10
87.5621360372
 20
129.5170506256
 30
0.0
 11
87.45346913
 21
129.3639034758
 31
0.0
  0
LINE
  5
2E2
  8
0
  6
CONTINUOUS
 62
     7
 10
87.5386856549
 20
129.5339061672
 30
0.0
 11
87.3995361233
 21
129.4080914723
 31
0.0
  0
LINE
  5
2E3
  8
0
  6
CONTINUOUS
 62
     7
 10
90.9884772316
 20
133.3631099461
 30
0.0
 11
91.0119279341
 21
133.3462546373
 31
0.0
  0
LINE
  5
2E4
  8
0
  6
CONTINUOUS
 62
     7
 10
90.9884774645
 20
133.3631104118
 30
0.0
 11
91.0971444153
 21
133.5162573288
 31
0.0
  0
LINE
  5
2E5
  8
0
  6
CONTINUOUS
 62
     7
 10
91.0119279341
 20
133.3462544045
 30
0.0
 11
91.1510773056
 21
133.4720695651
 31
0.0
  0
POLYLINE
  5
2E6
  8
0
  6
CONTINUOUS
 62
     7
 66
     1
 10
0.0
 20
0.0
 30
0.0
 70
   128
  0
VERTEX
  5
6EB
  8
0
  6
CONTINUOUS
 62
     7
 10
90.8908997715
 20
133.397803109
 30
0.0
  0
VERTEX
  5
6EC
  8
0
  6
CONTINUOUS
 62
     7
 10
90.9424808395
 20
133.3878426141
 30
0.0
  0
VERTEX
  5
6ED
  8
0
  6
CONTINUOUS
 62
     7
 10
90.988475369
 20
133.3631113431
 30
0.0
  0
SEQEND
  5
81B
  8
0
  6
CONTINUOUS
 62
     7
  0
LINE
  5
2E7
  8
0
  6
CONTINUOUS
 62
     7
 10
90.95644672
 20
133.5680141839
 30
0.0
 11
90.8908997715
 21
133.397803109
 31
0.0
  0
LINE
  5
2E8
  8
0
  6
CONTINUOUS
 62
     7
 10
90.9625701659
 20
133.5677906664
 30
0.0
 11
90.95644672
 21
133.5680141839
 31
0.0
  0
POLYLINE
  5
2E9
  8
0
  6
CONTINUOUS
 62
     7
 66
     1
 10
0.0
 20
0.0
 30
0.0
 70
   128
  0
VERTEX
  5
6EE
  8
0
  6
CONTINUOUS
 62
     7
 10
87.659713701
 20
129.4823579284
 30
0.0
  0
VERTEX
  5
6EF
  8
0
  6
CONTINUOUS
 62
     7
 10
87.608132604
 20
129.4923184233
 30
0.0
  0
VERTEX
  5
6F0
  8
0
  6
CONTINUOUS
 62
     7
 10
87.5621381618
 20
129.5170492286
 30
0.0
  0
SEQEND
  5
81C
  8
0
  6
CONTINUOUS
 62
     7
  0
LINE
  5
2EA
  8
0
  6
CONTINUOUS
 62
     7
 10
87.5941668399
 20
129.3121466207
 30
0.0
 11
87.659713701
 21
129.4823579284
 31
0.0
  0
LINE
  5
2EB
  8
0
  6
CONTINUOUS
 62
     7
 10
87.5880434231
 20
129.3123701381
 30
0.0
 11
87.5941668399
 21
129.3121466207
 31
0.0
  0
POLYLINE
  5
2EC
  8
0
  6
CONTINUOUS
 62
     7
 66
     1
 10
0.0
 20
0.0
 30
0.0
 70
   128
  0
VERTEX
  5
6F1
  8
0
  6
CONTINUOUS
 62
     7
 10
91.2330295012
 20
129.8244871924
 30
0.0
  0
VERTEX
  5
6F2
  8
0
  6
CONTINUOUS
 62
     7
 10
91.2230690063
 20
129.7729063573
 30
0.0
  0
VERTEX
  5
6F3
  8
0
  6
CONTINUOUS
 62
     7
 10
91.1983377353
 20
129.7269115949
 30
0.0
  0
SEQEND
  5
81D
  8
0
  6
CONTINUOUS
 62
     7
  0
LINE
  5
2ED
  8
0
  6
CONTINUOUS
 62
     7
 10
91.4032408089
 20
129.7589407096
 30
0.0
 11
91.2330295012
 21
129.8244871924
 31
0.0
  0
LINE
  5
2EE
  8
0
  6
CONTINUOUS
 62
     7
 10
91.4030172915
 20
129.7528172637
 30
0.0
 11
91.4032408089
 21
129.7589407096
 31
0.0
  0
POLYLINE
  5
2EF
  8
0
  6
CONTINUOUS
 62
     7
 66
     1
 10
0.0
 20
0.0
 30
0.0
 70
   128
  0
VERTEX
  5
6F4
  8
0
  6
CONTINUOUS
 62
     7
 10
87.3175841169
 20
133.0556736121
 30
0.0
  0
VERTEX
  5
6F5
  8
0
  6
CONTINUOUS
 62
     7
 10
87.3275446737
 20
133.1072546801
 30
0.0
  0
VERTEX
  5
6F6
  8
0
  6
CONTINUOUS
 62
     7
 10
87.3522758027
 20
133.1532489768
 30
0.0
  0
SEQEND
  5
81E
  8
0
  6
CONTINUOUS
 62
     7
  0
LINE
  5
2F0
  8
0
  6
CONTINUOUS
 62
     7
 10
87.1473729547
 20
133.1212203278
 30
0.0
 11
87.3175841169
 21
133.0556736121
 31
0.0
  0
LINE
  5
2F1
  8
0
  6
CONTINUOUS
 62
     7
 10
87.1475964576
 20
133.1273437737
 30
0.0
 11
87.1473729547
 21
133.1212203278
 31
0.0
  0
LINE
  5
2F2
  8
0
  6
CONTINUOUS
 62
     7
 10
87.2433180719
 20
133.3158511462
 30
0.0
 11
87.2759193382
 21
133.346586421
 31
0.0
  0
LINE
  5
2F3
  8
0
  6
CONTINUOUS
 62
     7
 10
87.2759193382
 20
133.346586421
 30
0.0
 11
87.2465068585
 21
133.3768213427
 31
0.0
  0
LINE
  5
2F4
  8
0
  6
CONTINUOUS
 62
     7
 10
91.3072954916
 20
129.5643096583
 30
0.0
 11
91.2746940792
 21
129.5335741507
 31
0.0
  0
LINE
  5
2F5
  8
0
  6
CONTINUOUS
 62
     7
 10
91.2746940792
 20
129.5335741507
 30
0.0
 11
91.3041066431
 21
129.5033396947
 31
0.0
  0
LINE
  5
2F6
  8
0
  6
CONTINUOUS
 62
     7
 10
87.3995360215
 20
129.408091938
 30
0.0
 11
87.368800703
 21
129.4406928847
 31
0.0
  0
LINE
  5
2F7
  8
0
  6
CONTINUOUS
 62
     7
 10
87.368800703
 20
129.4406928847
 30
0.0
 11
87.3385659632
 21
129.4112803208
 31
0.0
  0
LINE
  5
2F8
  8
0
  6
CONTINUOUS
 62
     7
 10
91.1510775384
 20
133.4720690994
 30
0.0
 11
91.1818128132
 21
133.4394679198
 31
0.0
  0
LINE
  5
2F9
  8
0
  6
CONTINUOUS
 62
     7
 10
91.1818128132
 20
133.4394679198
 30
0.0
 11
91.2120477349
 21
133.4688802509
 31
0.0
  0
LINE
  5
2FA
  8
0
  6
CONTINUOUS
 62
     7
 10
87.2759193628
 20
133.346586421
 30
0.0
 11
87.3626451119
 21
133.3785766529
 31
0.0
  0
POLYLINE
  5
2FB
  8
0
  6
CONTINUOUS
 62
     7
 66
     1
 10
0.0
 20
0.0
 30
0.0
 70
   128
  0
VERTEX
  5
6F7
  8
0
  6
CONTINUOUS
 62
     7
 10
87.3626446026
 20
133.3785766529
 30
0.0
  0
VERTEX
  5
6F8
  8
0
  6
CONTINUOUS
 62
     7
 10
87.3740428631
 20
133.3522414117
 30
0.0
  0
VERTEX
  5
6F9
  8
0
  6
CONTINUOUS
 62
     7
 10
87.3967179485
 20
133.3198539706
 30
0.0
  0
SEQEND
  5
81F
  8
0
  6
CONTINUOUS
 62
     7
  0
LINE
  5
2FC
  8
0
  6
CONTINUOUS
 62
     7
 10
87.3967179921
 20
133.3198539706
 30
0.0
 11
87.4828023423
 21
133.2197959328
 31
0.0
  0
POLYLINE
  5
2FD
  8
0
  6
CONTINUOUS
 62
     7
 66
     1
 10
0.0
 20
0.0
 30
0.0
 70
   128
  0
VERTEX
  5
6FA
  8
0
  6
CONTINUOUS
 62
     7
 10
87.4828023423
 20
133.2197959328
 30
0.0
  0
VERTEX
  5
6FB
  8
0
  6
CONTINUOUS
 62
     7
 10
87.422373026
 20
133.2061059567
 30
0.0
  0
VERTEX
  5
6FC
  8
0
  6
CONTINUOUS
 62
     7
 10
87.3707641275
 20
133.1734672914
 30
0.0
  0
SEQEND
  5
820
  8
0
  6
CONTINUOUS
 62
     7
  0
LINE
  5
2FE
  8
0
  6
CONTINUOUS
 62
     7
 10
87.370764142
 20
133.1734672914
 30
0.0
 11
87.3691327704
 21
133.1767015418
 31
0.0
  0
LINE
  5
2FF
  8
0
  6
CONTINUOUS
 62
     7
 10
87.3688006957
 20
129.4406928847
 30
0.0
 11
87.3368105075
 21
129.5274185742
 31
0.0
  0
POLYLINE
  5
300
  8
0
  6
CONTINUOUS
 62
     7
 66
     1
 10
0.0
 20
0.0
 30
0.0
 70
   128
  0
VERTEX
  5
6FD
  8
0
  6
CONTINUOUS
 62
     7
 10
87.3368105366
 20
129.5274181085
 30
0.0
  0
VERTEX
  5
6FE
  8
0
  6
CONTINUOUS
 62
     7
 10
87.3631458142
 20
129.5388165655
 30
0.0
  0
VERTEX
  5
6FF
  8
0
  6
CONTINUOUS
 62
     7
 10
87.3955333353
 20
129.5614914762
 30
0.0
  0
SEQEND
  5
821
  8
0
  6
CONTINUOUS
 62
     7
  0
LINE
  5
301
  8
0
  6
CONTINUOUS
 62
     7
 10
87.3955315599
 20
129.5614938045
 30
0.0
 11
87.4955923408
 21
129.6475759501
 31
0.0
  0
POLYLINE
  5
302
  8
0
  6
CONTINUOUS
 62
     7
 66
     1
 10
0.0
 20
0.0
 30
0.0
 70
   128
  0
VERTEX
  5
700
  8
0
  6
CONTINUOUS
 62
     7
 10
87.4955913512
 20
129.6475759501
 30
0.0
  0
VERTEX
  5
701
  8
0
  6
CONTINUOUS
 62
     7
 10
87.509281342
 20
129.5871466192
 30
0.0
  0
VERTEX
  5
702
  8
0
  6
CONTINUOUS
 62
     7
 10
87.5419200218
 20
129.5355378444
 30
0.0
  0
SEQEND
  5
822
  8
0
  6
CONTINUOUS
 62
     7
  0
LINE
  5
303
  8
0
  6
CONTINUOUS
 62
     7
 10
87.5419200218
 20
129.5355378444
 30
0.0
 11
87.5386856549
 21
129.5339066329
 31
0.0
  0
LINE
  5
304
  8
0
  6
CONTINUOUS
 62
     7
 10
91.2746940792
 20
129.5335741507
 30
0.0
 11
91.1879683898
 21
129.5015841516
 31
0.0
  0
POLYLINE
  5
305
  8
0
  6
CONTINUOUS
 62
     7
 66
     1
 10
0.0
 20
0.0
 30
0.0
 70
   128
  0
VERTEX
  5
703
  8
0
  6
CONTINUOUS
 62
     7
 10
91.1879688554
 20
129.5015841516
 30
0.0
  0
VERTEX
  5
704
  8
0
  6
CONTINUOUS
 62
     7
 10
91.1765706313
 20
129.5279196257
 30
0.0
  0
VERTEX
  5
705
  8
0
  6
CONTINUOUS
 62
     7
 10
91.1538954877
 20
129.5603068339
 30
0.0
  0
SEQEND
  5
823
  8
0
  6
CONTINUOUS
 62
     7
  0
LINE
  5
306
  8
0
  6
CONTINUOUS
 62
     7
 10
91.1538954877
 20
129.5603068339
 30
0.0
 11
91.0678112467
 21
129.6603648717
 31
0.0
  0
POLYLINE
  5
307
  8
0
  6
CONTINUOUS
 62
     7
 66
     1
 10
0.0
 20
0.0
 30
0.0
 70
   128
  0
VERTEX
  5
706
  8
0
  6
CONTINUOUS
 62
     7
 10
91.0678112467
 20
129.6603648717
 30
0.0
  0
VERTEX
  5
707
  8
0
  6
CONTINUOUS
 62
     7
 10
91.1282405776
 20
129.6740548479
 30
0.0
  0
VERTEX
  5
708
  8
0
  6
CONTINUOUS
 62
     7
 10
91.1798493524
 20
129.7066935132
 30
0.0
  0
SEQEND
  5
824
  8
0
  6
CONTINUOUS
 62
     7
  0
LINE
  5
308
  8
0
  6
CONTINUOUS
 62
     7
 10
91.1798493524
 20
129.7066935132
 30
0.0
 11
91.1814807967
 21
129.7034594955
 31
0.0
  0
LINE
  5
309
  8
0
  6
CONTINUOUS
 62
     7
 10
91.1818128132
 20
133.4394679198
 30
0.0
 11
91.2138028123
 21
133.3527419975
 31
0.0
  0
POLYLINE
  5
30A
  8
0
  6
CONTINUOUS
 62
     7
 66
     1
 10
0.0
 20
0.0
 30
0.0
 70
   128
  0
VERTEX
  5
709
  8
0
  6
CONTINUOUS
 62
     7
 10
91.2138028123
 20
133.352742696
 30
0.0
  0
VERTEX
  5
70A
  8
0
  6
CONTINUOUS
 62
     7
 10
91.1874678039
 20
133.341344239
 30
0.0
  0
VERTEX
  5
70B
  8
0
  6
CONTINUOUS
 62
     7
 10
91.15508013
 20
133.3186693283
 30
0.0
  0
SEQEND
  5
825
  8
0
  6
CONTINUOUS
 62
     7
  0
LINE
  5
30B
  8
0
  6
CONTINUOUS
 62
     7
 10
91.1550803629
 20
133.3186690955
 30
0.0
 11
91.0550220922
 21
133.2325848544
 31
0.0
  0
POLYLINE
  5
30C
  8
0
  6
CONTINUOUS
 62
     7
 66
     1
 10
0.0
 20
0.0
 30
0.0
 70
   128
  0
VERTEX
  5
70C
  8
0
  6
CONTINUOUS
 62
     7
 10
91.0550220922
 20
133.2325848544
 30
0.0
  0
VERTEX
  5
70D
  8
0
  6
CONTINUOUS
 62
     7
 10
91.041332116
 20
133.2930141854
 30
0.0
  0
VERTEX
  5
70E
  8
0
  6
CONTINUOUS
 62
     7
 10
91.0086934508
 20
133.3446229602
 30
0.0
  0
SEQEND
  5
826
  8
0
  6
CONTINUOUS
 62
     7
  0
LINE
  5
30D
  8
0
  6
CONTINUOUS
 62
     7
 10
91.0086934508
 20
133.3446229602
 30
0.0
 11
91.0119279341
 21
133.3462544045
 31
0.0
  0
POLYLINE
  5
30E
  8
0
  6
CONTINUOUS
 62
     7
 66
     1
 10
0.0
 20
0.0
 30
0.0
 70
   128
  0
VERTEX
  5
70F
  8
0
  6
CONTINUOUS
 62
     7
 10
87.3895912862
 20
132.9952703583
 30
0.0
  0
VERTEX
  5
710
  8
0
  6
CONTINUOUS
 62
     7
 10
87.3844296783
 20
132.9965523238
 30
0.0
  0
VERTEX
  5
711
  8
0
  6
CONTINUOUS
 62
     7
 10
87.3803348784
 20
132.9975660684
 30
0.0
  0
SEQEND
  5
827
  8
0
  6
CONTINUOUS
 62
     7
  0
POLYLINE
  5
30F
  8
0
  6
CONTINUOUS
 62
     7
 66
     1
 10
0.0
 20
0.0
 30
0.0
 70
   128
  0
VERTEX
  5
712
  8
0
  6
CONTINUOUS
 62
     7
 10
87.3838300229
 20
132.9342198352
 30
0.0
  0
VERTEX
  5
713
  8
0
  6
CONTINUOUS
 62
     7
 10
87.3849582475
 20
132.9342789742
 30
0.0
  0
VERTEX
  5
714
  8
0
  6
CONTINUOUS
 62
     7
 10
87.3860833215
 20
132.9343376475
 30
0.0
  0
VERTEX
  5
715
  8
0
  6
CONTINUOUS
 62
     7
 10
87.387205216
 20
132.9343967865
 30
0.0
  0
VERTEX
  5
716
  8
0
  6
CONTINUOUS
 62
     7
 10
87.388323909
 20
132.9344549941
 30
0.0
  0
VERTEX
  5
717
  8
0
  6
CONTINUOUS
 62
     7
 10
87.3894393788
 20
132.9345136675
 30
0.0
  0
VERTEX
  5
718
  8
0
  6
CONTINUOUS
 62
     7
 10
87.3905516181
 20
132.9345718751
 30
0.0
  0
VERTEX
  5
719
  8
0
  6
CONTINUOUS
 62
     7
 10
87.3916605904
 20
132.9346300828
 30
0.0
  0
VERTEX
  5
71A
  8
0
  6
CONTINUOUS
 62
     7
 10
87.3927662886
 20
132.9346878248
 30
0.0
  0
SEQEND
  5
828
  8
0
  6
CONTINUOUS
 62
     7
  0
LINE
  5
310
  8
0
  6
CONTINUOUS
 62
     7
 10
87.3803348784
 20
132.9975660684
 30
0.0
 11
87.3838300229
 21
132.9342198352
 31
0.0
  0
LINE
  5
311
  8
0
  6
CONTINUOUS
 62
     7
 10
87.5535973226
 20
129.6913145835
 30
0.0
 11
87.5228035491
 21
129.6740040908
 31
0.0
  0
POLYLINE
  5
312
  8
0
  6
CONTINUOUS
 62
     7
 66
     1
 10
0.0
 20
0.0
 30
0.0
 70
   128
  0
VERTEX
  5
71B
  8
0
  6
CONTINUOUS
 62
     7
 10
87.5228035491
 20
129.6740040908
 30
0.0
  0
VERTEX
  5
71C
  8
0
  6
CONTINUOUS
 62
     7
 10
87.4357701012
 20
129.6558549421
 30
0.0
  0
VERTEX
  5
71D
  8
0
  6
CONTINUOUS
 62
     7
 10
87.3301626178
 20
129.6152860651
 30
0.0
  0
SEQEND
  5
829
  8
0
  6
CONTINUOUS
 62
     7
  0
POLYLINE
  5
313
  8
0
  6
CONTINUOUS
 62
     7
 66
     1
 10
0.0
 20
0.0
 30
0.0
 70
   128
  0
VERTEX
  5
71E
  8
0
  6
CONTINUOUS
 62
     7
 10
87.1577381748
 20
132.9053292776
 30
0.0
  0
VERTEX
  5
71F
  8
0
  6
CONTINUOUS
 62
     7
 10
87.2593183265
 20
132.9111300202
 30
0.0
  0
VERTEX
  5
720
  8
0
  6
CONTINUOUS
 62
     7
 10
87.3331551209
 20
132.9250402542
 30
0.0
  0
SEQEND
  5
82A
  8
0
  6
CONTINUOUS
 62
     7
  0
LINE
  5
314
  8
0
  6
CONTINUOUS
 62
     7
 10
87.3331551209
 20
132.9250402542
 30
0.0
 11
87.3838300229
 21
132.9342198352
 31
0.0
  0
LINE
  5
315
  8
0
  6
CONTINUOUS
 62
     7
 10
87.5624830713
 20
129.6962990219
 30
0.0
 11
87.5535973226
 21
129.6913145835
 31
0.0
  0
POLYLINE
  5
316
  8
0
  6
CONTINUOUS
 62
     7
 66
     1
 10
0.0
 20
0.0
 30
0.0
 70
   128
  0
VERTEX
  5
721
  8
0
  6
CONTINUOUS
 62
     7
 10
91.1702786159
 20
129.8825947361
 30
0.0
  0
VERTEX
  5
722
  8
0
  6
CONTINUOUS
 62
     7
 10
91.1650729884
 20
129.8838841523
 30
0.0
  0
VERTEX
  5
723
  8
0
  6
CONTINUOUS
 62
     7
 10
91.1610222009
 20
129.8848904463
 30
0.0
  0
SEQEND
  5
82B
  8
0
  6
CONTINUOUS
 62
     7
  0
POLYLINE
  5
317
  8
0
  6
CONTINUOUS
 62
     7
 66
     1
 10
0.0
 20
0.0
 30
0.0
 70
   128
  0
VERTEX
  5
724
  8
0
  6
CONTINUOUS
 62
     7
 10
91.1667835952
 20
129.9459409694
 30
0.0
  0
VERTEX
  5
725
  8
0
  6
CONTINUOUS
 62
     7
 10
91.1656552979
 20
129.9458818304
 30
0.0
  0
VERTEX
  5
726
  8
0
  6
CONTINUOUS
 62
     7
 10
91.1645302602
 20
129.9458231571
 30
0.0
  0
VERTEX
  5
727
  8
0
  6
CONTINUOUS
 62
     7
 10
91.1634082493
 20
129.9457644837
 30
0.0
  0
VERTEX
  5
728
  8
0
  6
CONTINUOUS
 62
     7
 10
91.1622897309
 20
129.9457058104
 30
0.0
  0
VERTEX
  5
729
  8
0
  6
CONTINUOUS
 62
     7
 10
91.1611742393
 20
129.9456471371
 30
0.0
  0
VERTEX
  5
72A
  8
0
  6
CONTINUOUS
 62
     7
 10
91.1600620073
 20
129.9455889294
 30
0.0
  0
VERTEX
  5
72B
  8
0
  6
CONTINUOUS
 62
     7
 10
91.1589530349
 20
129.9455307218
 30
0.0
  0
VERTEX
  5
72C
  8
0
  6
CONTINUOUS
 62
     7
 10
91.1578473222
 20
129.9454729798
 30
0.0
  0
SEQEND
  5
82C
  8
0
  6
CONTINUOUS
 62
     7
  0
LINE
  5
318
  8
0
  6
CONTINUOUS
 62
     7
 10
91.1702786159
 20
129.8825947361
 30
0.0
 11
91.1667835952
 21
129.9459409694
 31
0.0
  0
LINE
  5
319
  8
0
  6
CONTINUOUS
 62
     7
 10
90.9970162955
 20
133.1888459882
 30
0.0
 11
91.0275238619
 21
133.2059934995
 31
0.0
  0
POLYLINE
  5
31A
  8
0
  6
CONTINUOUS
 62
     7
 66
     1
 10
0.0
 20
0.0
 30
0.0
 70
   128
  0
VERTEX
  5
72D
  8
0
  6
CONTINUOUS
 62
     7
 10
91.0275238619
 20
133.2059934995
 30
0.0
  0
VERTEX
  5
72E
  8
0
  6
CONTINUOUS
 62
     7
 10
91.1157969438
 20
133.2247135489
 30
0.0
  0
VERTEX
  5
72F
  8
0
  6
CONTINUOUS
 62
     7
 10
91.2204515242
 20
133.2648754379
 30
0.0
  0
SEQEND
  5
82D
  8
0
  6
CONTINUOUS
 62
     7
  0
POLYLINE
  5
31B
  8
0
  6
CONTINUOUS
 62
     7
 66
     1
 10
0.0
 20
0.0
 30
0.0
 70
   128
  0
VERTEX
  5
730
  8
0
  6
CONTINUOUS
 62
     7
 10
91.3928751887
 20
129.974831527
 30
0.0
  0
VERTEX
  5
731
  8
0
  6
CONTINUOUS
 62
     7
 10
91.2912953698
 20
129.9690307843
 30
0.0
  0
VERTEX
  5
732
  8
0
  6
CONTINUOUS
 62
     7
 10
91.2174582534
 20
129.9551205503
 30
0.0
  0
SEQEND
  5
82E
  8
0
  6
CONTINUOUS
 62
     7
  0
LINE
  5
31C
  8
0
  6
CONTINUOUS
 62
     7
 10
91.2174582534
 20
129.9551205503
 30
0.0
 11
91.1667835952
 21
129.9459409694
 31
0.0
  0
LINE
  5
31D
  8
0
  6
CONTINUOUS
 62
     7
 10
90.9970162955
 20
133.1888459882
 30
0.0
 11
90.9881305468
 21
133.1838617826
 31
0.0
  0
LINE
  5
31E
  8
0
  6
CONTINUOUS
 62
     7
 10
91.0240723804
 20
129.7183709013
 30
0.0
 11
91.0412271094
 21
129.6878505292
 31
0.0
  0
POLYLINE
  5
31F
  8
0
  6
CONTINUOUS
 62
     7
 66
     1
 10
0.0
 20
0.0
 30
0.0
 70
   128
  0
VERTEX
  5
733
  8
0
  6
CONTINUOUS
 62
     7
 10
91.0412271094
 20
129.6878505292
 30
0.0
  0
VERTEX
  5
734
  8
0
  6
CONTINUOUS
 62
     7
 10
91.0600055993
 20
129.5994736048
 30
0.0
  0
VERTEX
  5
735
  8
0
  6
CONTINUOUS
 62
     7
 10
91.100102063
 20
129.4949349741
 30
0.0
  0
SEQEND
  5
82F
  8
0
  6
CONTINUOUS
 62
     7
  0
POLYLINE
  5
320
  8
0
  6
CONTINUOUS
 62
     7
 66
     1
 10
0.0
 20
0.0
 30
0.0
 70
   128
  0
VERTEX
  5
736
  8
0
  6
CONTINUOUS
 62
     7
 10
87.8100579774
 20
129.3225117753
 30
0.0
  0
VERTEX
  5
737
  8
0
  6
CONTINUOUS
 62
     7
 10
87.8042571765
 20
129.4240920598
 30
0.0
  0
VERTEX
  5
738
  8
0
  6
CONTINUOUS
 62
     7
 10
87.7903468261
 20
129.4979287105
 30
0.0
  0
SEQEND
  5
830
  8
0
  6
CONTINUOUS
 62
     7
  0
LINE
  5
321
  8
0
  6
CONTINUOUS
 62
     7
 10
87.7903468261
 20
129.4979287105
 30
0.0
 11
87.7811675362
 21
129.5486038344
 31
0.0
  0
POLYLINE
  5
322
  8
0
  6
CONTINUOUS
 62
     7
 66
     1
 10
0.0
 20
0.0
 30
0.0
 70
   128
  0
VERTEX
  5
739
  8
0
  6
CONTINUOUS
 62
     7
 10
87.7811675362
 20
129.5486038344
 30
0.0
  0
VERTEX
  5
73A
  8
0
  6
CONTINUOUS
 62
     7
 10
87.7811083972
 20
129.5497321317
 30
0.0
  0
VERTEX
  5
73B
  8
0
  6
CONTINUOUS
 62
     7
 10
87.7810494329
 20
129.5508571694
 30
0.0
  0
VERTEX
  5
73C
  8
0
  6
CONTINUOUS
 62
     7
 10
87.7809906431
 20
129.5519789474
 30
0.0
  0
VERTEX
  5
73D
  8
0
  6
CONTINUOUS
 62
     7
 10
87.780932028
 20
129.5530974659
 30
0.0
  0
VERTEX
  5
73E
  8
0
  6
CONTINUOUS
 62
     7
 10
87.7808735293
 20
129.5542131903
 30
0.0
  0
VERTEX
  5
73F
  8
0
  6
CONTINUOUS
 62
     7
 10
87.7808152634
 20
129.5553251895
 30
0.0
  0
VERTEX
  5
740
  8
0
  6
CONTINUOUS
 62
     7
 10
87.780757114
 20
129.5564343946
 30
0.0
  0
VERTEX
  5
741
  8
0
  6
CONTINUOUS
 62
     7
 10
87.7806991974
 20
129.5575398745
 30
0.0
  0
SEQEND
  5
831
  8
0
  6
CONTINUOUS
 62
     7
  0
LINE
  5
323
  8
0
  6
CONTINUOUS
 62
     7
 10
91.0240723804
 20
129.7183709013
 30
0.0
 11
91.0190881748
 21
129.72725665
 31
0.0
  0
POLYLINE
  5
324
  8
0
  6
CONTINUOUS
 62
     7
 66
     1
 10
0.0
 20
0.0
 30
0.0
 70
   128
  0
VERTEX
  5
742
  8
0
  6
CONTINUOUS
 62
     7
 10
90.740555437
 20
133.5576490293
 30
0.0
  0
VERTEX
  5
743
  8
0
  6
CONTINUOUS
 62
     7
 10
90.7463564125
 20
133.4560689776
 30
0.0
  0
VERTEX
  5
744
  8
0
  6
CONTINUOUS
 62
     7
 10
90.7602666464
 20
133.382232094
 30
0.0
  0
SEQEND
  5
832
  8
0
  6
CONTINUOUS
 62
     7
  0
LINE
  5
325
  8
0
  6
CONTINUOUS
 62
     7
 10
90.7602666464
 20
133.382232094
 30
0.0
 11
90.7694459946
 21
133.3315572029
 31
0.0
  0
POLYLINE
  5
326
  8
0
  6
CONTINUOUS
 62
     7
 66
     1
 10
0.0
 20
0.0
 30
0.0
 70
   128
  0
VERTEX
  5
745
  8
0
  6
CONTINUOUS
 62
     7
 10
90.7694459946
 20
133.3315572029
 30
0.0
  0
VERTEX
  5
746
  8
0
  6
CONTINUOUS
 62
     7
 10
90.7695051336
 20
133.3304289056
 30
0.0
  0
VERTEX
  5
747
  8
0
  6
CONTINUOUS
 62
     7
 10
90.7695640397
 20
133.329303868
 30
0.0
  0
VERTEX
  5
748
  8
0
  6
CONTINUOUS
 62
     7
 10
90.7696229459
 20
133.3281820899
 30
0.0
  0
VERTEX
  5
749
  8
0
  6
CONTINUOUS
 62
     7
 10
90.7696816192
 20
133.3270633387
 30
0.0
  0
VERTEX
  5
74A
  8
0
  6
CONTINUOUS
 62
     7
 10
90.7697400597
 20
133.3259478471
 30
0.0
  0
VERTEX
  5
74B
  8
0
  6
CONTINUOUS
 62
     7
 10
90.7697982673
 20
133.3248356151
 30
0.0
  0
VERTEX
  5
74C
  8
0
  6
CONTINUOUS
 62
     7
 10
90.769856475
 20
133.3237266427
 30
0.0
  0
VERTEX
  5
74D
  8
0
  6
CONTINUOUS
 62
     7
 10
90.7699144498
 20
133.32262093
 30
0.0
  0
SEQEND
  5
833
  8
0
  6
CONTINUOUS
 62
     7
  0
LINE
  5
327
  8
0
  6
CONTINUOUS
 62
     7
 10
87.5265410921
 20
133.1617899033
 30
0.0
 11
87.5315252977
 21
133.1529041546
 31
0.0
  0
LINE
  5
328
  8
0
  6
CONTINUOUS
 62
     7
 10
87.5265410921
 20
133.1617899033
 30
0.0
 11
87.5094444689
 21
133.1922085284
 31
0.0
  0
POLYLINE
  5
329
  8
0
  6
CONTINUOUS
 62
     7
 66
     1
 10
0.0
 20
0.0
 30
0.0
 70
   128
  0
VERTEX
  5
74E
  8
0
  6
CONTINUOUS
 62
     7
 10
87.5094444689
 20
133.1922085284
 30
0.0
  0
VERTEX
  5
74F
  8
0
  6
CONTINUOUS
 62
     7
 10
87.4906642183
 20
133.2805705516
 30
0.0
  0
VERTEX
  5
750
  8
0
  6
CONTINUOUS
 62
     7
 10
87.4505113805
 20
133.3852255976
 30
0.0
  0
SEQEND
  5
834
  8
0
  6
CONTINUOUS
 62
     7
  0
POLYLINE
  5
32A
  8
0
  6
CONTINUOUS
 62
     7
 66
     1
 10
0.0
 20
0.0
 30
0.0
 70
   128
  0
VERTEX
  5
751
  8
0
  6
CONTINUOUS
 62
     7
 10
87.7178211866
 20
129.5451085808
 30
0.0
  0
VERTEX
  5
752
  8
0
  6
CONTINUOUS
 62
     7
 10
87.719110399
 20
129.5503142083
 30
0.0
  0
VERTEX
  5
753
  8
0
  6
CONTINUOUS
 62
     7
 10
87.7201167512
 20
129.5543649959
 30
0.0
  0
SEQEND
  5
835
  8
0
  6
CONTINUOUS
 62
     7
  0
LINE
  5
32B
  8
0
  6
CONTINUOUS
 62
     7
 10
87.7178211866
 20
129.5451085808
 30
0.0
 11
87.7811675362
 21
129.5486038344
 31
0.0
  0
POLYLINE
  5
32C
  8
0
  6
CONTINUOUS
 62
     7
 66
     1
 10
0.0
 20
0.0
 30
0.0
 70
   128
  0
VERTEX
  5
754
  8
0
  6
CONTINUOUS
 62
     7
 10
90.8327924606
 20
133.3350522237
 30
0.0
  0
VERTEX
  5
755
  8
0
  6
CONTINUOUS
 62
     7
 10
90.8315030445
 20
133.329846829
 30
0.0
  0
VERTEX
  5
756
  8
0
  6
CONTINUOUS
 62
     7
 10
90.8304967505
 20
133.3257958087
 30
0.0
  0
SEQEND
  5
836
  8
0
  6
CONTINUOUS
 62
     7
  0
LINE
  5
32D
  8
0
  6
CONTINUOUS
 62
     7
 10
90.8327924606
 20
133.3350522237
 30
0.0
 11
90.7694459946
 21
133.3315572029
 31
0.0
  0
POLYLINE
  5
32E
  8
0
  6
CONTINUOUS
 62
     7
 66
     1
 10
0.0
 20
0.0
 30
0.0
 70
   128
  0
VERTEX
  5
757
  8
0
  6
CONTINUOUS
 62
     7
 10
90.8655209985
 20
133.3347954115
 30
0.0
  0
VERTEX
  5
758
  8
0
  6
CONTINUOUS
 62
     7
 10
90.9098021273
 20
133.3228204659
 30
0.0
  0
VERTEX
  5
759
  8
0
  6
CONTINUOUS
 62
     7
 10
90.9480731987
 20
133.2978754564
 30
0.0
  0
SEQEND
  5
837
  8
0
  6
CONTINUOUS
 62
     7
  0
POLYLINE
  5
32F
  8
0
  6
CONTINUOUS
 62
     7
 66
     1
 10
0.0
 20
0.0
 30
0.0
 70
   128
  0
VERTEX
  5
75A
  8
0
  6
CONTINUOUS
 62
     7
 10
90.9405956098
 20
133.289570853
 30
0.0
  0
VERTEX
  5
75B
  8
0
  6
CONTINUOUS
 62
     7
 10
90.9447690991
 20
133.2942062783
 30
0.0
  0
VERTEX
  5
75C
  8
0
  6
CONTINUOUS
 62
     7
 10
90.9480729659
 20
133.2978754564
 30
0.0
  0
SEQEND
  5
838
  8
0
  6
CONTINUOUS
 62
     7
  0
LINE
  5
330
  8
0
  6
CONTINUOUS
 62
     7
 10
90.8655209985
 20
133.3347954115
 30
0.0
 11
90.8617889561
 21
133.3253387621
 31
0.0
  0
POLYLINE
  5
331
  8
0
  6
CONTINUOUS
 62
     7
 66
     1
 10
0.0
 20
0.0
 30
0.0
 70
   128
  0
VERTEX
  5
75D
  8
0
  6
CONTINUOUS
 62
     7
 10
91.1700215709
 20
129.8498661982
 30
0.0
  0
VERTEX
  5
75E
  8
0
  6
CONTINUOUS
 62
     7
 10
91.1580468581
 20
129.8055850694
 30
0.0
  0
VERTEX
  5
75F
  8
0
  6
CONTINUOUS
 62
     7
 10
91.1331018486
 20
129.7673142309
 30
0.0
  0
SEQEND
  5
839
  8
0
  6
CONTINUOUS
 62
     7
  0
POLYLINE
  5
332
  8
0
  6
CONTINUOUS
 62
     7
 66
     1
 10
0.0
 20
0.0
 30
0.0
 70
   128
  0
VERTEX
  5
760
  8
0
  6
CONTINUOUS
 62
     7
 10
91.1247972452
 20
129.7747918198
 30
0.0
  0
VERTEX
  5
761
  8
0
  6
CONTINUOUS
 62
     7
 10
91.1294326705
 20
129.7706180977
 30
0.0
  0
VERTEX
  5
762
  8
0
  6
CONTINUOUS
 62
     7
 10
91.1331018486
 20
129.7673142309
 30
0.0
  0
SEQEND
  5
83A
  8
0
  6
CONTINUOUS
 62
     7
  0
LINE
  5
333
  8
0
  6
CONTINUOUS
 62
     7
 10
91.1700215709
 20
129.8498661982
 30
0.0
 11
91.1605649215
 21
129.8535984734
 31
0.0
  0
POLYLINE
  5
334
  8
0
  6
CONTINUOUS
 62
     7
 66
     1
 10
0.0
 20
0.0
 30
0.0
 70
   128
  0
VERTEX
  5
763
  8
0
  6
CONTINUOUS
 62
     7
 10
87.3805918944
 20
133.0302946063
 30
0.0
  0
VERTEX
  5
764
  8
0
  6
CONTINUOUS
 62
     7
 10
87.3925667091
 20
133.0745759679
 30
0.0
  0
VERTEX
  5
765
  8
0
  6
CONTINUOUS
 62
     7
 10
87.4175116676
 20
133.1128468065
 30
0.0
  0
SEQEND
  5
83B
  8
0
  6
CONTINUOUS
 62
     7
  0
POLYLINE
  5
335
  8
0
  6
CONTINUOUS
 62
     7
 66
     1
 10
0.0
 20
0.0
 30
0.0
 70
   128
  0
VERTEX
  5
766
  8
0
  6
CONTINUOUS
 62
     7
 10
87.4258162274
 20
133.1053692175
 30
0.0
  0
VERTEX
  5
767
  8
0
  6
CONTINUOUS
 62
     7
 10
87.4211809476
 20
133.1095427068
 30
0.0
  0
VERTEX
  5
768
  8
0
  6
CONTINUOUS
 62
     7
 10
87.4175116967
 20
133.1128465737
 30
0.0
  0
SEQEND
  5
83C
  8
0
  6
CONTINUOUS
 62
     7
  0
LINE
  5
336
  8
0
  6
CONTINUOUS
 62
     7
 10
87.3805918944
 20
133.0302946063
 30
0.0
 11
87.3900485074
 21
133.0265625639
 31
0.0
  0
POLYLINE
  5
337
  8
0
  6
CONTINUOUS
 62
     7
 66
     1
 10
0.0
 20
0.0
 30
0.0
 70
   128
  0
VERTEX
  5
769
  8
0
  6
CONTINUOUS
 62
     7
 10
87.6850925031
 20
129.5453656258
 30
0.0
  0
VERTEX
  5
76A
  8
0
  6
CONTINUOUS
 62
     7
 10
87.640811287
 20
129.5573405715
 30
0.0
  0
VERTEX
  5
76B
  8
0
  6
CONTINUOUS
 62
     7
 10
87.6025403612
 20
129.5822851154
 30
0.0
  0
SEQEND
  5
83D
  8
0
  6
CONTINUOUS
 62
     7
  0
POLYLINE
  5
338
  8
0
  6
CONTINUOUS
 62
     7
 66
     1
 10
0.0
 20
0.0
 30
0.0
 70
   128
  0
VERTEX
  5
76C
  8
0
  6
CONTINUOUS
 62
     7
 10
87.6100180083
 20
129.5905897187
 30
0.0
  0
VERTEX
  5
76D
  8
0
  6
CONTINUOUS
 62
     7
 10
87.6058443735
 20
129.5859545263
 30
0.0
  0
VERTEX
  5
76E
  8
0
  6
CONTINUOUS
 62
     7
 10
87.6025405649
 20
129.582285581
 30
0.0
  0
SEQEND
  5
83E
  8
0
  6
CONTINUOUS
 62
     7
  0
LINE
  5
339
  8
0
  6
CONTINUOUS
 62
     7
 10
87.6850925031
 20
129.5453656258
 30
0.0
 11
87.6888246037
 21
129.5548222753
 31
0.0
  0
ARC
  5
33A
  8
0
  6
CONTINUOUS
 62
     7
 10
91.0228155949
 20
129.8670829716
 30
0.0
 40
0.1487173808586103
 50
270.4842027326
 51
317.8664220668
  0
ARC
  5
33B
  8
0
  6
CONTINUOUS
 62
     7
 10
90.8483058439
 20
133.1875899294
 30
0.0
 40
0.1487157560132932
 50
0.4839280512
 51
47.8666967481
  0
ARC
  5
33C
  8
0
  6
CONTINUOUS
 62
     7
 10
87.5277976052
 20
133.013078326
 30
0.0
 40
0.1487168855293687
 50
90.4840993694
 51
137.866384618
  0
ARC
  5
33D
  8
0
  6
CONTINUOUS
 62
     7
 10
87.7023080133
 20
129.6925710609
 30
0.0
 40
0.1487159986673969
 50
180.4840885343
 51
227.8665663672
  0
LINE
  5
33E
  8
0
  6
CONTINUOUS
 62
     7
 10
87.7178211866
 20
129.5451085808
 30
0.0
 11
87.6850925031
 21
129.5453656258
 31
0.0
  0
LINE
  5
33F
  8
0
  6
CONTINUOUS
 62
     7
 10
90.8327924606
 20
133.3350522237
 30
0.0
 11
90.8655209985
 21
133.3347954115
 31
0.0
  0
LINE
  5
340
  8
0
  6
CONTINUOUS
 62
     7
 10
91.1702786159
 20
129.8825947361
 30
0.0
 11
91.1700215709
 21
129.8498661982
 31
0.0
  0
LINE
  5
341
  8
0
  6
CONTINUOUS
 62
     7
 10
87.3803348784
 20
132.9975660684
 30
0.0
 11
87.3805918944
 21
133.0302946063
 31
0.0
  0
LINE
  5
342
  8
0
  6
CONTINUOUS
 62
     7
 10
87.3250092534
 20
129.5213011818
 30
0.0
 11
87.3147626606
 21
129.5129057745
 31
0.0
  0
LINE
  5
343
  8
0
  6
CONTINUOUS
 62
     7
 10
87.3688006885
 20
129.4406928847
 30
0.0
 11
87.3250161765
 21
129.5213030445
 31
0.0
  0
LINE
  5
344
  8
0
  6
CONTINUOUS
 62
     7
 10
91.2256040663
 20
133.3588598555
 30
0.0
 11
91.235850943
 21
133.3672552629
 31
0.0
  0
LINE
  5
345
  8
0
  6
CONTINUOUS
 62
     7
 10
91.1818128132
 20
133.439467687
 30
0.0
 11
91.2255975471
 21
133.3588577601
 31
0.0
  0
LINE
  5
346
  8
0
  6
CONTINUOUS
 62
     7
 10
91.1940862478
 20
129.4897828976
 30
0.0
 11
91.2024816551
 21
129.4795364866
 31
0.0
  0
LINE
  5
347
  8
0
  6
CONTINUOUS
 62
     7
 10
91.2746940792
 20
129.5335741507
 30
0.0
 11
91.1940839194
 21
129.4897898825
 31
0.0
  0
LINE
  5
348
  8
0
  6
CONTINUOUS
 62
     7
 10
87.3565273849
 20
133.3903779069
 30
0.0
 11
87.3481319557
 21
133.4006245507
 31
0.0
  0
LINE
  5
349
  8
0
  6
CONTINUOUS
 62
     7
 10
87.2759194068
 20
133.346586421
 30
0.0
 11
87.3565295095
 21
133.390370922
 31
0.0
  0
ARC
  5
34A
  8
0
  6
CONTINUOUS
 62
     7
 10
87.7366602405
 20
129.4266827952
 30
0.0
 40
0.3269671514683825
 50
130.8513798878
 51
137.500630052
  0
POLYLINE
  5
34B
  8
0
  6
CONTINUOUS
 62
     7
 66
     1
 10
0.0
 20
0.0
 30
0.0
 70
   128
  0
VERTEX
  5
76F
  8
0
  6
CONTINUOUS
 62
     7
 10
87.6025404776
 20
129.582285581
 30
0.0
  0
VERTEX
  5
770
  8
0
  6
CONTINUOUS
 62
     7
 10
87.5740478567
 20
129.5583762022
 30
0.0
  0
VERTEX
  5
771
  8
0
  6
CONTINUOUS
 62
     7
 10
87.5419200218
 20
129.5355378444
 30
0.0
  0
SEQEND
  5
83F
  8
0
  6
CONTINUOUS
 62
     7
  0
LINE
  5
34C
  8
0
  6
CONTINUOUS
 62
     7
 10
87.3188060739
 20
133.0132073982
 30
0.0
 11
87.3803348784
 21
132.9975660684
 31
0.0
  0
LINE
  5
34D
  8
0
  6
CONTINUOUS
 62
     7
 10
87.3241409334
 20
132.9394943806
 30
0.0
 11
87.3838300229
 21
132.9342198352
 31
0.0
  0
LINE
  5
34E
  8
0
  6
CONTINUOUS
 62
     7
 10
87.3241409334
 20
132.9394943806
 30
0.0
 11
87.3188060739
 21
133.0132073982
 31
0.0
  0
LINE
  5
34F
  8
0
  6
CONTINUOUS
 62
     7
 10
91.231807606
 20
129.8669536392
 30
0.0
 11
91.1702786159
 21
129.8825947361
 31
0.0
  0
LINE
  5
350
  8
0
  6
CONTINUOUS
 62
     7
 10
91.2264725246
 20
129.940666424
 30
0.0
 11
91.1667835952
 21
129.9459409694
 31
0.0
  0
LINE
  5
351
  8
0
  6
CONTINUOUS
 62
     7
 10
91.2264725246
 20
129.940666424
 30
0.0
 11
91.231807606
 21
129.8669536392
 31
0.0
  0
LINE
  5
352
  8
0
  6
CONTINUOUS
 62
     7
 10
87.7021798277
 20
129.4835798236
 30
0.0
 11
87.7178211866
 21
129.5451085808
 31
0.0
  0
LINE
  5
353
  8
0
  6
CONTINUOUS
 62
     7
 10
87.7758929908
 20
129.4889144393
 30
0.0
 11
87.7811675362
 21
129.5486038344
 31
0.0
  0
LINE
  5
354
  8
0
  6
CONTINUOUS
 62
     7
 10
87.7758929908
 20
129.4889144393
 30
0.0
 11
87.7021798277
 21
129.4835798236
 31
0.0
  0
LINE
  5
355
  8
0
  6
CONTINUOUS
 62
     7
 10
90.8484337904
 20
133.3965812138
 30
0.0
 11
90.8327924606
 21
133.3350522237
 31
0.0
  0
LINE
  5
356
  8
0
  6
CONTINUOUS
 62
     7
 10
90.77472054
 20
133.3912463652
 30
0.0
 11
90.7694459946
 21
133.3315572029
 31
0.0
  0
LINE
  5
357
  8
0
  6
CONTINUOUS
 62
     7
 10
90.77472054
 20
133.3912463652
 30
0.0
 11
90.8484337904
 21
133.3965812138
 31
0.0
  0
POLYLINE
  5
358
  8
0
  6
CONTINUOUS
 62
     7
 66
     1
 10
0.0
 20
0.0
 30
0.0
 70
   128
  0
VERTEX
  5
772
  8
0
  6
CONTINUOUS
 62
     7
 10
91.0550220922
 20
133.2325848544
 30
0.0
  0
VERTEX
  5
773
  8
0
  6
CONTINUOUS
 62
     7
 10
91.0406273377
 20
133.2161567899
 30
0.0
  0
VERTEX
  5
774
  8
0
  6
CONTINUOUS
 62
     7
 10
91.0275408585
 20
133.2059944308
 30
0.0
  0
SEQEND
  5
840
  8
0
  6
CONTINUOUS
 62
     7
  0
POLYLINE
  5
359
  8
0
  6
CONTINUOUS
 62
     7
 66
     1
 10
0.0
 20
0.0
 30
0.0
 70
   128
  0
VERTEX
  5
775
  8
0
  6
CONTINUOUS
 62
     7
 10
90.9480729659
 20
133.2978754564
 30
0.0
  0
VERTEX
  5
776
  8
0
  6
CONTINUOUS
 62
     7
 10
90.9765656159
 20
133.3217846023
 30
0.0
  0
VERTEX
  5
777
  8
0
  6
CONTINUOUS
 62
     7
 10
91.0086934508
 20
133.3446229602
 30
0.0
  0
SEQEND
  5
841
  8
0
  6
CONTINUOUS
 62
     7
  0
POLYLINE
  5
35A
  8
0
  6
CONTINUOUS
 62
     7
 66
     1
 10
0.0
 20
0.0
 30
0.0
 70
   128
  0
VERTEX
  5
778
  8
0
  6
CONTINUOUS
 62
     7
 10
91.0678112467
 20
129.6603648717
 30
0.0
  0
VERTEX
  5
779
  8
0
  6
CONTINUOUS
 62
     7
 10
91.0514453479
 20
129.6746439094
 30
0.0
  0
VERTEX
  5
77A
  8
0
  6
CONTINUOUS
 62
     7
 10
91.0412278079
 20
129.6878337654
 30
0.0
  0
SEQEND
  5
842
  8
0
  6
CONTINUOUS
 62
     7
  0
POLYLINE
  5
35B
  8
0
  6
CONTINUOUS
 62
     7
 66
     1
 10
0.0
 20
0.0
 30
0.0
 70
   128
  0
VERTEX
  5
77B
  8
0
  6
CONTINUOUS
 62
     7
 10
91.1331016158
 20
129.7673142309
 30
0.0
  0
VERTEX
  5
77C
  8
0
  6
CONTINUOUS
 62
     7
 10
91.1570109946
 20
129.738821348
 30
0.0
  0
VERTEX
  5
77D
  8
0
  6
CONTINUOUS
 62
     7
 10
91.1798493524
 20
129.7066935132
 30
0.0
  0
SEQEND
  5
843
  8
0
  6
CONTINUOUS
 62
     7
  0
POLYLINE
  5
35C
  8
0
  6
CONTINUOUS
 62
     7
 66
     1
 10
0.0
 20
0.0
 30
0.0
 70
   128
  0
VERTEX
  5
77E
  8
0
  6
CONTINUOUS
 62
     7
 10
87.4828023423
 20
133.2197959328
 30
0.0
  0
VERTEX
  5
77F
  8
0
  6
CONTINUOUS
 62
     7
 10
87.4991752406
 20
133.2055087461
 30
0.0
  0
VERTEX
  5
780
  8
0
  6
CONTINUOUS
 62
     7
 10
87.5094436977
 20
133.1922259907
 30
0.0
  0
SEQEND
  5
844
  8
0
  6
CONTINUOUS
 62
     7
  0
POLYLINE
  5
35D
  8
0
  6
CONTINUOUS
 62
     7
 66
     1
 10
0.0
 20
0.0
 30
0.0
 70
   128
  0
VERTEX
  5
781
  8
0
  6
CONTINUOUS
 62
     7
 10
87.4175118132
 20
133.1128468065
 30
0.0
  0
VERTEX
  5
782
  8
0
  6
CONTINUOUS
 62
     7
 10
87.3936026381
 20
133.1413394565
 30
0.0
  0
VERTEX
  5
783
  8
0
  6
CONTINUOUS
 62
     7
 10
87.3707641275
 20
133.1734672914
 30
0.0
  0
SEQEND
  5
845
  8
0
  6
CONTINUOUS
 62
     7
  0
LINE
  5
35E
  8
0
  6
CONTINUOUS
 62
     7
 10
87.3241409261
 20
132.9394943806
 30
0.0
 11
87.3331551136
 21
132.9250402542
 31
0.0
  0
LINE
  5
35F
  8
0
  6
CONTINUOUS
 62
     7
 10
90.77472054
 20
133.3912463652
 30
0.0
 11
90.7602666464
 21
133.382232094
 31
0.0
  0
LINE
  5
360
  8
0
  6
CONTINUOUS
 62
     7
 10
91.2264725246
 20
129.940666424
 30
0.0
 11
91.2174582534
 21
129.9551205503
 31
0.0
  0
LINE
  5
361
  8
0
  6
CONTINUOUS
 62
     7
 10
87.7758929908
 20
129.4889144393
 30
0.0
 11
87.7903468261
 21
129.4979287105
 31
0.0
  0
POLYLINE
  5
362
  8
0
  6
CONTINUOUS
 62
     7
 66
     1
 10
0.0
 20
0.0
 30
0.0
 70
   128
  0
VERTEX
  5
784
  8
0
  6
CONTINUOUS
 62
     7
 10
87.659713701
 20
129.4823579284
 30
0.0
  0
VERTEX
  5
785
  8
0
  6
CONTINUOUS
 62
     7
 10
87.6727215708
 20
129.5146277899
 30
0.0
  0
VERTEX
  5
786
  8
0
  6
CONTINUOUS
 62
     7
 10
87.6850925031
 20
129.5453656258
 30
0.0
  0
SEQEND
  5
846
  8
0
  6
CONTINUOUS
 62
     7
  0
LINE
  5
363
  8
0
  6
CONTINUOUS
 62
     7
 10
87.5621381618
 20
129.5170492286
 30
0.0
 11
87.5627214025
 21
129.5182608793
 31
0.0
  0
ARC
  5
364
  8
0
  6
CONTINUOUS
 62
     7
 10
87.9581139512
 20
129.3167479533
 30
0.0
 40
0.4437822966631384
 50
143.2481046937
 51
152.9942068023
  0
POLYLINE
  5
365
  8
0
  6
CONTINUOUS
 62
     7
 66
     1
 10
0.0
 20
0.0
 30
0.0
 70
   128
  0
VERTEX
  5
787
  8
0
  6
CONTINUOUS
 62
     7
 10
91.2330295012
 20
129.8244871924
 30
0.0
  0
VERTEX
  5
788
  8
0
  6
CONTINUOUS
 62
     7
 10
91.2007596397
 20
129.8374954405
 30
0.0
  0
VERTEX
  5
789
  8
0
  6
CONTINUOUS
 62
     7
 10
91.1700215709
 20
129.8498661982
 30
0.0
  0
SEQEND
  5
847
  8
0
  6
CONTINUOUS
 62
     7
  0
LINE
  5
366
  8
0
  6
CONTINUOUS
 62
     7
 10
91.1983377353
 20
129.7269115949
 30
0.0
 11
91.1971265503
 21
129.7274950685
 31
0.0
  0
ARC
  5
367
  8
0
  6
CONTINUOUS
 62
     7
 10
91.3986329792
 20
130.1228779436
 30
0.0
 40
0.4437707277790827
 50
233.2479986516
 51
242.9943870452
  0
POLYLINE
  5
368
  8
0
  6
CONTINUOUS
 62
     7
 66
     1
 10
0.0
 20
0.0
 30
0.0
 70
   128
  0
VERTEX
  5
78A
  8
0
  6
CONTINUOUS
 62
     7
 10
87.3175841169
 20
133.0556736121
 30
0.0
  0
VERTEX
  5
78B
  8
0
  6
CONTINUOUS
 62
     7
 10
87.3498540585
 20
133.0426655969
 30
0.0
  0
VERTEX
  5
78C
  8
0
  6
CONTINUOUS
 62
     7
 10
87.3805918944
 20
133.0302946063
 30
0.0
  0
SEQEND
  5
848
  8
0
  6
CONTINUOUS
 62
     7
  0
LINE
  5
369
  8
0
  6
CONTINUOUS
 62
     7
 10
87.3522758027
 20
133.1532489768
 30
0.0
 11
87.3534870023
 21
133.152665736
 31
0.0
  0
ARC
  5
36A
  8
0
  6
CONTINUOUS
 62
     7
 10
87.1519878522
 20
132.7572933104
 30
0.0
 40
0.4437581125334691
 50
53.2479751569
 51
62.9946117482
  0
POLYLINE
  5
36B
  8
0
  6
CONTINUOUS
 62
     7
 66
     1
 10
0.0
 20
0.0
 30
0.0
 70
   128
  0
VERTEX
  5
78D
  8
0
  6
CONTINUOUS
 62
     7
 10
90.8908997715
 20
133.397803109
 30
0.0
  0
VERTEX
  5
78E
  8
0
  6
CONTINUOUS
 62
     7
 10
90.8778919891
 20
133.3655332474
 30
0.0
  0
VERTEX
  5
78F
  8
0
  6
CONTINUOUS
 62
     7
 10
90.8655209985
 20
133.3347954115
 30
0.0
  0
SEQEND
  5
849
  8
0
  6
CONTINUOUS
 62
     7
  0
LINE
  5
36C
  8
0
  6
CONTINUOUS
 62
     7
 10
90.988475369
 20
133.3631113431
 30
0.0
 11
90.9878921282
 21
133.3619001581
 31
0.0
  0
ARC
  5
36D
  8
0
  6
CONTINUOUS
 62
     7
 10
90.5925677844
 20
133.56337115
 30
0.0
 40
0.4437024874802483
 50
323.2471667232
 51
332.9950320888
  0
LINE
  5
36E
  8
0
  6
CONTINUOUS
 62
     7
 10
90.9878921282
 20
133.3619001581
 30
0.0
 11
91.0086943821
 21
133.3446241243
 31
0.0
  0
LINE
  5
36F
  8
0
  6
CONTINUOUS
 62
     7
 10
91.1971265503
 20
129.7274950685
 30
0.0
 11
91.1798505165
 21
129.7066925819
 31
0.0
  0
LINE
  5
370
  8
0
  6
CONTINUOUS
 62
     7
 10
87.3534870023
 20
133.152665736
 30
0.0
 11
87.3707631161
 21
133.1734679899
 31
0.0
  0
LINE
  5
371
  8
0
  6
CONTINUOUS
 62
     7
 10
87.5627214025
 20
129.5182608793
 30
0.0
 11
87.5419191487
 21
129.5355369131
 31
0.0
  0
LINE
  5
372
  8
0
  6
CONTINUOUS
 62
     7
 10
87.7021798277
 20
129.4835798236
 30
0.0
 11
87.659713701
 21
129.4823579284
 31
0.0
  0
LINE
  5
373
  8
0
  6
CONTINUOUS
 62
     7
 10
90.8484337904
 20
133.3965812138
 30
0.0
 11
90.8908997715
 21
133.397803109
 31
0.0
  0
LINE
  5
374
  8
0
  6
CONTINUOUS
 62
     7
 10
91.231807606
 20
129.8669536392
 30
0.0
 11
91.2330295012
 21
129.8244871924
 31
0.0
  0
LINE
  5
375
  8
0
  6
CONTINUOUS
 62
     7
 10
87.3188060739
 20
133.0132073982
 30
0.0
 11
87.3175841169
 21
133.0556736121
 31
0.0
  0
LINE
  5
376
  8
0
  6
CONTINUOUS
 62
     7
 10
87.3250092607
 20
129.5213007162
 30
0.0
 11
87.3368105075
 21
129.5274185742
 31
0.0
  0
LINE
  5
377
  8
0
  6
CONTINUOUS
 62
     7
 10
91.2256040663
 20
133.3588598555
 30
0.0
 11
91.2138028123
 21
133.3527419975
 31
0.0
  0
LINE
  5
378
  8
0
  6
CONTINUOUS
 62
     7
 10
91.1940862478
 20
129.4897828976
 30
0.0
 11
91.1879683898
 21
129.5015841516
 31
0.0
  0
LINE
  5
379
  8
0
  6
CONTINUOUS
 62
     7
 10
87.3565272321
 20
133.3903779069
 30
0.0
 11
87.3626451119
 21
133.3785766529
 31
0.0
  0
POLYLINE
  5
37A
  8
0
  6
CONTINUOUS
 62
     7
 66
     1
 10
0.0
 20
0.0
 30
0.0
 70
   128
  0
VERTEX
  5
790
  8
0
  6
CONTINUOUS
 62
     7
 10
91.1550782674
 20
133.318667
 30
0.0
  0
VERTEX
  5
791
  8
0
  6
CONTINUOUS
 62
     7
 10
91.1878026143
 20
133.2924586514
 30
0.0
  0
VERTEX
  5
792
  8
0
  6
CONTINUOUS
 62
     7
 10
91.2204515242
 20
133.2648754379
 30
0.0
  0
SEQEND
  5
84A
  8
0
  6
CONTINUOUS
 62
     7
  0
POLYLINE
  5
37B
  8
0
  6
CONTINUOUS
 62
     7
 66
     1
 10
0.0
 20
0.0
 30
0.0
 70
   128
  0
VERTEX
  5
793
  8
0
  6
CONTINUOUS
 62
     7
 10
87.3967193891
 20
133.3198525737
 30
0.0
  0
VERTEX
  5
794
  8
0
  6
CONTINUOUS
 62
     7
 10
87.4229278905
 20
133.3525769206
 30
0.0
  0
VERTEX
  5
795
  8
0
  6
CONTINUOUS
 62
     7
 10
87.4505113805
 20
133.3852255976
 30
0.0
  0
SEQEND
  5
84B
  8
0
  6
CONTINUOUS
 62
     7
  0
POLYLINE
  5
37C
  8
0
  6
CONTINUOUS
 62
     7
 66
     1
 10
0.0
 20
0.0
 30
0.0
 70
   128
  0
VERTEX
  5
796
  8
0
  6
CONTINUOUS
 62
     7
 10
87.3301625705
 20
129.6152860651
 30
0.0
  0
VERTEX
  5
797
  8
0
  6
CONTINUOUS
 62
     7
 10
87.3628114476
 20
129.5877030844
 30
0.0
  0
VERTEX
  5
798
  8
0
  6
CONTINUOUS
 62
     7
 10
87.39553586
 20
129.5614947359
 30
0.0
  0
SEQEND
  5
84C
  8
0
  6
CONTINUOUS
 62
     7
  0
POLYLINE
  5
37D
  8
0
  6
CONTINUOUS
 62
     7
 66
     1
 10
0.0
 20
0.0
 30
0.0
 70
   128
  0
VERTEX
  5
799
  8
0
  6
CONTINUOUS
 62
     7
 10
91.1538940907
 20
129.5603082309
 30
0.0
  0
VERTEX
  5
79A
  8
0
  6
CONTINUOUS
 62
     7
 10
91.1276857422
 20
129.5275838839
 30
0.0
  0
VERTEX
  5
79B
  8
0
  6
CONTINUOUS
 62
     7
 10
91.100102063
 20
129.4949349741
 30
0.0
  0
SEQEND
  5
84D
  8
0
  6
CONTINUOUS
 62
     7
  0
LINE
  5
37E
  8
0
  6
CONTINUOUS
 62
     7
 10
87.5875614927
 20
129.2768462355
 30
0.0
 11
87.5941668399
 21
129.3121466207
 31
0.0
  0
LINE
  5
37F
  8
0
  6
CONTINUOUS
 62
     7
 10
91.4385411941
 20
129.7523353042
 30
0.0
 11
91.4032408089
 21
129.7589407096
 31
0.0
  0
LINE
  5
380
  8
0
  6
CONTINUOUS
 62
     7
 10
87.1120724822
 20
133.1278257331
 30
0.0
 11
87.1473729547
 21
133.1212203278
 31
0.0
  0
LINE
  5
381
  8
0
  6
CONTINUOUS
 62
     7
 10
90.9630521253
 20
133.6033148019
 30
0.0
 11
90.95644672
 21
133.5680141839
 31
0.0
  0
LINE
  5
382
  8
0
  6
CONTINUOUS
 62
     7
 10
87.6108125429
 20
129.3116544167
 30
0.0
 11
87.5941668399
 21
129.3121466207
 31
0.0
  0
LINE
  5
383
  8
0
  6
CONTINUOUS
 62
     7
 10
87.6108124265
 20
129.311653951
 30
0.0
 11
87.6051672438
 21
129.2784001472
 31
0.0
  0
LINE
  5
384
  8
0
  6
CONTINUOUS
 62
     7
 10
91.4037325472
 20
129.775586238
 30
0.0
 11
91.4032408089
 21
129.7589407096
 31
0.0
  0
LINE
  5
385
  8
0
  6
CONTINUOUS
 62
     7
 10
91.4037334786
 20
129.775586238
 30
0.0
 11
91.4369872824
 21
129.7699410262
 31
0.0
  0
LINE
  5
386
  8
0
  6
CONTINUOUS
 62
     7
 10
87.1468808526
 20
133.1045745666
 30
0.0
 11
87.1473729547
 21
133.1212203278
 31
0.0
  0
LINE
  5
387
  8
0
  6
CONTINUOUS
 62
     7
 10
87.1468801395
 20
133.1045747994
 30
0.0
 11
87.1136264375
 21
133.1102200112
 31
0.0
  0
LINE
  5
388
  8
0
  6
CONTINUOUS
 62
     7
 10
90.9398009588
 20
133.5685063878
 30
0.0
 11
90.95644672
 21
133.5680141839
 31
0.0
  0
LINE
  5
389
  8
0
  6
CONTINUOUS
 62
     7
 10
90.9398011916
 20
133.5685070863
 30
0.0
 11
90.9454461706
 21
133.6017606574
 31
0.0
  0
LINE
  5
38A
  8
0
  6
CONTINUOUS
 62
     7
 10
87.6577698853
 20
129.3100185486
 30
0.0
 11
87.6108124556
 21
129.3116506914
 31
0.0
  0
LINE
  5
38B
  8
0
  6
CONTINUOUS
 62
     7
 10
87.6548308641
 20
129.2844253386
 30
0.0
 11
87.6577698853
 21
129.3100185486
 31
0.0
  0
LINE
  5
38C
  8
0
  6
CONTINUOUS
 62
     7
 10
91.405368881
 20
129.8225435222
 30
0.0
 11
91.4037362725
 21
129.775586238
 31
0.0
  0
LINE
  5
38D
  8
0
  6
CONTINUOUS
 62
     7
 10
91.4309616253
 20
129.8196047338
 30
0.0
 11
91.405368881
 21
129.8225435222
 31
0.0
  0
LINE
  5
38E
  8
0
  6
CONTINUOUS
 62
     7
 10
87.1452447371
 20
133.0576172823
 30
0.0
 11
87.1468772582
 21
133.1045747994
 31
0.0
  0
LINE
  5
38F
  8
0
  6
CONTINUOUS
 62
     7
 10
87.1196516871
 20
133.0605563036
 30
0.0
 11
87.1452447371
 21
133.0576172823
 31
0.0
  0
LINE
  5
390
  8
0
  6
CONTINUOUS
 62
     7
 10
90.8928436746
 20
133.5701424888
 30
0.0
 11
90.9398011916
 21
133.5685098803
 31
0.0
  0
LINE
  5
391
  8
0
  6
CONTINUOUS
 62
     7
 10
90.8957826958
 20
133.595735466
 30
0.0
 11
90.8928436746
 21
133.5701424888
 31
0.0
  0
LINE
  5
392
  8
0
  6
CONTINUOUS
 62
     7
 10
87.6618647943
 20
129.3140162507
 30
0.0
 11
87.7021798277
 21
129.4835798236
 31
0.0
  0
LINE
  5
393
  8
0
  6
CONTINUOUS
 62
     7
 10
87.6108125429
 20
129.3116544167
 30
0.0
 11
87.6618647943
 21
129.3140162507
 31
0.0
  0
LINE
  5
394
  8
0
  6
CONTINUOUS
 62
     7
 10
91.4013707132
 20
129.8266385476
 30
0.0
 11
91.231807606
 21
129.8669536392
 31
0.0
  0
LINE
  5
395
  8
0
  6
CONTINUOUS
 62
     7
 10
91.4037325472
 20
129.775586238
 30
0.0
 11
91.4013707132
 21
129.8266385476
 31
0.0
  0
LINE
  5
396
  8
0
  6
CONTINUOUS
 62
     7
 10
87.1492426721
 20
133.0535224898
 30
0.0
 11
87.3188060739
 21
133.0132073982
 31
0.0
  0
LINE
  5
397
  8
0
  6
CONTINUOUS
 62
     7
 10
87.1468808526
 20
133.1045745666
 30
0.0
 11
87.1492426721
 21
133.0535224898
 31
0.0
  0
LINE
  5
398
  8
0
  6
CONTINUOUS
 62
     7
 10
90.8887486492
 20
133.5661445538
 30
0.0
 11
90.8484337904
 21
133.3965812138
 31
0.0
  0
LINE
  5
399
  8
0
  6
CONTINUOUS
 62
     7
 10
90.9398009588
 20
133.5685063878
 30
0.0
 11
90.8887486492
 21
133.5661445538
 31
0.0
  0
LINE
  5
39A
  8
0
  6
CONTINUOUS
 62
     7
 10
87.6609009336
 20
129.3099659289
 30
0.0
 11
87.6618629025
 21
129.3140167164
 31
0.0
  0
LINE
  5
39B
  8
0
  6
CONTINUOUS
 62
     7
 10
87.6577698853
 20
129.3100185486
 30
0.0
 11
87.6609009336
 21
129.3099659289
 31
0.0
  0
LINE
  5
39C
  8
0
  6
CONTINUOUS
 62
     7
 10
91.4054210351
 20
129.8256746287
 30
0.0
 11
91.4013702475
 21
129.8266366849
 31
0.0
  0
LINE
  5
39D
  8
0
  6
CONTINUOUS
 62
     7
 10
91.405368881
 20
129.8225435222
 30
0.0
 11
91.4054210351
 21
129.8256746287
 31
0.0
  0
LINE
  5
39E
  8
0
  6
CONTINUOUS
 62
     7
 10
87.1451923211
 20
133.0544861759
 30
0.0
 11
87.1492431668
 21
133.0535243525
 31
0.0
  0
LINE
  5
39F
  8
0
  6
CONTINUOUS
 62
     7
 10
87.1451923211
 20
133.0544861759
 30
0.0
 11
87.1452447371
 21
133.0576172823
 31
0.0
  0
LINE
  5
3A0
  8
0
  6
CONTINUOUS
 62
     7
 10
90.8897125681
 20
133.5701948757
 30
0.0
 11
90.8887507447
 21
133.5661440881
 31
0.0
  0
LINE
  5
3A1
  8
0
  6
CONTINUOUS
 62
     7
 10
90.8928436746
 20
133.5701424888
 30
0.0
 11
90.8897125681
 21
133.5701948757
 31
0.0
  0
LINE
  5
3A2
  8
0
  6
CONTINUOUS
 62
     7
 10
87.6578152582
 20
129.2848802897
 30
0.0
 11
87.6609009336
 21
129.3099659289
 31
0.0
  0
LINE
  5
3A3
  8
0
  6
CONTINUOUS
 62
     7
 10
91.4305071399
 20
129.8225886913
 30
0.0
 11
91.4054210351
 21
129.8256746287
 31
0.0
  0
LINE
  5
3A4
  8
0
  6
CONTINUOUS
 62
     7
 10
87.1201064054
 20
133.0575718804
 30
0.0
 11
87.1451923211
 21
133.0544861759
 31
0.0
  0
LINE
  5
3A5
  8
0
  6
CONTINUOUS
 62
     7
 10
90.8927982726
 20
133.5952807477
 30
0.0
 11
90.8897125681
 21
133.5701948757
 31
0.0
  0
LINE
  5
3A6
  8
0
  6
CONTINUOUS
 62
     7
 10
87.7775477764
 20
129.3057027998
 30
0.0
 11
87.6609009336
 21
129.3099659289
 31
0.0
  0
LINE
  5
3A7
  8
0
  6
CONTINUOUS
 62
     7
 10
87.7777444019
 20
129.3024766984
 30
0.0
 11
87.7775477764
 21
129.3057027998
 31
0.0
  0
LINE
  5
3A8
  8
0
  6
CONTINUOUS
 62
     7
 10
91.4096846298
 20
129.9423213842
 30
0.0
 11
91.4054210351
 21
129.8256746287
 31
0.0
  0
LINE
  5
3A9
  8
0
  6
CONTINUOUS
 62
     7
 10
91.4129107312
 20
129.9425178932
 30
0.0
 11
91.4096846298
 21
129.9423213842
 31
0.0
  0
LINE
  5
3AA
  8
0
  6
CONTINUOUS
 62
     7
 10
87.1409290028
 20
132.9378394204
 30
0.0
 11
87.1451923211
 21
133.0544861759
 31
0.0
  0
LINE
  5
3AB
  8
0
  6
CONTINUOUS
 62
     7
 10
87.1377029742
 20
132.9376429113
 30
0.0
 11
87.1409290028
 21
132.9378394204
 31
0.0
  0
LINE
  5
3AC
  8
0
  6
CONTINUOUS
 62
     7
 10
90.7730658126
 20
133.5744582376
 30
0.0
 11
90.8897125681
 21
133.5701948757
 31
0.0
  0
LINE
  5
3AD
  8
0
  6
CONTINUOUS
 62
     7
 10
90.7728690707
 20
133.5776841062
 30
0.0
 11
90.7730658126
 21
133.5744582376
 31
0.0
  0
LINE
  5
3AE
  8
0
  6
CONTINUOUS
 62
     7
 10
87.1558793277
 20
132.9390273223
 30
0.0
 11
87.1492426721
 21
133.0535224898
 31
0.0
  0
LINE
  5
3AF
  8
0
  6
CONTINUOUS
 62
     7
 10
87.1409290028
 20
132.9378394204
 30
0.0
 11
87.1558793277
 21
132.9390273223
 31
0.0
  0
LINE
  5
3B0
  8
0
  6
CONTINUOUS
 62
     7
 10
87.6618647943
 20
129.3140162507
 30
0.0
 11
87.7763599909
 21
129.3206528554
 31
0.0
  0
LINE
  5
3B1
  8
0
  6
CONTINUOUS
 62
     7
 10
87.7775477764
 20
129.3057027998
 30
0.0
 11
87.7763599909
 21
129.3206528554
 31
0.0
  0
LINE
  5
3B2
  8
0
  6
CONTINUOUS
 62
     7
 10
91.4013707132
 20
129.8266385476
 30
0.0
 11
91.3947341085
 21
129.9411334822
 31
0.0
  0
LINE
  5
3B3
  8
0
  6
CONTINUOUS
 62
     7
 10
91.4096846298
 20
129.9423213842
 30
0.0
 11
91.3947341085
 21
129.9411334822
 31
0.0
  0
LINE
  5
3B4
  8
0
  6
CONTINUOUS
 62
     7
 10
90.8887486492
 20
133.5661445538
 30
0.0
 11
90.7742534817
 21
133.5595079491
 31
0.0
  0
LINE
  5
3B5
  8
0
  6
CONTINUOUS
 62
     7
 10
90.7730658126
 20
133.5744582376
 30
0.0
 11
90.7742534817
 21
133.5595079491
 31
0.0
  0
POLYLINE
  5
3B6
  8
0
  6
CONTINUOUS
 62
     7
 66
     1
 10
0.0
 20
0.0
 30
0.0
 70
   128
  0
VERTEX
  5
79C
  8
0
  6
CONTINUOUS
 62
     7
 10
87.1598221545
 20
132.9394273254
 30
0.0
  0
VERTEX
  5
79D
  8
0
  6
CONTINUOUS
 62
     7
 10
87.2600837545
 20
132.9433346892
 30
0.0
  0
VERTEX
  5
79E
  8
0
  6
CONTINUOUS
 62
     7
 10
87.3241409334
 20
132.9394943806
 30
0.0
  0
SEQEND
  5
84E
  8
0
  6
CONTINUOUS
 62
     7
  0
LINE
  5
3B7
  8
0
  6
CONTINUOUS
 62
     7
 10
87.1558793277
 20
132.9390273223
 30
0.0
 11
87.1598221545
 21
132.9394273254
 31
0.0
  0
POLYLINE
  5
3B8
  8
0
  6
CONTINUOUS
 62
     7
 66
     1
 10
0.0
 20
0.0
 30
0.0
 70
   128
  0
VERTEX
  5
79F
  8
0
  6
CONTINUOUS
 62
     7
 10
87.7759601042
 20
129.3245956095
 30
0.0
  0
VERTEX
  5
7A0
  8
0
  6
CONTINUOUS
 62
     7
 10
87.7720523911
 20
129.424857607
 30
0.0
  0
VERTEX
  5
7A1
  8
0
  6
CONTINUOUS
 62
     7
 10
87.7758929908
 20
129.4889144393
 30
0.0
  0
SEQEND
  5
84F
  8
0
  6
CONTINUOUS
 62
     7
  0
LINE
  5
3B9
  8
0
  6
CONTINUOUS
 62
     7
 10
87.7763599909
 20
129.3206528554
 30
0.0
 11
87.7759601042
 21
129.3245956095
 31
0.0
  0
POLYLINE
  5
3BA
  8
0
  6
CONTINUOUS
 62
     7
 66
     1
 10
0.0
 20
0.0
 30
0.0
 70
   128
  0
VERTEX
  5
7A2
  8
0
  6
CONTINUOUS
 62
     7
 10
91.3907913544
 20
129.9407339449
 30
0.0
  0
VERTEX
  5
7A3
  8
0
  6
CONTINUOUS
 62
     7
 10
91.2905298226
 20
129.9368261153
 30
0.0
  0
VERTEX
  5
7A4
  8
0
  6
CONTINUOUS
 62
     7
 10
91.2264725246
 20
129.940666424
 30
0.0
  0
SEQEND
  5
850
  8
0
  6
CONTINUOUS
 62
     7
  0
LINE
  5
3BB
  8
0
  6
CONTINUOUS
 62
     7
 10
91.3947341085
 20
129.9411334822
 30
0.0
 11
91.3907913544
 21
129.9407339449
 31
0.0
  0
POLYLINE
  5
3BC
  8
0
  6
CONTINUOUS
 62
     7
 66
     1
 10
0.0
 20
0.0
 30
0.0
 70
   128
  0
VERTEX
  5
7A5
  8
0
  6
CONTINUOUS
 62
     7
 10
90.7746534847
 20
133.5555649622
 30
0.0
  0
VERTEX
  5
7A6
  8
0
  6
CONTINUOUS
 62
     7
 10
90.7785610814
 20
133.4553034304
 30
0.0
  0
VERTEX
  5
7A7
  8
0
  6
CONTINUOUS
 62
     7
 10
90.77472054
 20
133.3912463652
 30
0.0
  0
SEQEND
  5
851
  8
0
  6
CONTINUOUS
 62
     7
  0
LINE
  5
3BD
  8
0
  6
CONTINUOUS
 62
     7
 10
90.7742534817
 20
133.5595079491
 30
0.0
 11
90.7746534847
 21
133.5555649622
 31
0.0
  0
LINE
  5
3BE
  8
0
  6
CONTINUOUS
 62
     7
 10
87.8100579774
 20
129.3225117753
 30
0.0
 11
87.7759601042
 21
129.3245956095
 31
0.0
  0
LINE
  5
3BF
  8
0
  6
CONTINUOUS
 62
     7
 10
91.3928751887
 20
129.974831527
 30
0.0
 11
91.3907913544
 21
129.9407339449
 31
0.0
  0
LINE
  5
3C0
  8
0
  6
CONTINUOUS
 62
     7
 10
87.1598265929
 20
132.9394268597
 30
0.0
 11
87.1577384513
 21
132.9053292776
 31
0.0
  0
LINE
  5
3C1
  8
0
  6
CONTINUOUS
 62
     7
 10
90.740555437
 20
133.5576490293
 30
0.0
 11
90.7746534847
 21
133.5555649622
 31
0.0
  0
LINE
  5
3C2
  8
0
  6
CONTINUOUS
 62
     7
 10
87.3368105366
 20
129.5274181085
 30
0.0
 11
87.2986765606
 21
129.5869054066
 31
0.0
  0
LINE
  5
3C3
  8
0
  6
CONTINUOUS
 62
     7
 10
91.2138028123
 20
133.352742696
 30
0.0
 11
91.2519367465
 21
133.2932556307
 31
0.0
  0
LINE
  5
3C4
  8
0
  6
CONTINUOUS
 62
     7
 10
91.1879688554
 20
129.5015841516
 30
0.0
 11
91.128482023
 21
129.4634502175
 31
0.0
  0
LINE
  5
3C5
  8
0
  6
CONTINUOUS
 62
     7
 10
87.3626446026
 20
133.3785766529
 30
0.0
 11
87.4221316097
 21
133.4167105871
 31
0.0
  0
LINE
  5
3C6
  8
0
  6
CONTINUOUS
 62
     7
 10
87.2875331623
 20
129.5800052377
 30
0.0
 11
87.3250092607
 21
129.5213007162
 31
0.0
  0
LINE
  5
3C7
  8
0
  6
CONTINUOUS
 62
     7
 10
91.1353796308
 20
129.4523102025
 30
0.0
 11
91.1940839194
 21
129.4897870886
 31
0.0
  0
LINE
  5
3C8
  8
0
  6
CONTINUOUS
 62
     7
 10
87.4152338127
 20
133.4278503692
 30
0.0
 11
87.3565297932
 21
133.390373716
 31
0.0
  0
LINE
  5
3C9
  8
0
  6
CONTINUOUS
 62
     7
 10
91.2630767614
 20
133.3001534714
 30
0.0
 11
91.225600341
 21
133.3588572944
 31
0.0
  0
ARC
  5
3CA
  8
0
  6
CONTINUOUS
 62
     7
 10
88.2667938182
 20
132.9346630966
 30
0.0
 40
1.125869310468497
 50
179.8383558503
 51
181.5106116482
  0
ARC
  5
3CB
  8
0
  6
CONTINUOUS
 62
     7
 10
87.7807409219
 20
130.4310230028
 30
0.0
 40
1.125324733394289
 50
269.8374211438
 51
271.5104831051
  0
ARC
  5
3CC
  8
0
  6
CONTINUOUS
 62
     7
 10
90.2836286571
 20
129.9454899737
 30
0.0
 40
1.126060430749197
 50
359.8387768194
 51
1.5107488699
  0
ARC
  5
3CD
  8
0
  6
CONTINUOUS
 62
     7
 10
90.769896299
 20
132.4478030742
 30
0.0
 40
1.126659621645174
 50
89.8388155657
 51
91.5098982096
  0
ARC
  5
3CE
  8
0
  6
CONTINUOUS
 62
     7
 10
88.2811547157
 20
132.9330573936
 30
0.0
 40
1.125291224026317
 50
179.6960312871
 51
181.4109389572
  0
ARC
  5
3CF
  8
0
  6
CONTINUOUS
 62
     7
 10
87.7823141821
 20
130.4470284709
 30
0.0
 40
1.126391352761071
 50
269.6971286968
 51
271.4103613938
  0
ARC
  5
3D0
  8
0
  6
CONTINUOUS
 62
     7
 10
90.269074164
 20
129.9471101503
 30
0.0
 40
1.125675810946466
 50
359.6957921111
 51
1.4101136858
  0
ARC
  5
3D1
  8
0
  6
CONTINUOUS
 62
     7
 10
90.7682904561
 20
132.4340463899
 30
0.0
 40
1.12547735605668
 50
89.6964329894
 51
91.4110571012
  0
CIRCLE
  5
3D2
  8
0
  6
CONTINUOUS
 62
     7
 10
89.2753067686
 20
131.4400804251
 30
0.0
 40
1.411033253000378
  0
CIRCLE
  5
3D3
  8
0
  6
CONTINUOUS
 62
     7
 10
89.2753067686
 20
131.4400804251
 30
0.0
 40
1.341257361918366
  0
LINE
  5
3D4
  8
0
  6
CONTINUOUS
 62
     7
 10
143.9826441982
 20
143.0234268101
 30
0.0
 11
143.9826441982
 21
145.7292546312
 31
0.0
  0
LINE
  5
3D5
  8
0
  6
CONTINUOUS
 62
     7
 10
143.9826441982
 20
128.042358605
 30
0.0
 11
143.9826441982
 21
134.3024186118
 31
0.0
  0
LINE
  5
3D6
  8
0
  6
CONTINUOUS
 62
     7
 10
139.3392114022
 20
129.1858066598
 30
0.0
 11
139.3392114022
 21
135.841046742
 31
0.0
  0
LINE
  5
3D7
  8
0
  6
CONTINUOUS
 62
     7
 10
135.5834966578
 20
136.8792391969
 30
0.0
 11
141.1752095499
 21
136.1567515324
 31
0.0
  0
LINE
  5
3D8
  8
0
  6
CONTINUOUS
 62
     7
 10
139.3392114022
 20
144.239527339
 30
0.0
 11
139.3392114022
 21
144.5858065764
 31
0.0
  0
POLYLINE
  5
3D9
  8
0
  6
CONTINUOUS
 62
     7
 66
     1
 10
0.0
 20
0.0
 30
0.0
 70
   128
  0
VERTEX
  5
7A8
  8
0
  6
CONTINUOUS
 62
     7
 10
128.5337498464
 20
138.7783014708
 30
0.0
  0
VERTEX
  5
7A9
  8
0
  6
CONTINUOUS
 62
     7
 10
133.4556071141
 20
138.8070229933
 30
0.0
  0
VERTEX
  5
7AA
  8
0
  6
CONTINUOUS
 62
     7
 10
140.017862437
 20
138.4622284005
 30
0.0
  0
SEQEND
  5
852
  8
0
  6
CONTINUOUS
 62
     7
  0
LINE
  5
3DA
  8
0
  6
CONTINUOUS
 62
     7
 10
95.2752102219
 20
134.085806718
 30
0.0
 11
98.7069467135
 21
134.0431875343
 31
0.0
  0
LINE
  5
3DB
  8
0
  6
CONTINUOUS
 62
     7
 10
86.9974369178
 20
140.7799394129
 30
0.0
 11
86.9230585575
 21
140.9854033756
 31
0.0
  0
ARC
  5
3DC
  8
0
  6
CONTINUOUS
 62
     7
 10
87.0893385369
 20
141.1316702005
 30
0.0
 40
0.2219323506589511
 50
124.4277559743
 51
183.1180429808
  0
LINE
  5
3DD
  8
0
  6
CONTINUOUS
 62
     7
 10
86.8617159193
 20
140.8921551684
 30
0.0
 11
86.9825084863
 21
140.5584762598
 31
0.0
  0
LINE
  5
3DE
  8
0
  6
CONTINUOUS
 62
     7
 10
86.9010702352
 20
139.3503399359
 30
0.0
 11
86.7327462818
 21
139.4199702682
 31
0.0
  0
LINE
  5
3DF
  8
0
  6
CONTINUOUS
 62
     7
 10
86.6591009597
 20
138.5814038132
 30
0.0
 11
86.8440796092
 21
138.5048841386
 31
0.0
  0
LINE
  5
3E0
  8
0
  6
CONTINUOUS
 62
     7
 10
86.7752098182
 20
137.3991970232
 30
0.0
 11
86.5292754077
 21
137.1068024656
 31
0.0
  0
LINE
  5
3E1
  8
0
  6
CONTINUOUS
 62
     7
 10
86.7752098182
 20
137.2394190895
 30
0.0
 11
86.5729576379
 21
136.9989588694
 31
0.0
  0
LINE
  5
3E2
  8
0
  6
CONTINUOUS
 62
     7
 10
86.8219715247
 20
141.1330305765
 30
0.0
 11
86.8070385239
 21
141.0490141044
 31
0.0
  0
LINE
  5
3E3
  8
0
  6
CONTINUOUS
 62
     7
 10
86.4522659156
 20
137.0094049836
 30
0.0
 11
86.4533209877
 21
136.9377026877
 31
0.0
  0
LINE
  5
3E4
  8
0
  6
CONTINUOUS
 62
     7
 10
86.7250087637
 20
133.2851367515
 30
0.0
 11
86.8894022509
 21
130.1483374088
 31
0.0
  0
LINE
  5
3E5
  8
0
  6
CONTINUOUS
 62
     7
 10
86.7250087637
 20
133.2851367515
 30
0.0
 11
86.7250087637
 21
125.1028708997
 31
0.0
  0
LINE
  5
3E6
  8
0
  6
CONTINUOUS
 62
     7
 10
87.4302504423
 20
128.8897824202
 30
0.0
 11
84.7826814504
 21
128.8897824202
 31
0.0
  0
LINE
  5
3E7
  8
0
  6
CONTINUOUS
 62
     7
 10
87.4302504423
 20
144.8897824202
 30
0.0
 11
84.4283141933
 21
144.8897824202
 31
0.0
  0
LINE
  5
3E8
  8
0
  6
CONTINUOUS
 62
     7
 10
134.7250087637
 20
129.1858066181
 30
0.0
 11
134.7250087637
 21
125.1028708997
 31
0.0
  0
DIMENSION
  5
3E9
  8
0
  6
CONTINUOUS
 62
     7
  2
_D
 10
78.7316723127
 20
128.8897824202
 30
0.0
 11
78.7316723127
 21
136.5593875497
 31
0.0
 70
   160
  1
%%c<>
  3
SLDDIMSTYLE0
 13
84.4283141933
 23
144.8897824202
 33
0.0
 14
84.7826814504
 24
128.8897824202
 34
0.0
 50
90.0
  0
DIMENSION
  5
3F5
  8
0
  6
CONTINUOUS
 62
     7
  2
_D_1
 10
161.7252098419
 20
107.222102495
 30
0.0
 11
127.071354169
 21
107.222102495
 31
0.0
 70
   160
  1
<>
  3
SLDDIMSTYLE0
 13
86.7250087637
 23
125.1028708997
 33
0.0
 14
161.7252098419
 24
122.3858066181
 34
0.0
  0
DIMENSION
  5
3FF
  8
0
  6
CONTINUOUS
 62
     7
  2
_D_2
 10
211.7252098419
 20
95.5668745944
 30
0.0
 11
145.936638376
 21
95.5668745944
 31
0.0
 70
   160
  1
<>
  3
SLDDIMSTYLE0
 13
86.7250087637
 23
125.1028708997
 33
0.0
 14
211.7252098419
 24
130.8063329567
 34
0.0
  0
DIMENSION
  5
409
  8
0
  6
CONTINUOUS
 62
     7
  2
_D_3
 10
134.7250087637
 20
120.9597751975
 30
0.0
 11
117.1040870274
 21
120.9597751975
 31
0.0
 70
   160
  1
<>
  3
SLDDIMSTYLE0
 13
86.7250087637
 23
125.1028708997
 33
0.0
 14
134.7250087637
 24
125.1028708997
 34
0.0
  0
DIMENSION
  5
413
  8
0
  6
CONTINUOUS
 62
     7
  2
_D_4
 10
221.6183886425
 20
146.8858066181
 30
0.0
 11
221.6183886425
 21
136.5593875497
 31
0.0
 70
   160
  1
%%c<>h6
  3
SLDDIMSTYLE0
 13
209.4752098419
 23
126.8858066181
 33
0.0
 14
209.4752098419
 24
146.8858066181
 34
0.0
 50
90.0
  0
DIMENSION
  5
41F
  8
0
  6
CONTINUOUS
 62
     7
  2
_D_5
 10
228.762877484
 20
121.8858066181
 30
0.0
 11
228.762877484
 21
136.5593875497
 31
0.0
 70
   160
  1
%%c<>
  3
SLDDIMSTYLE0
 13
161.2252098419
 23
151.8858066181
 33
0.0
 14
161.2252098419
 24
121.8858066181
 34
0.0
 50
90.0
  0
DIMENSION
  5
42A
  8
0
  6
CONTINUOUS
 62
     7
  2
_D_6
 10
211.7252098419
 20
107.222102495
 30
0.0
 11
178.2991711667
 21
107.222102495
 31
0.0
 70
   160
  1
<>
  3
SLDDIMSTYLE0
 13
161.7252098419
 23
122.3858066181
 33
0.0
 14
211.7252098419
 24
130.8063329567
 34
0.0
  0
LINE
  5
434
  8
0
  6
CENTERX2
 62
     7
 10
86.5646704839
 20
136.8858066181
 30
0.0
 11
211.4752098419
 21
136.8858066181
 31
0.0
  0
ENDSEC
  0
EOF
