  0
SECTION
  2
HEADER
  9
$ACADVER
  1
AC1009
  9
$DWGCODEPAGE
  3
ansi_1252
  9
$INSBASE
 10
0.0
 20
0.0
 30
0.0
  9
$EXTMIN
 10
0.0
 20
0.0
 30
0.0
  9
$EXTMAX
 10
297.0
 20
210.0
 30
0.0
  9
$LIMMIN
 10
0.0
 20
0.0
  9
$LIMMAX
 10
297.0
 20
210.0
  9
$ORTHOMODE
 70
     0
  9
$REGENMODE
 70
     1
  9
$FILLMODE
 70
     1
  9
$QTEXTMODE
 70
     0
  9
$MIRRTEXT
 70
     1
  9
$DRAGMODE
 70
     2
  9
$LTSCALE
 40
1.0
  9
$OSMODE
 70
    37
  9
$ATTMODE
 70
     1
  9
$TEXTSIZE
 40
3.5
  9
$TRACEWID
 40
1.0
  9
$TEXTSTYLE
  7
STANDARD
  9
$CLAYER
  8
0
  9
$CELTYPE
  6
BYLAYER
  9
$CECOLOR
 62
   256
  9
$DIMSCALE
 40
1.0
  9
$DIMASZ
 40
4.0
  9
$DIMEXO
 40
1.0
  9
$DIMDLI
 40
3.75
  9
$DIMRND
 40
0.0
  9
$DIMDLE
 40
0.0
  9
$DIMEXE
 40
1.0
  9
$DIMTP
 40
0.0
  9
$DIMTM
 40
0.0
  9
$DIMTXT
 40
3.8805555556
  9
$DIMCEN
 40
2.5
  9
$DIMTSZ
 40
0.0
  9
$DIMTOL
 70
     0
  9
$DIMLIM
 70
     0
  9
$DIMTIH
 70
     1
  9
$DIMTOH
 70
     1
  9
$DIMSE1
 70
     0
  9
$DIMSE2
 70
     0
  9
$DIMTAD
 70
     1
  9
$DIMZIN
 70
     0
  9
$DIMBLK
  1

  9
$DIMASO
 70
     1
  9
$DIMSHO
 70
     1
  9
$DIMPOST
  1

  9
$DIMAPOST
  1

  9
$DIMALT
 70
     0
  9
$DIMALTD
 70
     3
  9
$DIMALTF
 40
0.0393700787
  9
$DIMLFAC
 40
0.6666666667
  9
$DIMTOFL
 70
     1
  9
$DIMTVP
 40
0.0
  9
$DIMTIX
 70
     0
  9
$DIMSOXD
 70
     0
  9
$DIMSAH
 70
     0
  9
$DIMBLK1
  1

  9
$DIMBLK2
  1

  9
$DIMSTYLE
  2
ISO-25
  9
$DIMCLRD
 70
     0
  9
$DIMCLRE
 70
     0
  9
$DIMCLRT
 70
     0
  9
$DIMTFAC
 40
1.0
  9
$DIMGAP
 40
1.524
  9
$LUNITS
 70
     2
  9
$LUPREC
 70
     3
  9
$SKETCHINC
 40
1.0
  9
$FILLETRAD
 40
10.0
  9
$AUNITS
 70
     0
  9
$AUPREC
 70
     3
  9
$MENU
  1
.
  9
$ELEVATION
 40
0.0
  9
$PELEVATION
 40
0.0
  9
$THICKNESS
 40
0.0
  9
$LIMCHECK
 70
     0
  9
$CHAMFERA
 40
0.0
  9
$CHAMFERB
 40
0.0
  9
$SKPOLY
 70
     0
  9
$TDCREATE
 40
2457374.664200046
  9
$TDUPDATE
 40
2457374.664202755
  9
$TDINDWG
 40
0.0000000116
  9
$TDUSRTIMER
 40
0.0000000116
  9
$USRTIMER
 70
     1
  9
$ANGBASE
 50
0.0
  9
$ANGDIR
 70
     0
  9
$PDMODE
 70
     0
  9
$PDSIZE
 40
-1.0
  9
$PLINEWID
 40
0.0
  9
$COORDS
 70
     1
  9
$SPLFRAME
 70
     0
  9
$SPLINETYPE
 70
     6
  9
$SPLINESEGS
 70
     8
  9
$ATTDIA
 70
     0
  9
$ATTREQ
 70
     1
  9
$HANDLING
 70
     1
  9
$HANDSEED
  5
67B
  9
$SURFTAB1
 70
     6
  9
$SURFTAB2
 70
     6
  9
$SURFTYPE
 70
     6
  9
$SURFU
 70
     6
  9
$SURFV
 70
     6
  9
$UCSNAME
  2

  9
$UCSORG
 10
0.0
 20
0.0
 30
0.0
  9
$UCSXDIR
 10
1.0
 20
0.0
 30
0.0
  9
$UCSYDIR
 10
0.0
 20
1.0
 30
0.0
  9
$PUCSNAME
  2

  9
$PUCSORG
 10
0.0
 20
0.0
 30
0.0
  9
$PUCSXDIR
 10
1.0
 20
0.0
 30
0.0
  9
$PUCSYDIR
 10
0.0
 20
1.0
 30
0.0
  9
$USERI1
 70
     0
  9
$USERI2
 70
     0
  9
$USERI3
 70
     0
  9
$USERI4
 70
     0
  9
$USERI5
 70
     0
  9
$USERR1
 40
0.0
  9
$USERR2
 40
0.0
  9
$USERR3
 40
0.0
  9
$USERR4
 40
0.0
  9
$USERR5
 40
0.0
  9
$WORLDVIEW
 70
     1
  9
$SHADEDGE
 70
     3
  9
$SHADEDIF
 70
    70
  9
$TILEMODE
 70
     1
  9
$MAXACTVP
 70
    64
  9
$PLIMCHECK
 70
     0
  9
$PEXTMIN
 10
1.0000000000E+20
 20
1.0000000000E+20
 30
1.0000000000E+20
  9
$PEXTMAX
 10
-1.0000000000E+20
 20
-1.0000000000E+20
 30
-1.0000000000E+20
  9
$PLIMMIN
 10
0.0
 20
0.0
  9
$PLIMMAX
 10
420.0
 20
297.0
  9
$UNITMODE
 70
     0
  9
$VISRETAIN
 70
     1
  9
$PLINEGEN
 70
     0
  9
$PSLTSCALE
 70
     1
  0
ENDSEC
  0
SECTION
  2
TABLES
  0
TABLE
  2
VPORT
 70
     1
  0
VPORT
  2
*ACTIVE
 70
     0
 10
0.0
 20
0.0
 11
1.0
 21
1.0
 12
148.5
 22
105.0
 13
0.0
 23
0.0
 14
10.0
 24
10.0
 15
10.0
 25
10.0
 16
0.0
 26
0.0
 36
1.0
 17
0.0
 27
0.0
 37
0.0
 40
210.0
 41
1.4142857143
 42
50.0
 43
0.0
 44
0.0
 50
0.0
 51
0.0
 71
     0
 72
  2000
 73
     1
 74
     3
 75
     0
 76
     0
 77
     0
 78
     0
  0
ENDTAB
  0
TABLE
  2
LTYPE
 70
     6
  0
LTYPE
  2
CONTINUOUS
 70
     0
  3
Solid line
 72
    65
 73
     0
 40
0.0
  0
LTYPE
  2
HIDDEN
 70
     0
  3
Hidden __ __ __ __ __ __ __ __ __ __ __ __ __ __
 72
    65
 73
     2
 40
1.905
 49
1.27
 49
-0.635
  0
LTYPE
  2
PHANTOM
 70
     0
  3
Phantom ______  __  __  ______  __  __  ______
 72
    65
 73
     6
 40
12.7
 49
6.35
 49
-1.27
 49
1.27
 49
-1.27
 49
1.27
 49
-1.27
  0
LTYPE
  2
CENTER
 70
     0
  3
Center ____ _ ____ _ ____ _ ____ _ ____ _ ____
 72
    65
 73
     4
 40
10.16
 49
6.35
 49
-1.27
 49
1.27
 49
-1.27
  0
LTYPE
  2
CENTERX2
 70
     0
  3
Center (2x) ________  __  ________  __  _____
 72
    65
 73
     4
 40
20.32
 49
12.7
 49
-2.54
 49
2.54
 49
-2.54
  0
LTYPE
  2
DOT2
 70
     0
  3
Dot (.5x) ........................................
 72
    65
 73
     2
 40
0.635
 49
0.0
 49
-0.635
  0
ENDTAB
  0
TABLE
  2
LAYER
 70
     1
  0
LAYER
  2
0
 70
     0
 62
     7
  6
CONTINUOUS
  0
ENDTAB
  0
TABLE
  2
STYLE
 70
     1
  0
STYLE
  2
STANDARD
 70
     0
 40
0.0
 41
1.0
 50
0.0
 71
     0
 42
3.5
  3
txt
  4

  0
ENDTAB
  0
TABLE
  2
VIEW
 70
     0
  0
ENDTAB
  0
TABLE
  2
UCS
 70
     0
  0
ENDTAB
  0
TABLE
  2
APPID
 70
     1
  0
APPID
  2
ACAD
 70
     0
  0
ENDTAB
  0
TABLE
  2
DIMSTYLE
 70
     3
  0
DIMSTYLE
  2
ISO-25
 70
     0
  3

  4

  5

  6

  7

 40
1.0
 41
2.5
 42
0.625
 43
3.75
 44
1.25
 45
0.0
 46
0.0
 47
0.0
 48
0.0
140
2.5
141
2.5
142
0.0
143
0.0393700787
144
1.0
145
0.0
146
1.0
147
0.625
 71
     0
 72
     0
 73
     0
 74
     0
 75
     0
 76
     0
 77
     1
 78
     8
170
     0
171
     3
172
     1
173
     0
174
     0
175
     0
176
     0
177
     0
178
     0
  0
DIMSTYLE
  2
SLDDIMSTYLE0
 70
     0
  3

  4

  5

  6

  7

 40
1.0
 41
4.0
 42
0.0625
 43
0.38
 44
0.0
 45
0.000000001
 46
0.0
 47
0.0
 48
0.0
140
2.9104166667
141
0.09
142
0.0
143
25.4
144
1.0
145
0.0
146
1.0
147
0.7276041667
 71
     0
 72
     0
 73
     0
 74
     0
 75
     0
 76
     0
 77
     1
 78
    12
170
     0
171
     2
172
     1
173
     1
174
     0
175
     0
176
     0
177
     0
178
     0
  0
DIMSTYLE
  2
SLDDIMSTYLE1
 70
     0
  3

  4

  5

  6

  7

 40
1.0
 41
4.0
 42
0.0625
 43
0.38
 44
0.0
 45
0.000000001
 46
0.0
 47
0.0
 48
0.0
140
2.9104166667
141
0.09
142
0.0
143
25.4
144
1.0
145
0.0
146
1.0
147
0.7276041667
 71
     0
 72
     0
 73
     0
 74
     0
 75
     0
 76
     0
 77
     1
 78
    12
170
     0
171
     2
172
     0
173
     1
174
     0
175
     0
176
     0
177
     0
178
     0
  0
ENDTAB
  0
ENDSEC
  0
SECTION
  2
BLOCKS
  0
BLOCK
  8
0
  2
$MODEL_SPACE
 70
     0
 10
0.0
 20
0.0
 30
0.0
  3
$MODEL_SPACE
  1

  0
ENDBLK
  5
21
  8
0
  0
BLOCK
 67
     1
  8
0
  2
$PAPER_SPACE
 70
     0
 10
0.0
 20
0.0
 30
0.0
  3
$PAPER_SPACE
  1

  0
ENDBLK
  5
1D
 67
     1
  8
0
  0
BLOCK
  8
0
  2
SW_NOTE_0
 70
     0
 10
0.0
 20
0.0
 30
0.0
  3
SW_NOTE_0
  1

  0
TEXT
  5
76
  8
0
  6
CONTINUOUS
 62
     0
 10
0.0
 20
1.6824010449
 30
0.0
 40
4.7625
  1
Wendeplatte BP0502
 41
0.7
 11
0.0
 21
0.0
 31
0.0
 73
     1
  0
TEXT
  5
77
  8
0
  6
CONTINUOUS
 62
     0
 10
0.0
 20
-5.6675990423
 30
0.0
 40
4.7625
  1
Spannschraube SS1,8-1
 41
0.7
 11
0.0
 21
-7.3500000872
 31
0.0
 73
     1
  0
ENDBLK
  5
75
  8
0
  0
BLOCK
  8
0
  2
SW_NOTE_1
 70
     0
 10
0.0
 20
0.0
 30
0.0
  3
SW_NOTE_1
  1

  0
TEXT
  5
7C
  8
0
  6
CONTINUOUS
 62
     0
 10
-0.9346672472
 20
0.0
 30
0.0
 40
2.6458333333
  1
Z=2
 50
90.0
 41
0.7
 11
0.0
 21
0.0
 31
0.0
 73
     1
  0
TEXT
  5
7D
  8
0
  6
CONTINUOUS
 62
     0
 10
3.5931106519
 20
0.0
 30
0.0
 40
2.6458333333
  1
Zeff=1
 50
90.0
 41
0.7
 11
4.5277778991
 21
0.0
 31
0.0
 73
     1
  0
ENDBLK
  5
7B
  8
0
  0
BLOCK
  8
0
  2
_D
 70
     0
 10
0.0
 20
0.0
 30
0.0
  3
_D
  1

  0
SOLID
  5
3FF
  8
0
  6
CONTINUOUS
 62
     7
 10
71.4921548788
 20
129.4301957016
 30
0.0
 11
72.2421548788
 21
133.4301957016
 31
0.0
 12
70.7421548788
 22
133.4301957016
 32
0.0
 13
70.7421548788
 23
133.4301957016
 33
0.0
  0
SOLID
  5
400
  8
0
  6
CONTINUOUS
 62
     7
 10
71.4921548788
 20
112.9301957016
 30
0.0
 11
70.7421548788
 21
108.9301957016
 31
0.0
 12
72.2421548788
 22
108.9301957016
 32
0.0
 13
72.2421548788
 23
108.9301957016
 33
0.0
  0
LINE
  5
401
  8
0
  6
CONTINUOUS
 62
     7
 10
74.2873596606
 20
129.4301957016
 30
0.0
 11
70.4921548788
 21
129.4301957016
 31
0.0
  0
LINE
  5
402
  8
0
  6
CONTINUOUS
 62
     7
 10
76.0444800611
 20
112.9301957016
 30
0.0
 11
70.4921548788
 21
112.9301957016
 31
0.0
  0
LINE
  5
403
  8
0
  6
CONTINUOUS
 62
     7
 10
71.4921548788
 20
129.4301957016
 30
0.0
 11
71.4921548788
 21
135.4301957016
 31
0.0
  0
LINE
  5
404
  8
0
  6
CONTINUOUS
 62
     7
 10
71.4921548788
 20
129.4301957016
 30
0.0
 11
71.4921548788
 21
112.9301957016
 31
0.0
  0
LINE
  5
405
  8
0
  6
CONTINUOUS
 62
     7
 10
71.4921548788
 20
112.9301957016
 30
0.0
 11
71.4921548788
 21
106.9301957016
 31
0.0
  0
TEXT
  5
406
  8
0
  6
CONTINUOUS
 62
     7
 10
70.464020674
 20
113.995881346
 30
0.0
 40
2.9104166667
  1
%%c
 50
90.0
 41
0.7
 11
71.4921546459
 21
113.995881346
 31
0.0
 73
     1
  0
TEXT
  5
407
  8
0
  6
CONTINUOUS
 62
     7
 10
70.464020674
 20
118.3889937261
 30
0.0
 40
2.9104166667
  1
16,5
 50
90.0
 41
0.7
 11
71.4921546459
 21
118.3889937261
 31
0.0
 73
     1
  0
ENDBLK
  5
3FE
  8
0
  0
BLOCK
  8
0
  2
_D_1
 70
     0
 10
0.0
 20
0.0
 30
0.0
  3
_D_1
  1

  0
SOLID
  5
40D
  8
0
  6
CONTINUOUS
 62
     7
 10
156.4401245216
 20
86.9548676458
 30
0.0
 11
152.4401245216
 21
87.7048676458
 31
0.0
 12
152.4401245216
 22
86.2048676458
 32
0.0
 13
152.4401245216
 23
86.2048676458
 33
0.0
  0
SOLID
  5
40E
  8
0
  6
CONTINUOUS
 62
     7
 10
78.4396701316
 20
86.9548676458
 30
0.0
 11
82.4396701316
 21
86.2048676458
 31
0.0
 12
82.4396701316
 22
87.7048676458
 32
0.0
 13
82.4396701316
 23
87.7048676458
 33
0.0
  0
LINE
  5
40F
  8
0
  6
CONTINUOUS
 62
     7
 10
156.4401245216
 20
105.6789228977
 30
0.0
 11
156.4401245216
 21
85.9548676458
 31
0.0
  0
LINE
  5
410
  8
0
  6
CONTINUOUS
 62
     7
 10
78.4396701316
 20
104.9078449456
 30
0.0
 11
78.4396701316
 21
85.9548676458
 31
0.0
  0
LINE
  5
411
  8
0
  6
CONTINUOUS
 62
     7
 10
156.4401245216
 20
86.9548676458
 30
0.0
 11
78.4396701316
 21
86.9548676458
 31
0.0
  0
TEXT
  5
412
  8
0
  6
CONTINUOUS
 62
     7
 10
117.3081511119
 20
87.9830016176
 30
0.0
 40
2.9104166667
  1
78
 50
0.0
 41
0.7
 11
117.3081511119
 21
86.9548676458
 31
0.0
 73
     1
  0
ENDBLK
  5
40C
  8
0
  0
BLOCK
  8
0
  2
_D_2
 70
     0
 10
0.0
 20
0.0
 30
0.0
  3
_D_2
  1

  0
SOLID
  5
417
  8
0
  6
CONTINUOUS
 62
     7
 10
78.4396701316
 20
100.1310685933
 30
0.0
 11
82.4396701316
 21
99.3810685933
 31
0.0
 12
82.4396701316
 22
100.8810685933
 32
0.0
 13
82.4396701316
 23
100.8810685933
 33
0.0
  0
SOLID
  5
418
  8
0
  6
CONTINUOUS
 62
     7
 10
129.4396701316
 20
100.1310685933
 30
0.0
 11
125.4396701316
 21
100.8810685933
 31
0.0
 12
125.4396701316
 22
99.3810685933
 32
0.0
 13
125.4396701316
 23
99.3810685933
 33
0.0
  0
LINE
  5
419
  8
0
  6
CONTINUOUS
 62
     7
 10
78.4396701316
 20
104.9078449456
 30
0.0
 11
78.4396701316
 21
99.1310685933
 31
0.0
  0
LINE
  5
41A
  8
0
  6
CONTINUOUS
 62
     7
 10
129.4396701316
 20
106.5526229048
 30
0.0
 11
129.4396701316
 21
99.1310685933
 31
0.0
  0
LINE
  5
41B
  8
0
  6
CONTINUOUS
 62
     7
 10
78.4396701316
 20
100.1310685933
 30
0.0
 11
129.4396701316
 21
100.1310685933
 31
0.0
  0
TEXT
  5
41C
  8
0
  6
CONTINUOUS
 62
     7
 10
103.5362976975
 20
101.1592025652
 30
0.0
 40
2.9104166667
  1
51
 41
0.7
 11
103.5362976975
 21
100.1310685933
 31
0.0
 73
     1
  0
ENDBLK
  5
416
  8
0
  0
BLOCK
  8
0
  2
_D_3
 70
     0
 10
0.0
 20
0.0
 30
0.0
  3
_D_3
  1

  0
SOLID
  5
421
  8
0
  6
CONTINUOUS
 62
     7
 10
78.4396701316
 20
76.41062262
 30
0.0
 11
82.4396701316
 21
75.66062262
 31
0.0
 12
82.4396701316
 22
77.16062262
 32
0.0
 13
82.4396701316
 23
77.16062262
 33
0.0
  0
SOLID
  5
422
  8
0
  6
CONTINUOUS
 62
     7
 10
206.4401245216
 20
76.41062262
 30
0.0
 11
202.4401245216
 21
77.16062262
 31
0.0
 12
202.4401245216
 22
75.66062262
 32
0.0
 13
202.4401245216
 23
75.66062262
 33
0.0
  0
LINE
  5
423
  8
0
  6
CONTINUOUS
 62
     7
 10
78.4396701316
 20
104.9078449456
 30
0.0
 11
78.4396701316
 21
75.41062262
 31
0.0
  0
LINE
  5
424
  8
0
  6
CONTINUOUS
 62
     7
 10
206.4401245216
 20
111.2789228977
 30
0.0
 11
206.4401245216
 21
75.41062262
 31
0.0
  0
LINE
  5
425
  8
0
  6
CONTINUOUS
 62
     7
 10
78.4396701316
 20
76.41062262
 30
0.0
 11
206.4401245216
 21
76.41062262
 31
0.0
  0
TEXT
  5
426
  8
0
  6
CONTINUOUS
 62
     7
 10
142.8661598038
 20
77.4387565918
 30
0.0
 40
2.9104166667
  1
128
 41
0.7
 11
142.8661598038
 21
76.41062262
 31
0.0
 73
     1
  0
ENDBLK
  5
420
  8
0
  0
BLOCK
  8
0
  2
_D_4
 70
     0
 10
0.0
 20
0.0
 30
0.0
  3
_D_4
  1

  0
SOLID
  5
42B
  8
0
  6
CONTINUOUS
 62
     7
 10
222.6755523489
 20
136.1789228977
 30
0.0
 11
221.9255523489
 21
132.1789228977
 31
0.0
 12
223.4255523489
 22
132.1789228977
 32
0.0
 13
223.4255523489
 23
132.1789228977
 33
0.0
  0
SOLID
  5
42C
  8
0
  6
CONTINUOUS
 62
     7
 10
222.6755523489
 20
106.1789228977
 30
0.0
 11
223.4255523489
 21
110.1789228977
 31
0.0
 12
221.9255523489
 22
110.1789228977
 32
0.0
 13
221.9255523489
 23
110.1789228977
 33
0.0
  0
LINE
  5
42D
  8
0
  6
CONTINUOUS
 62
     7
 10
156.9401245216
 20
136.1789228977
 30
0.0
 11
223.6755523489
 21
136.1789228977
 31
0.0
  0
LINE
  5
42E
  8
0
  6
CONTINUOUS
 62
     7
 10
156.9401245216
 20
106.1789228977
 30
0.0
 11
223.6755523489
 21
106.1789228977
 31
0.0
  0
LINE
  5
42F
  8
0
  6
CONTINUOUS
 62
     7
 10
222.6755523489
 20
136.1789228977
 30
0.0
 11
222.6755523489
 21
106.1789228977
 31
0.0
  0
TEXT
  5
430
  8
0
  6
CONTINUOUS
 62
     7
 10
221.6474181442
 20
117.0859753587
 30
6.0090621718
 40
2.9104166667
  1
%%c
 50
90.0
 41
0.7
 11
222.6755521161
 21
117.0859753587
 31
6.0090621718
 73
     1
  0
TEXT
  5
431
  8
0
  6
CONTINUOUS
 62
     7
 10
221.6474181442
 20
121.4790877387
 30
6.0090621718
 40
2.9104166667
  1
30
 50
90.0
 41
0.7
 11
222.6755521161
 21
121.4790877387
 31
6.0090621718
 73
     1
  0
ENDBLK
  5
42A
  8
0
  0
BLOCK
  8
0
  2
_D_5
 70
     0
 10
0.0
 20
0.0
 30
0.0
  3
_D_5
  1

  0
SOLID
  5
436
  8
0
  6
CONTINUOUS
 62
     7
 10
213.9053344082
 20
111.1789228977
 30
0.0
 11
214.6553344082
 21
115.1789228977
 31
0.0
 12
213.1553344082
 22
115.1789228977
 32
0.0
 13
213.1553344082
 23
115.1789228977
 33
0.0
  0
SOLID
  5
437
  8
0
  6
CONTINUOUS
 62
     7
 10
213.9053344082
 20
131.1789228977
 30
0.0
 11
213.1553344082
 21
127.1789228977
 31
0.0
 12
214.6553344082
 22
127.1789228977
 32
0.0
 13
214.6553344082
 23
127.1789228977
 33
0.0
  0
LINE
  5
438
  8
0
  6
CONTINUOUS
 62
     7
 10
205.1901245216
 20
111.1789228977
 30
0.0
 11
214.9053344082
 21
111.1789228977
 31
0.0
  0
LINE
  5
439
  8
0
  6
CONTINUOUS
 62
     7
 10
205.1901245216
 20
131.1789228977
 30
0.0
 11
214.9053344082
 21
131.1789228977
 31
0.0
  0
LINE
  5
43A
  8
0
  6
CONTINUOUS
 62
     7
 10
213.9053344082
 20
111.1789228977
 30
0.0
 11
213.9053344082
 21
131.1789228977
 31
0.0
  0
TEXT
  5
43B
  8
0
  6
CONTINUOUS
 62
     7
 10
212.8772002035
 20
114.827708105
 30
6.0090621718
 40
2.9104166667
  1
%%c
 50
90.0
 41
0.7
 11
213.9053341754
 21
114.827708105
 31
6.0090621718
 73
     1
  0
TEXT
  5
43C
  8
0
  6
CONTINUOUS
 62
     7
 10
212.8772002035
 20
119.2208204851
 30
6.0090621718
 40
2.9104166667
  1
20
 50
90.0
 41
0.7
 11
213.9053341754
 21
119.2208204851
 31
6.0090621718
 73
     1
  0
TEXT
  5
43D
  8
0
  6
CONTINUOUS
 62
     7
 10
212.8772002035
 20
123.5217701145
 30
6.0090621718
 40
2.9104166667
  1
h6
 50
90.0
 41
0.7
 11
213.9053341754
 21
123.5217701145
 31
6.0090621718
 73
     1
  0
ENDBLK
  5
435
  8
0
  0
BLOCK
  8
0
  2
_D_6
 70
     0
 10
0.0
 20
0.0
 30
0.0
  3
_D_6
  1

  0
SOLID
  5
442
  8
0
  6
CONTINUOUS
 62
     7
 10
156.4401245216
 20
86.9548676458
 30
0.0
 11
160.4401245216
 21
86.2048676458
 31
0.0
 12
160.4401245216
 22
87.7048676458
 32
0.0
 13
160.4401245216
 23
87.7048676458
 33
0.0
  0
SOLID
  5
443
  8
0
  6
CONTINUOUS
 62
     7
 10
206.4401245216
 20
86.9548676458
 30
0.0
 11
202.4401245216
 21
87.7048676458
 31
0.0
 12
202.4401245216
 22
86.2048676458
 32
0.0
 13
202.4401245216
 23
86.2048676458
 33
0.0
  0
LINE
  5
444
  8
0
  6
CONTINUOUS
 62
     7
 10
156.4401245216
 20
105.6789228977
 30
0.0
 11
156.4401245216
 21
85.9548676458
 31
0.0
  0
LINE
  5
445
  8
0
  6
CONTINUOUS
 62
     7
 10
206.4401245216
 20
114.0994492363
 30
0.0
 11
206.4401245216
 21
85.9548676458
 31
0.0
  0
LINE
  5
446
  8
0
  6
CONTINUOUS
 62
     7
 10
156.4401245216
 20
86.9548676458
 30
0.0
 11
206.4401245216
 21
86.9548676458
 31
0.0
  0
TEXT
  5
447
  8
0
  6
CONTINUOUS
 62
     7
 10
175.339010502
 20
87.9830016176
 30
6.0090621718
 40
2.9104166667
  1
50
 41
0.7
 11
175.339010502
 21
86.9548676458
 31
6.0090621718
 73
     1
  0
ENDBLK
  5
441
  8
0
  0
ENDSEC
  0
SECTION
  2
ENTITIES
  0
INSERT
  5
78
  8
0
  6
CONTINUOUS
 62
     7
  2
SW_NOTE_0
 10
116.8079075412
 20
61.9161759893
 30
0.0
  0
INSERT
  5
7E
  8
0
  6
CONTINUOUS
 62
     7
  2
SW_NOTE_1
 10
60.0224755747
 20
116.8171909608
 30
0.0
  0
LINE
  5
7F
  8
0
  6
CONTINUOUS
 62
     7
 10
78.6562451689
 20
120.8576441714
 30
0.0
 11
78.6699854768
 21
120.8617115305
 31
0.0
  0
LINE
  5
80
  8
0
  6
CONTINUOUS
 62
     7
 10
150.4401245216
 20
106.1789228977
 30
0.0
 11
155.9401245216
 21
106.1789228977
 31
0.0
  0
LINE
  5
81
  8
0
  6
CONTINUOUS
 62
     7
 10
155.9401245216
 20
136.1789228977
 30
0.0
 11
150.4401245216
 21
136.1789228977
 31
0.0
  0
LINE
  5
82
  8
0
  6
CONTINUOUS
 62
     7
 10
155.9401245216
 20
106.1789228977
 30
0.0
 11
156.4401245216
 21
106.6789228977
 31
0.0
  0
LINE
  5
83
  8
0
  6
CONTINUOUS
 62
     7
 10
156.4401245216
 20
135.6789228977
 30
0.0
 11
155.9401245216
 21
136.1789228977
 31
0.0
  0
LINE
  5
84
  8
0
  6
CONTINUOUS
 62
     7
 10
150.4401245216
 20
136.1789228977
 30
0.0
 11
139.7849207095
 21
130.2059708034
 31
0.0
  0
LINE
  5
85
  8
0
  6
CONTINUOUS
 62
     7
 10
139.7849207095
 20
112.1518749921
 30
0.0
 11
150.4401245216
 21
106.1789228977
 31
0.0
  0
LINE
  5
86
  8
0
  6
CONTINUOUS
 62
     7
 10
158.1696615107
 20
131.1789228977
 30
0.0
 11
157.6991984997
 21
131.0789228977
 31
0.0
  0
LINE
  5
87
  8
0
  6
CONTINUOUS
 62
     7
 10
157.6991984997
 20
111.2789228977
 30
0.0
 11
158.1696615107
 21
111.1789228977
 31
0.0
  0
LINE
  5
88
  8
0
  6
CONTINUOUS
 62
     7
 10
158.1696615107
 20
111.1789228977
 30
0.0
 11
204.1901245216
 21
111.1789228977
 31
0.0
  0
LINE
  5
89
  8
0
  6
CONTINUOUS
 62
     7
 10
204.1901245216
 20
131.1789228977
 30
0.0
 11
158.1696615107
 21
131.1789228977
 31
0.0
  0
LINE
  5
8A
  8
0
  6
CONTINUOUS
 62
     7
 10
157.6991984997
 20
131.0789228977
 30
0.0
 11
156.4401245216
 21
131.0789228977
 31
0.0
  0
LINE
  5
8B
  8
0
  6
CONTINUOUS
 62
     7
 10
156.4401245216
 20
111.2789228977
 30
0.0
 11
157.6991984997
 21
111.2789228977
 31
0.0
  0
ARC
  5
8C
  8
0
  6
CONTINUOUS
 62
     7
 10
134.8951245216
 20
103.4289228977
 30
0.0
 40
10.00000000000001
 50
60.7264630797
 51
90.0
  0
LINE
  5
8D
  8
0
  6
CONTINUOUS
 62
     7
 10
204.1901245216
 20
111.1789228977
 30
0.0
 11
205.4401245216
 21
111.2789228977
 31
0.0
  0
LINE
  5
8E
  8
0
  6
CONTINUOUS
 62
     7
 10
205.4401245216
 20
131.0789228977
 30
0.0
 11
204.1901245216
 21
131.1789228977
 31
0.0
  0
LINE
  5
8F
  8
0
  6
CONTINUOUS
 62
     7
 10
119.2642269757
 20
113.4289228977
 30
0.0
 11
134.8951245216
 21
113.4289228977
 31
0.0
  0
LINE
  5
90
  8
0
  6
CONTINUOUS
 62
     7
 10
205.4401245216
 20
111.2789228977
 30
0.0
 11
206.4401245216
 21
112.2789228977
 31
0.0
  0
LINE
  5
91
  8
0
  6
CONTINUOUS
 62
     7
 10
206.4401245216
 20
130.0789228977
 30
0.0
 11
205.4401245216
 21
131.0789228977
 31
0.0
  0
ARC
  5
92
  8
0
  6
CONTINUOUS
 62
     7
 10
134.8951245216
 20
138.9289228977
 30
0.0
 40
10.00000000000002
 50
270.0
 51
299.2735369203
  0
LINE
  5
93
  8
0
  6
CONTINUOUS
 62
     7
 10
134.8951245216
 20
128.9289228977
 30
0.0
 11
125.0776987232
 21
128.9289228977
 31
0.0
  0
LINE
  5
94
  8
0
  6
CONTINUOUS
 62
     7
 10
80.5086280195
 20
115.4672443403
 30
0.0
 11
80.8166476265
 21
115.4369543329
 31
0.0
  0
LINE
  5
95
  8
0
  6
CONTINUOUS
 62
     7
 10
80.8166476265
 20
115.4369543329
 30
0.0
 11
80.8068610405
 21
115.3374343714
 31
0.0
  0
LINE
  5
96
  8
0
  6
CONTINUOUS
 62
     7
 10
80.8068610405
 20
115.3374343714
 30
0.0
 11
80.4988414335
 21
115.3677243788
 31
0.0
  0
LINE
  5
97
  8
0
  6
CONTINUOUS
 62
     7
 10
80.5086280195
 20
115.4672443403
 30
0.0
 11
80.4988414335
 21
115.3677243788
 31
0.0
  0
ARC
  5
98
  8
0
  6
CONTINUOUS
 62
     7
 10
80.515967959
 20
115.5418843114
 30
0.0
 40
0.0750000000000184
 50
130.9861878664
 51
264.3837096094
  0
ARC
  5
99
  8
0
  6
CONTINUOUS
 62
     7
 10
80.515967959
 20
115.5418843114
 30
0.0
 40
0.1749999999999808
 50
130.9861878664
 51
264.3837096094
  0
LINE
  5
9A
  8
0
  6
CONTINUOUS
 62
     7
 10
80.4667771784
 20
115.5984993898
 30
0.0
 11
80.401189471
 21
115.6739861611
 31
0.0
  0
LINE
  5
9B
  8
0
  6
CONTINUOUS
 62
     7
 10
81.8550150063
 20
115.0716575042
 30
0.0
 11
81.5623962465
 21
115.1724931341
 31
0.0
  0
LINE
  5
9C
  8
0
  6
CONTINUOUS
 62
     7
 10
81.5623962465
 20
115.1724931341
 30
0.0
 11
81.5949758544
 21
115.2670371405
 31
0.0
  0
LINE
  5
9D
  8
0
  6
CONTINUOUS
 62
     7
 10
81.5949758544
 20
115.2670371405
 30
0.0
 11
81.8875946141
 21
115.1662015106
 31
0.0
  0
LINE
  5
9E
  8
0
  6
CONTINUOUS
 62
     7
 10
81.8550150063
 20
115.0716575042
 30
0.0
 11
81.8875946141
 21
115.1662015106
 31
0.0
  0
ARC
  5
9F
  8
0
  6
CONTINUOUS
 62
     7
 10
81.91202932
 20
115.2371095154
 30
0.0
 40
0.1750000000000215
 50
250.9861878664
 51
24.3837096094
  0
ARC
  5
A0
  8
0
  6
CONTINUOUS
 62
     7
 10
81.91202932
 20
115.2371095154
 30
0.0
 40
0.0750000000000368
 50
250.9861878664
 51
24.3837096094
  0
LINE
  5
A1
  8
0
  6
CONTINUOUS
 62
     7
 10
82.0714195087
 20
115.3093574756
 30
0.0
 11
81.9803394009
 21
115.2680729269
 31
0.0
  0
ARC
  5
A2
  8
0
  6
CONTINUOUS
 62
     7
 10
80.6919297695
 20
116.347900714
 30
0.0
 40
0.0750000000000297
 50
70.9861878664
 51
204.3837096094
  0
LINE
  5
A3
  8
0
  6
CONTINUOUS
 62
     7
 10
80.6236196886
 20
116.3169373025
 30
0.0
 11
80.5325395808
 21
116.2756527538
 31
0.0
  0
ARC
  5
A4
  8
0
  6
CONTINUOUS
 62
     7
 10
80.6919297695
 20
116.347900714
 30
0.0
 40
0.1750000000000434
 50
70.9861878664
 51
204.3837096094
  0
LINE
  5
A5
  8
0
  6
CONTINUOUS
 62
     7
 10
80.7163644754
 20
116.4188087188
 30
0.0
 11
80.7489440832
 21
116.5133527252
 31
0.0
  0
LINE
  5
A6
  8
0
  6
CONTINUOUS
 62
     7
 10
81.0089832351
 20
116.3179730889
 30
0.0
 11
80.7163644754
 21
116.4188087188
 31
0.0
  0
LINE
  5
A7
  8
0
  6
CONTINUOUS
 62
     7
 10
80.7489440832
 20
116.5133527252
 30
0.0
 11
81.041562843
 21
116.4125170953
 31
0.0
  0
LINE
  5
A8
  8
0
  6
CONTINUOUS
 62
     7
 10
81.0089832351
 20
116.3179730889
 30
0.0
 11
81.041562843
 21
116.4125170953
 31
0.0
  0
LINE
  5
A9
  8
0
  6
CONTINUOUS
 62
     7
 10
81.4169712139
 20
116.6421980769
 30
0.0
 11
81.2367294945
 21
116.3905902761
 31
0.0
  0
LINE
  5
AA
  8
0
  6
CONTINUOUS
 62
     7
 10
81.2367294945
 20
116.3905902761
 30
0.0
 11
81.1554359727
 21
116.4488256889
 31
0.0
  0
LINE
  5
AB
  8
0
  6
CONTINUOUS
 62
     7
 10
81.1554359727
 20
116.4488256889
 30
0.0
 11
81.335677692
 21
116.7004334897
 31
0.0
  0
LINE
  5
AC
  8
0
  6
CONTINUOUS
 62
     7
 10
81.4169712139
 20
116.6421980769
 30
0.0
 11
81.335677692
 21
116.7004334897
 31
0.0
  0
ARC
  5
AD
  8
0
  6
CONTINUOUS
 62
     7
 10
81.0741424508
 20
116.5070611017
 30
0.0
 40
0.200000000000021
 50
250.9861878664
 51
324.3837096094
  0
ARC
  5
AE
  8
0
  6
CONTINUOUS
 62
     7
 10
81.0741424508
 20
116.5070611017
 30
0.0
 40
0.1000000000000245
 50
250.9861878664
 51
324.3837096094
  0
ARC
  5
AF
  8
0
  6
CONTINUOUS
 62
     7
 10
81.1260177343
 20
114.9864887121
 30
0.0
 40
0.1750000000000169
 50
190.9861878664
 51
324.3837096094
  0
LINE
  5
B0
  8
0
  6
CONTINUOUS
 62
     7
 10
80.9542249326
 20
114.9531385506
 30
0.0
 11
81.0523922478
 21
114.9721957857
 31
0.0
  0
ARC
  5
B1
  8
0
  6
CONTINUOUS
 62
     7
 10
81.1260177343
 20
114.9864887121
 30
0.0
 40
0.0750000000000155
 50
190.9861878664
 51
324.3837096094
  0
LINE
  5
B2
  8
0
  6
CONTINUOUS
 62
     7
 10
81.2682813975
 20
114.8845767397
 30
0.0
 11
81.1869878757
 21
114.9428121525
 31
0.0
  0
ARC
  5
B3
  8
0
  6
CONTINUOUS
 62
     7
 10
81.4779413552
 20
116.5985215173
 30
0.0
 40
0.0750000000000072
 50
10.9861878664
 51
144.3837096094
  0
ARC
  5
B4
  8
0
  6
CONTINUOUS
 62
     7
 10
81.4779413552
 20
116.5985215173
 30
0.0
 40
0.1750000000000367
 50
10.9861878664
 51
144.3837096094
  0
LINE
  5
B5
  8
0
  6
CONTINUOUS
 62
     7
 10
81.5515668417
 20
116.6128144437
 30
0.0
 11
81.649734157
 21
116.6318716788
 31
0.0
  0
LINE
  5
B6
  8
0
  6
CONTINUOUS
 62
     7
 10
81.4485231168
 20
115.1361845405
 30
0.0
 11
81.2682813975
 21
114.8845767397
 31
0.0
  0
LINE
  5
B7
  8
0
  6
CONTINUOUS
 62
     7
 10
81.1869878757
 20
114.9428121525
 30
0.0
 11
81.367229595
 21
115.1944199533
 31
0.0
  0
LINE
  5
B8
  8
0
  6
CONTINUOUS
 62
     7
 10
81.4485231168
 20
115.1361845405
 30
0.0
 11
81.367229595
 21
115.1944199533
 31
0.0
  0
LINE
  5
B9
  8
0
  6
CONTINUOUS
 62
     7
 10
82.2027696185
 20
115.9110240683
 30
0.0
 11
81.9691340215
 21
115.7080266037
 31
0.0
  0
LINE
  5
BA
  8
0
  6
CONTINUOUS
 62
     7
 10
81.9691340215
 20
115.7080266037
 30
0.0
 11
81.9035463141
 21
115.783513375
 31
0.0
  0
LINE
  5
BB
  8
0
  6
CONTINUOUS
 62
     7
 10
81.9035463141
 20
115.783513375
 30
0.0
 11
82.1371819111
 21
115.9865108396
 31
0.0
  0
LINE
  5
BC
  8
0
  6
CONTINUOUS
 62
     7
 10
82.2027696185
 20
115.9110240683
 30
0.0
 11
82.1371819111
 21
115.9865108396
 31
0.0
  0
LINE
  5
BD
  8
0
  6
CONTINUOUS
 62
     7
 10
80.7004127754
 20
115.8014968544
 30
0.0
 11
80.4667771784
 21
115.5984993898
 31
0.0
  0
LINE
  5
BE
  8
0
  6
CONTINUOUS
 62
     7
 10
80.401189471
 20
115.6739861611
 30
0.0
 11
80.634825068
 21
115.8769836257
 31
0.0
  0
LINE
  5
BF
  8
0
  6
CONTINUOUS
 62
     7
 10
80.7004127754
 20
115.8014968544
 30
0.0
 11
80.634825068
 21
115.8769836257
 31
0.0
  0
ARC
  5
C0
  8
0
  6
CONTINUOUS
 62
     7
 10
82.0879911305
 20
116.043125918
 30
0.0
 40
0.1749999999999994
 50
310.9861878664
 51
84.3837096094
  0
ARC
  5
C1
  8
0
  6
CONTINUOUS
 62
     7
 10
82.0879911305
 20
116.043125918
 30
0.0
 40
0.074999999999989
 50
310.9861878664
 51
84.3837096095
  0
LINE
  5
C2
  8
0
  6
CONTINUOUS
 62
     7
 10
82.105117656
 20
116.2172858506
 30
0.0
 11
82.09533107
 21
116.1177658891
 31
0.0
  0
ARC
  5
C3
  8
0
  6
CONTINUOUS
 62
     7
 10
81.5298166387
 20
115.0779491276
 30
0.0
 40
0.1000000000000097
 50
70.9861878664
 51
144.3837096094
  0
LINE
  5
C4
  8
0
  6
CONTINUOUS
 62
     7
 10
81.9436416211
 20
115.5912552838
 30
0.0
 11
82.0714195087
 21
115.3093574756
 31
0.0
  0
ARC
  5
C5
  8
0
  6
CONTINUOUS
 62
     7
 10
82.0347217289
 20
115.6325398324
 30
0.0
 40
0.100000000000009
 50
130.9861878664
 51
204.3837096094
  0
LINE
  5
C6
  8
0
  6
CONTINUOUS
 62
     7
 10
81.797098049
 20
116.247575858
 30
0.0
 11
82.105117656
 21
116.2172858506
 31
0.0
  0
ARC
  5
C7
  8
0
  6
CONTINUOUS
 62
     7
 10
81.806884635
 20
116.3470958195
 30
0.0
 40
0.1000000000000655
 50
190.9861878664
 51
264.3837096094
  0
LINE
  5
C8
  8
0
  6
CONTINUOUS
 62
     7
 10
81.649734157
 20
116.6318716788
 30
0.0
 11
81.7087173197
 21
116.3280385843
 31
0.0
  0
LINE
  5
C9
  8
0
  6
CONTINUOUS
 62
     7
 10
80.6603174684
 20
115.9937549456
 30
0.0
 11
80.5325395808
 21
116.2756527538
 31
0.0
  0
ARC
  5
CA
  8
0
  6
CONTINUOUS
 62
     7
 10
80.5692373606
 20
115.952470397
 30
0.0
 40
0.0999999999999906
 50
310.9861878664
 51
24.3837096094
  0
ARC
  5
CB
  8
0
  6
CONTINUOUS
 62
     7
 10
80.7970744545
 20
115.2379144099
 30
0.0
 40
0.0999999999999958
 50
10.9861878664
 51
84.3837096095
  0
LINE
  5
CC
  8
0
  6
CONTINUOUS
 62
     7
 10
80.9542249326
 20
114.9531385506
 30
0.0
 11
80.8952417698
 21
115.2569716451
 31
0.0
  0
CIRCLE
  5
CD
  8
0
  6
CONTINUOUS
 62
     7
 10
81.3019795448
 20
115.7925051147
 30
0.0
 40
1.125000000000028
  0
LINE
  5
CE
  8
0
  6
CONTINUOUS
 62
     7
 10
80.8952417698
 20
115.2569716451
 30
0.0
 11
80.9934090851
 21
115.2760288802
 31
0.0
  0
LINE
  5
CF
  8
0
  6
CONTINUOUS
 62
     7
 10
80.9934090851
 20
115.2760288802
 30
0.0
 11
81.0523922478
 21
114.9721957857
 31
0.0
  0
LINE
  5
D0
  8
0
  6
CONTINUOUS
 62
     7
 10
81.9803394009
 20
115.2680729269
 30
0.0
 11
81.8525615133
 21
115.5499707351
 31
0.0
  0
LINE
  5
D1
  8
0
  6
CONTINUOUS
 62
     7
 10
81.9436416211
 20
115.5912552838
 30
0.0
 11
81.8525615133
 21
115.5499707351
 31
0.0
  0
ARC
  5
D2
  8
0
  6
CONTINUOUS
 62
     7
 10
80.5692373606
 20
115.952470397
 30
0.0
 40
0.2000000000000082
 50
310.9861878664
 51
24.3837096094
  0
LINE
  5
D3
  8
0
  6
CONTINUOUS
 62
     7
 10
80.7513975762
 20
116.0350394943
 30
0.0
 11
80.6603174684
 21
115.9937549456
 31
0.0
  0
ARC
  5
D4
  8
0
  6
CONTINUOUS
 62
     7
 10
80.7970744545
 20
115.2379144099
 30
0.0
 40
0.2000000000000307
 50
10.9861878664
 51
84.3837096094
  0
LINE
  5
D5
  8
0
  6
CONTINUOUS
 62
     7
 10
80.6236196886
 20
116.3169373025
 30
0.0
 11
80.7513975762
 21
116.0350394943
 31
0.0
  0
LINE
  5
D6
  8
0
  6
CONTINUOUS
 62
     7
 10
82.09533107
 20
116.1177658891
 30
0.0
 11
81.787311463
 21
116.1480558965
 31
0.0
  0
LINE
  5
D7
  8
0
  6
CONTINUOUS
 62
     7
 10
81.797098049
 20
116.247575858
 30
0.0
 11
81.787311463
 21
116.1480558965
 31
0.0
  0
ARC
  5
D8
  8
0
  6
CONTINUOUS
 62
     7
 10
82.0347217289
 20
115.6325398324
 30
0.0
 40
0.2000000000000058
 50
130.9861878664
 51
204.3837096094
  0
LINE
  5
D9
  8
0
  6
CONTINUOUS
 62
     7
 10
81.6105500045
 20
116.3089813491
 30
0.0
 11
81.5515668417
 21
116.6128144437
 31
0.0
  0
LINE
  5
DA
  8
0
  6
CONTINUOUS
 62
     7
 10
81.6105500045
 20
116.3089813491
 30
0.0
 11
81.7087173197
 21
116.3280385843
 31
0.0
  0
CIRCLE
  5
DB
  8
0
  6
CONTINUOUS
 62
     7
 10
81.3019795448
 20
115.7925051147
 30
0.0
 40
1.225000000000025
  0
ARC
  5
DC
  8
0
  6
CONTINUOUS
 62
     7
 10
81.806884635
 20
116.3470958195
 30
0.0
 40
0.2000000000000167
 50
190.9861878664
 51
264.3837096094
  0
ARC
  5
DD
  8
0
  6
CONTINUOUS
 62
     7
 10
81.5298166387
 20
115.0779491276
 30
0.0
 40
0.2000000000000242
 50
70.9861878664
 51
144.3837096094
  0
LINE
  5
DE
  8
0
  6
CONTINUOUS
 62
     7
 10
81.91202932
 20
115.2371095154
 30
0.0
 11
81.9803394009
 21
115.2680729269
 31
0.0
  0
LINE
  5
DF
  8
0
  6
CONTINUOUS
 62
     7
 10
81.6628398286
 20
115.4639741952
 30
0.0
 11
81.91202932
 21
115.2371095154
 31
0.0
  0
LINE
  5
E0
  8
0
  6
CONTINUOUS
 62
     7
 10
81.6628398286
 20
115.4639741952
 30
0.0
 11
81.8525615133
 21
115.5499707351
 31
0.0
  0
LINE
  5
E1
  8
0
  6
CONTINUOUS
 62
     7
 10
81.3019795448
 20
115.7925051147
 30
0.0
 11
81.7669258089
 21
115.940753828
 31
0.0
  0
LINE
  5
E2
  8
0
  6
CONTINUOUS
 62
     7
 10
81.7669258089
 20
115.940753828
 30
0.0
 11
81.9035463141
 21
115.783513375
 31
0.0
  0
LINE
  5
E3
  8
0
  6
CONTINUOUS
 62
     7
 10
81.3019795448
 20
115.7925051147
 30
0.0
 11
81.6628398286
 21
115.4639741952
 31
0.0
  0
LINE
  5
E4
  8
0
  6
CONTINUOUS
 62
     7
 10
80.515967959
 20
115.5418843114
 30
0.0
 11
80.5086280195
 21
115.4672443403
 31
0.0
  0
LINE
  5
E5
  8
0
  6
CONTINUOUS
 62
     7
 10
80.8370332806
 20
115.6442564014
 30
0.0
 11
80.515967959
 21
115.5418843114
 31
0.0
  0
LINE
  5
E6
  8
0
  6
CONTINUOUS
 62
     7
 10
80.8370332806
 20
115.6442564014
 30
0.0
 11
80.8166476265
 21
115.4369543329
 31
0.0
  0
LINE
  5
E7
  8
0
  6
CONTINUOUS
 62
     7
 10
80.515967959
 20
115.5418843114
 30
0.0
 11
80.4667771784
 21
115.5984993898
 31
0.0
  0
LINE
  5
E8
  8
0
  6
CONTINUOUS
 62
     7
 10
81.406065525
 20
116.2692847475
 30
0.0
 11
81.6105500045
 21
116.3089813491
 31
0.0
  0
LINE
  5
E9
  8
0
  6
CONTINUOUS
 62
     7
 10
81.7669258089
 20
115.940753828
 30
0.0
 11
81.787311463
 21
116.1480558965
 31
0.0
  0
LINE
  5
EA
  8
0
  6
CONTINUOUS
 62
     7
 10
81.406065525
 20
116.2692847475
 30
0.0
 11
81.3019795448
 21
115.7925051147
 31
0.0
  0
LINE
  5
EB
  8
0
  6
CONTINUOUS
 62
     7
 10
80.9411192609
 20
116.1210360342
 30
0.0
 11
81.0089832351
 21
116.3179730889
 31
0.0
  0
LINE
  5
EC
  8
0
  6
CONTINUOUS
 62
     7
 10
80.9411192609
 20
116.1210360342
 30
0.0
 11
80.6919297695
 21
116.347900714
 31
0.0
  0
LINE
  5
ED
  8
0
  6
CONTINUOUS
 62
     7
 10
80.6919297695
 20
116.347900714
 30
0.0
 11
80.7163644754
 21
116.4188087188
 31
0.0
  0
LINE
  5
EE
  8
0
  6
CONTINUOUS
 62
     7
 10
81.406065525
 20
116.2692847475
 30
0.0
 11
81.4779413552
 21
116.5985215173
 31
0.0
  0
LINE
  5
EF
  8
0
  6
CONTINUOUS
 62
     7
 10
81.4779413552
 20
116.5985215173
 30
0.0
 11
81.5515668417
 21
116.6128144437
 31
0.0
  0
LINE
  5
F0
  8
0
  6
CONTINUOUS
 62
     7
 10
80.6919297695
 20
116.347900714
 30
0.0
 11
80.6236196886
 21
116.3169373025
 31
0.0
  0
LINE
  5
F1
  8
0
  6
CONTINUOUS
 62
     7
 10
81.3019795448
 20
115.7925051147
 30
0.0
 11
81.1978935645
 21
115.3157254819
 31
0.0
  0
LINE
  5
F2
  8
0
  6
CONTINUOUS
 62
     7
 10
81.1978935645
 20
115.3157254819
 30
0.0
 11
80.9934090851
 21
115.2760288802
 31
0.0
  0
LINE
  5
F3
  8
0
  6
CONTINUOUS
 62
     7
 10
81.3019795448
 20
115.7925051147
 30
0.0
 11
80.8370332806
 21
115.6442564014
 31
0.0
  0
LINE
  5
F4
  8
0
  6
CONTINUOUS
 62
     7
 10
81.91202932
 20
115.2371095154
 30
0.0
 11
81.8875946141
 21
115.1662015106
 31
0.0
  0
LINE
  5
F5
  8
0
  6
CONTINUOUS
 62
     7
 10
81.1260177343
 20
114.9864887121
 30
0.0
 11
81.1869878757
 21
114.9428121525
 31
0.0
  0
LINE
  5
F6
  8
0
  6
CONTINUOUS
 62
     7
 10
81.1260177343
 20
114.9864887121
 30
0.0
 11
81.0523922478
 21
114.9721957857
 31
0.0
  0
LINE
  5
F7
  8
0
  6
CONTINUOUS
 62
     7
 10
81.1978935645
 20
115.3157254819
 30
0.0
 11
81.1260177343
 21
114.9864887121
 31
0.0
  0
LINE
  5
F8
  8
0
  6
CONTINUOUS
 62
     7
 10
81.1978935645
 20
115.3157254819
 30
0.0
 11
81.367229595
 21
115.1944199533
 31
0.0
  0
LINE
  5
F9
  8
0
  6
CONTINUOUS
 62
     7
 10
82.0879911305
 20
116.043125918
 30
0.0
 11
82.09533107
 21
116.1177658891
 31
0.0
  0
LINE
  5
FA
  8
0
  6
CONTINUOUS
 62
     7
 10
81.7669258089
 20
115.940753828
 30
0.0
 11
82.0879911305
 21
116.043125918
 31
0.0
  0
LINE
  5
FB
  8
0
  6
CONTINUOUS
 62
     7
 10
82.0879911305
 20
116.043125918
 30
0.0
 11
82.1371819111
 21
115.9865108396
 31
0.0
  0
LINE
  5
FC
  8
0
  6
CONTINUOUS
 62
     7
 10
81.6628398286
 20
115.4639741952
 30
0.0
 11
81.5949758544
 21
115.2670371405
 31
0.0
  0
LINE
  5
FD
  8
0
  6
CONTINUOUS
 62
     7
 10
80.8370332806
 20
115.6442564014
 30
0.0
 11
80.7004127754
 21
115.8014968544
 31
0.0
  0
LINE
  5
FE
  8
0
  6
CONTINUOUS
 62
     7
 10
80.9411192609
 20
116.1210360342
 30
0.0
 11
80.7513975762
 21
116.0350394943
 31
0.0
  0
LINE
  5
FF
  8
0
  6
CONTINUOUS
 62
     7
 10
81.3019795448
 20
115.7925051147
 30
0.0
 11
80.9411192609
 21
116.1210360342
 31
0.0
  0
LINE
  5
100
  8
0
  6
CONTINUOUS
 62
     7
 10
81.406065525
 20
116.2692847475
 30
0.0
 11
81.2367294945
 21
116.3905902761
 31
0.0
  0
LINE
  5
101
  8
0
  6
CONTINUOUS
 62
     7
 10
81.4779413552
 20
116.5985215173
 30
0.0
 11
81.4169712139
 21
116.6421980769
 31
0.0
  0
ARC
  5
102
  8
0
  6
CONTINUOUS
 62
     7
 10
81.0690548315
 20
123.0205524075
 30
0.0
 40
0.8005249214221252
 50
191.6854358336
 51
346.1778328805
  0
LINE
  5
103
  8
0
  6
CONTINUOUS
 62
     7
 10
79.579433282
 20
114.9560711473
 30
0.0
 11
79.5543841873
 21
114.9786254535
 31
0.0
  0
LINE
  5
104
  8
0
  6
CONTINUOUS
 62
     7
 10
79.6759178255
 20
115.1136022331
 30
0.0
 11
79.5543841873
 21
114.9786254535
 31
0.0
  0
ARC
  5
105
  8
0
  6
CONTINUOUS
 62
     7
 10
79.7064829071
 20
115.1241917279
 30
0.0
 40
0.0323475132196549
 50
199.1090153397
 51
261.9783272969
  0
LINE
  5
106
  8
0
  6
CONTINUOUS
 62
     7
 10
79.579433282
 20
114.9560711473
 30
0.0
 11
79.701968887
 21
115.0921607236
 31
0.0
  0
ARC
  5
107
  8
0
  6
CONTINUOUS
 62
     7
 10
81.3019795448
 20
115.7925051147
 30
0.0
 40
1.699999999999992
 50
159.3640440434
 51
206.6359559566
  0
ARC
  5
108
  8
0
  6
CONTINUOUS
 62
     7
 10
79.6897923007
 20
114.9930805918
 30
0.0
 40
0.0998255567822682
 50
21.9288269964
 51
82.993690311
  0
ARC
  5
109
  8
0
  6
CONTINUOUS
 62
     7
 10
81.3019795448
 20
115.7925051147
 30
0.0
 40
1.762096999999992
 50
163.338800161
 51
202.661199839
  0
ARC
  5
10A
  8
0
  6
CONTINUOUS
 62
     7
 10
79.6443808104
 20
116.2913516618
 30
0.0
 40
0.0311770877880771
 50
102.6974681873
 51
168.2151890537
  0
ARC
  5
10B
  8
0
  6
CONTINUOUS
 62
     7
 10
79.6151823569
 20
116.4189035769
 30
0.0
 40
0.0996743682225593
 50
282.9550374197
 51
344.1224453064
  0
ARC
  5
10C
  8
0
  6
CONTINUOUS
 62
     7
 10
81.3019795448
 20
115.7925051147
 30
0.0
 40
1.699999999999999
 50
249.3640440434
 51
296.6359559566
  0
ARC
  5
10D
  8
0
  6
CONTINUOUS
 62
     7
 10
82.1014040677
 20
114.1803178706
 30
0.0
 40
0.0998255567823367
 50
111.9288269965
 51
172.993690311
  0
ARC
  5
10E
  8
0
  6
CONTINUOUS
 62
     7
 10
81.9702929315
 20
114.197008477
 30
0.0
 40
0.0323475132228602
 50
289.1090153425
 51
351.9783272935
  0
ARC
  5
10F
  8
0
  6
CONTINUOUS
 62
     7
 10
81.3019795448
 20
115.7925051147
 30
0.0
 40
1.762097000000011
 50
253.338800161
 51
292.661199839
  0
ARC
  5
110
  8
0
  6
CONTINUOUS
 62
     7
 10
80.8031329977
 20
114.1349063804
 30
0.0
 40
0.0311770877871627
 50
192.6974681871
 51
258.215189057
  0
ARC
  5
111
  8
0
  6
CONTINUOUS
 62
     7
 10
80.6755810826
 20
114.1057079268
 30
0.0
 40
0.0996743682249481
 50
12.9550374201
 51
74.1224453055
  0
LINE
  5
112
  8
0
  6
CONTINUOUS
 62
     7
 10
82.1158592059
 20
114.0449097572
 30
0.0
 11
82.1384135122
 21
114.069958852
 31
0.0
  0
LINE
  5
113
  8
0
  6
CONTINUOUS
 62
     7
 10
81.9808824263
 20
114.1664433954
 30
0.0
 11
82.1158592059
 21
114.0449097572
 31
0.0
  0
LINE
  5
114
  8
0
  6
CONTINUOUS
 62
     7
 10
82.1384135122
 20
114.069958852
 30
0.0
 11
82.0023239358
 21
114.1924944569
 31
0.0
  0
ARC
  5
115
  8
0
  6
CONTINUOUS
 62
     7
 10
81.3019795448
 20
115.7925051147
 30
0.0
 40
1.700000000000013
 50
339.3640440434
 51
26.6359559566
  0
ARC
  5
116
  8
0
  6
CONTINUOUS
 62
     7
 10
82.9141667888
 20
116.5919296376
 30
0.0
 40
0.0998255567801126
 50
201.9288269959
 51
262.9936903117
  0
ARC
  5
117
  8
0
  6
CONTINUOUS
 62
     7
 10
82.8974761824
 20
116.4608185015
 30
0.0
 40
0.0323475132227606
 50
19.1090153431
 51
81.9783272935
  0
ARC
  5
118
  8
0
  6
CONTINUOUS
 62
     7
 10
81.3019795448
 20
115.7925051147
 30
0.0
 40
1.762097000000014
 50
343.338800161
 51
22.661199839
  0
ARC
  5
119
  8
0
  6
CONTINUOUS
 62
     7
 10
82.9595782791
 20
115.2936585676
 30
0.0
 40
0.0311770877873729
 50
282.6974681865
 51
348.2151890547
  0
ARC
  5
11A
  8
0
  6
CONTINUOUS
 62
     7
 10
82.9887767326
 20
115.1661066525
 30
0.0
 40
0.0996743682254851
 50
102.9550374207
 51
164.1224453054
  0
LINE
  5
11B
  8
0
  6
CONTINUOUS
 62
     7
 10
83.0245258075
 20
116.6289390821
 30
0.0
 11
83.0495749023
 21
116.6063847759
 31
0.0
  0
LINE
  5
11C
  8
0
  6
CONTINUOUS
 62
     7
 10
82.928041264
 20
116.4714079963
 30
0.0
 11
83.0495749023
 21
116.6063847759
 31
0.0
  0
LINE
  5
11D
  8
0
  6
CONTINUOUS
 62
     7
 10
83.0245258075
 20
116.6289390821
 30
0.0
 11
82.9019902025
 21
116.4928495057
 31
0.0
  0
ARC
  5
11E
  8
0
  6
CONTINUOUS
 62
     7
 10
81.3019795448
 20
115.7925051147
 30
0.0
 40
1.700000000000016
 50
69.3640440434
 51
116.6359559566
  0
ARC
  5
11F
  8
0
  6
CONTINUOUS
 62
     7
 10
80.5025550523
 20
117.4046923354
 30
0.0
 40
0.099825523708588
 50
291.9288158002
 51
352.9937015073
  0
ARC
  5
120
  8
0
  6
CONTINUOUS
 62
     7
 10
80.6336661758
 20
117.3880017377
 30
0.0
 40
0.0323475329665249
 50
109.1090367186
 51
171.9783059179
  0
ARC
  5
121
  8
0
  6
CONTINUOUS
 62
     7
 10
81.3019795448
 20
115.7925051147
 30
0.0
 40
1.762097000000019
 50
73.338800161
 51
112.661199839
  0
ARC
  5
122
  8
0
  6
CONTINUOUS
 62
     7
 10
81.8008260918
 20
117.450103849
 30
0.0
 40
0.0311770877883381
 50
12.6974681876
 51
78.2151890535
  0
ARC
  5
123
  8
0
  6
CONTINUOUS
 62
     7
 10
81.928378007
 20
117.4793023026
 30
0.0
 40
0.0996743682235697
 50
192.95503742
 51
254.1224453063
  0
LINE
  5
124
  8
0
  6
CONTINUOUS
 62
     7
 10
80.4655455773
 20
117.5150513774
 30
0.0
 11
80.4880998836
 21
117.5401004722
 31
0.0
  0
LINE
  5
125
  8
0
  6
CONTINUOUS
 62
     7
 10
80.6230766632
 20
117.4185668339
 30
0.0
 11
80.4880998836
 21
117.5401004722
 31
0.0
  0
LINE
  5
126
  8
0
  6
CONTINUOUS
 62
     7
 10
80.4655455773
 20
117.5150513774
 30
0.0
 11
80.6016351537
 21
117.3925157725
 31
0.0
  0
ARC
  5
127
  8
0
  6
CONTINUOUS
 62
     7
 10
82.9351878753
 20
116.7103771601
 30
0.0
 40
0.1545923928049115
 50
317.7251652653
 51
48.2748347347
  0
LINE
  5
128
  8
0
  6
CONTINUOUS
 62
     7
 10
83.038078114
 20
116.8257565632
 30
0.0
 11
82.1480990182
 21
117.6270973405
 31
0.0
  0
ARC
  5
129
  8
0
  6
CONTINUOUS
 62
     7
 10
82.044106634
 20
117.5127103135
 30
0.0
 40
0.1545923928043207
 50
47.7251652652
 51
138.2748347347
  0
LINE
  5
12A
  8
0
  6
CONTINUOUS
 62
     7
 10
81.9287272309
 20
117.6156005522
 30
0.0
 11
81.8071935926
 21
117.4806237726
 31
0.0
  0
ARC
  5
12B
  8
0
  6
CONTINUOUS
 62
     7
 10
80.3841074994
 20
117.4257134452
 30
0.0
 40
0.1545923928048924
 50
47.7251652653
 51
138.2748347347
  0
LINE
  5
12C
  8
0
  6
CONTINUOUS
 62
     7
 10
80.2687280962
 20
117.528603684
 30
0.0
 11
79.467387319
 21
116.6386245882
 31
0.0
  0
ARC
  5
12D
  8
0
  6
CONTINUOUS
 62
     7
 10
79.581774346
 20
116.534632204
 30
0.0
 40
0.1545923928043189
 50
137.7251652652
 51
228.2748347347
  0
LINE
  5
12E
  8
0
  6
CONTINUOUS
 62
     7
 10
79.4788841072
 20
116.4192528008
 30
0.0
 11
79.6138608868
 21
116.2977191626
 31
0.0
  0
ARC
  5
12F
  8
0
  6
CONTINUOUS
 62
     7
 10
79.6687712143
 20
114.8746330693
 30
0.0
 40
0.1545923928048704
 50
137.7251652653
 51
228.2748347347
  0
LINE
  5
130
  8
0
  6
CONTINUOUS
 62
     7
 10
79.5658809755
 20
114.7592536662
 30
0.0
 11
80.4558600713
 21
113.9579128889
 31
0.0
  0
ARC
  5
131
  8
0
  6
CONTINUOUS
 62
     7
 10
80.5598524555
 20
114.0722999159
 30
0.0
 40
0.1545923928043609
 50
227.7251652653
 51
318.2748347347
  0
LINE
  5
132
  8
0
  6
CONTINUOUS
 62
     7
 10
80.6752318587
 20
113.9694096772
 30
0.0
 11
80.7967654969
 21
114.1043864568
 31
0.0
  0
ARC
  5
133
  8
0
  6
CONTINUOUS
 62
     7
 10
82.2198515901
 20
114.1592967842
 30
0.0
 40
0.1545923928048819
 50
227.7251652653
 51
318.2748347347
  0
LINE
  5
134
  8
0
  6
CONTINUOUS
 62
     7
 10
82.3352309933
 20
114.0564065454
 30
0.0
 11
83.1365717705
 21
114.9463856412
 31
0.0
  0
ARC
  5
135
  8
0
  6
CONTINUOUS
 62
     7
 10
83.0221847435
 20
115.0503780254
 30
0.0
 40
0.1545923928043313
 50
317.7251652652
 51
48.2748347347
  0
LINE
  5
136
  8
0
  6
CONTINUOUS
 62
     7
 10
83.1250749823
 20
115.1657574286
 30
0.0
 11
82.9900982027
 21
115.2872910668
 31
0.0
  0
ARC
  5
137
  8
0
  6
CONTINUOUS
 62
     7
 10
83.1786805761
 20
114.10272023
 30
0.0
 40
0.0492496605178196
 50
273.205793109
 51
2.5647360819
  0
LINE
  5
138
  8
0
  6
CONTINUOUS
 62
     7
 10
83.181434738
 20
114.0535476395
 30
0.0
 11
79.6145907562
 21
113.8666172674
 31
0.0
  0
ARC
  5
139
  8
0
  6
CONTINUOUS
 62
     7
 10
79.6121897087
 20
113.9158081654
 30
0.0
 40
0.049249461724662
 50
183.4350352192
 51
272.79443559
  0
LINE
  5
13A
  8
0
  6
CONTINUOUS
 62
     7
 10
79.5630287297
 20
113.9128572969
 30
0.0
 11
79.3760781863
 21
117.4800861686
 31
0.0
  0
ARC
  5
13B
  8
0
  6
CONTINUOUS
 62
     7
 10
79.4252785134
 20
117.4822899994
 30
0.0
 40
0.049249660517807
 50
93.205793109
 51
182.5647360819
  0
LINE
  5
13C
  8
0
  6
CONTINUOUS
 62
     7
 10
79.4225243515
 20
117.5314625899
 30
0.0
 11
82.9893683333
 21
117.718392962
 31
0.0
  0
ARC
  5
13D
  8
0
  6
CONTINUOUS
 62
     7
 10
82.9917693809
 20
117.669202064
 30
0.0
 40
0.0492494617246336
 50
3.4350352191
 51
92.79443559
  0
LINE
  5
13E
  8
0
  6
CONTINUOUS
 62
     7
 10
83.0409303599
 20
117.6721529325
 30
0.0
 11
83.2278809032
 21
114.1049240608
 31
0.0
  0
CIRCLE
  5
13F
  8
0
  6
CONTINUOUS
 62
     7
 10
79.6538701081
 20
117.276469517
 30
0.0
 40
0.1995975000000936
  0
LINE
  5
140
  8
0
  6
CONTINUOUS
 62
     7
 10
83.1115226757
 20
114.9689399475
 30
0.0
 11
82.3101818985
 21
114.0789608517
 31
0.0
  0
LINE
  5
141
  8
0
  6
CONTINUOUS
 62
     7
 10
83.1115226757
 20
114.9689399475
 30
0.0
 11
83.1365717705
 21
114.9463856412
 31
0.0
  0
LINE
  5
142
  8
0
  6
CONTINUOUS
 62
     7
 10
82.3101818985
 20
114.0789608517
 30
0.0
 11
82.3352309933
 21
114.0564065454
 31
0.0
  0
LINE
  5
143
  8
0
  6
CONTINUOUS
 62
     7
 10
79.4924364138
 20
116.6160702819
 30
0.0
 11
80.293777191
 21
117.5060493777
 31
0.0
  0
LINE
  5
144
  8
0
  6
CONTINUOUS
 62
     7
 10
79.4924364138
 20
116.6160702819
 30
0.0
 11
79.467387319
 21
116.6386245882
 31
0.0
  0
LINE
  5
145
  8
0
  6
CONTINUOUS
 62
     7
 10
80.293777191
 20
117.5060493777
 30
0.0
 11
80.2687280962
 21
117.528603684
 31
0.0
  0
LINE
  5
146
  8
0
  6
CONTINUOUS
 62
     7
 10
82.125544712
 20
117.6020482457
 30
0.0
 11
83.0155238078
 21
116.8007074685
 31
0.0
  0
LINE
  5
147
  8
0
  6
CONTINUOUS
 62
     7
 10
82.125544712
 20
117.6020482457
 30
0.0
 11
82.1480990182
 21
117.6270973405
 31
0.0
  0
LINE
  5
148
  8
0
  6
CONTINUOUS
 62
     7
 10
83.0155238078
 20
116.8007074685
 30
0.0
 11
83.038078114
 21
116.8257565632
 31
0.0
  0
LINE
  5
149
  8
0
  6
CONTINUOUS
 62
     7
 10
83.1025206761
 20
115.1407083338
 30
0.0
 11
83.1250749823
 21
115.1657574286
 31
0.0
  0
LINE
  5
14A
  8
0
  6
CONTINUOUS
 62
     7
 10
82.9664310995
 20
115.2632439387
 30
0.0
 11
83.1025206761
 21
115.1407083338
 31
0.0
  0
LINE
  5
14B
  8
0
  6
CONTINUOUS
 62
     7
 10
79.5014384135
 20
116.4443018956
 30
0.0
 11
79.4788841072
 21
116.4192528008
 31
0.0
  0
LINE
  5
14C
  8
0
  6
CONTINUOUS
 62
     7
 10
79.63752799
 20
116.3217662907
 30
0.0
 11
79.5014384135
 21
116.4443018956
 31
0.0
  0
LINE
  5
14D
  8
0
  6
CONTINUOUS
 62
     7
 10
81.9537763256
 20
117.593046246
 30
0.0
 11
81.9287272309
 21
117.6156005522
 31
0.0
  0
LINE
  5
14E
  8
0
  6
CONTINUOUS
 62
     7
 10
81.8312407208
 20
117.4569566695
 30
0.0
 11
81.9537763256
 21
117.593046246
 31
0.0
  0
LINE
  5
14F
  8
0
  6
CONTINUOUS
 62
     7
 10
80.4784143775
 20
113.9829619837
 30
0.0
 11
79.5884352817
 21
114.7843027609
 31
0.0
  0
LINE
  5
150
  8
0
  6
CONTINUOUS
 62
     7
 10
80.4784143775
 20
113.9829619837
 30
0.0
 11
80.4558600713
 21
113.9579128889
 31
0.0
  0
LINE
  5
151
  8
0
  6
CONTINUOUS
 62
     7
 10
79.5884352817
 20
114.7843027609
 30
0.0
 11
79.5658809755
 21
114.7592536662
 31
0.0
  0
LINE
  5
152
  8
0
  6
CONTINUOUS
 62
     7
 10
80.6501827639
 20
113.9919639834
 30
0.0
 11
80.6752318587
 21
113.9694096772
 31
0.0
  0
LINE
  5
153
  8
0
  6
CONTINUOUS
 62
     7
 10
80.7727183687
 20
114.1280535599
 30
0.0
 11
80.6501827639
 21
113.9919639834
 31
0.0
  0
LINE
  5
154
  8
0
  6
CONTINUOUS
 62
     7
 10
79.3251572465
 20
117.4770746991
 30
0.0
 11
79.5120719558
 21
113.9105295818
 31
0.0
  0
POLYLINE
  5
155
  8
0
  6
CONTINUOUS
 62
     7
 66
     1
 10
0.0
 20
0.0
 30
0.0
 70
   128
  0
VERTEX
  5
449
  8
0
  6
CONTINUOUS
 62
     7
 10
79.3251572465
 20
117.4770746991
 30
0.0
  0
VERTEX
  5
44A
  8
0
  6
CONTINUOUS
 62
     7
 10
79.3493742872
 20
117.4785152685
 30
0.0
  0
VERTEX
  5
44B
  8
0
  6
CONTINUOUS
 62
     7
 10
79.3760781863
 20
117.4800861686
 30
0.0
  0
SEQEND
  5
608
  8
0
  6
CONTINUOUS
 62
     7
  0
POLYLINE
  5
156
  8
0
  6
CONTINUOUS
 62
     7
 66
     1
 10
0.0
 20
0.0
 30
0.0
 70
   128
  0
VERTEX
  5
44C
  8
0
  6
CONTINUOUS
 62
     7
 10
79.5120719558
 20
113.9105295818
 30
0.0
  0
VERTEX
  5
44D
  8
0
  6
CONTINUOUS
 62
     7
 10
79.5363069135
 20
113.911628274
 30
0.0
  0
VERTEX
  5
44E
  8
0
  6
CONTINUOUS
 62
     7
 10
79.5630287297
 20
113.9128572969
 30
0.0
  0
SEQEND
  5
609
  8
0
  6
CONTINUOUS
 62
     7
  0
LINE
  5
157
  8
0
  6
CONTINUOUS
 62
     7
 10
83.278801843
 20
114.1079355303
 30
0.0
 11
83.0918871337
 21
117.6744806476
 31
0.0
  0
POLYLINE
  5
158
  8
0
  6
CONTINUOUS
 62
     7
 66
     1
 10
0.0
 20
0.0
 30
0.0
 70
   128
  0
VERTEX
  5
44F
  8
0
  6
CONTINUOUS
 62
     7
 10
83.278801843
 20
114.1079355303
 30
0.0
  0
VERTEX
  5
450
  8
0
  6
CONTINUOUS
 62
     7
 10
83.2545848024
 20
114.1064949609
 30
0.0
  0
VERTEX
  5
451
  8
0
  6
CONTINUOUS
 62
     7
 10
83.2278809032
 20
114.1049240608
 30
0.0
  0
SEQEND
  5
60A
  8
0
  6
CONTINUOUS
 62
     7
  0
POLYLINE
  5
159
  8
0
  6
CONTINUOUS
 62
     7
 66
     1
 10
0.0
 20
0.0
 30
0.0
 70
   128
  0
VERTEX
  5
452
  8
0
  6
CONTINUOUS
 62
     7
 10
83.0918871337
 20
117.6744806476
 30
0.0
  0
VERTEX
  5
453
  8
0
  6
CONTINUOUS
 62
     7
 10
83.067652176
 20
117.6733819554
 30
0.0
  0
VERTEX
  5
454
  8
0
  6
CONTINUOUS
 62
     7
 10
83.0409303599
 20
117.6721529325
 30
0.0
  0
SEQEND
  5
60B
  8
0
  6
CONTINUOUS
 62
     7
  0
POLYLINE
  5
15A
  8
0
  6
CONTINUOUS
 62
     7
 66
     1
 10
0.0
 20
0.0
 30
0.0
 70
   128
  0
VERTEX
  5
455
  8
0
  6
CONTINUOUS
 62
     7
 10
83.181434738
 20
114.0535476395
 30
0.0
  0
VERTEX
  5
456
  8
0
  6
CONTINUOUS
 62
     7
 10
83.1827378242
 20
114.026850069
 30
0.0
  0
VERTEX
  5
457
  8
0
  6
CONTINUOUS
 62
     7
 10
83.1839108997
 20
114.0026332487
 30
0.0
  0
SEQEND
  5
60C
  8
0
  6
CONTINUOUS
 62
     7
  0
LINE
  5
15B
  8
0
  6
CONTINUOUS
 62
     7
 10
79.6174501623
 20
113.8157229615
 30
0.0
 11
83.1839108997
 21
114.0026332487
 31
0.0
  0
POLYLINE
  5
15C
  8
0
  6
CONTINUOUS
 62
     7
 66
     1
 10
0.0
 20
0.0
 30
0.0
 70
   128
  0
VERTEX
  5
458
  8
0
  6
CONTINUOUS
 62
     7
 10
79.6174501623
 20
113.8157229615
 30
0.0
  0
VERTEX
  5
459
  8
0
  6
CONTINUOUS
 62
     7
 10
79.6160854646
 20
113.8399297393
 30
0.0
  0
VERTEX
  5
45A
  8
0
  6
CONTINUOUS
 62
     7
 10
79.6145907562
 20
113.8666172674
 30
0.0
  0
SEQEND
  5
60D
  8
0
  6
CONTINUOUS
 62
     7
  0
POLYLINE
  5
15D
  8
0
  6
CONTINUOUS
 62
     7
 66
     1
 10
0.0
 20
0.0
 30
0.0
 70
   128
  0
VERTEX
  5
45B
  8
0
  6
CONTINUOUS
 62
     7
 10
79.4200481898
 20
117.5823769807
 30
0.0
  0
VERTEX
  5
45C
  8
0
  6
CONTINUOUS
 62
     7
 10
79.4212212654
 20
117.5581601604
 30
0.0
  0
VERTEX
  5
45D
  8
0
  6
CONTINUOUS
 62
     7
 10
79.4225243515
 20
117.5314625899
 30
0.0
  0
SEQEND
  5
60E
  8
0
  6
CONTINUOUS
 62
     7
  0
LINE
  5
15E
  8
0
  6
CONTINUOUS
 62
     7
 10
82.9865089272
 20
117.7692872679
 30
0.0
 11
79.4200481898
 21
117.5823769807
 31
0.0
  0
POLYLINE
  5
15F
  8
0
  6
CONTINUOUS
 62
     7
 66
     1
 10
0.0
 20
0.0
 30
0.0
 70
   128
  0
VERTEX
  5
45E
  8
0
  6
CONTINUOUS
 62
     7
 10
82.9865089272
 20
117.7692872679
 30
0.0
  0
VERTEX
  5
45F
  8
0
  6
CONTINUOUS
 62
     7
 10
82.9878736249
 20
117.7450804901
 30
0.0
  0
VERTEX
  5
460
  8
0
  6
CONTINUOUS
 62
     7
 10
82.9893683333
 20
117.718392962
 30
0.0
  0
SEQEND
  5
60F
  8
0
  6
CONTINUOUS
 62
     7
  0
ARC
  5
160
  8
0
  6
CONTINUOUS
 62
     7
 10
80.5597975709
 20
114.0733471767
 30
0.0
 40
0.1216252739837893
 50
227.9999999997
 51
317.9999999997
  0
ARC
  5
161
  8
0
  6
CONTINUOUS
 62
     7
 10
83.0211374827
 20
115.0503231408
 30
0.0
 40
0.1216252739837988
 50
317.9999999997
 51
47.9999999997
  0
ARC
  5
162
  8
0
  6
CONTINUOUS
 62
     7
 10
79.5828216068
 20
116.5346870886
 30
0.0
 40
0.1216252739837998
 50
137.9999999997
 51
227.9999999997
  0
ARC
  5
163
  8
0
  6
CONTINUOUS
 62
     7
 10
82.0441615187
 20
117.5116630527
 30
0.0
 40
0.1216252739837998
 50
47.9999999997
 51
137.9999999998
  0
ARC
  5
164
  8
0
  6
CONTINUOUS
 62
     7
 10
79.669818475
 20
114.8746879539
 30
0.0
 40
0.1216252739836686
 50
138.0000000002
 51
228.0000000003
  0
ARC
  5
165
  8
0
  6
CONTINUOUS
 62
     7
 10
80.384162384
 20
117.4246661844
 30
0.0
 40
0.1216252739836591
 50
48.0000000002
 51
138.0000000003
  0
ARC
  5
166
  8
0
  6
CONTINUOUS
 62
     7
 10
82.2197967055
 20
114.160344045
 30
0.0
 40
0.121625273983639
 50
228.0000000001
 51
318.0000000003
  0
ARC
  5
167
  8
0
  6
CONTINUOUS
 62
     7
 10
82.9341406145
 20
116.7103222755
 30
0.0
 40
0.1216252739836591
 50
318.0000000002
 51
48.0000000003
  0
ARC
  5
168
  8
0
  6
CONTINUOUS
 62
     7
 10
79.6343651974
 20
113.9404919847
 30
0.0
 40
0.1259102578910729
 50
193.7665439802
 51
262.2794239379
  0
ARC
  5
169
  8
0
  6
CONTINUOUS
 62
     7
 10
82.9695938921
 20
117.6445182447
 30
0.0
 40
0.1259102578911151
 50
13.7665439802
 51
82.2794239379
  0
ARC
  5
16A
  8
0
  6
CONTINUOUS
 62
     7
 10
83.1540466154
 20
114.124950669
 30
0.0
 40
0.125910254893437
 50
283.7205751331
 51
352.2334569488
  0
ARC
  5
16B
  8
0
  6
CONTINUOUS
 62
     7
 10
79.4499124741
 20
117.4600595604
 30
0.0
 40
0.125910254893522
 50
103.7205751331
 51
172.2334569488
  0
CIRCLE
  5
16C
  8
0
  6
CONTINUOUS
 62
     7
 10
79.6538701081
 20
117.276469517
 30
0.0
 40
0.0459472728601232
  0
LINE
  5
16D
  8
0
  6
CONTINUOUS
 62
     7
 10
80.5398353306
 20
117.3120893331
 30
0.0
 11
80.3978826586
 21
117.4399040931
 31
0.0
  0
LINE
  5
16E
  8
0
  6
CONTINUOUS
 62
     7
 10
80.4655455773
 20
117.5150513774
 30
0.0
 11
80.3978826586
 21
117.4399040931
 31
0.0
  0
LINE
  5
16F
  8
0
  6
CONTINUOUS
 62
     7
 10
82.8215637632
 20
116.5546493288
 30
0.0
 11
82.9493785231
 21
116.6966020009
 31
0.0
  0
LINE
  5
170
  8
0
  6
CONTINUOUS
 62
     7
 10
83.0245258075
 20
116.6289390821
 30
0.0
 11
82.9493785231
 21
116.6966020009
 31
0.0
  0
LINE
  5
171
  8
0
  6
CONTINUOUS
 62
     7
 10
82.0641237589
 20
114.2729208963
 30
0.0
 11
82.2060764309
 21
114.1451061363
 31
0.0
  0
LINE
  5
172
  8
0
  6
CONTINUOUS
 62
     7
 10
82.2060764309
 20
114.1451061363
 30
0.0
 11
82.1384135122
 21
114.069958852
 31
0.0
  0
LINE
  5
173
  8
0
  6
CONTINUOUS
 62
     7
 10
79.7823953264
 20
115.0303609005
 30
0.0
 11
79.6545805664
 21
114.8884082285
 31
0.0
  0
LINE
  5
174
  8
0
  6
CONTINUOUS
 62
     7
 10
79.579433282
 20
114.9560711473
 30
0.0
 11
79.6545805664
 21
114.8884082285
 31
0.0
  0
LINE
  5
175
  8
0
  6
CONTINUOUS
 62
     7
 10
80.6501827639
 20
113.9919639834
 30
0.0
 11
80.5750354795
 21
114.0596269021
 31
0.0
  0
LINE
  5
176
  8
0
  6
CONTINUOUS
 62
     7
 10
83.1025206761
 20
115.1407083338
 30
0.0
 11
83.0348577573
 21
115.0655610495
 31
0.0
  0
LINE
  5
177
  8
0
  6
CONTINUOUS
 62
     7
 10
83.0348577573
 20
115.0655610495
 30
0.0
 11
82.8929050853
 21
115.1933758095
 31
0.0
  0
LINE
  5
178
  8
0
  6
CONTINUOUS
 62
     7
 10
81.9537763256
 20
117.593046246
 30
0.0
 11
82.02892361
 21
117.5253833273
 31
0.0
  0
LINE
  5
179
  8
0
  6
CONTINUOUS
 62
     7
 10
79.5014384135
 20
116.4443018956
 30
0.0
 11
79.5691013322
 21
116.5194491799
 31
0.0
  0
LINE
  5
17A
  8
0
  6
CONTINUOUS
 62
     7
 10
79.5691013322
 20
116.5194491799
 30
0.0
 11
79.7110540042
 21
116.3916344199
 31
0.0
  0
LINE
  5
17B
  8
0
  6
CONTINUOUS
 62
     7
 10
79.1855597625
 20
117.5379619251
 30
0.0
 11
79.186072909
 21
117.573082451
 31
0.0
  0
POLYLINE
  5
17C
  8
0
  6
CONTINUOUS
 62
     7
 66
     1
 10
0.0
 20
0.0
 30
0.0
 70
   128
  0
VERTEX
  5
461
  8
0
  6
CONTINUOUS
 62
     7
 10
79.186072909
 20
117.573082451
 30
0.0
  0
VERTEX
  5
462
  8
0
  6
CONTINUOUS
 62
     7
 10
79.1993749972
 20
117.6205121913
 30
0.0
  0
VERTEX
  5
463
  8
0
  6
CONTINUOUS
 62
     7
 10
79.226216572
 20
117.6615304903
 30
0.0
  0
SEQEND
  5
610
  8
0
  6
CONTINUOUS
 62
     7
  0
ARC
  5
17D
  8
0
  6
CONTINUOUS
 62
     7
 10
79.3464408994
 20
117.5527676627
 30
0.0
 40
0.1621210706652501
 50
90.5592777853
 51
137.8654357203
  0
LINE
  5
17E
  8
0
  6
CONTINUOUS
 62
     7
 10
79.344858422
 20
117.7148810098
 30
0.0
 11
79.4200481878
 21
117.5823770195
 31
0.0
  0
LINE
  5
17F
  8
0
  6
CONTINUOUS
 62
     7
 10
79.3251571677
 20
117.4770746945
 30
0.0
 11
79.1855597626
 21
117.5379619246
 31
0.0
  0
LINE
  5
180
  8
0
  6
CONTINUOUS
 62
     7
 10
83.418399327
 20
114.0470483043
 30
0.0
 11
83.4178861806
 21
114.0119277784
 31
0.0
  0
POLYLINE
  5
181
  8
0
  6
CONTINUOUS
 62
     7
 66
     1
 10
0.0
 20
0.0
 30
0.0
 70
   128
  0
VERTEX
  5
464
  8
0
  6
CONTINUOUS
 62
     7
 10
83.4178861806
 20
114.0119277784
 30
0.0
  0
VERTEX
  5
465
  8
0
  6
CONTINUOUS
 62
     7
 10
83.4045840923
 20
113.964498038
 30
0.0
  0
VERTEX
  5
466
  8
0
  6
CONTINUOUS
 62
     7
 10
83.3777425175
 20
113.9234797391
 30
0.0
  0
SEQEND
  5
611
  8
0
  6
CONTINUOUS
 62
     7
  0
ARC
  5
182
  8
0
  6
CONTINUOUS
 62
     7
 10
83.2575181902
 20
114.0322425667
 30
0.0
 40
0.1621210706648506
 50
270.5592777852
 51
317.8654357203
  0
LINE
  5
183
  8
0
  6
CONTINUOUS
 62
     7
 10
83.2591006675
 20
113.8701292196
 30
0.0
 11
83.1839108975
 21
114.0026332867
 31
0.0
  0
LINE
  5
184
  8
0
  6
CONTINUOUS
 62
     7
 10
83.2788019219
 20
114.1079355349
 30
0.0
 11
83.418399327
 21
114.0470483048
 31
0.0
  0
LINE
  5
185
  8
0
  6
CONTINUOUS
 62
     7
 10
79.3796036496
 20
113.8353839919
 30
0.0
 11
79.5120718771
 21
113.9105295777
 31
0.0
  0
LINE
  5
186
  8
0
  6
CONTINUOUS
 62
     7
 10
79.5565227344
 20
113.6760853325
 30
0.0
 11
79.6174501605
 21
113.8157229995
 31
0.0
  0
LINE
  5
187
  8
0
  6
CONTINUOUS
 62
     7
 10
79.5214022085
 20
113.6765984789
 30
0.0
 11
79.5565227344
 21
113.6760853325
 31
0.0
  0
POLYLINE
  5
188
  8
0
  6
CONTINUOUS
 62
     7
 66
     1
 10
0.0
 20
0.0
 30
0.0
 70
   128
  0
VERTEX
  5
467
  8
0
  6
CONTINUOUS
 62
     7
 10
79.4329541691
 20
113.716742142
 30
0.0
  0
VERTEX
  5
468
  8
0
  6
CONTINUOUS
 62
     7
 10
79.4739724681
 20
113.6899005672
 30
0.0
  0
VERTEX
  5
469
  8
0
  6
CONTINUOUS
 62
     7
 10
79.5214022085
 20
113.6765984789
 30
0.0
  0
SEQEND
  5
612
  8
0
  6
CONTINUOUS
 62
     7
  0
ARC
  5
189
  8
0
  6
CONTINUOUS
 62
     7
 10
79.5417157567
 20
113.8369659117
 30
0.0
 40
0.1621198252379026
 50
180.5590848569
 51
227.8656285066
  0
LINE
  5
18A
  8
0
  6
CONTINUOUS
 62
     7
 10
83.0918872124
 20
117.6744806517
 30
0.0
 11
83.2243554399
 21
117.7496262375
 31
0.0
  0
LINE
  5
18B
  8
0
  6
CONTINUOUS
 62
     7
 10
83.0474363552
 20
117.9089248969
 30
0.0
 11
82.986508929
 21
117.7692872299
 31
0.0
  0
LINE
  5
18C
  8
0
  6
CONTINUOUS
 62
     7
 10
83.082556881
 20
117.9084117505
 30
0.0
 11
83.0474363552
 21
117.9089248969
 31
0.0
  0
POLYLINE
  5
18D
  8
0
  6
CONTINUOUS
 62
     7
 66
     1
 10
0.0
 20
0.0
 30
0.0
 70
   128
  0
VERTEX
  5
46A
  8
0
  6
CONTINUOUS
 62
     7
 10
83.1710049204
 20
117.8682680874
 30
0.0
  0
VERTEX
  5
46B
  8
0
  6
CONTINUOUS
 62
     7
 10
83.1299866214
 20
117.8951096622
 30
0.0
  0
VERTEX
  5
46C
  8
0
  6
CONTINUOUS
 62
     7
 10
83.082556881
 20
117.9084117505
 30
0.0
  0
SEQEND
  5
613
  8
0
  6
CONTINUOUS
 62
     7
  0
ARC
  5
18E
  8
0
  6
CONTINUOUS
 62
     7
 10
83.0622433328
 20
117.7480443177
 30
0.0
 40
0.162119825227964
 50
0.5590850006
 51
47.8656285076
  0
LINE
  5
18F
  8
0
  6
CONTINUOUS
 62
     7
 10
83.0474363552
 20
117.9089248969
 30
0.0
 11
82.9794420719
 21
117.9053614675
 31
0.0
  0
LINE
  5
190
  8
0
  6
CONTINUOUS
 62
     7
 10
82.9794420719
 20
117.9053614675
 30
0.0
 11
79.344858422
 21
117.7148810098
 31
0.0
  0
LINE
  5
191
  8
0
  6
CONTINUOUS
 62
     7
 10
79.6245170177
 20
113.6796487619
 30
0.0
 11
83.2591006675
 21
113.8701292196
 31
0.0
  0
LINE
  5
192
  8
0
  6
CONTINUOUS
 62
     7
 10
79.5565227344
 20
113.6760853325
 30
0.0
 11
79.6245170177
 21
113.6796487619
 31
0.0
  0
LINE
  5
193
  8
0
  6
CONTINUOUS
 62
     7
 10
79.1891231919
 20
117.4699676418
 30
0.0
 11
79.3796036496
 21
113.8353839919
 31
0.0
  0
LINE
  5
194
  8
0
  6
CONTINUOUS
 62
     7
 10
79.1855597625
 20
117.5379619251
 30
0.0
 11
79.1891231919
 21
117.4699676418
 31
0.0
  0
LINE
  5
195
  8
0
  6
CONTINUOUS
 62
     7
 10
83.2243554399
 20
117.7496262375
 30
0.0
 11
83.4148358976
 21
114.1150425876
 31
0.0
  0
LINE
  5
196
  8
0
  6
CONTINUOUS
 62
     7
 10
83.4148358976
 20
114.1150425876
 30
0.0
 11
83.418399327
 21
114.0470483043
 31
0.0
  0
LINE
  5
197
  8
0
  6
CONTINUOUS
 62
     7
 10
80.4784143775
 20
113.9829619837
 30
0.0
 11
80.5460772963
 21
114.0581092681
 31
0.0
  0
ARC
  5
198
  8
0
  6
CONTINUOUS
 62
     7
 10
80.5597975709
 20
114.0733471767
 30
0.0
 40
0.0205046286392285
 50
227.9999999982
 51
317.999999999
  0
LINE
  5
199
  8
0
  6
CONTINUOUS
 62
     7
 10
82.3101818985
 20
114.0789608517
 30
0.0
 11
82.2350346142
 21
114.1466237704
 31
0.0
  0
ARC
  5
19A
  8
0
  6
CONTINUOUS
 62
     7
 10
82.2197967055
 20
114.160344045
 30
0.0
 40
0.0205046286391913
 50
228.0000000006
 51
318.0000000011
  0
LINE
  5
19B
  8
0
  6
CONTINUOUS
 62
     7
 10
79.5884352817
 20
114.7843027609
 30
0.0
 11
79.6560982005
 21
114.8594500453
 31
0.0
  0
LINE
  5
19C
  8
0
  6
CONTINUOUS
 62
     7
 10
79.6560982005
 20
114.8594500453
 30
0.0
 11
80.5460772963
 21
114.0581092681
 31
0.0
  0
LINE
  5
19D
  8
0
  6
CONTINUOUS
 62
     7
 10
83.1115226757
 20
114.9689399475
 30
0.0
 11
83.0363753914
 21
115.0366028662
 31
0.0
  0
LINE
  5
19E
  8
0
  6
CONTINUOUS
 62
     7
 10
82.2350346142
 20
114.1466237704
 30
0.0
 11
83.0363753914
 21
115.0366028662
 31
0.0
  0
ARC
  5
19F
  8
0
  6
CONTINUOUS
 62
     7
 10
79.669818475
 20
114.8746879539
 30
0.0
 40
0.0205046286391913
 50
138.0000000004
 51
228.0000000011
  0
ARC
  5
1A0
  8
0
  6
CONTINUOUS
 62
     7
 10
83.0211374827
 20
115.0503231408
 30
0.0
 40
0.0205046286392179
 50
317.9999999982
 51
47.9999999989
  0
LINE
  5
1A1
  8
0
  6
CONTINUOUS
 62
     7
 10
79.4924364138
 20
116.6160702819
 30
0.0
 11
79.5675836981
 21
116.5484073632
 31
0.0
  0
ARC
  5
1A2
  8
0
  6
CONTINUOUS
 62
     7
 10
79.5828216068
 20
116.5346870886
 30
0.0
 40
0.0205046286392285
 50
137.9999999982
 51
227.9999999989
  0
LINE
  5
1A3
  8
0
  6
CONTINUOUS
 62
     7
 10
80.293777191
 20
117.5060493777
 30
0.0
 11
80.3689244753
 21
117.438386459
 31
0.0
  0
LINE
  5
1A4
  8
0
  6
CONTINUOUS
 62
     7
 10
80.3689244753
 20
117.438386459
 30
0.0
 11
79.5675836981
 21
116.5484073632
 31
0.0
  0
LINE
  5
1A5
  8
0
  6
CONTINUOUS
 62
     7
 10
82.125544712
 20
117.6020482457
 30
0.0
 11
82.0578817932
 21
117.5269009613
 31
0.0
  0
LINE
  5
1A6
  8
0
  6
CONTINUOUS
 62
     7
 10
83.0155238078
 20
116.8007074685
 30
0.0
 11
82.9478608891
 21
116.7255601841
 31
0.0
  0
LINE
  5
1A7
  8
0
  6
CONTINUOUS
 62
     7
 10
82.9478608891
 20
116.7255601841
 30
0.0
 11
82.0578817932
 21
117.5269009613
 31
0.0
  0
ARC
  5
1A8
  8
0
  6
CONTINUOUS
 62
     7
 10
82.9341406145
 20
116.7103222755
 30
0.0
 40
0.0205046286391902
 50
318.0000000004
 51
48.000000001
  0
ARC
  5
1A9
  8
0
  6
CONTINUOUS
 62
     7
 10
82.0441615187
 20
117.5116630527
 30
0.0
 40
0.0205046286392274
 50
47.9999999982
 51
137.9999999989
  0
ARC
  5
1AA
  8
0
  6
CONTINUOUS
 62
     7
 10
80.384162384
 20
117.4246661844
 30
0.0
 40
0.0205046286392008
 50
48.0000000004
 51
138.000000001
  0
CIRCLE
  5
1AB
  8
0
  6
CONTINUOUS
 62
     7
 10
81.3019795448
 20
115.7925051147
 30
0.0
 40
1.69443185918887
  0
CIRCLE
  5
1AC
  8
0
  6
CONTINUOUS
 62
     7
 10
81.3019795448
 20
115.7925051147
 30
0.0
 40
1.573024458851767
  0
ARC
  5
1AD
  8
0
  6
CONTINUOUS
 62
     7
 10
83.6327611587
 20
113.6938579003
 30
0.0
 40
0.5322554272017432
 50
272.9992950291
 51
318.0001618182
  0
LINE
  5
1AE
  8
0
  6
CONTINUOUS
 62
     7
 10
83.6606075766
 20
113.162331423
 30
0.0
 11
83.4649309994
 21
113.5921019403
 31
0.0
  0
LINE
  5
1AF
  8
0
  6
CONTINUOUS
 62
     7
 10
83.4649309312
 20
113.5921019295
 30
0.0
 11
83.5789887146
 21
113.6188171363
 31
0.0
  0
LINE
  5
1B0
  8
0
  6
CONTINUOUS
 62
     7
 10
83.57898916
 20
113.6188173984
 30
0.0
 11
83.6304588586
 21
113.6460331484
 31
0.0
  0
LINE
  5
1B1
  8
0
  6
CONTINUOUS
 62
     7
 10
83.6304590186
 20
113.646033287
 30
0.0
 11
84.0283050183
 21
113.3377106322
 31
0.0
  0
ARC
  5
1B2
  8
0
  6
CONTINUOUS
 62
     7
 10
78.9711979308
 20
117.8911523291
 30
0.0
 40
0.5322554271862558
 50
92.9993383344
 51
138.0001618186
  0
LINE
  5
1B3
  8
0
  6
CONTINUOUS
 62
     7
 10
78.9433515129
 20
118.4226788064
 30
0.0
 11
79.1390280902
 21
117.9929082891
 31
0.0
  0
LINE
  5
1B4
  8
0
  6
CONTINUOUS
 62
     7
 10
79.1390281583
 20
117.9929082999
 30
0.0
 11
79.0249703749
 21
117.9661930931
 31
0.0
  0
LINE
  5
1B5
  8
0
  6
CONTINUOUS
 62
     7
 10
79.0249699295
 20
117.9661928309
 30
0.0
 11
78.973500231
 21
117.938977081
 31
0.0
  0
LINE
  5
1B6
  8
0
  6
CONTINUOUS
 62
     7
 10
78.9735000709
 20
117.9389769424
 30
0.0
 11
78.5756540712
 21
118.2472995972
 31
0.0
  0
ARC
  5
1B7
  8
0
  6
CONTINUOUS
 62
     7
 10
83.4006267592
 20
118.1232867287
 30
0.0
 40
0.5322554272052932
 50
2.9993041336
 51
48.0001618186
  0
LINE
  5
1B8
  8
0
  6
CONTINUOUS
 62
     7
 10
83.9321532365
 20
118.1511331466
 30
0.0
 11
83.5023827192
 21
117.9554565693
 31
0.0
  0
LINE
  5
1B9
  8
0
  6
CONTINUOUS
 62
     7
 10
83.50238273
 20
117.9554565011
 30
0.0
 11
83.4756675232
 21
118.0695142845
 31
0.0
  0
LINE
  5
1BA
  8
0
  6
CONTINUOUS
 62
     7
 10
83.475667261
 20
118.06951473
 30
0.0
 11
83.4484515111
 21
118.1209844285
 31
0.0
  0
LINE
  5
1BB
  8
0
  6
CONTINUOUS
 62
     7
 10
83.4484513725
 20
118.1209845886
 30
0.0
 11
83.7567740272
 21
118.5188305882
 31
0.0
  0
ARC
  5
1BC
  8
0
  6
CONTINUOUS
 62
     7
 10
79.2033331935
 20
113.4617239124
 30
0.0
 40
0.5322563107076523
 50
182.9989961738
 51
228.0001224246
  0
LINE
  5
1BD
  8
0
  6
CONTINUOUS
 62
     7
 10
78.671805853
 20
113.4338770828
 30
0.0
 11
79.1015763703
 21
113.6295536601
 31
0.0
  0
LINE
  5
1BE
  8
0
  6
CONTINUOUS
 62
     7
 10
79.1015763596
 20
113.6295537283
 30
0.0
 11
79.1282915664
 21
113.5154959449
 31
0.0
  0
LINE
  5
1BF
  8
0
  6
CONTINUOUS
 62
     7
 10
79.1282918285
 20
113.5154954994
 30
0.0
 11
79.1555075784
 21
113.4640258009
 31
0.0
  0
LINE
  5
1C0
  8
0
  6
CONTINUOUS
 62
     7
 10
79.155507717
 20
113.4640256408
 30
0.0
 11
78.8471850623
 21
113.0661796411
 31
0.0
  0
LINE
  5
1C1
  8
0
  6
CONTINUOUS
 62
     7
 10
83.6606075766
 20
113.162331423
 30
0.0
 11
83.4020576341
 21
113.5433921726
 31
0.0
  0
LINE
  5
1C2
  8
0
  6
CONTINUOUS
 62
     7
 10
83.4020551553
 20
113.5433954065
 30
0.0
 11
83.4649302876
 21
113.5921014325
 31
0.0
  0
LINE
  5
1C3
  8
0
  6
CONTINUOUS
 62
     7
 10
78.9433515129
 20
118.4226788064
 30
0.0
 11
79.2019014554
 21
118.0416180568
 31
0.0
  0
LINE
  5
1C4
  8
0
  6
CONTINUOUS
 62
     7
 10
79.2019039342
 20
118.0416148229
 30
0.0
 11
79.1390288019
 21
117.9929087969
 31
0.0
  0
LINE
  5
1C5
  8
0
  6
CONTINUOUS
 62
     7
 10
83.5510924869
 20
117.892583204
 30
0.0
 11
83.9321532365
 21
118.1511331466
 31
0.0
  0
LINE
  5
1C6
  8
0
  6
CONTINUOUS
 62
     7
 10
83.5510892529
 20
117.8925807252
 30
0.0
 11
83.502383227
 21
117.9554558576
 31
0.0
  0
LINE
  5
1C7
  8
0
  6
CONTINUOUS
 62
     7
 10
78.671805853
 20
113.4338770828
 30
0.0
 11
79.0528666027
 21
113.6924270254
 31
0.0
  0
LINE
  5
1C8
  8
0
  6
CONTINUOUS
 62
     7
 10
79.0528698366
 20
113.6924295042
 30
0.0
 11
79.1015758625
 21
113.6295543718
 31
0.0
  0
LINE
  5
1C9
  8
0
  6
CONTINUOUS
 62
     7
 10
84.1416792658
 20
114.1531348344
 30
0.0
 11
83.702433719
 21
114.1483859006
 31
0.0
  0
LINE
  5
1CA
  8
0
  6
CONTINUOUS
 62
     7
 10
84.1416792658
 20
114.1531348344
 30
0.0
 11
83.701104448
 21
114.1117262705
 31
0.0
  0
LINE
  5
1CB
  8
0
  6
CONTINUOUS
 62
     7
 10
83.70110466
 20
114.1117262554
 30
0.0
 11
83.7024336895
 21
114.148385899
 31
0.0
  0
LINE
  5
1CC
  8
0
  6
CONTINUOUS
 62
     7
 10
79.6578603306
 20
113.3920509405
 30
0.0
 11
79.6626092645
 21
112.9528053937
 31
0.0
  0
LINE
  5
1CD
  8
0
  6
CONTINUOUS
 62
     7
 10
79.6626092645
 20
112.9528053937
 30
0.0
 11
79.6212007006
 21
113.3933802115
 31
0.0
  0
LINE
  5
1CE
  8
0
  6
CONTINUOUS
 62
     7
 10
79.6212006854
 20
113.3933799994
 30
0.0
 11
79.6578603291
 21
113.39205097
 31
0.0
  0
LINE
  5
1CF
  8
0
  6
CONTINUOUS
 62
     7
 10
82.9460987589
 20
118.1929592889
 30
0.0
 11
82.941349825
 21
118.6322048357
 31
0.0
  0
LINE
  5
1D0
  8
0
  6
CONTINUOUS
 62
     7
 10
82.941349825
 20
118.6322048357
 30
0.0
 11
82.9827583889
 21
118.1916300179
 31
0.0
  0
LINE
  5
1D1
  8
0
  6
CONTINUOUS
 62
     7
 10
82.9827584041
 20
118.19163023
 30
0.0
 11
82.9460987604
 21
118.1929592594
 31
0.0
  0
LINE
  5
1D2
  8
0
  6
CONTINUOUS
 62
     7
 10
78.9015253705
 20
117.4366243288
 30
0.0
 11
78.4622798237
 21
117.4318753949
 31
0.0
  0
LINE
  5
1D3
  8
0
  6
CONTINUOUS
 62
     7
 10
78.4622798237
 20
117.4318753949
 30
0.0
 11
78.9028546415
 21
117.4732839589
 31
0.0
  0
LINE
  5
1D4
  8
0
  6
CONTINUOUS
 62
     7
 10
78.9028544295
 20
117.473283974
 30
0.0
 11
78.9015254
 21
117.4366243304
 31
0.0
  0
LINE
  5
1D5
  8
0
  6
CONTINUOUS
 62
     7
 10
83.3948309726
 20
118.1735315948
 30
0.0
 11
83.7567740272
 21
118.5188305882
 31
0.0
  0
POLYLINE
  5
1D6
  8
0
  6
CONTINUOUS
 62
     7
 66
     1
 10
0.0
 20
0.0
 30
0.0
 70
   128
  0
VERTEX
  5
46D
  8
0
  6
CONTINUOUS
 62
     7
 10
83.2043186756
 20
118.2209379872
 30
0.0
  0
VERTEX
  5
46E
  8
0
  6
CONTINUOUS
 62
     7
 10
83.3235188405
 20
118.2057345398
 30
0.0
  0
VERTEX
  5
46F
  8
0
  6
CONTINUOUS
 62
     7
 10
83.3948315441
 20
118.1735309702
 30
0.0
  0
SEQEND
  5
614
  8
0
  6
CONTINUOUS
 62
     7
  0
LINE
  5
1D7
  8
0
  6
CONTINUOUS
 62
     7
 10
83.3727658352
 20
118.6548145055
 30
0.0
 11
83.2043186756
 21
118.2209379872
 31
0.0
  0
ARC
  5
1D8
  8
0
  6
CONTINUOUS
 62
     7
 10
83.4006243806
 20
118.1232880805
 30
0.0
 40
0.5322560141925295
 50
47.9998741642
 51
93.0002607698
  0
LINE
  5
1D9
  8
0
  6
CONTINUOUS
 62
     7
 10
83.6830060249
 20
113.6996536869
 30
0.0
 11
84.0283050183
 21
113.3377106322
 31
0.0
  0
POLYLINE
  5
1DA
  8
0
  6
CONTINUOUS
 62
     7
 66
     1
 10
0.0
 20
0.0
 30
0.0
 70
   128
  0
VERTEX
  5
470
  8
0
  6
CONTINUOUS
 62
     7
 10
83.7304124172
 20
113.8901659838
 30
0.0
  0
VERTEX
  5
471
  8
0
  6
CONTINUOUS
 62
     7
 10
83.7152089697
 20
113.7709658185
 30
0.0
  0
VERTEX
  5
472
  8
0
  6
CONTINUOUS
 62
     7
 10
83.6830054003
 20
113.6996531153
 30
0.0
  0
SEQEND
  5
615
  8
0
  6
CONTINUOUS
 62
     7
  0
LINE
  5
1DB
  8
0
  6
CONTINUOUS
 62
     7
 10
84.1642889358
 20
113.7217188196
 30
0.0
 11
83.7304124172
 21
113.8901659838
 31
0.0
  0
ARC
  5
1DC
  8
0
  6
CONTINUOUS
 62
     7
 10
83.6327625106
 20
113.6938602789
 30
0.0
 40
0.5322560141776458
 50
317.9998741636
 51
3.0002602758
  0
LINE
  5
1DD
  8
0
  6
CONTINUOUS
 62
     7
 10
78.9209530647
 20
117.8853565425
 30
0.0
 11
78.5756540712
 21
118.2472995972
 31
0.0
  0
POLYLINE
  5
1DE
  8
0
  6
CONTINUOUS
 62
     7
 66
     1
 10
0.0
 20
0.0
 30
0.0
 70
   128
  0
VERTEX
  5
473
  8
0
  6
CONTINUOUS
 62
     7
 10
78.8735466723
 20
117.6948442456
 30
0.0
  0
VERTEX
  5
474
  8
0
  6
CONTINUOUS
 62
     7
 10
78.8887501198
 20
117.8140444109
 30
0.0
  0
VERTEX
  5
475
  8
0
  6
CONTINUOUS
 62
     7
 10
78.9209536892
 20
117.8853571141
 30
0.0
  0
SEQEND
  5
616
  8
0
  6
CONTINUOUS
 62
     7
  0
LINE
  5
1DF
  8
0
  6
CONTINUOUS
 62
     7
 10
78.4396701316
 20
117.8632913839
 30
0.0
 11
78.8735466723
 21
117.6948442456
 31
0.0
  0
ARC
  5
1E0
  8
0
  6
CONTINUOUS
 62
     7
 10
78.9711974926
 20
117.8911496279
 30
0.0
 40
0.532256909074037
 50
137.9999141676
 51
183.0002231015
  0
LINE
  5
1E1
  8
0
  6
CONTINUOUS
 62
     7
 10
79.209128117
 20
113.4114786346
 30
0.0
 11
78.8471850623
 21
113.0661796411
 31
0.0
  0
POLYLINE
  5
1E2
  8
0
  6
CONTINUOUS
 62
     7
 66
     1
 10
0.0
 20
0.0
 30
0.0
 70
   128
  0
VERTEX
  5
476
  8
0
  6
CONTINUOUS
 62
     7
 10
79.3996404139
 20
113.3640722422
 30
0.0
  0
VERTEX
  5
477
  8
0
  6
CONTINUOUS
 62
     7
 10
79.2804402486
 20
113.3792756897
 30
0.0
  0
VERTEX
  5
478
  8
0
  6
CONTINUOUS
 62
     7
 10
79.2091275454
 20
113.4114792592
 30
0.0
  0
SEQEND
  5
617
  8
0
  6
CONTINUOUS
 62
     7
  0
LINE
  5
1E3
  8
0
  6
CONTINUOUS
 62
     7
 10
79.2311932756
 20
112.9301957016
 30
0.0
 11
79.3996404139
 21
113.3640722422
 31
0.0
  0
ARC
  5
1E4
  8
0
  6
CONTINUOUS
 62
     7
 10
79.2033350316
 20
113.4617230625
 30
0.0
 40
0.532256909025557
 50
227.9999141659
 51
273.0002231095
  0
LINE
  5
1E5
  8
0
  6
CONTINUOUS
 62
     7
 10
79.6578563551
 20
113.3974350261
 30
0.0
 11
79.6578603306
 21
113.3920509405
 31
0.0
  0
POLYLINE
  5
1E6
  8
0
  6
CONTINUOUS
 62
     7
 66
     1
 10
0.0
 20
0.0
 30
0.0
 70
   128
  0
VERTEX
  5
479
  8
0
  6
CONTINUOUS
 62
     7
 10
79.6574452349
 20
113.4141454593
 30
0.0
  0
VERTEX
  5
47A
  8
0
  6
CONTINUOUS
 62
     7
 10
79.6576717519
 20
113.4047879847
 30
0.0
  0
VERTEX
  5
47B
  8
0
  6
CONTINUOUS
 62
     7
 10
79.6578563511
 20
113.397435026
 30
0.0
  0
SEQEND
  5
618
  8
0
  6
CONTINUOUS
 62
     7
  0
LINE
  5
1E7
  8
0
  6
CONTINUOUS
 62
     7
 10
79.657467669
 20
113.4158665792
 30
0.0
 11
79.6574452349
 21
113.4141454593
 31
0.0
  0
LINE
  5
1E8
  8
0
  6
CONTINUOUS
 62
     7
 10
83.3500261064
 20
113.6093846666
 30
0.0
 11
79.657467669
 21
113.4158665792
 31
0.0
  0
LINE
  5
1E9
  8
0
  6
CONTINUOUS
 62
     7
 10
83.3818779233
 20
113.5740478058
 30
0.0
 11
83.3500261064
 21
113.6093846666
 31
0.0
  0
LINE
  5
1EA
  8
0
  6
CONTINUOUS
 62
     7
 10
83.3896196301
 20
113.5615451351
 30
0.0
 11
83.3818779233
 21
113.5740478058
 31
0.0
  0
LINE
  5
1EB
  8
0
  6
CONTINUOUS
 62
     7
 10
83.4020576341
 20
113.5433921726
 30
0.0
 11
83.3896196301
 21
113.5615451351
 31
0.0
  0
LINE
  5
1EC
  8
0
  6
CONTINUOUS
 62
     7
 10
79.6626092645
 20
112.9528053937
 30
0.0
 11
83.6606075766
 21
113.162331423
 31
0.0
  0
LINE
  5
1ED
  8
0
  6
CONTINUOUS
 62
     7
 10
78.9069094562
 20
117.4366283003
 30
0.0
 11
78.9015253705
 21
117.4366243288
 31
0.0
  0
LINE
  5
1EE
  8
0
  6
CONTINUOUS
 62
     7
 10
78.9236198894
 20
117.4370394245
 30
0.0
 11
78.9069094562
 21
117.4366283003
 31
0.0
  0
LINE
  5
1EF
  8
0
  6
CONTINUOUS
 62
     7
 10
78.9253410093
 20
117.4370169905
 30
0.0
 11
78.9236198894
 21
117.4370394245
 31
0.0
  0
LINE
  5
1F0
  8
0
  6
CONTINUOUS
 62
     7
 10
79.1188603941
 20
113.7444595364
 30
0.0
 11
78.9253410093
 21
117.4370169905
 31
0.0
  0
LINE
  5
1F1
  8
0
  6
CONTINUOUS
 62
     7
 10
79.0835222358
 20
113.7126067361
 30
0.0
 11
79.1188603941
 21
113.7444595364
 31
0.0
  0
LINE
  5
1F2
  8
0
  6
CONTINUOUS
 62
     7
 10
79.0710195651
 20
113.7048650293
 30
0.0
 11
79.0835222358
 21
113.7126067361
 31
0.0
  0
LINE
  5
1F3
  8
0
  6
CONTINUOUS
 62
     7
 10
79.0528666027
 20
113.6924270254
 30
0.0
 11
79.0710195651
 21
113.7048650293
 31
0.0
  0
LINE
  5
1F4
  8
0
  6
CONTINUOUS
 62
     7
 10
78.4622798237
 20
117.4318753949
 30
0.0
 11
78.6718060363
 21
113.4338770924
 31
0.0
  0
LINE
  5
1F5
  8
0
  6
CONTINUOUS
 62
     7
 10
83.5329395244
 20
117.8801452001
 30
0.0
 11
83.5510924869
 21
117.892583204
 31
0.0
  0
LINE
  5
1F6
  8
0
  6
CONTINUOUS
 62
     7
 10
83.702433719
 20
114.1483859006
 30
0.0
 11
83.6970496334
 21
114.1483819251
 31
0.0
  0
POLYLINE
  5
1F7
  8
0
  6
CONTINUOUS
 62
     7
 66
     1
 10
0.0
 20
0.0
 30
0.0
 70
   128
  0
VERTEX
  5
47C
  8
0
  6
CONTINUOUS
 62
     7
 10
83.6803392001
 20
114.1479708048
 30
0.0
  0
VERTEX
  5
47D
  8
0
  6
CONTINUOUS
 62
     7
 10
83.6896966747
 20
114.1481973219
 30
0.0
  0
VERTEX
  5
47E
  8
0
  6
CONTINUOUS
 62
     7
 10
83.6970496335
 20
114.148381921
 30
0.0
  0
SEQEND
  5
619
  8
0
  6
CONTINUOUS
 62
     7
  0
LINE
  5
1F8
  8
0
  6
CONTINUOUS
 62
     7
 10
83.6786180802
 20
114.1479932389
 30
0.0
 11
83.6803392001
 21
114.1479708048
 31
0.0
  0
LINE
  5
1F9
  8
0
  6
CONTINUOUS
 62
     7
 10
83.4850992826
 20
117.8405511363
 30
0.0
 11
83.6786180802
 21
114.1479932389
 31
0.0
  0
LINE
  5
1FA
  8
0
  6
CONTINUOUS
 62
     7
 10
83.4850992826
 20
117.8405511363
 30
0.0
 11
83.5204368537
 21
117.8724034933
 31
0.0
  0
LINE
  5
1FB
  8
0
  6
CONTINUOUS
 62
     7
 10
83.5204368537
 20
117.8724034933
 30
0.0
 11
83.5329395244
 21
117.8801452001
 31
0.0
  0
LINE
  5
1FC
  8
0
  6
CONTINUOUS
 62
     7
 10
83.9321527658
 20
118.1511401718
 30
0.0
 11
84.1416793469
 21
114.1531348387
 31
0.0
  0
POLYLINE
  5
1FD
  8
0
  6
CONTINUOUS
 62
     7
 66
     1
 10
0.0
 20
0.0
 30
0.0
 70
   128
  0
VERTEX
  5
47F
  8
0
  6
CONTINUOUS
 62
     7
 10
83.3948309313
 20
118.1735315528
 30
0.0
  0
VERTEX
  5
480
  8
0
  6
CONTINUOUS
 62
     7
 10
83.4217594536
 20
118.1470026352
 30
0.0
  0
VERTEX
  5
481
  8
0
  6
CONTINUOUS
 62
     7
 10
83.4484513725
 20
118.1209845886
 30
0.0
  0
SEQEND
  5
61A
  8
0
  6
CONTINUOUS
 62
     7
  0
POLYLINE
  5
1FE
  8
0
  6
CONTINUOUS
 62
     7
 66
     1
 10
0.0
 20
0.0
 30
0.0
 70
   128
  0
VERTEX
  5
482
  8
0
  6
CONTINUOUS
 62
     7
 10
83.6830059829
 20
113.6996537281
 30
0.0
  0
VERTEX
  5
483
  8
0
  6
CONTINUOUS
 62
     7
 10
83.6564770652
 20
113.6727252059
 30
0.0
  0
VERTEX
  5
484
  8
0
  6
CONTINUOUS
 62
     7
 10
83.6304590186
 20
113.646033287
 30
0.0
  0
SEQEND
  5
61B
  8
0
  6
CONTINUOUS
 62
     7
  0
POLYLINE
  5
1FF
  8
0
  6
CONTINUOUS
 62
     7
 66
     1
 10
0.0
 20
0.0
 30
0.0
 70
   128
  0
VERTEX
  5
485
  8
0
  6
CONTINUOUS
 62
     7
 10
78.9209531066
 20
117.8853565012
 30
0.0
  0
VERTEX
  5
486
  8
0
  6
CONTINUOUS
 62
     7
 10
78.9474820243
 20
117.9122850235
 30
0.0
  0
VERTEX
  5
487
  8
0
  6
CONTINUOUS
 62
     7
 10
78.9735000709
 20
117.9389769424
 30
0.0
  0
SEQEND
  5
61C
  8
0
  6
CONTINUOUS
 62
     7
  0
POLYLINE
  5
200
  8
0
  6
CONTINUOUS
 62
     7
 66
     1
 10
0.0
 20
0.0
 30
0.0
 70
   128
  0
VERTEX
  5
488
  8
0
  6
CONTINUOUS
 62
     7
 10
79.2091281582
 20
113.4114786766
 30
0.0
  0
VERTEX
  5
489
  8
0
  6
CONTINUOUS
 62
     7
 10
79.1821996359
 20
113.4380075942
 30
0.0
  0
VERTEX
  5
48A
  8
0
  6
CONTINUOUS
 62
     7
 10
79.155507717
 20
113.4640256408
 30
0.0
  0
SEQEND
  5
61D
  8
0
  6
CONTINUOUS
 62
     7
  0
LINE
  5
201
  8
0
  6
CONTINUOUS
 62
     7
 10
79.2220811662
 20
118.0109624236
 30
0.0
 11
79.2539330032
 21
117.9756255363
 31
0.0
  0
LINE
  5
202
  8
0
  6
CONTINUOUS
 62
     7
 10
79.2143394594
 20
118.0234650943
 30
0.0
 11
79.2220811662
 21
118.0109624236
 31
0.0
  0
LINE
  5
203
  8
0
  6
CONTINUOUS
 62
     7
 10
79.2019014554
 20
118.0416180568
 30
0.0
 11
79.2143394594
 21
118.0234650943
 31
0.0
  0
LINE
  5
204
  8
0
  6
CONTINUOUS
 62
     7
 10
82.941349825
 20
118.6322048357
 30
0.0
 11
78.9433515225
 21
118.4226786231
 31
0.0
  0
LINE
  5
205
  8
0
  6
CONTINUOUS
 62
     7
 10
82.9461027344
 20
118.1875752033
 30
0.0
 11
82.9460987589
 21
118.1929592889
 31
0.0
  0
POLYLINE
  5
206
  8
0
  6
CONTINUOUS
 62
     7
 66
     1
 10
0.0
 20
0.0
 30
0.0
 70
   128
  0
VERTEX
  5
48B
  8
0
  6
CONTINUOUS
 62
     7
 10
82.9465138546
 20
118.1708647701
 30
0.0
  0
VERTEX
  5
48C
  8
0
  6
CONTINUOUS
 62
     7
 10
82.9462873376
 20
118.1802222447
 30
0.0
  0
VERTEX
  5
48D
  8
0
  6
CONTINUOUS
 62
     7
 10
82.9461027384
 20
118.1875752034
 30
0.0
  0
SEQEND
  5
61E
  8
0
  6
CONTINUOUS
 62
     7
  0
LINE
  5
207
  8
0
  6
CONTINUOUS
 62
     7
 10
82.9464914206
 20
118.1691436502
 30
0.0
 11
82.9465138546
 21
118.1708647701
 31
0.0
  0
LINE
  5
208
  8
0
  6
CONTINUOUS
 62
     7
 10
79.2539330032
 20
117.9756255363
 30
0.0
 11
82.9464914206
 21
118.1691436502
 31
0.0
  0
LINE
  5
209
  8
0
  6
CONTINUOUS
 62
     7
 10
79.3785777243
 20
112.9379198208
 30
0.0
 11
79.4832495664
 21
113.3731204627
 31
0.0
  0
LINE
  5
20A
  8
0
  6
CONTINUOUS
 62
     7
 10
79.4865990891
 20
113.3736308221
 30
0.0
 11
79.4832495628
 21
113.3731204609
 31
0.0
  0
LINE
  5
20B
  8
0
  6
CONTINUOUS
 62
     7
 10
79.6212007006
 20
113.3933802115
 30
0.0
 11
79.4865990891
 21
113.3736308221
 31
0.0
  0
LINE
  5
20C
  8
0
  6
CONTINUOUS
 62
     7
 10
79.378577735
 20
112.9379198313
 30
0.0
 11
79.6626092692
 21
112.9528053033
 31
0.0
  0
LINE
  5
20D
  8
0
  6
CONTINUOUS
 62
     7
 10
78.4473942509
 20
117.7159069351
 30
0.0
 11
78.8825948928
 21
117.6112350931
 31
0.0
  0
LINE
  5
20E
  8
0
  6
CONTINUOUS
 62
     7
 10
78.8831052521
 20
117.6078855703
 30
0.0
 11
78.882594891
 21
117.6112350967
 31
0.0
  0
LINE
  5
20F
  8
0
  6
CONTINUOUS
 62
     7
 10
78.9028546415
 20
117.4732839589
 30
0.0
 11
78.8831052521
 21
117.6078855703
 31
0.0
  0
LINE
  5
210
  8
0
  6
CONTINUOUS
 62
     7
 10
78.4473942614
 20
117.7159069245
 30
0.0
 11
78.4622797333
 21
117.4318753902
 31
0.0
  0
LINE
  5
211
  8
0
  6
CONTINUOUS
 62
     7
 10
84.1565647585
 20
113.8691033136
 30
0.0
 11
83.7213641967
 21
113.9737751363
 31
0.0
  0
LINE
  5
212
  8
0
  6
CONTINUOUS
 62
     7
 10
83.7208538374
 20
113.9771246591
 30
0.0
 11
83.7213641986
 21
113.9737751327
 31
0.0
  0
LINE
  5
213
  8
0
  6
CONTINUOUS
 62
     7
 10
83.701104448
 20
114.1117262705
 30
0.0
 11
83.7208538374
 21
113.9771246591
 31
0.0
  0
LINE
  5
214
  8
0
  6
CONTINUOUS
 62
     7
 10
84.1416792658
 20
114.1531348344
 30
0.0
 11
84.1565647822
 21
113.8691033025
 31
0.0
  0
LINE
  5
215
  8
0
  6
CONTINUOUS
 62
     7
 10
83.2253813459
 20
118.6470903284
 30
0.0
 11
83.1207095231
 21
118.2118897667
 31
0.0
  0
LINE
  5
216
  8
0
  6
CONTINUOUS
 62
     7
 10
83.1173600004
 20
118.2113794073
 30
0.0
 11
83.1207095268
 21
118.2118897685
 31
0.0
  0
LINE
  5
217
  8
0
  6
CONTINUOUS
 62
     7
 10
82.9827583889
 20
118.1916300179
 30
0.0
 11
83.1173600004
 21
118.2113794073
 31
0.0
  0
LINE
  5
218
  8
0
  6
CONTINUOUS
 62
     7
 10
82.941349825
 20
118.6322048357
 30
0.0
 11
83.225381357
 21
118.6470903521
 31
0.0
  0
LINE
  5
219
  8
0
  6
CONTINUOUS
 62
     7
 10
79.4077502471
 20
113.364614001
 30
0.0
 11
79.3996404139
 21
113.3640722422
 31
0.0
  0
LINE
  5
21A
  8
0
  6
CONTINUOUS
 62
     7
 10
79.4275099515
 20
113.3663580803
 30
0.0
 11
79.4077502471
 21
113.364614001
 31
0.0
  0
LINE
  5
21B
  8
0
  6
CONTINUOUS
 62
     7
 10
79.4832495664
 20
113.3731204627
 30
0.0
 11
79.4275099515
 21
113.3663580803
 31
0.0
  0
LINE
  5
21C
  8
0
  6
CONTINUOUS
 62
     7
 10
79.2311932756
 20
112.9301957016
 30
0.0
 11
79.378577735
 21
112.9379198313
 31
0.0
  0
LINE
  5
21D
  8
0
  6
CONTINUOUS
 62
     7
 10
78.8740884311
 20
117.6867344123
 30
0.0
 11
78.8735466723
 21
117.6948442456
 31
0.0
  0
LINE
  5
21E
  8
0
  6
CONTINUOUS
 62
     7
 10
78.8758325103
 20
117.666974708
 30
0.0
 11
78.8740884311
 21
117.6867344123
 31
0.0
  0
LINE
  5
21F
  8
0
  6
CONTINUOUS
 62
     7
 10
78.8825948928
 20
117.6112350931
 30
0.0
 11
78.8758325103
 21
117.666974708
 31
0.0
  0
LINE
  5
220
  8
0
  6
CONTINUOUS
 62
     7
 10
78.4396701316
 20
117.8632913839
 30
0.0
 11
78.4473942614
 21
117.7159069245
 31
0.0
  0
LINE
  5
221
  8
0
  6
CONTINUOUS
 62
     7
 10
83.1962088424
 20
118.2203962284
 30
0.0
 11
83.2043186756
 21
118.2209379872
 31
0.0
  0
LINE
  5
222
  8
0
  6
CONTINUOUS
 62
     7
 10
83.1764491381
 20
118.2186521491
 30
0.0
 11
83.1962088424
 21
118.2203962284
 31
0.0
  0
LINE
  5
223
  8
0
  6
CONTINUOUS
 62
     7
 10
83.1207095231
 20
118.2118897667
 30
0.0
 11
83.1764491381
 21
118.2186521491
 31
0.0
  0
LINE
  5
224
  8
0
  6
CONTINUOUS
 62
     7
 10
83.225381357
 20
118.6470903521
 30
0.0
 11
83.3727658352
 21
118.6548145055
 31
0.0
  0
LINE
  5
225
  8
0
  6
CONTINUOUS
 62
     7
 10
83.7298706585
 20
113.8982758171
 30
0.0
 11
83.7304124172
 21
113.8901659838
 31
0.0
  0
LINE
  5
226
  8
0
  6
CONTINUOUS
 62
     7
 10
83.7281265792
 20
113.9180355214
 30
0.0
 11
83.7298706585
 21
113.8982758171
 31
0.0
  0
LINE
  5
227
  8
0
  6
CONTINUOUS
 62
     7
 10
83.7213641967
 20
113.9737751363
 30
0.0
 11
83.7281265792
 21
113.9180355214
 31
0.0
  0
LINE
  5
228
  8
0
  6
CONTINUOUS
 62
     7
 10
84.1565647822
 20
113.8691033025
 30
0.0
 11
84.1642889358
 21
113.7217188196
 31
0.0
  0
LINE
  5
229
  8
0
  6
CONTINUOUS
 62
     7
 10
78.973500231
 20
117.938977081
 30
0.0
 11
79.0213910167
 21
117.8977635108
 31
0.0
  0
POLYLINE
  5
22A
  8
0
  6
CONTINUOUS
 62
     7
 66
     1
 10
0.0
 20
0.0
 30
0.0
 70
   128
  0
VERTEX
  5
48E
  8
0
  6
CONTINUOUS
 62
     7
 10
78.9717965953
 20
117.8372320446
 30
0.0
  0
VERTEX
  5
48F
  8
0
  6
CONTINUOUS
 62
     7
 10
78.9973689357
 20
117.8671986526
 30
0.0
  0
VERTEX
  5
490
  8
0
  6
CONTINUOUS
 62
     7
 10
79.0213906279
 20
117.8977633934
 30
0.0
  0
SEQEND
  5
61F
  8
0
  6
CONTINUOUS
 62
     7
  0
LINE
  5
22B
  8
0
  6
CONTINUOUS
 62
     7
 10
78.9717971871
 20
117.8372314329
 30
0.0
 11
78.9209536524
 21
117.8853570599
 31
0.0
  0
LINE
  5
22C
  8
0
  6
CONTINUOUS
 62
     7
 10
83.6304588586
 20
113.6460331484
 30
0.0
 11
83.5825680728
 21
113.6872467186
 31
0.0
  0
POLYLINE
  5
22D
  8
0
  6
CONTINUOUS
 62
     7
 66
     1
 10
0.0
 20
0.0
 30
0.0
 70
   128
  0
VERTEX
  5
491
  8
0
  6
CONTINUOUS
 62
     7
 10
83.6321624942
 20
113.7477781848
 30
0.0
  0
VERTEX
  5
492
  8
0
  6
CONTINUOUS
 62
     7
 10
83.6065901538
 20
113.7178115768
 30
0.0
  0
VERTEX
  5
493
  8
0
  6
CONTINUOUS
 62
     7
 10
83.5825684616
 20
113.687246836
 30
0.0
  0
SEQEND
  5
620
  8
0
  6
CONTINUOUS
 62
     7
  0
LINE
  5
22E
  8
0
  6
CONTINUOUS
 62
     7
 10
83.6321619024
 20
113.7477787965
 30
0.0
 11
83.6830054371
 21
113.6996531695
 31
0.0
  0
LINE
  5
22F
  8
0
  6
CONTINUOUS
 62
     7
 10
79.1555075784
 20
113.4640258009
 30
0.0
 11
79.1967211487
 21
113.5119165867
 31
0.0
  0
POLYLINE
  5
230
  8
0
  6
CONTINUOUS
 62
     7
 66
     1
 10
0.0
 20
0.0
 30
0.0
 70
   128
  0
VERTEX
  5
494
  8
0
  6
CONTINUOUS
 62
     7
 10
79.2572526149
 20
113.4623221653
 30
0.0
  0
VERTEX
  5
495
  8
0
  6
CONTINUOUS
 62
     7
 10
79.2272860069
 20
113.4878945056
 30
0.0
  0
VERTEX
  5
496
  8
0
  6
CONTINUOUS
 62
     7
 10
79.1967212661
 20
113.5119161979
 30
0.0
  0
SEQEND
  5
621
  8
0
  6
CONTINUOUS
 62
     7
  0
LINE
  5
231
  8
0
  6
CONTINUOUS
 62
     7
 10
79.2572532266
 20
113.4623227571
 30
0.0
 11
79.2091275995
 21
113.4114792223
 31
0.0
  0
LINE
  5
232
  8
0
  6
CONTINUOUS
 62
     7
 10
83.4484515111
 20
118.1209844285
 30
0.0
 11
83.4072379408
 21
118.0730936427
 31
0.0
  0
POLYLINE
  5
233
  8
0
  6
CONTINUOUS
 62
     7
 66
     1
 10
0.0
 20
0.0
 30
0.0
 70
   128
  0
VERTEX
  5
497
  8
0
  6
CONTINUOUS
 62
     7
 10
83.3467064746
 20
118.1226880641
 30
0.0
  0
VERTEX
  5
498
  8
0
  6
CONTINUOUS
 62
     7
 10
83.3766730826
 20
118.0971157238
 30
0.0
  0
VERTEX
  5
499
  8
0
  6
CONTINUOUS
 62
     7
 10
83.4072378235
 20
118.0730940315
 30
0.0
  0
SEQEND
  5
622
  8
0
  6
CONTINUOUS
 62
     7
  0
LINE
  5
234
  8
0
  6
CONTINUOUS
 62
     7
 10
83.3467058629
 20
118.1226874723
 30
0.0
 11
83.39483149
 21
118.1735310071
 31
0.0
  0
POLYLINE
  5
235
  8
0
  6
CONTINUOUS
 62
     7
 66
     1
 10
0.0
 20
0.0
 30
0.0
 70
   128
  0
VERTEX
  5
49A
  8
0
  6
CONTINUOUS
 62
     7
 10
83.1956679108
 20
118.180526127
 30
0.0
  0
VERTEX
  5
49B
  8
0
  6
CONTINUOUS
 62
     7
 10
83.2768622956
 20
118.1635175347
 30
0.0
  0
VERTEX
  5
49C
  8
0
  6
CONTINUOUS
 62
     7
 10
83.3467039324
 20
118.1226849349
 30
0.0
  0
SEQEND
  5
623
  8
0
  6
CONTINUOUS
 62
     7
  0
LINE
  5
236
  8
0
  6
CONTINUOUS
 62
     7
 10
83.2043186723
 20
118.2209379867
 30
0.0
 11
83.1956676159
 21
118.1805261949
 31
0.0
  0
POLYLINE
  5
237
  8
0
  6
CONTINUOUS
 62
     7
 66
     1
 10
0.0
 20
0.0
 30
0.0
 70
   128
  0
VERTEX
  5
49D
  8
0
  6
CONTINUOUS
 62
     7
 10
83.6900005571
 20
113.8988167487
 30
0.0
  0
VERTEX
  5
49E
  8
0
  6
CONTINUOUS
 62
     7
 10
83.6729919647
 20
113.8176223639
 30
0.0
  0
VERTEX
  5
49F
  8
0
  6
CONTINUOUS
 62
     7
 10
83.632159365
 20
113.747780727
 30
0.0
  0
SEQEND
  5
624
  8
0
  6
CONTINUOUS
 62
     7
  0
LINE
  5
238
  8
0
  6
CONTINUOUS
 62
     7
 10
83.7304124167
 20
113.8901659871
 30
0.0
 11
83.690000625
 21
113.8988170436
 31
0.0
  0
POLYLINE
  5
239
  8
0
  6
CONTINUOUS
 62
     7
 66
     1
 10
0.0
 20
0.0
 30
0.0
 70
   128
  0
VERTEX
  5
4A0
  8
0
  6
CONTINUOUS
 62
     7
 10
78.9139585324
 20
117.6861934807
 30
0.0
  0
VERTEX
  5
4A1
  8
0
  6
CONTINUOUS
 62
     7
 10
78.9309671248
 20
117.7673878655
 30
0.0
  0
VERTEX
  5
4A2
  8
0
  6
CONTINUOUS
 62
     7
 10
78.9717997246
 20
117.8372295024
 30
0.0
  0
SEQEND
  5
625
  8
0
  6
CONTINUOUS
 62
     7
  0
LINE
  5
23A
  8
0
  6
CONTINUOUS
 62
     7
 10
78.8735466728
 20
117.6948442423
 30
0.0
 11
78.9139584645
 21
117.6861931858
 31
0.0
  0
POLYLINE
  5
23B
  8
0
  6
CONTINUOUS
 62
     7
 66
     1
 10
0.0
 20
0.0
 30
0.0
 70
   128
  0
VERTEX
  5
4A3
  8
0
  6
CONTINUOUS
 62
     7
 10
79.4082911787
 20
113.4044841024
 30
0.0
  0
VERTEX
  5
4A4
  8
0
  6
CONTINUOUS
 62
     7
 10
79.3270967939
 20
113.4214926947
 30
0.0
  0
VERTEX
  5
4A5
  8
0
  6
CONTINUOUS
 62
     7
 10
79.2572551571
 20
113.4623252945
 30
0.0
  0
SEQEND
  5
626
  8
0
  6
CONTINUOUS
 62
     7
  0
LINE
  5
23C
  8
0
  6
CONTINUOUS
 62
     7
 10
79.3996404172
 20
113.3640722427
 30
0.0
 11
79.4082914736
 21
113.4044840345
 31
0.0
  0
LINE
  5
23D
  8
0
  6
CONTINUOUS
 62
     7
 10
79.1436805607
 20
117.7152701467
 30
0.0
 11
79.1625979922
 21
117.7415899986
 31
0.0
  0
LINE
  5
23E
  8
0
  6
CONTINUOUS
 62
     7
 10
79.1436800714
 20
117.7152705
 30
0.0
 11
78.9717965953
 21
117.8372320446
 31
0.0
  0
LINE
  5
23F
  8
0
  6
CONTINUOUS
 62
     7
 10
79.1625981763
 20
117.7415898657
 30
0.0
 11
79.0213906279
 21
117.8977633934
 31
0.0
  0
LINE
  5
240
  8
0
  6
CONTINUOUS
 62
     7
 10
83.4602785288
 20
113.8697400827
 30
0.0
 11
83.4413610973
 21
113.8434202308
 31
0.0
  0
LINE
  5
241
  8
0
  6
CONTINUOUS
 62
     7
 10
83.4602790181
 20
113.8697397294
 30
0.0
 11
83.6321624942
 21
113.7477781848
 31
0.0
  0
LINE
  5
242
  8
0
  6
CONTINUOUS
 62
     7
 10
83.4413609132
 20
113.8434203637
 30
0.0
 11
83.5825684616
 21
113.687246836
 31
0.0
  0
LINE
  5
243
  8
0
  6
CONTINUOUS
 62
     7
 10
79.3792145127
 20
113.6342061306
 30
0.0
 11
79.3528946609
 21
113.6531235621
 31
0.0
  0
LINE
  5
244
  8
0
  6
CONTINUOUS
 62
     7
 10
79.3792141595
 20
113.6342056413
 30
0.0
 11
79.2572526149
 21
113.4623221653
 31
0.0
  0
LINE
  5
245
  8
0
  6
CONTINUOUS
 62
     7
 10
79.3528947938
 20
113.6531237462
 30
0.0
 11
79.1967212661
 21
113.5119161979
 31
0.0
  0
LINE
  5
246
  8
0
  6
CONTINUOUS
 62
     7
 10
83.2247445768
 20
117.9508040988
 30
0.0
 11
83.2510644287
 21
117.9318866673
 31
0.0
  0
LINE
  5
247
  8
0
  6
CONTINUOUS
 62
     7
 10
83.22474493
 20
117.9508045881
 30
0.0
 11
83.3467064746
 21
118.1226880641
 31
0.0
  0
LINE
  5
248
  8
0
  6
CONTINUOUS
 62
     7
 10
83.2510642958
 20
117.9318864832
 30
0.0
 11
83.4072378235
 21
118.0730940315
 31
0.0
  0
POLYLINE
  5
249
  8
0
  6
CONTINUOUS
 62
     7
 66
     1
 10
0.0
 20
0.0
 30
0.0
 70
   128
  0
VERTEX
  5
4A6
  8
0
  6
CONTINUOUS
 62
     7
 10
83.1152293196
 20
117.989741659
 30
0.0
  0
VERTEX
  5
4A7
  8
0
  6
CONTINUOUS
 62
     7
 10
83.1731209826
 20
117.9785624948
 30
0.0
  0
VERTEX
  5
4A8
  8
0
  6
CONTINUOUS
 62
     7
 10
83.2247425393
 20
117.9508056864
 30
0.0
  0
SEQEND
  5
627
  8
0
  6
CONTINUOUS
 62
     7
  0
LINE
  5
24A
  8
0
  6
CONTINUOUS
 62
     7
 10
83.1887953879
 20
118.1807769798
 30
0.0
 11
83.1152293196
 21
117.989741659
 31
0.0
  0
LINE
  5
24B
  8
0
  6
CONTINUOUS
 62
     7
 10
83.1956679325
 20
118.1805261412
 30
0.0
 11
83.1887953879
 21
118.1807769798
 31
0.0
  0
POLYLINE
  5
24C
  8
0
  6
CONTINUOUS
 62
     7
 66
     1
 10
0.0
 20
0.0
 30
0.0
 70
   128
  0
VERTEX
  5
4A9
  8
0
  6
CONTINUOUS
 62
     7
 10
79.4887297699
 20
113.5952685704
 30
0.0
  0
VERTEX
  5
4AA
  8
0
  6
CONTINUOUS
 62
     7
 10
79.4308381069
 20
113.6064477346
 30
0.0
  0
VERTEX
  5
4AB
  8
0
  6
CONTINUOUS
 62
     7
 10
79.3792165502
 20
113.634204543
 30
0.0
  0
SEQEND
  5
628
  8
0
  6
CONTINUOUS
 62
     7
  0
LINE
  5
24D
  8
0
  6
CONTINUOUS
 62
     7
 10
79.4151637016
 20
113.4042332496
 30
0.0
 11
79.4887297699
 21
113.5952685704
 31
0.0
  0
LINE
  5
24E
  8
0
  6
CONTINUOUS
 62
     7
 10
79.408291157
 20
113.4044840882
 30
0.0
 11
79.4151637016
 21
113.4042332496
 31
0.0
  0
POLYLINE
  5
24F
  8
0
  6
CONTINUOUS
 62
     7
 66
     1
 10
0.0
 20
0.0
 30
0.0
 70
   128
  0
VERTEX
  5
4AC
  8
0
  6
CONTINUOUS
 62
     7
 10
83.499216089
 20
113.9792553398
 30
0.0
  0
VERTEX
  5
4AD
  8
0
  6
CONTINUOUS
 62
     7
 10
83.4880369248
 20
113.9213636769
 30
0.0
  0
VERTEX
  5
4AE
  8
0
  6
CONTINUOUS
 62
     7
 10
83.4602801165
 20
113.8697421202
 30
0.0
  0
SEQEND
  5
629
  8
0
  6
CONTINUOUS
 62
     7
  0
LINE
  5
250
  8
0
  6
CONTINUOUS
 62
     7
 10
83.6902514098
 20
113.9056892716
 30
0.0
 11
83.499216089
 21
113.9792553398
 31
0.0
  0
LINE
  5
251
  8
0
  6
CONTINUOUS
 62
     7
 10
83.6900005712
 20
113.8988167269
 30
0.0
 11
83.6902514099
 21
113.9056892715
 31
0.0
  0
POLYLINE
  5
252
  8
0
  6
CONTINUOUS
 62
     7
 66
     1
 10
0.0
 20
0.0
 30
0.0
 70
   128
  0
VERTEX
  5
4AF
  8
0
  6
CONTINUOUS
 62
     7
 10
79.1047430005
 20
117.6057548896
 30
0.0
  0
VERTEX
  5
4B0
  8
0
  6
CONTINUOUS
 62
     7
 10
79.1159221647
 20
117.6636465525
 30
0.0
  0
VERTEX
  5
4B1
  8
0
  6
CONTINUOUS
 62
     7
 10
79.1436789731
 20
117.7152681092
 30
0.0
  0
SEQEND
  5
62A
  8
0
  6
CONTINUOUS
 62
     7
  0
LINE
  5
253
  8
0
  6
CONTINUOUS
 62
     7
 10
78.9137076797
 20
117.6793209578
 30
0.0
 11
79.1047430005
 21
117.6057548896
 31
0.0
  0
LINE
  5
254
  8
0
  6
CONTINUOUS
 62
     7
 10
78.9139585183
 20
117.6861935025
 30
0.0
 11
78.9137076797
 21
117.6793209578
 31
0.0
  0
LINE
  5
255
  8
0
  6
CONTINUOUS
 62
     7
 10
79.0213910167
 20
117.8977635108
 30
0.0
 11
79.0579808231
 21
117.9322590752
 31
0.0
  0
LINE
  5
256
  8
0
  6
CONTINUOUS
 62
     7
 10
79.0579808231
 20
117.9322590752
 30
0.0
 11
79.0249699295
 21
117.9661928309
 31
0.0
  0
LINE
  5
257
  8
0
  6
CONTINUOUS
 62
     7
 10
83.5825680728
 20
113.6872467186
 30
0.0
 11
83.5459782664
 21
113.6527511542
 31
0.0
  0
LINE
  5
258
  8
0
  6
CONTINUOUS
 62
     7
 10
83.5459782664
 20
113.6527511542
 30
0.0
 11
83.57898916
 21
113.6188173984
 31
0.0
  0
LINE
  5
259
  8
0
  6
CONTINUOUS
 62
     7
 10
79.1967211487
 20
113.5119165867
 30
0.0
 11
79.1622255843
 21
113.5485063931
 31
0.0
  0
LINE
  5
25A
  8
0
  6
CONTINUOUS
 62
     7
 10
79.1622255843
 20
113.5485063931
 30
0.0
 11
79.1282918285
 21
113.5154954994
 31
0.0
  0
LINE
  5
25B
  8
0
  6
CONTINUOUS
 62
     7
 10
83.4072379408
 20
118.0730936427
 30
0.0
 11
83.4417335053
 21
118.0365038363
 31
0.0
  0
LINE
  5
25C
  8
0
  6
CONTINUOUS
 62
     7
 10
83.4417335053
 20
118.0365038363
 30
0.0
 11
83.475667261
 21
118.06951473
 31
0.0
  0
LINE
  5
25D
  8
0
  6
CONTINUOUS
 62
     7
 10
79.0579808508
 20
117.9322590813
 30
0.0
 11
79.1553168969
 21
117.9681630552
 31
0.0
  0
POLYLINE
  5
25E
  8
0
  6
CONTINUOUS
 62
     7
 66
     1
 10
0.0
 20
0.0
 30
0.0
 70
   128
  0
VERTEX
  5
4B2
  8
0
  6
CONTINUOUS
 62
     7
 10
79.1553163285
 20
117.9681630201
 30
0.0
  0
VERTEX
  5
4B3
  8
0
  6
CONTINUOUS
 62
     7
 10
79.1681090847
 20
117.9386058027
 30
0.0
  0
VERTEX
  5
4B4
  8
0
  6
CONTINUOUS
 62
     7
 10
79.1935583096
 20
117.9022558919
 30
0.0
  0
SEQEND
  5
62B
  8
0
  6
CONTINUOUS
 62
     7
  0
LINE
  5
25F
  8
0
  6
CONTINUOUS
 62
     7
 10
79.193558359
 20
117.9022559256
 30
0.0
 11
79.2901745394
 21
117.7899564686
 31
0.0
  0
POLYLINE
  5
260
  8
0
  6
CONTINUOUS
 62
     7
 66
     1
 10
0.0
 20
0.0
 30
0.0
 70
   128
  0
VERTEX
  5
4B5
  8
0
  6
CONTINUOUS
 62
     7
 10
79.2901745379
 20
117.7899564625
 30
0.0
  0
VERTEX
  5
4B6
  8
0
  6
CONTINUOUS
 62
     7
 10
79.2223521053
 20
117.774591601
 30
0.0
  0
VERTEX
  5
4B7
  8
0
  6
CONTINUOUS
 62
     7
 10
79.1644292177
 20
117.7379598147
 30
0.0
  0
SEQEND
  5
62C
  8
0
  6
CONTINUOUS
 62
     7
  0
LINE
  5
261
  8
0
  6
CONTINUOUS
 62
     7
 10
79.1644292377
 20
117.737959814
 30
0.0
 11
79.1625982755
 21
117.7415898672
 31
0.0
  0
LINE
  5
262
  8
0
  6
CONTINUOUS
 62
     7
 10
79.1622255782
 20
113.5485064207
 30
0.0
 11
79.1263216042
 21
113.6458424668
 31
0.0
  0
POLYLINE
  5
263
  8
0
  6
CONTINUOUS
 62
     7
 66
     1
 10
0.0
 20
0.0
 30
0.0
 70
   128
  0
VERTEX
  5
4B8
  8
0
  6
CONTINUOUS
 62
     7
 10
79.1263216394
 20
113.6458418985
 30
0.0
  0
VERTEX
  5
4B9
  8
0
  6
CONTINUOUS
 62
     7
 10
79.1558788568
 20
113.6586346546
 30
0.0
  0
VERTEX
  5
4BA
  8
0
  6
CONTINUOUS
 62
     7
 10
79.1922287676
 20
113.6840838796
 30
0.0
  0
SEQEND
  5
62D
  8
0
  6
CONTINUOUS
 62
     7
  0
LINE
  5
264
  8
0
  6
CONTINUOUS
 62
     7
 10
79.1922267772
 20
113.6840861166
 30
0.0
 11
79.3045293068
 21
113.7806998375
 31
0.0
  0
POLYLINE
  5
265
  8
0
  6
CONTINUOUS
 62
     7
 66
     1
 10
0.0
 20
0.0
 30
0.0
 70
   128
  0
VERTEX
  5
4BB
  8
0
  6
CONTINUOUS
 62
     7
 10
79.304528197
 20
113.7807001079
 30
0.0
  0
VERTEX
  5
4BC
  8
0
  6
CONTINUOUS
 62
     7
 10
79.3198930585
 20
113.7128776752
 30
0.0
  0
VERTEX
  5
4BD
  8
0
  6
CONTINUOUS
 62
     7
 10
79.3565248448
 20
113.6549547876
 30
0.0
  0
SEQEND
  5
62E
  8
0
  6
CONTINUOUS
 62
     7
  0
LINE
  5
266
  8
0
  6
CONTINUOUS
 62
     7
 10
79.3565248455
 20
113.6549548076
 30
0.0
 11
79.3528947922
 21
113.6531238454
 31
0.0
  0
LINE
  5
267
  8
0
  6
CONTINUOUS
 62
     7
 10
83.5459782388
 20
113.6527511481
 30
0.0
 11
83.4486421926
 21
113.6168471742
 31
0.0
  0
POLYLINE
  5
268
  8
0
  6
CONTINUOUS
 62
     7
 66
     1
 10
0.0
 20
0.0
 30
0.0
 70
   128
  0
VERTEX
  5
4BE
  8
0
  6
CONTINUOUS
 62
     7
 10
83.448642761
 20
113.6168472093
 30
0.0
  0
VERTEX
  5
4BF
  8
0
  6
CONTINUOUS
 62
     7
 10
83.4358500048
 20
113.6464044267
 30
0.0
  0
VERTEX
  5
4C0
  8
0
  6
CONTINUOUS
 62
     7
 10
83.4104007799
 20
113.6827543375
 30
0.0
  0
SEQEND
  5
62F
  8
0
  6
CONTINUOUS
 62
     7
  0
LINE
  5
269
  8
0
  6
CONTINUOUS
 62
     7
 10
83.4104007207
 20
113.682754295
 30
0.0
 11
83.3137845539
 21
113.7950537761
 31
0.0
  0
POLYLINE
  5
26A
  8
0
  6
CONTINUOUS
 62
     7
 66
     1
 10
0.0
 20
0.0
 30
0.0
 70
   128
  0
VERTEX
  5
4C1
  8
0
  6
CONTINUOUS
 62
     7
 10
83.3137845516
 20
113.7950537669
 30
0.0
  0
VERTEX
  5
4C2
  8
0
  6
CONTINUOUS
 62
     7
 10
83.3816069842
 20
113.8104186284
 30
0.0
  0
VERTEX
  5
4C3
  8
0
  6
CONTINUOUS
 62
     7
 10
83.4395298718
 20
113.8470504147
 30
0.0
  0
SEQEND
  5
630
  8
0
  6
CONTINUOUS
 62
     7
  0
LINE
  5
26B
  8
0
  6
CONTINUOUS
 62
     7
 10
83.4395298518
 20
113.8470504154
 30
0.0
 11
83.4413608141
 21
113.8434203622
 31
0.0
  0
LINE
  5
26C
  8
0
  6
CONTINUOUS
 62
     7
 10
83.4417335113
 20
118.0365038087
 30
0.0
 11
83.4776374853
 21
117.9391677626
 31
0.0
  0
POLYLINE
  5
26D
  8
0
  6
CONTINUOUS
 62
     7
 66
     1
 10
0.0
 20
0.0
 30
0.0
 70
   128
  0
VERTEX
  5
4C4
  8
0
  6
CONTINUOUS
 62
     7
 10
83.4776374502
 20
117.9391683309
 30
0.0
  0
VERTEX
  5
4C5
  8
0
  6
CONTINUOUS
 62
     7
 10
83.4480802328
 20
117.9263755748
 30
0.0
  0
VERTEX
  5
4C6
  8
0
  6
CONTINUOUS
 62
     7
 10
83.4117303219
 20
117.9009263498
 30
0.0
  0
SEQEND
  5
631
  8
0
  6
CONTINUOUS
 62
     7
  0
LINE
  5
26E
  8
0
  6
CONTINUOUS
 62
     7
 10
83.411730395
 20
117.9009262558
 30
0.0
 11
83.2994308059
 21
117.8043101427
 31
0.0
  0
POLYLINE
  5
26F
  8
0
  6
CONTINUOUS
 62
     7
 66
     1
 10
0.0
 20
0.0
 30
0.0
 70
   128
  0
VERTEX
  5
4C7
  8
0
  6
CONTINUOUS
 62
     7
 10
83.2994308925
 20
117.8043101215
 30
0.0
  0
VERTEX
  5
4C8
  8
0
  6
CONTINUOUS
 62
     7
 10
83.2840660311
 20
117.8721325542
 30
0.0
  0
VERTEX
  5
4C9
  8
0
  6
CONTINUOUS
 62
     7
 10
83.2474342447
 20
117.9300554417
 30
0.0
  0
SEQEND
  5
632
  8
0
  6
CONTINUOUS
 62
     7
  0
LINE
  5
270
  8
0
  6
CONTINUOUS
 62
     7
 10
83.247434244
 20
117.9300554218
 30
0.0
 11
83.2510642973
 21
117.931886384
 31
0.0
  0
POLYLINE
  5
271
  8
0
  6
CONTINUOUS
 62
     7
 66
     1
 10
0.0
 20
0.0
 30
0.0
 70
   128
  0
VERTEX
  5
4CA
  8
0
  6
CONTINUOUS
 62
     7
 10
79.1855597494
 20
117.5379619284
 30
0.0
  0
VERTEX
  5
4CB
  8
0
  6
CONTINUOUS
 62
     7
 10
79.1797666526
 20
117.5394005539
 30
0.0
  0
VERTEX
  5
4CC
  8
0
  6
CONTINUOUS
 62
     7
 10
79.17517089
 20
117.5405383416
 30
0.0
  0
SEQEND
  5
633
  8
0
  6
CONTINUOUS
 62
     7
  0
LINE
  5
272
  8
0
  6
CONTINUOUS
 62
     7
 10
79.1790936356
 20
117.469442015
 30
0.0
 11
79.1891231919
 21
117.4699676418
 31
0.0
  0
LINE
  5
273
  8
0
  6
CONTINUOUS
 62
     7
 10
79.17517089
 20
117.5405383416
 30
0.0
 11
79.1790936356
 21
117.469442015
 31
0.0
  0
LINE
  5
274
  8
0
  6
CONTINUOUS
 62
     7
 10
79.3696307874
 20
113.8297899926
 30
0.0
 11
79.3350696064
 21
113.810361523
 31
0.0
  0
POLYLINE
  5
275
  8
0
  6
CONTINUOUS
 62
     7
 66
     1
 10
0.0
 20
0.0
 30
0.0
 70
   128
  0
VERTEX
  5
4CD
  8
0
  6
CONTINUOUS
 62
     7
 10
79.3350696064
 20
113.810361523
 30
0.0
  0
VERTEX
  5
4CE
  8
0
  6
CONTINUOUS
 62
     7
 10
79.2373882197
 20
113.7899918161
 30
0.0
  0
VERTEX
  5
4CF
  8
0
  6
CONTINUOUS
 62
     7
 10
79.1188603941
 20
113.7444595364
 30
0.0
  0
SEQEND
  5
634
  8
0
  6
CONTINUOUS
 62
     7
  0
POLYLINE
  5
276
  8
0
  6
CONTINUOUS
 62
     7
 66
     1
 10
0.0
 20
0.0
 30
0.0
 70
   128
  0
VERTEX
  5
4D0
  8
0
  6
CONTINUOUS
 62
     7
 10
78.9253410093
 20
117.4370169905
 30
0.0
  0
VERTEX
  5
4D1
  8
0
  6
CONTINUOUS
 62
     7
 10
79.0393487913
 20
117.443527509
 30
0.0
  0
VERTEX
  5
4D2
  8
0
  6
CONTINUOUS
 62
     7
 10
79.1222190117
 20
117.4591397136
 30
0.0
  0
SEQEND
  5
635
  8
0
  6
CONTINUOUS
 62
     7
  0
LINE
  5
277
  8
0
  6
CONTINUOUS
 62
     7
 10
79.1222190117
 20
117.4591397136
 30
0.0
 11
79.1790936356
 21
117.469442015
 31
0.0
  0
LINE
  5
278
  8
0
  6
CONTINUOUS
 62
     7
 10
79.3796036496
 20
113.8353839919
 30
0.0
 11
79.3696307874
 21
113.8297899926
 31
0.0
  0
POLYLINE
  5
279
  8
0
  6
CONTINUOUS
 62
     7
 66
     1
 10
0.0
 20
0.0
 30
0.0
 70
   128
  0
VERTEX
  5
4D3
  8
0
  6
CONTINUOUS
 62
     7
 10
83.4287881995
 20
114.0444718878
 30
0.0
  0
VERTEX
  5
4D4
  8
0
  6
CONTINUOUS
 62
     7
 10
83.422945732
 20
114.0459188412
 30
0.0
  0
VERTEX
  5
4D5
  8
0
  6
CONTINUOUS
 62
     7
 10
83.418399327
 20
114.0470483043
 30
0.0
  0
SEQEND
  5
636
  8
0
  6
CONTINUOUS
 62
     7
  0
LINE
  5
27A
  8
0
  6
CONTINUOUS
 62
     7
 10
83.4248654539
 20
114.1155682144
 30
0.0
 11
83.4148358976
 21
114.1150425876
 31
0.0
  0
LINE
  5
27B
  8
0
  6
CONTINUOUS
 62
     7
 10
83.4287881995
 20
114.0444718878
 30
0.0
 11
83.4248654539
 21
114.1155682144
 31
0.0
  0
LINE
  5
27C
  8
0
  6
CONTINUOUS
 62
     7
 10
83.2343283021
 20
117.7552202368
 30
0.0
 11
83.2685684414
 21
117.7744655989
 31
0.0
  0
POLYLINE
  5
27D
  8
0
  6
CONTINUOUS
 62
     7
 66
     1
 10
0.0
 20
0.0
 30
0.0
 70
   128
  0
VERTEX
  5
4D6
  8
0
  6
CONTINUOUS
 62
     7
 10
83.2685684414
 20
117.7744655989
 30
0.0
  0
VERTEX
  5
4D7
  8
0
  6
CONTINUOUS
 62
     7
 10
83.3676409656
 20
117.795475893
 30
0.0
  0
VERTEX
  5
4D8
  8
0
  6
CONTINUOUS
 62
     7
 10
83.4850992826
 20
117.8405511363
 30
0.0
  0
SEQEND
  5
637
  8
0
  6
CONTINUOUS
 62
     7
  0
POLYLINE
  5
27E
  8
0
  6
CONTINUOUS
 62
     7
 66
     1
 10
0.0
 20
0.0
 30
0.0
 70
   128
  0
VERTEX
  5
4D9
  8
0
  6
CONTINUOUS
 62
     7
 10
83.6786180802
 20
114.1479932389
 30
0.0
  0
VERTEX
  5
4DA
  8
0
  6
CONTINUOUS
 62
     7
 10
83.5646102982
 20
114.1414827203
 30
0.0
  0
VERTEX
  5
4DB
  8
0
  6
CONTINUOUS
 62
     7
 10
83.4817400778
 20
114.1258705158
 30
0.0
  0
SEQEND
  5
638
  8
0
  6
CONTINUOUS
 62
     7
  0
LINE
  5
27F
  8
0
  6
CONTINUOUS
 62
     7
 10
83.4817400778
 20
114.1258705158
 30
0.0
 11
83.4248654539
 21
114.1155682144
 31
0.0
  0
LINE
  5
280
  8
0
  6
CONTINUOUS
 62
     7
 10
83.2343283021
 20
117.7552202368
 30
0.0
 11
83.2243554399
 21
117.7496262375
 31
0.0
  0
LINE
  5
281
  8
0
  6
CONTINUOUS
 62
     7
 10
83.2646946669
 20
113.8601563574
 30
0.0
 11
83.2839480451
 21
113.825902161
 31
0.0
  0
POLYLINE
  5
282
  8
0
  6
CONTINUOUS
 62
     7
 66
     1
 10
0.0
 20
0.0
 30
0.0
 70
   128
  0
VERTEX
  5
4DC
  8
0
  6
CONTINUOUS
 62
     7
 10
83.2839480451
 20
113.825902161
 30
0.0
  0
VERTEX
  5
4DD
  8
0
  6
CONTINUOUS
 62
     7
 10
83.3050239626
 20
113.7267129754
 30
0.0
  0
VERTEX
  5
4DE
  8
0
  6
CONTINUOUS
 62
     7
 10
83.3500261064
 20
113.6093846666
 30
0.0
  0
SEQEND
  5
639
  8
0
  6
CONTINUOUS
 62
     7
  0
POLYLINE
  5
283
  8
0
  6
CONTINUOUS
 62
     7
 66
     1
 10
0.0
 20
0.0
 30
0.0
 70
   128
  0
VERTEX
  5
4DF
  8
0
  6
CONTINUOUS
 62
     7
 10
79.657467669
 20
113.4158665792
 30
0.0
  0
VERTEX
  5
4E0
  8
0
  6
CONTINUOUS
 62
     7
 10
79.6509571504
 20
113.5298743612
 30
0.0
  0
VERTEX
  5
4E1
  8
0
  6
CONTINUOUS
 62
     7
 10
79.6353449459
 20
113.6127445817
 30
0.0
  0
SEQEND
  5
63A
  8
0
  6
CONTINUOUS
 62
     7
  0
LINE
  5
284
  8
0
  6
CONTINUOUS
 62
     7
 10
79.6353449459
 20
113.6127445817
 30
0.0
 11
79.6250426444
 21
113.6696192056
 31
0.0
  0
LINE
  5
285
  8
0
  6
CONTINUOUS
 62
     7
 10
79.6250426444
 20
113.6696192056
 30
0.0
 11
79.6245170177
 21
113.6796487619
 31
0.0
  0
LINE
  5
286
  8
0
  6
CONTINUOUS
 62
     7
 10
83.2646946669
 20
113.8601563574
 30
0.0
 11
83.2591006675
 21
113.8701292196
 31
0.0
  0
POLYLINE
  5
287
  8
0
  6
CONTINUOUS
 62
     7
 66
     1
 10
0.0
 20
0.0
 30
0.0
 70
   128
  0
VERTEX
  5
4E2
  8
0
  6
CONTINUOUS
 62
     7
 10
82.9464914206
 20
118.1691436502
 30
0.0
  0
VERTEX
  5
4E3
  8
0
  6
CONTINUOUS
 62
     7
 10
82.9530019391
 20
118.0551358682
 30
0.0
  0
VERTEX
  5
4E4
  8
0
  6
CONTINUOUS
 62
     7
 10
82.9686141436
 20
117.9722656477
 30
0.0
  0
SEQEND
  5
63B
  8
0
  6
CONTINUOUS
 62
     7
  0
LINE
  5
288
  8
0
  6
CONTINUOUS
 62
     7
 10
82.9686141436
 20
117.9722656477
 30
0.0
 11
82.9789164451
 21
117.9153910238
 31
0.0
  0
LINE
  5
289
  8
0
  6
CONTINUOUS
 62
     7
 10
82.9789164451
 20
117.9153910238
 30
0.0
 11
82.9794420719
 21
117.9053614675
 31
0.0
  0
LINE
  5
28A
  8
0
  6
CONTINUOUS
 62
     7
 10
79.3392644226
 20
117.724853872
 30
0.0
 11
79.344858422
 21
117.7148810098
 31
0.0
  0
LINE
  5
28B
  8
0
  6
CONTINUOUS
 62
     7
 10
79.3392644226
 20
117.724853872
 30
0.0
 11
79.3200761491
 21
117.7589939018
 31
0.0
  0
POLYLINE
  5
28C
  8
0
  6
CONTINUOUS
 62
     7
 66
     1
 10
0.0
 20
0.0
 30
0.0
 70
   128
  0
VERTEX
  5
4E5
  8
0
  6
CONTINUOUS
 62
     7
 10
79.3200761491
 20
117.7589939018
 30
0.0
  0
VERTEX
  5
4E6
  8
0
  6
CONTINUOUS
 62
     7
 10
79.2989982642
 20
117.8581664391
 30
0.0
  0
VERTEX
  5
4E7
  8
0
  6
CONTINUOUS
 62
     7
 10
79.2539330032
 20
117.9756255363
 30
0.0
  0
SEQEND
  5
63C
  8
0
  6
CONTINUOUS
 62
     7
  0
POLYLINE
  5
28D
  8
0
  6
CONTINUOUS
 62
     7
 66
     1
 10
0.0
 20
0.0
 30
0.0
 70
   128
  0
VERTEX
  5
4E8
  8
0
  6
CONTINUOUS
 62
     7
 10
79.5539463178
 20
113.6656964599
 30
0.0
  0
VERTEX
  5
4E9
  8
0
  6
CONTINUOUS
 62
     7
 10
79.5553932713
 20
113.6715389274
 30
0.0
  0
VERTEX
  5
4EA
  8
0
  6
CONTINUOUS
 62
     7
 10
79.5565227344
 20
113.6760853325
 30
0.0
  0
SEQEND
  5
63D
  8
0
  6
CONTINUOUS
 62
     7
  0
LINE
  5
28E
  8
0
  6
CONTINUOUS
 62
     7
 10
79.5539463178
 20
113.6656964599
 30
0.0
 11
79.6250426444
 21
113.6696192056
 31
0.0
  0
POLYLINE
  5
28F
  8
0
  6
CONTINUOUS
 62
     7
 66
     1
 10
0.0
 20
0.0
 30
0.0
 70
   128
  0
VERTEX
  5
4EB
  8
0
  6
CONTINUOUS
 62
     7
 10
83.0500127717
 20
117.9193137695
 30
0.0
  0
VERTEX
  5
4EC
  8
0
  6
CONTINUOUS
 62
     7
 10
83.0485658182
 20
117.913471302
 30
0.0
  0
VERTEX
  5
4ED
  8
0
  6
CONTINUOUS
 62
     7
 10
83.0474363552
 20
117.9089248969
 30
0.0
  0
SEQEND
  5
63E
  8
0
  6
CONTINUOUS
 62
     7
  0
LINE
  5
290
  8
0
  6
CONTINUOUS
 62
     7
 10
83.0500127717
 20
117.9193137695
 30
0.0
 11
82.9789164451
 21
117.9153910238
 31
0.0
  0
POLYLINE
  5
291
  8
0
  6
CONTINUOUS
 62
     7
 66
     1
 10
0.0
 20
0.0
 30
0.0
 70
   128
  0
VERTEX
  5
4EE
  8
0
  6
CONTINUOUS
 62
     7
 10
83.0867455742
 20
117.9190253157
 30
0.0
  0
VERTEX
  5
4EF
  8
0
  6
CONTINUOUS
 62
     7
 10
83.1364442856
 20
117.9055854629
 30
0.0
  0
VERTEX
  5
4F0
  8
0
  6
CONTINUOUS
 62
     7
 10
83.1793974203
 20
117.877588665
 30
0.0
  0
SEQEND
  5
63F
  8
0
  6
CONTINUOUS
 62
     7
  0
LINE
  5
292
  8
0
  6
CONTINUOUS
 62
     7
 10
83.1710049204
 20
117.8682680874
 30
0.0
 11
83.1793971765
 21
117.8775886321
 31
0.0
  0
LINE
  5
293
  8
0
  6
CONTINUOUS
 62
     7
 10
83.0867455742
 20
117.9190253157
 30
0.0
 11
83.082556881
 21
117.9084117505
 31
0.0
  0
POLYLINE
  5
294
  8
0
  6
CONTINUOUS
 62
     7
 66
     1
 10
0.0
 20
0.0
 30
0.0
 70
   128
  0
VERTEX
  5
4F1
  8
0
  6
CONTINUOUS
 62
     7
 10
83.4284997458
 20
114.0077390853
 30
0.0
  0
VERTEX
  5
4F2
  8
0
  6
CONTINUOUS
 62
     7
 10
83.415059893
 20
113.9580403739
 30
0.0
  0
VERTEX
  5
4F3
  8
0
  6
CONTINUOUS
 62
     7
 10
83.3870630951
 20
113.9150872391
 30
0.0
  0
SEQEND
  5
640
  8
0
  6
CONTINUOUS
 62
     7
  0
LINE
  5
295
  8
0
  6
CONTINUOUS
 62
     7
 10
83.3777425175
 20
113.9234797391
 30
0.0
 11
83.3870630621
 21
113.915087483
 31
0.0
  0
LINE
  5
296
  8
0
  6
CONTINUOUS
 62
     7
 10
83.4284997457
 20
114.0077390853
 30
0.0
 11
83.4178861806
 21
114.0119277784
 31
0.0
  0
POLYLINE
  5
297
  8
0
  6
CONTINUOUS
 62
     7
 66
     1
 10
0.0
 20
0.0
 30
0.0
 70
   128
  0
VERTEX
  5
4F4
  8
0
  6
CONTINUOUS
 62
     7
 10
79.1754593438
 20
117.5772711441
 30
0.0
  0
VERTEX
  5
4F5
  8
0
  6
CONTINUOUS
 62
     7
 10
79.1888991966
 20
117.6269698555
 30
0.0
  0
VERTEX
  5
4F6
  8
0
  6
CONTINUOUS
 62
     7
 10
79.2168959944
 20
117.6699229903
 30
0.0
  0
SEQEND
  5
641
  8
0
  6
CONTINUOUS
 62
     7
  0
LINE
  5
298
  8
0
  6
CONTINUOUS
 62
     7
 10
79.226216572
 20
117.6615304903
 30
0.0
 11
79.2168960274
 21
117.6699227464
 31
0.0
  0
LINE
  5
299
  8
0
  6
CONTINUOUS
 62
     7
 10
79.1754593438
 20
117.5772711441
 30
0.0
 11
79.186072909
 21
117.573082451
 31
0.0
  0
ARC
  5
29A
  8
0
  6
CONTINUOUS
 62
     7
 10
83.2632846892
 20
114.02706106
 30
0.0
 40
0.1669106578125762
 50
270.4840118498
 51
317.866520011
  0
POLYLINE
  5
29B
  8
0
  6
CONTINUOUS
 62
     7
 66
     1
 10
0.0
 20
0.0
 30
0.0
 70
   128
  0
VERTEX
  5
4F7
  8
0
  6
CONTINUOUS
 62
     7
 10
79.5172135153
 20
113.6659849137
 30
0.0
  0
VERTEX
  5
4F8
  8
0
  6
CONTINUOUS
 62
     7
 10
79.467514804
 20
113.6794247665
 30
0.0
  0
VERTEX
  5
4F9
  8
0
  6
CONTINUOUS
 62
     7
 10
79.4245616692
 20
113.7074215644
 30
0.0
  0
SEQEND
  5
642
  8
0
  6
CONTINUOUS
 62
     7
  0
LINE
  5
29C
  8
0
  6
CONTINUOUS
 62
     7
 10
79.4329541691
 20
113.716742142
 30
0.0
 11
79.424561913
 21
113.7074215973
 31
0.0
  0
LINE
  5
29D
  8
0
  6
CONTINUOUS
 62
     7
 10
79.5172135153
 20
113.6659849137
 30
0.0
 11
79.5214022085
 21
113.6765984789
 31
0.0
  0
ARC
  5
29E
  8
0
  6
CONTINUOUS
 62
     7
 10
83.0674235994
 20
117.7538102591
 30
0.0
 40
0.1669106578236241
 50
0.484011824
 51
47.8665200002
  0
ARC
  5
29F
  8
0
  6
CONTINUOUS
 62
     7
 10
79.3406744004
 20
117.5579491694
 30
0.0
 40
0.1669106578123761
 50
90.4840118497
 51
137.866520011
  0
ARC
  5
2A0
  8
0
  6
CONTINUOUS
 62
     7
 10
79.5365354901
 20
113.8311999703
 30
0.0
 40
0.1669106578269461
 50
180.4840118245
 51
227.8665199997
  0
LINE
  5
2A1
  8
0
  6
CONTINUOUS
 62
     7
 10
79.5539463178
 20
113.6656964599
 30
0.0
 11
79.5172135153
 21
113.6659849137
 31
0.0
  0
LINE
  5
2A2
  8
0
  6
CONTINUOUS
 62
     7
 10
83.0500127717
 20
117.9193137695
 30
0.0
 11
83.0867455742
 21
117.9190253157
 31
0.0
  0
LINE
  5
2A3
  8
0
  6
CONTINUOUS
 62
     7
 10
83.4287881995
 20
114.0444718878
 30
0.0
 11
83.4284997457
 21
114.0077390853
 31
0.0
  0
LINE
  5
2A4
  8
0
  6
CONTINUOUS
 62
     7
 10
79.17517089
 20
117.5405383416
 30
0.0
 11
79.1754593438
 21
117.5772711441
 31
0.0
  0
LINE
  5
2A5
  8
0
  6
CONTINUOUS
 62
     7
 10
79.1130765503
 20
113.6389762835
 30
0.0
 11
79.1015763596
 21
113.6295537283
 31
0.0
  0
LINE
  5
2A6
  8
0
  6
CONTINUOUS
 62
     7
 10
79.1622255681
 20
113.54850647
 30
0.0
 11
79.1130843215
 21
113.6389786639
 31
0.0
  0
LINE
  5
2A7
  8
0
  6
CONTINUOUS
 62
     7
 10
83.4908825392
 20
117.9460339459
 30
0.0
 11
83.50238273
 21
117.9554565011
 31
0.0
  0
LINE
  5
2A8
  8
0
  6
CONTINUOUS
 62
     7
 10
83.4417335215
 20
118.0365037594
 30
0.0
 11
83.490874768
 21
117.9460315655
 31
0.0
  0
LINE
  5
2A9
  8
0
  6
CONTINUOUS
 62
     7
 10
83.455508376
 20
113.6036021202
 30
0.0
 11
83.4649309312
 21
113.5921019295
 31
0.0
  0
LINE
  5
2AA
  8
0
  6
CONTINUOUS
 62
     7
 10
83.5459781894
 20
113.652751138
 30
0.0
 11
83.4555059956
 21
113.6036098914
 31
0.0
  0
LINE
  5
2AB
  8
0
  6
CONTINUOUS
 62
     7
 10
79.1484507135
 20
117.9814081092
 30
0.0
 11
79.1390281583
 21
117.9929082999
 31
0.0
  0
LINE
  5
2AC
  8
0
  6
CONTINUOUS
 62
     7
 10
79.0579809001
 20
117.9322590914
 30
0.0
 11
79.1484530939
 21
117.981400338
 31
0.0
  0
ARC
  5
2AD
  8
0
  6
CONTINUOUS
 62
     7
 10
79.574963243
 20
113.5329143349
 30
0.0
 40
0.3667862717534596
 50
130.8498855133
 51
137.5024811909
  0
POLYLINE
  5
2AE
  8
0
  6
CONTINUOUS
 62
     7
 66
     1
 10
0.0
 20
0.0
 30
0.0
 70
   128
  0
VERTEX
  5
4FA
  8
0
  6
CONTINUOUS
 62
     7
 10
79.4245618223
 20
113.7074217342
 30
0.0
  0
VERTEX
  5
4FB
  8
0
  6
CONTINUOUS
 62
     7
 10
79.3925833001
 20
113.6805874359
 30
0.0
  0
VERTEX
  5
4FC
  8
0
  6
CONTINUOUS
 62
     7
 10
79.3565248448
 20
113.6549547876
 30
0.0
  0
SEQEND
  5
643
  8
0
  6
CONTINUOUS
 62
     7
  0
LINE
  5
2AF
  8
0
  6
CONTINUOUS
 62
     7
 10
79.1061144567
 20
117.5580933167
 30
0.0
 11
79.17517089
 21
117.5405383416
 31
0.0
  0
LINE
  5
2B0
  8
0
  6
CONTINUOUS
 62
     7
 10
79.1121019986
 20
117.4753618481
 30
0.0
 11
79.1790936356
 21
117.469442015
 31
0.0
  0
LINE
  5
2B1
  8
0
  6
CONTINUOUS
 62
     7
 10
79.1121019986
 20
117.4753618481
 30
0.0
 11
79.1061144577
 21
117.5580933165
 31
0.0
  0
LINE
  5
2B2
  8
0
  6
CONTINUOUS
 62
     7
 10
79.5363913427
 20
113.5966400266
 30
0.0
 11
79.5539463178
 21
113.6656964599
 31
0.0
  0
LINE
  5
2B3
  8
0
  6
CONTINUOUS
 62
     7
 10
79.6191228113
 20
113.6026275685
 30
0.0
 11
79.6250426444
 21
113.6696192056
 31
0.0
  0
LINE
  5
2B4
  8
0
  6
CONTINUOUS
 62
     7
 10
79.6191228113
 20
113.6026275685
 30
0.0
 11
79.536391343
 21
113.5966400276
 31
0.0
  0
LINE
  5
2B5
  8
0
  6
CONTINUOUS
 62
     7
 10
83.4978446328
 20
114.0269169127
 30
0.0
 11
83.4287881995
 21
114.0444718878
 31
0.0
  0
LINE
  5
2B6
  8
0
  6
CONTINUOUS
 62
     7
 10
83.4918570909
 20
114.1096483813
 30
0.0
 11
83.4248654539
 21
114.1155682144
 31
0.0
  0
LINE
  5
2B7
  8
0
  6
CONTINUOUS
 62
     7
 10
83.4918570909
 20
114.1096483813
 30
0.0
 11
83.4978446318
 21
114.0269169129
 31
0.0
  0
LINE
  5
2B8
  8
0
  6
CONTINUOUS
 62
     7
 10
83.0675677468
 20
117.9883702028
 30
0.0
 11
83.0500127717
 21
117.9193137695
 31
0.0
  0
LINE
  5
2B9
  8
0
  6
CONTINUOUS
 62
     7
 10
82.9848362782
 20
117.9823826609
 30
0.0
 11
82.9789164451
 21
117.9153910238
 31
0.0
  0
LINE
  5
2BA
  8
0
  6
CONTINUOUS
 62
     7
 10
82.9848362782
 20
117.9823826609
 30
0.0
 11
83.0675677465
 21
117.9883702018
 31
0.0
  0
POLYLINE
  5
2BB
  8
0
  6
CONTINUOUS
 62
     7
 66
     1
 10
0.0
 20
0.0
 30
0.0
 70
   128
  0
VERTEX
  5
4FD
  8
0
  6
CONTINUOUS
 62
     7
 10
83.2994308059
 20
117.8043101427
 30
0.0
  0
VERTEX
  5
4FE
  8
0
  6
CONTINUOUS
 62
     7
 10
83.2832749003
 20
117.7858722958
 30
0.0
  0
VERTEX
  5
4FF
  8
0
  6
CONTINUOUS
 62
     7
 10
83.2685874348
 20
117.774466426
 30
0.0
  0
SEQEND
  5
644
  8
0
  6
CONTINUOUS
 62
     7
  0
POLYLINE
  5
2BC
  8
0
  6
CONTINUOUS
 62
     7
 66
     1
 10
0.0
 20
0.0
 30
0.0
 70
   128
  0
VERTEX
  5
500
  8
0
  6
CONTINUOUS
 62
     7
 10
83.1793972672
 20
117.8775884951
 30
0.0
  0
VERTEX
  5
501
  8
0
  6
CONTINUOUS
 62
     7
 10
83.2113757894
 20
117.9044227935
 30
0.0
  0
VERTEX
  5
502
  8
0
  6
CONTINUOUS
 62
     7
 10
83.2474342447
 20
117.9300554418
 30
0.0
  0
SEQEND
  5
645
  8
0
  6
CONTINUOUS
 62
     7
  0
POLYLINE
  5
2BD
  8
0
  6
CONTINUOUS
 62
     7
 66
     1
 10
0.0
 20
0.0
 30
0.0
 70
   128
  0
VERTEX
  5
503
  8
0
  6
CONTINUOUS
 62
     7
 10
83.3137845539
 20
113.7950537761
 30
0.0
  0
VERTEX
  5
504
  8
0
  6
CONTINUOUS
 62
     7
 10
83.2954165575
 20
113.8110795479
 30
0.0
  0
VERTEX
  5
505
  8
0
  6
CONTINUOUS
 62
     7
 10
83.2839488818
 20
113.8258829675
 30
0.0
  0
SEQEND
  5
646
  8
0
  6
CONTINUOUS
 62
     7
  0
POLYLINE
  5
2BE
  8
0
  6
CONTINUOUS
 62
     7
 66
     1
 10
0.0
 20
0.0
 30
0.0
 70
   128
  0
VERTEX
  5
506
  8
0
  6
CONTINUOUS
 62
     7
 10
83.3870629252
 20
113.9150873923
 30
0.0
  0
VERTEX
  5
507
  8
0
  6
CONTINUOUS
 62
     7
 10
83.4138972235
 20
113.88310887
 30
0.0
  0
VERTEX
  5
508
  8
0
  6
CONTINUOUS
 62
     7
 10
83.4395298718
 20
113.8470504147
 30
0.0
  0
SEQEND
  5
647
  8
0
  6
CONTINUOUS
 62
     7
  0
POLYLINE
  5
2BF
  8
0
  6
CONTINUOUS
 62
     7
 66
     1
 10
0.0
 20
0.0
 30
0.0
 70
   128
  0
VERTEX
  5
509
  8
0
  6
CONTINUOUS
 62
     7
 10
79.2901745394
 20
117.7899564686
 30
0.0
  0
VERTEX
  5
50A
  8
0
  6
CONTINUOUS
 62
     7
 10
79.3085505416
 20
117.7739215699
 30
0.0
  0
VERTEX
  5
50B
  8
0
  6
CONTINUOUS
 62
     7
 10
79.3200752868
 20
117.7590135062
 30
0.0
  0
SEQEND
  5
648
  8
0
  6
CONTINUOUS
 62
     7
  0
POLYLINE
  5
2C0
  8
0
  6
CONTINUOUS
 62
     7
 66
     1
 10
0.0
 20
0.0
 30
0.0
 70
   128
  0
VERTEX
  5
50C
  8
0
  6
CONTINUOUS
 62
     7
 10
79.2168961643
 20
117.6699228371
 30
0.0
  0
VERTEX
  5
50D
  8
0
  6
CONTINUOUS
 62
     7
 10
79.190061866
 20
117.7019013594
 30
0.0
  0
VERTEX
  5
50E
  8
0
  6
CONTINUOUS
 62
     7
 10
79.1644292177
 20
117.7379598147
 30
0.0
  0
SEQEND
  5
649
  8
0
  6
CONTINUOUS
 62
     7
  0
LINE
  5
2C1
  8
0
  6
CONTINUOUS
 62
     7
 10
79.1121019887
 20
117.4753618458
 30
0.0
 11
79.1222189998
 21
117.4591397165
 31
0.0
  0
LINE
  5
2C2
  8
0
  6
CONTINUOUS
 62
     7
 10
82.9848362758
 20
117.9823826708
 30
0.0
 11
82.9686141466
 21
117.9722656597
 31
0.0
  0
LINE
  5
2C3
  8
0
  6
CONTINUOUS
 62
     7
 10
83.4918571008
 20
114.1096483836
 30
0.0
 11
83.4817400897
 21
114.1258705128
 31
0.0
  0
LINE
  5
2C4
  8
0
  6
CONTINUOUS
 62
     7
 10
79.6191228137
 20
113.6026275586
 30
0.0
 11
79.6353449429
 21
113.6127445697
 31
0.0
  0
POLYLINE
  5
2C5
  8
0
  6
CONTINUOUS
 62
     7
 66
     1
 10
0.0
 20
0.0
 30
0.0
 70
   128
  0
VERTEX
  5
50F
  8
0
  6
CONTINUOUS
 62
     7
 10
79.4887297699
 20
113.5952685704
 30
0.0
  0
VERTEX
  5
510
  8
0
  6
CONTINUOUS
 62
     7
 10
79.5033290642
 20
113.631486519
 30
0.0
  0
VERTEX
  5
511
  8
0
  6
CONTINUOUS
 62
     7
 10
79.5172135153
 20
113.6659849137
 30
0.0
  0
SEQEND
  5
64A
  8
0
  6
CONTINUOUS
 62
     7
  0
LINE
  5
2C6
  8
0
  6
CONTINUOUS
 62
     7
 10
79.3792165592
 20
113.6342045473
 30
0.0
 11
79.3798711457
 21
113.6355639235
 31
0.0
  0
ARC
  5
2C7
  8
0
  6
CONTINUOUS
 62
     7
 10
79.8236067703
 20
113.4094166949
 30
0.0
 40
0.4980400325542571
 50
143.2477837207
 51
152.9946047788
  0
POLYLINE
  5
2C8
  8
0
  6
CONTINUOUS
 62
     7
 66
     1
 10
0.0
 20
0.0
 30
0.0
 70
   128
  0
VERTEX
  5
512
  8
0
  6
CONTINUOUS
 62
     7
 10
83.499216089
 20
113.9792553398
 30
0.0
  0
VERTEX
  5
513
  8
0
  6
CONTINUOUS
 62
     7
 10
83.4629981405
 20
113.9938546342
 30
0.0
  0
VERTEX
  5
514
  8
0
  6
CONTINUOUS
 62
     7
 10
83.4284997458
 20
114.0077390853
 30
0.0
  0
SEQEND
  5
64B
  8
0
  6
CONTINUOUS
 62
     7
  0
LINE
  5
2C9
  8
0
  6
CONTINUOUS
 62
     7
 10
83.4602801121
 20
113.8697421291
 30
0.0
 11
83.4589207359
 21
113.8703967157
 31
0.0
  0
ARC
  5
2CA
  8
0
  6
CONTINUOUS
 62
     7
 10
83.6850679646
 20
114.3141323403
 30
0.0
 40
0.4980400325524067
 50
233.2477837207
 51
242.9946047788
  0
POLYLINE
  5
2CB
  8
0
  6
CONTINUOUS
 62
     7
 66
     1
 10
0.0
 20
0.0
 30
0.0
 70
   128
  0
VERTEX
  5
515
  8
0
  6
CONTINUOUS
 62
     7
 10
79.1047430005
 20
117.6057548896
 30
0.0
  0
VERTEX
  5
516
  8
0
  6
CONTINUOUS
 62
     7
 10
79.140960949
 20
117.5911555952
 30
0.0
  0
VERTEX
  5
517
  8
0
  6
CONTINUOUS
 62
     7
 10
79.1754593438
 20
117.5772711441
 30
0.0
  0
SEQEND
  5
64C
  8
0
  6
CONTINUOUS
 62
     7
  0
LINE
  5
2CC
  8
0
  6
CONTINUOUS
 62
     7
 10
79.1436789774
 20
117.7152681003
 30
0.0
 11
79.1450383536
 21
117.7146135137
 31
0.0
  0
ARC
  5
2CD
  8
0
  6
CONTINUOUS
 62
     7
 10
78.9188911249
 20
117.2708778891
 30
0.0
 40
0.4980400325515339
 50
53.2477837207
 51
62.9946047788
  0
POLYLINE
  5
2CE
  8
0
  6
CONTINUOUS
 62
     7
 66
     1
 10
0.0
 20
0.0
 30
0.0
 70
   128
  0
VERTEX
  5
518
  8
0
  6
CONTINUOUS
 62
     7
 10
83.1152293196
 20
117.989741659
 30
0.0
  0
VERTEX
  5
519
  8
0
  6
CONTINUOUS
 62
     7
 10
83.1006300253
 20
117.9535237104
 30
0.0
  0
VERTEX
  5
51A
  8
0
  6
CONTINUOUS
 62
     7
 10
83.0867455742
 20
117.9190253157
 30
0.0
  0
SEQEND
  5
64D
  8
0
  6
CONTINUOUS
 62
     7
  0
LINE
  5
2CF
  8
0
  6
CONTINUOUS
 62
     7
 10
83.2247425304
 20
117.9508056821
 30
0.0
 11
83.2240879438
 21
117.9494463059
 31
0.0
  0
ARC
  5
2D0
  8
0
  6
CONTINUOUS
 62
     7
 10
82.7803523192
 20
118.1755935345
 30
0.0
 40
0.4980400325499903
 50
323.2477837206
 51
332.9946047788
  0
LINE
  5
2D1
  8
0
  6
CONTINUOUS
 62
     7
 10
83.2240879438
 20
117.9494463059
 30
0.0
 11
83.2474352058
 21
117.9300565732
 31
0.0
  0
LINE
  5
2D2
  8
0
  6
CONTINUOUS
 62
     7
 10
83.4589207359
 20
113.8703967157
 30
0.0
 11
83.4395310033
 21
113.8470494537
 31
0.0
  0
LINE
  5
2D3
  8
0
  6
CONTINUOUS
 62
     7
 10
79.1450383536
 20
117.7146135137
 30
0.0
 11
79.1644280863
 21
117.7379607757
 31
0.0
  0
LINE
  5
2D4
  8
0
  6
CONTINUOUS
 62
     7
 10
79.3798711457
 20
113.6355639235
 30
0.0
 11
79.3565238837
 21
113.6549536562
 31
0.0
  0
LINE
  5
2D5
  8
0
  6
CONTINUOUS
 62
     7
 10
79.5363913427
 20
113.5966400266
 30
0.0
 11
79.4887297699
 21
113.5952685704
 31
0.0
  0
LINE
  5
2D6
  8
0
  6
CONTINUOUS
 62
     7
 10
83.0675677468
 20
117.9883702028
 30
0.0
 11
83.1152293196
 21
117.989741659
 31
0.0
  0
LINE
  5
2D7
  8
0
  6
CONTINUOUS
 62
     7
 10
83.4978446328
 20
114.0269169127
 30
0.0
 11
83.499216089
 21
113.9792553398
 31
0.0
  0
LINE
  5
2D8
  8
0
  6
CONTINUOUS
 62
     7
 10
79.1061144567
 20
117.5580933167
 30
0.0
 11
79.1047430005
 21
117.6057548896
 31
0.0
  0
LINE
  5
2D9
  8
0
  6
CONTINUOUS
 62
     7
 10
79.1130765596
 20
113.6389761081
 30
0.0
 11
79.1263216042
 21
113.6458424668
 31
0.0
  0
LINE
  5
2DA
  8
0
  6
CONTINUOUS
 62
     7
 10
83.4908825299
 20
117.9460341213
 30
0.0
 11
83.4776374853
 21
117.9391677626
 31
0.0
  0
LINE
  5
2DB
  8
0
  6
CONTINUOUS
 62
     7
 10
83.4555085514
 20
113.6036021295
 30
0.0
 11
83.4486421927
 21
113.6168471742
 31
0.0
  0
LINE
  5
2DC
  8
0
  6
CONTINUOUS
 62
     7
 10
79.1484505382
 20
117.9814080998
 30
0.0
 11
79.1553168969
 21
117.9681630552
 31
0.0
  0
POLYLINE
  5
2DD
  8
0
  6
CONTINUOUS
 62
     7
 66
     1
 10
0.0
 20
0.0
 30
0.0
 70
   128
  0
VERTEX
  5
51B
  8
0
  6
CONTINUOUS
 62
     7
 10
83.4117281649
 20
117.9009237851
 30
0.0
  0
VERTEX
  5
51C
  8
0
  6
CONTINUOUS
 62
     7
 10
83.4484561745
 20
117.8715090695
 30
0.0
  0
VERTEX
  5
51D
  8
0
  6
CONTINUOUS
 62
     7
 10
83.4850992826
 20
117.8405511363
 30
0.0
  0
SEQEND
  5
64E
  8
0
  6
CONTINUOUS
 62
     7
  0
POLYLINE
  5
2DE
  8
0
  6
CONTINUOUS
 62
     7
 66
     1
 10
0.0
 20
0.0
 30
0.0
 70
   128
  0
VERTEX
  5
51E
  8
0
  6
CONTINUOUS
 62
     7
 10
79.1935599302
 20
117.9022545289
 30
0.0
  0
VERTEX
  5
51F
  8
0
  6
CONTINUOUS
 62
     7
 10
79.2229748534
 20
117.9389824891
 30
0.0
  0
VERTEX
  5
520
  8
0
  6
CONTINUOUS
 62
     7
 10
79.2539330032
 20
117.9756255363
 30
0.0
  0
SEQEND
  5
64F
  8
0
  6
CONTINUOUS
 62
     7
  0
POLYLINE
  5
2DF
  8
0
  6
CONTINUOUS
 62
     7
 66
     1
 10
0.0
 20
0.0
 30
0.0
 70
   128
  0
VERTEX
  5
521
  8
0
  6
CONTINUOUS
 62
     7
 10
79.1188603431
 20
113.7444595337
 30
0.0
  0
VERTEX
  5
522
  8
0
  6
CONTINUOUS
 62
     7
 10
79.1555035879
 20
113.7135019076
 30
0.0
  0
VERTEX
  5
523
  8
0
  6
CONTINUOUS
 62
     7
 10
79.192231603
 20
113.6840872545
 30
0.0
  0
SEQEND
  5
650
  8
0
  6
CONTINUOUS
 62
     7
  0
POLYLINE
  5
2E0
  8
0
  6
CONTINUOUS
 62
     7
 66
     1
 10
0.0
 20
0.0
 30
0.0
 70
   128
  0
VERTEX
  5
524
  8
0
  6
CONTINUOUS
 62
     7
 10
83.4103991958
 20
113.6827556698
 30
0.0
  0
VERTEX
  5
525
  8
0
  6
CONTINUOUS
 62
     7
 10
83.3809842646
 20
113.6460277115
 30
0.0
  0
VERTEX
  5
526
  8
0
  6
CONTINUOUS
 62
     7
 10
83.3500261064
 20
113.6093846666
 30
0.0
  0
SEQEND
  5
651
  8
0
  6
CONTINUOUS
 62
     7
  0
LINE
  5
2E1
  8
0
  6
CONTINUOUS
 62
     7
 10
79.4077502471
 20
113.364614001
 30
0.0
 11
79.4151637019
 21
113.4042332495
 31
0.0
  0
LINE
  5
2E2
  8
0
  6
CONTINUOUS
 62
     7
 10
83.7298706584
 20
113.8982758171
 30
0.0
 11
83.6902514099
 21
113.9056892718
 31
0.0
  0
LINE
  5
2E3
  8
0
  6
CONTINUOUS
 62
     7
 10
78.8740884311
 20
117.6867344123
 30
0.0
 11
78.9137076796
 21
117.6793209576
 31
0.0
  0
LINE
  5
2E4
  8
0
  6
CONTINUOUS
 62
     7
 10
83.1962088424
 20
118.2203962284
 30
0.0
 11
83.1887953876
 21
118.1807769798
 31
0.0
  0
LINE
  5
2E5
  8
0
  6
CONTINUOUS
 62
     7
 10
79.4338459095
 20
113.4036809301
 30
0.0
 11
79.4151637017
 21
113.4042332434
 31
0.0
  0
LINE
  5
2E6
  8
0
  6
CONTINUOUS
 62
     7
 10
79.4338457812
 20
113.4036801443
 30
0.0
 11
79.4275099519
 21
113.3663580802
 31
0.0
  0
LINE
  5
2E7
  8
0
  6
CONTINUOUS
 62
     7
 10
83.6908037294
 20
113.9243714794
 30
0.0
 11
83.6902514161
 21
113.9056892717
 31
0.0
  0
LINE
  5
2E8
  8
0
  6
CONTINUOUS
 62
     7
 10
83.6908045151
 20
113.9243713511
 30
0.0
 11
83.7281265793
 21
113.9180355218
 31
0.0
  0
LINE
  5
2E9
  8
0
  6
CONTINUOUS
 62
     7
 10
78.9131553601
 20
117.66063875
 30
0.0
 11
78.9137076734
 21
117.6793209577
 31
0.0
  0
LINE
  5
2EA
  8
0
  6
CONTINUOUS
 62
     7
 10
78.9131545744
 20
117.6606388783
 30
0.0
 11
78.8758325103
 21
117.6669747076
 31
0.0
  0
LINE
  5
2EB
  8
0
  6
CONTINUOUS
 62
     7
 10
83.1701131801
 20
118.1813292993
 30
0.0
 11
83.1887953878
 21
118.180776986
 31
0.0
  0
LINE
  5
2EC
  8
0
  6
CONTINUOUS
 62
     7
 10
83.1701133084
 20
118.1813300851
 30
0.0
 11
83.1764491377
 21
118.2186521492
 31
0.0
  0
LINE
  5
2ED
  8
0
  6
CONTINUOUS
 62
     7
 10
79.4865481669
 20
113.4018446571
 30
0.0
 11
79.4338457995
 21
113.4036769026
 31
0.0
  0
LINE
  5
2EE
  8
0
  6
CONTINUOUS
 62
     7
 10
79.483249567
 20
113.373120463
 30
0.0
 11
79.4865481669
 21
113.4018446571
 31
0.0
  0
LINE
  5
2EF
  8
0
  6
CONTINUOUS
 62
     7
 10
83.6926400024
 20
113.9770737369
 30
0.0
 11
83.6908077569
 21
113.9243713694
 31
0.0
  0
LINE
  5
2F0
  8
0
  6
CONTINUOUS
 62
     7
 10
83.7213641964
 20
113.9737751369
 30
0.0
 11
83.6926400024
 21
113.9770737369
 31
0.0
  0
LINE
  5
2F1
  8
0
  6
CONTINUOUS
 62
     7
 10
78.9113190871
 20
117.6079364925
 30
0.0
 11
78.9131513326
 21
117.66063886
 31
0.0
  0
LINE
  5
2F2
  8
0
  6
CONTINUOUS
 62
     7
 10
78.8825948931
 20
117.6112350925
 30
0.0
 11
78.9113190871
 21
117.6079364925
 31
0.0
  0
LINE
  5
2F3
  8
0
  6
CONTINUOUS
 62
     7
 10
83.1174109226
 20
118.1831655723
 30
0.0
 11
83.17011329
 21
118.1813333268
 31
0.0
  0
LINE
  5
2F4
  8
0
  6
CONTINUOUS
 62
     7
 10
83.1207095225
 20
118.2118897664
 30
0.0
 11
83.1174109226
 21
118.1831655723
 31
0.0
  0
LINE
  5
2F5
  8
0
  6
CONTINUOUS
 62
     7
 10
79.4911440552
 20
113.4063317043
 30
0.0
 11
79.5363913427
 21
113.5966400266
 31
0.0
  0
LINE
  5
2F6
  8
0
  6
CONTINUOUS
 62
     7
 10
79.4338459094
 20
113.40368093
 30
0.0
 11
79.4911440552
 21
113.4063317043
 31
0.0
  0
LINE
  5
2F7
  8
0
  6
CONTINUOUS
 62
     7
 10
83.6881529551
 20
113.9816696252
 30
0.0
 11
83.4978446328
 21
114.0269169127
 31
0.0
  0
LINE
  5
2F8
  8
0
  6
CONTINUOUS
 62
     7
 10
83.6908037295
 20
113.9243714793
 30
0.0
 11
83.6881529551
 21
113.9816696252
 31
0.0
  0
LINE
  5
2F9
  8
0
  6
CONTINUOUS
 62
     7
 10
78.9158061344
 20
117.6033406042
 30
0.0
 11
79.1061144567
 21
117.5580933167
 31
0.0
  0
LINE
  5
2FA
  8
0
  6
CONTINUOUS
 62
     7
 10
78.9131553601
 20
117.6606387501
 30
0.0
 11
78.9158061344
 21
117.6033406042
 31
0.0
  0
LINE
  5
2FB
  8
0
  6
CONTINUOUS
 62
     7
 10
83.1128150343
 20
118.1786785251
 30
0.0
 11
83.0675677468
 21
117.9883702028
 31
0.0
  0
LINE
  5
2FC
  8
0
  6
CONTINUOUS
 62
     7
 10
83.1701131802
 20
118.1813292994
 30
0.0
 11
83.1128150343
 21
118.1786785251
 31
0.0
  0
LINE
  5
2FD
  8
0
  6
CONTINUOUS
 62
     7
 10
79.4900622595
 20
113.4017858262
 30
0.0
 11
79.4911419187
 21
113.4063322626
 31
0.0
  0
LINE
  5
2FE
  8
0
  6
CONTINUOUS
 62
     7
 10
79.4865481663
 20
113.4018446566
 30
0.0
 11
79.4900622595
 21
113.4017858262
 31
0.0
  0
LINE
  5
2FF
  8
0
  6
CONTINUOUS
 62
     7
 10
83.6926988333
 20
113.9805878295
 30
0.0
 11
83.6881523969
 21
113.9816674886
 31
0.0
  0
LINE
  5
300
  8
0
  6
CONTINUOUS
 62
     7
 10
83.6926400029
 20
113.9770737363
 30
0.0
 11
83.6926988333
 21
113.9805878295
 31
0.0
  0
LINE
  5
301
  8
0
  6
CONTINUOUS
 62
     7
 10
78.9112602563
 20
117.6044223999
 30
0.0
 11
78.9158066927
 21
117.6033427408
 31
0.0
  0
LINE
  5
302
  8
0
  6
CONTINUOUS
 62
     7
 10
78.9112602561
 20
117.6044224001
 30
0.0
 11
78.9113190866
 21
117.6079364931
 31
0.0
  0
LINE
  5
303
  8
0
  6
CONTINUOUS
 62
     7
 10
83.11389683
 20
118.1832244032
 30
0.0
 11
83.1128171708
 21
118.1786779668
 31
0.0
  0
LINE
  5
304
  8
0
  6
CONTINUOUS
 62
     7
 10
83.1174109232
 20
118.1831655728
 30
0.0
 11
83.11389683
 21
118.1832244032
 31
0.0
  0
LINE
  5
305
  8
0
  6
CONTINUOUS
 62
     7
 10
79.4865990894
 20
113.3736308222
 30
0.0
 11
79.4900622593
 21
113.401785826
 31
0.0
  0
LINE
  5
306
  8
0
  6
CONTINUOUS
 62
     7
 10
83.7208538373
 20
113.9771246593
 30
0.0
 11
83.6926988335
 21
113.9805878292
 31
0.0
  0
LINE
  5
307
  8
0
  6
CONTINUOUS
 62
     7
 10
78.8831052523
 20
117.6078855701
 30
0.0
 11
78.9112602561
 21
117.6044224001
 31
0.0
  0
LINE
  5
308
  8
0
  6
CONTINUOUS
 62
     7
 10
83.1173600002
 20
118.2113794072
 30
0.0
 11
83.1138968302
 21
118.1832244034
 31
0.0
  0
LINE
  5
309
  8
0
  6
CONTINUOUS
 62
     7
 10
79.6209800726
 20
113.3970009145
 30
0.0
 11
79.49006226
 21
113.4017858266
 31
0.0
  0
LINE
  5
30A
  8
0
  6
CONTINUOUS
 62
     7
 10
79.621200701
 20
113.3933802119
 30
0.0
 11
79.6209800726
 21
113.3970009145
 31
0.0
  0
LINE
  5
30B
  8
0
  6
CONTINUOUS
 62
     7
 10
83.6974837449
 20
114.1115056425
 30
0.0
 11
83.6926988328
 21
113.98058783
 31
0.0
  0
LINE
  5
30C
  8
0
  6
CONTINUOUS
 62
     7
 10
83.7011044476
 20
114.1117262709
 30
0.0
 11
83.6974837449
 21
114.1115056425
 31
0.0
  0
LINE
  5
30D
  8
0
  6
CONTINUOUS
 62
     7
 10
78.9064753446
 20
117.4735045869
 30
0.0
 11
78.9112602567
 21
117.6044223994
 31
0.0
  0
LINE
  5
30E
  8
0
  6
CONTINUOUS
 62
     7
 10
78.902854642
 20
117.4732839585
 30
0.0
 11
78.9064753446
 21
117.4735045869
 31
0.0
  0
LINE
  5
30F
  8
0
  6
CONTINUOUS
 62
     7
 10
82.9829790169
 20
118.1880093148
 30
0.0
 11
83.1138968295
 21
118.1832244028
 31
0.0
  0
LINE
  5
310
  8
0
  6
CONTINUOUS
 62
     7
 10
82.9827583885
 20
118.1916300175
 30
0.0
 11
82.9829790169
 21
118.1880093148
 31
0.0
  0
LINE
  5
311
  8
0
  6
CONTINUOUS
 62
     7
 10
78.9232547408
 20
117.4748376869
 30
0.0
 11
78.9158061344
 21
117.6033406042
 31
0.0
  0
LINE
  5
312
  8
0
  6
CONTINUOUS
 62
     7
 10
78.9064753441
 20
117.4735045873
 30
0.0
 11
78.9232547408
 21
117.4748376869
 31
0.0
  0
LINE
  5
313
  8
0
  6
CONTINUOUS
 62
     7
 10
79.4911440552
 20
113.4063317043
 30
0.0
 11
79.6196469725
 21
113.4137803108
 31
0.0
  0
LINE
  5
314
  8
0
  6
CONTINUOUS
 62
     7
 10
79.6209800722
 20
113.3970009141
 30
0.0
 11
79.6196469725
 21
113.4137803107
 31
0.0
  0
LINE
  5
315
  8
0
  6
CONTINUOUS
 62
     7
 10
83.6881529551
 20
113.9816696252
 30
0.0
 11
83.6807043487
 21
114.1101725425
 31
0.0
  0
LINE
  5
316
  8
0
  6
CONTINUOUS
 62
     7
 10
83.6974837454
 20
114.1115056421
 30
0.0
 11
83.6807043487
 21
114.1101725425
 31
0.0
  0
LINE
  5
317
  8
0
  6
CONTINUOUS
 62
     7
 10
83.1128150343
 20
118.1786785251
 30
0.0
 11
82.984312117
 21
118.1712299186
 31
0.0
  0
LINE
  5
318
  8
0
  6
CONTINUOUS
 62
     7
 10
82.9829790174
 20
118.1880093153
 30
0.0
 11
82.984312117
 21
118.1712299186
 31
0.0
  0
POLYLINE
  5
319
  8
0
  6
CONTINUOUS
 62
     7
 66
     1
 10
0.0
 20
0.0
 30
0.0
 70
   128
  0
VERTEX
  5
527
  8
0
  6
CONTINUOUS
 62
     7
 10
78.9276799499
 20
117.4752865471
 30
0.0
  0
VERTEX
  5
528
  8
0
  6
CONTINUOUS
 62
     7
 10
79.0402078649
 20
117.479672335
 30
0.0
  0
VERTEX
  5
529
  8
0
  6
CONTINUOUS
 62
     7
 10
79.1121019986
 20
117.4753618481
 30
0.0
  0
SEQEND
  5
652
  8
0
  6
CONTINUOUS
 62
     7
  0
LINE
  5
31A
  8
0
  6
CONTINUOUS
 62
     7
 10
78.9232547408
 20
117.4748376869
 30
0.0
 11
78.9276799499
 21
117.4752865471
 31
0.0
  0
POLYLINE
  5
31B
  8
0
  6
CONTINUOUS
 62
     7
 66
     1
 10
0.0
 20
0.0
 30
0.0
 70
   128
  0
VERTEX
  5
52A
  8
0
  6
CONTINUOUS
 62
     7
 10
79.6191981124
 20
113.4182055199
 30
0.0
  0
VERTEX
  5
52B
  8
0
  6
CONTINUOUS
 62
     7
 10
79.6148123245
 20
113.5307334348
 30
0.0
  0
VERTEX
  5
52C
  8
0
  6
CONTINUOUS
 62
     7
 10
79.6191228113
 20
113.6026275685
 30
0.0
  0
SEQEND
  5
653
  8
0
  6
CONTINUOUS
 62
     7
  0
LINE
  5
31C
  8
0
  6
CONTINUOUS
 62
     7
 10
79.6196469725
 20
113.4137803107
 30
0.0
 11
79.6191981124
 21
113.4182055199
 31
0.0
  0
POLYLINE
  5
31D
  8
0
  6
CONTINUOUS
 62
     7
 66
     1
 10
0.0
 20
0.0
 30
0.0
 70
   128
  0
VERTEX
  5
52D
  8
0
  6
CONTINUOUS
 62
     7
 10
83.6762791396
 20
114.1097236823
 30
0.0
  0
VERTEX
  5
52E
  8
0
  6
CONTINUOUS
 62
     7
 10
83.5637512246
 20
114.1053378944
 30
0.0
  0
VERTEX
  5
52F
  8
0
  6
CONTINUOUS
 62
     7
 10
83.4918570909
 20
114.1096483813
 30
0.0
  0
SEQEND
  5
654
  8
0
  6
CONTINUOUS
 62
     7
  0
LINE
  5
31E
  8
0
  6
CONTINUOUS
 62
     7
 10
83.6807043487
 20
114.1101725425
 30
0.0
 11
83.6762791396
 21
114.1097236823
 31
0.0
  0
POLYLINE
  5
31F
  8
0
  6
CONTINUOUS
 62
     7
 66
     1
 10
0.0
 20
0.0
 30
0.0
 70
   128
  0
VERTEX
  5
530
  8
0
  6
CONTINUOUS
 62
     7
 10
82.9847609772
 20
118.1668047095
 30
0.0
  0
VERTEX
  5
531
  8
0
  6
CONTINUOUS
 62
     7
 10
82.989146765
 20
118.0542767946
 30
0.0
  0
VERTEX
  5
532
  8
0
  6
CONTINUOUS
 62
     7
 10
82.9848362782
 20
117.9823826609
 30
0.0
  0
SEQEND
  5
655
  8
0
  6
CONTINUOUS
 62
     7
  0
LINE
  5
320
  8
0
  6
CONTINUOUS
 62
     7
 10
82.984312117
 20
118.1712299186
 30
0.0
 11
82.9847609772
 21
118.1668047095
 31
0.0
  0
LINE
  5
321
  8
0
  6
CONTINUOUS
 62
     7
 10
79.657467669
 20
113.4158665792
 30
0.0
 11
79.6191981278
 21
113.4182055353
 31
0.0
  0
LINE
  5
322
  8
0
  6
CONTINUOUS
 62
     7
 10
83.6786180802
 20
114.1479932389
 30
0.0
 11
83.6762791242
 21
114.1097236977
 31
0.0
  0
LINE
  5
323
  8
0
  6
CONTINUOUS
 62
     7
 10
78.9276849285
 20
117.4752862119
 30
0.0
 11
78.9253413217
 21
117.4370170069
 31
0.0
  0
LINE
  5
324
  8
0
  6
CONTINUOUS
 62
     7
 10
82.9464914206
 20
118.1691436502
 30
0.0
 11
82.9847609617
 21
118.1668046941
 31
0.0
  0
LINE
  5
325
  8
0
  6
CONTINUOUS
 62
     7
 10
79.1263216394
 20
113.6458418985
 30
0.0
 11
79.0835222358
 21
113.7126067361
 31
0.0
  0
LINE
  5
326
  8
0
  6
CONTINUOUS
 62
     7
 10
83.4776374502
 20
117.9391683309
 30
0.0
 11
83.5204368537
 21
117.8724034933
 31
0.0
  0
LINE
  5
327
  8
0
  6
CONTINUOUS
 62
     7
 10
83.448642761
 20
113.6168472093
 30
0.0
 11
83.3818779233
 21
113.5740478058
 31
0.0
  0
LINE
  5
328
  8
0
  6
CONTINUOUS
 62
     7
 10
79.1553163285
 20
117.9681630201
 30
0.0
 11
79.2220811662
 21
118.0109624236
 31
0.0
  0
LINE
  5
329
  8
0
  6
CONTINUOUS
 62
     7
 10
79.0710155187
 20
113.7048625277
 30
0.0
 11
79.1130765596
 21
113.6389761081
 31
0.0
  0
LINE
  5
32A
  8
0
  6
CONTINUOUS
 62
     7
 10
83.3896196302
 20
113.5615451351
 30
0.0
 11
83.4555056755
 21
113.6036067814
 31
0.0
  0
LINE
  5
32B
  8
0
  6
CONTINUOUS
 62
     7
 10
79.2143394593
 20
118.0234650943
 30
0.0
 11
79.1484534141
 21
117.981403448
 31
0.0
  0
LINE
  5
32C
  8
0
  6
CONTINUOUS
 62
     7
 10
83.5329395244
 20
117.8801452001
 30
0.0
 11
83.490877878
 21
117.9460312454
 31
0.0
  0
ARC
  5
32D
  8
0
  6
CONTINUOUS
 62
     7
 10
80.1700563795
 20
117.4699390731
 30
0.0
 40
1.263586070385684
 50
179.8383258695
 51
181.5106116424
  0
ARC
  5
32E
  8
0
  6
CONTINUOUS
 62
     7
 10
79.6245455864
 20
114.6605819473
 30
0.0
 40
1.26358606828169
 50
269.8383258685
 51
271.5106114602
  0
ARC
  5
32F
  8
0
  6
CONTINUOUS
 62
     7
 10
82.4339027122
 20
114.1150711563
 30
0.0
 40
1.263586068184419
 50
359.8383258685
 51
1.5106114603
  0
ARC
  5
330
  8
0
  6
CONTINUOUS
 62
     7
 10
82.9794135032
 20
116.9244282821
 30
0.0
 40
1.263586068245353
 50
89.8383258685
 51
91.5106114602
  0
ARC
  5
331
  8
0
  6
CONTINUOUS
 62
     7
 10
80.1862305392
 20
117.468137727
 30
0.0
 40
1.26299356960252
 50
179.6960544891
 51
181.4109189616
  0
ARC
  5
332
  8
0
  6
CONTINUOUS
 62
     7
 10
79.6263469324
 20
114.6767561111
 30
0.0
 40
1.262993571578544
 50
269.696054491
 51
271.4109189608
  0
ARC
  5
333
  8
0
  6
CONTINUOUS
 62
     7
 10
82.4177285482
 20
114.1168725023
 30
0.0
 40
1.262993571697904
 50
359.6960544911
 51
1.4109189607
  0
ARC
  5
334
  8
0
  6
CONTINUOUS
 62
     7
 10
82.9776121571
 20
116.9082541182
 30
0.0
 40
1.262993571680614
 50
89.6960544911
 51
91.4109189607
  0
CIRCLE
  5
335
  8
0
  6
CONTINUOUS
 62
     7
 10
81.3019795448
 20
115.7925051147
 30
0.0
 40
1.510643428642667
  0
CIRCLE
  5
336
  8
0
  6
CONTINUOUS
 62
     7
 10
81.3019795448
 20
115.7925051147
 30
0.0
 40
1.420945502432191
  0
POLYLINE
  5
337
  8
0
  6
CONTINUOUS
 62
     7
 66
     1
 10
0.0
 20
0.0
 30
0.0
 70
   128
  0
VERTEX
  5
533
  8
0
  6
CONTINUOUS
 62
     7
 10
78.7086354715
 20
125.7320784537
 30
0.0
  0
VERTEX
  5
534
  8
0
  6
CONTINUOUS
 62
     7
 10
78.6947763439
 20
125.8244897886
 30
0.0
  0
VERTEX
  5
535
  8
0
  6
CONTINUOUS
 62
     7
 10
78.6465431409
 20
125.8826914931
 30
0.0
  0
SEQEND
  5
656
  8
0
  6
CONTINUOUS
 62
     7
  0
ARC
  5
338
  8
0
  6
CONTINUOUS
 62
     7
 10
78.8705095316
 20
125.9070014367
 30
0.0
 40
0.2252818623738141
 50
73.5902346092
 51
186.194793362
  0
POLYLINE
  5
339
  8
0
  6
CONTINUOUS
 62
     7
 66
     1
 10
0.0
 20
0.0
 30
0.0
 70
   128
  0
VERTEX
  5
536
  8
0
  6
CONTINUOUS
 62
     7
 10
78.9341527743
 20
126.1231066314
 30
0.0
  0
VERTEX
  5
537
  8
0
  6
CONTINUOUS
 62
     7
 10
78.9710697128
 20
126.0554455091
 30
0.0
  0
VERTEX
  5
538
  8
0
  6
CONTINUOUS
 62
     7
 10
79.0470937521
 20
126.0149979655
 30
0.0
  0
SEQEND
  5
657
  8
0
  6
CONTINUOUS
 62
     7
  0
LINE
  5
33A
  8
0
  6
CONTINUOUS
 62
     7
 10
78.6901245216
 20
121.5757171236
 30
0.0
 11
78.6365254324
 21
121.6393509597
 31
0.0
  0
ARC
  5
33B
  8
0
  6
CONTINUOUS
 62
     7
 10
78.775637504
 20
121.7531294801
 30
0.0
 40
0.1797156646929395
 50
174.1250510129
 51
219.2794265767
  0
LINE
  5
33C
  8
0
  6
CONTINUOUS
 62
     7
 10
78.6803122105
 20
122.7216924862
 30
0.0
 11
78.5968657661
 21
121.7715247479
 31
0.0
  0
ARC
  5
33D
  8
0
  6
CONTINUOUS
 62
     7
 10
78.8513698163
 20
122.7066738843
 30
0.0
 40
0.1717156532155585
 50
143.5299450333
 51
174.9823827926
  0
LINE
  5
33E
  8
0
  6
CONTINUOUS
 62
     7
 10
78.8766977843
 20
124.9578481145
 30
0.0
 11
78.7943207611
 21
124.0198574033
 31
0.0
  0
ARC
  5
33F
  8
0
  6
CONTINUOUS
 62
     7
 10
78.8081583664
 20
125.5916343021
 30
0.0
 40
0.1721318283872477
 50
125.3225185501
 51
168.0001037819
  0
LINE
  5
340
  8
0
  6
CONTINUOUS
 62
     7
 10
78.6397879667
 20
125.6274222166
 30
0.0
 11
78.877767206
 21
124.9700251458
 31
0.0
  0
POLYLINE
  5
341
  8
0
  6
CONTINUOUS
 62
     7
 66
     1
 10
0.0
 20
0.0
 30
0.0
 70
   128
  0
VERTEX
  5
539
  8
0
  6
CONTINUOUS
 62
     7
 10
78.7943207611
 20
124.0198574033
 30
0.0
  0
VERTEX
  5
53A
  8
0
  6
CONTINUOUS
 62
     7
 10
78.6103613423
 20
124.0445532334
 30
0.0
  0
VERTEX
  5
53B
  8
0
  6
CONTINUOUS
 62
     7
 10
78.4995893915
 20
124.0310430761
 30
0.0
  0
SEQEND
  5
658
  8
0
  6
CONTINUOUS
 62
     7
  0
LINE
  5
342
  8
0
  6
CONTINUOUS
 62
     7
 10
78.4995893915
 20
124.0310430759
 30
0.0
 11
78.6397879667
 21
125.6274222166
 31
0.0
  0
LINE
  5
343
  8
0
  6
CONTINUOUS
 62
     7
 10
78.4995893915
 20
124.031043076
 30
0.0
 11
78.5008400542
 21
124.0016076475
 31
0.0
  0
POLYLINE
  5
344
  8
0
  6
CONTINUOUS
 62
     7
 66
     1
 10
0.0
 20
0.0
 30
0.0
 70
   128
  0
VERTEX
  5
53C
  8
0
  6
CONTINUOUS
 62
     7
 10
78.5008400542
 20
124.0016076475
 30
0.0
  0
VERTEX
  5
53D
  8
0
  6
CONTINUOUS
 62
     7
 10
78.6154591135
 20
123.9835319962
 30
0.0
  0
VERTEX
  5
53E
  8
0
  6
CONTINUOUS
 62
     7
 10
78.8116158625
 20
123.9284263655
 30
0.0
  0
SEQEND
  5
659
  8
0
  6
CONTINUOUS
 62
     7
  0
ARC
  5
345
  8
0
  6
CONTINUOUS
 62
     7
 10
78.6062738535
 20
123.9646385948
 30
0.0
 40
0.111727332781506
 50
160.6774160246
 51
174.6142658517
  0
LINE
  5
346
  8
0
  6
CONTINUOUS
 62
     7
 10
78.8290337713
 20
123.836962774
 30
0.0
 11
78.4950397561
 21
123.9751253702
 31
0.0
  0
LINE
  5
347
  8
0
  6
CONTINUOUS
 62
     7
 10
78.4123844717
 20
123.0339662225
 30
0.0
 11
78.746378487
 21
122.8958036262
 31
0.0
  0
LINE
  5
348
  8
0
  6
CONTINUOUS
 62
     7
 10
78.4950397561
 20
123.9751253702
 30
0.0
 11
78.4123844717
 21
123.0339662225
 31
0.0
  0
LINE
  5
349
  8
0
  6
CONTINUOUS
 62
     7
 10
78.4131548363
 20
123.0031748713
 30
0.0
 11
78.4068742395
 21
122.9753366714
 31
0.0
  0
POLYLINE
  5
34A
  8
0
  6
CONTINUOUS
 62
     7
 66
     1
 10
0.0
 20
0.0
 30
0.0
 70
   128
  0
VERTEX
  5
53F
  8
0
  6
CONTINUOUS
 62
     7
 10
78.713281647
 20
122.808742108
 30
0.0
  0
VERTEX
  5
540
  8
0
  6
CONTINUOUS
 62
     7
 10
78.5222774527
 20
122.9232460862
 30
0.0
  0
VERTEX
  5
541
  8
0
  6
CONTINUOUS
 62
     7
 10
78.4131548363
 20
123.0031748713
 30
0.0
  0
SEQEND
  5
65A
  8
0
  6
CONTINUOUS
 62
     7
  0
POLYLINE
  5
34B
  8
0
  6
CONTINUOUS
 62
     7
 66
     1
 10
0.0
 20
0.0
 30
0.0
 70
   128
  0
VERTEX
  5
542
  8
0
  6
CONTINUOUS
 62
     7
 10
78.4068742395
 20
122.9753366715
 30
0.0
  0
VERTEX
  5
543
  8
0
  6
CONTINUOUS
 62
     7
 10
78.5065805004
 20
122.8637389471
 30
0.0
  0
VERTEX
  5
544
  8
0
  6
CONTINUOUS
 62
     7
 10
78.6803122105
 20
122.7216924862
 30
0.0
  0
SEQEND
  5
65B
  8
0
  6
CONTINUOUS
 62
     7
  0
ARC
  5
34C
  8
0
  6
CONTINUOUS
 62
     7
 10
78.5710642471
 20
123.0225308972
 30
0.0
 40
0.1590912874949831
 50
175.8780811353
 51
186.9882711168
  0
LINE
  5
34D
  8
0
  6
CONTINUOUS
 62
     7
 10
78.2666756641
 20
121.3789575305
 30
0.0
 11
78.4068742395
 21
122.9753366715
 31
0.0
  0
LINE
  5
34E
  8
0
  6
CONTINUOUS
 62
     7
 10
78.5968657661
 20
121.7715247479
 30
0.0
 11
78.2666756641
 21
121.3789575305
 31
0.0
  0
ARC
  5
34F
  8
0
  6
CONTINUOUS
 62
     7
 10
78.4475638941
 20
121.381778714
 30
0.0
 40
0.1809102287022514
 50
180.8935285706
 51
223.2074417452
  0
LINE
  5
350
  8
0
  6
CONTINUOUS
 62
     7
 10
78.6365254324
 20
121.6393509597
 30
0.0
 11
78.315702099
 21
121.2579200129
 31
0.0
  0
POLYLINE
  5
351
  8
0
  6
CONTINUOUS
 62
     7
 66
     1
 10
0.0
 20
0.0
 30
0.0
 70
   128
  0
VERTEX
  5
545
  8
0
  6
CONTINUOUS
 62
     7
 10
78.4740716118
 20
120.8843531552
 30
0.0
  0
VERTEX
  5
546
  8
0
  6
CONTINUOUS
 62
     7
 10
78.520062466
 20
120.9200173224
 30
0.0
  0
VERTEX
  5
547
  8
0
  6
CONTINUOUS
 62
     7
 10
78.5997023174
 20
120.9207496683
 30
0.0
  0
SEQEND
  5
65C
  8
0
  6
CONTINUOUS
 62
     7
  0
ARC
  5
352
  8
0
  6
CONTINUOUS
 62
     7
 10
78.4965565689
 20
121.148188878
 30
0.0
 40
0.2647921107639064
 50
175.0864258057
 51
265.1288336249
  0
POLYLINE
  5
353
  8
0
  6
CONTINUOUS
 62
     7
 66
     1
 10
0.0
 20
0.0
 30
0.0
 70
   128
  0
VERTEX
  5
548
  8
0
  6
CONTINUOUS
 62
     7
 10
78.315702099
 20
121.2579200129
 30
0.0
  0
VERTEX
  5
549
  8
0
  6
CONTINUOUS
 62
     7
 10
78.2882241999
 20
121.1952597153
 30
0.0
  0
VERTEX
  5
54A
  8
0
  6
CONTINUOUS
 62
     7
 10
78.2327375608
 20
121.1708691086
 30
0.0
  0
SEQEND
  5
65D
  8
0
  6
CONTINUOUS
 62
     7
  0
ARC
  5
354
  8
0
  6
CONTINUOUS
 62
     7
 10
78.769832404
 20
125.6106257684
 30
0.0
 40
0.1359993357575087
 50
116.7423778284
 51
171.4621035734
  0
ARC
  5
355
  8
0
  6
CONTINUOUS
 62
     7
 10
78.6466769399
 20
125.6429763569
 30
0.0
 40
0.0170114442143919
 50
234.1740659087
 51
246.1113102232
  0
ARC
  5
356
  8
0
  6
CONTINUOUS
 62
     7
 10
78.6388205465
 20
125.6323571551
 30
0.0
 40
0.003805993041488
 50
203.8749584459
 51
236.4971596916
  0
POLYLINE
  5
357
  8
0
  6
CONTINUOUS
 62
     7
 66
     1
 10
0.0
 20
0.0
 30
0.0
 70
   128
  0
VERTEX
  5
54B
  8
0
  6
CONTINUOUS
 62
     7
 10
79.0513821353
 20
126.1580121367
 30
0.0
  0
VERTEX
  5
54C
  8
0
  6
CONTINUOUS
 62
     7
 10
78.9898361718
 20
126.1493127849
 30
0.0
  0
VERTEX
  5
54D
  8
0
  6
CONTINUOUS
 62
     7
 10
78.9341527748
 20
126.1231066308
 30
0.0
  0
SEQEND
  5
65E
  8
0
  6
CONTINUOUS
 62
     7
  0
POLYLINE
  5
358
  8
0
  6
CONTINUOUS
 62
     7
 66
     1
 10
0.0
 20
0.0
 30
0.0
 70
   128
  0
VERTEX
  5
54E
  8
0
  6
CONTINUOUS
 62
     7
 10
79.1659171293
 20
126.074329445
 30
0.0
  0
VERTEX
  5
54F
  8
0
  6
CONTINUOUS
 62
     7
 10
79.0888291733
 20
126.1068620744
 30
0.0
  0
VERTEX
  5
550
  8
0
  6
CONTINUOUS
 62
     7
 10
79.0513818207
 20
126.1580087081
 30
0.0
  0
SEQEND
  5
65F
  8
0
  6
CONTINUOUS
 62
     7
  0
POLYLINE
  5
359
  8
0
  6
CONTINUOUS
 62
     7
 66
     1
 10
0.0
 20
0.0
 30
0.0
 70
   128
  0
VERTEX
  5
551
  8
0
  6
CONTINUOUS
 62
     7
 10
78.5913809894
 20
125.7734844953
 30
0.0
  0
VERTEX
  5
552
  8
0
  6
CONTINUOUS
 62
     7
 10
78.6263672301
 20
125.7203283518
 30
0.0
  0
VERTEX
  5
553
  8
0
  6
CONTINUOUS
 62
     7
 10
78.6353402288
 20
125.63081671
 30
0.0
  0
SEQEND
  5
660
  8
0
  6
CONTINUOUS
 62
     7
  0
POLYLINE
  5
35A
  8
0
  6
CONTINUOUS
 62
     7
 66
     1
 10
0.0
 20
0.0
 30
0.0
 70
   128
  0
VERTEX
  5
554
  8
0
  6
CONTINUOUS
 62
     7
 10
78.6465431413
 20
125.8826914926
 30
0.0
  0
VERTEX
  5
555
  8
0
  6
CONTINUOUS
 62
     7
 10
78.610384369
 20
125.8321214252
 30
0.0
  0
VERTEX
  5
556
  8
0
  6
CONTINUOUS
 62
     7
 10
78.5913821211
 20
125.7734844454
 30
0.0
  0
SEQEND
  5
661
  8
0
  6
CONTINUOUS
 62
     7
  0
LINE
  5
35B
  8
0
  6
CONTINUOUS
 62
     7
 10
79.0513818207
 20
126.1580087081
 30
0.0
 11
79.0939705532
 21
126.1577833978
 31
0.0
  0
ARC
  5
35C
  8
0
  6
CONTINUOUS
 62
     7
 10
78.502116226
 20
124.0389650767
 30
0.0
 40
0.0083152263830352
 50
212.9894090732
 51
252.3091799393
  0
LINE
  5
35D
  8
0
  6
CONTINUOUS
 62
     7
 10
78.6353402288
 20
125.63081671
 30
0.0
 11
78.4951416533
 21
124.034437569
 31
0.0
  0
POLYLINE
  5
35E
  8
0
  6
CONTINUOUS
 62
     7
 66
     1
 10
0.0
 20
0.0
 30
0.0
 70
   128
  0
VERTEX
  5
557
  8
0
  6
CONTINUOUS
 62
     7
 10
78.4951416533
 20
124.034437569
 30
0.0
  0
VERTEX
  5
558
  8
0
  6
CONTINUOUS
 62
     7
 10
78.4920287837
 20
124.0060344075
 30
0.0
  0
VERTEX
  5
559
  8
0
  6
CONTINUOUS
 62
     7
 10
78.4893525868
 20
123.9786712208
 30
0.0
  0
SEQEND
  5
662
  8
0
  6
CONTINUOUS
 62
     7
  0
LINE
  5
35F
  8
0
  6
CONTINUOUS
 62
     7
 10
78.4893525868
 20
123.9786712208
 30
0.0
 11
78.4066973025
 21
123.037512073
 31
0.0
  0
POLYLINE
  5
360
  8
0
  6
CONTINUOUS
 62
     7
 66
     1
 10
0.0
 20
0.0
 30
0.0
 70
   128
  0
VERTEX
  5
55A
  8
0
  6
CONTINUOUS
 62
     7
 10
78.4066973025
 20
123.037512073
 30
0.0
  0
VERTEX
  5
55B
  8
0
  6
CONTINUOUS
 62
     7
 10
78.4045002686
 20
123.0093887968
 30
0.0
  0
VERTEX
  5
55C
  8
0
  6
CONTINUOUS
 62
     7
 10
78.4024265018
 20
122.9787311644
 30
0.0
  0
SEQEND
  5
663
  8
0
  6
CONTINUOUS
 62
     7
  0
LINE
  5
361
  8
0
  6
CONTINUOUS
 62
     7
 10
78.4024265018
 20
122.9787311644
 30
0.0
 11
78.2622279263
 21
121.3823520234
 31
0.0
  0
POLYLINE
  5
362
  8
0
  6
CONTINUOUS
 62
     7
 66
     1
 10
0.0
 20
0.0
 30
0.0
 70
   128
  0
VERTEX
  5
55D
  8
0
  6
CONTINUOUS
 62
     7
 10
78.2622279263
 20
121.3823520234
 30
0.0
  0
VERTEX
  5
55E
  8
0
  6
CONTINUOUS
 62
     7
 10
78.2395314403
 20
121.3154806126
 30
0.0
  0
VERTEX
  5
55F
  8
0
  6
CONTINUOUS
 62
     7
 10
78.1973973644
 20
121.2873491817
 30
0.0
  0
SEQEND
  5
664
  8
0
  6
CONTINUOUS
 62
     7
  0
LINE
  5
363
  8
0
  6
CONTINUOUS
 62
     7
 10
78.1973973644
 20
121.2873491817
 30
0.0
 11
78.1981424298
 21
121.3302915467
 31
0.0
  0
LINE
  5
364
  8
0
  6
CONTINUOUS
 62
     7
 10
78.1981424299
 20
121.330291547
 30
0.0
 11
78.5847217268
 21
125.7320989408
 31
0.0
  0
LINE
  5
365
  8
0
  6
CONTINUOUS
 62
     7
 10
78.5847217268
 20
125.7320989408
 30
0.0
 11
78.5913809894
 21
125.7734844953
 31
0.0
  0
POLYLINE
  5
366
  8
0
  6
CONTINUOUS
 62
     7
 66
     1
 10
0.0
 20
0.0
 30
0.0
 70
   128
  0
VERTEX
  5
560
  8
0
  6
CONTINUOUS
 62
     7
 10
78.9341527748
 20
126.1231066308
 30
0.0
  0
VERTEX
  5
561
  8
0
  6
CONTINUOUS
 62
     7
 10
78.9779551314
 20
126.1605528902
 30
0.0
  0
VERTEX
  5
562
  8
0
  6
CONTINUOUS
 62
     7
 10
79.0287688253
 20
126.179908332
 30
0.0
  0
SEQEND
  5
665
  8
0
  6
CONTINUOUS
 62
     7
  0
LINE
  5
367
  8
0
  6
CONTINUOUS
 62
     7
 10
79.0401090425
 20
126.1715023835
 30
0.0
 11
79.0287688253
 21
126.179908332
 31
0.0
  0
LINE
  5
368
  8
0
  6
CONTINUOUS
 62
     7
 10
79.0513821353
 20
126.1580121367
 30
0.0
 11
79.0401090425
 21
126.1715023835
 31
0.0
  0
LINE
  5
369
  8
0
  6
CONTINUOUS
 62
     7
 10
78.5008400542
 20
124.0016076475
 30
0.0
 11
78.4951416533
 21
124.034437569
 31
0.0
  0
ARC
  5
36A
  8
0
  6
CONTINUOUS
 62
     7
 10
78.4990602826
 20
123.9879076037
 30
0.0
 40
0.0133996314934032
 50
223.5748227197
 51
252.5395413041
  0
POLYLINE
  5
36B
  8
0
  6
CONTINUOUS
 62
     7
 66
     1
 10
0.0
 20
0.0
 30
0.0
 70
   128
  0
VERTEX
  5
563
  8
0
  6
CONTINUOUS
 62
     7
 10
78.5784211787
 20
125.803471636
 30
0.0
  0
VERTEX
  5
564
  8
0
  6
CONTINUOUS
 62
     7
 10
78.6038864518
 20
125.8478699852
 30
0.0
  0
VERTEX
  5
565
  8
0
  6
CONTINUOUS
 62
     7
 10
78.6465431413
 20
125.8826914926
 30
0.0
  0
SEQEND
  5
666
  8
0
  6
CONTINUOUS
 62
     7
  0
LINE
  5
36C
  8
0
  6
CONTINUOUS
 62
     7
 10
78.5823134397
 20
125.7888266346
 30
0.0
 11
78.5913821211
 21
125.7734844454
 31
0.0
  0
LINE
  5
36D
  8
0
  6
CONTINUOUS
 62
     7
 10
78.5784211787
 20
125.803471636
 30
0.0
 11
78.5823134397
 21
125.7888266346
 31
0.0
  0
ARC
  5
36E
  8
0
  6
CONTINUOUS
 62
     7
 10
78.4164049983
 20
123.0467484558
 30
0.0
 40
0.013399631493784
 50
223.5748227199
 51
252.5395413035
  0
ARC
  5
36F
  8
0
  6
CONTINUOUS
 62
     7
 10
78.9689958868
 20
125.8037184901
 30
0.0
 40
0.385464161577786
 50
105.9298414285
 51
165.8779676221
  0
LINE
  5
370
  8
0
  6
CONTINUOUS
 62
     7
 10
79.0955180073
 20
126.1803942706
 30
0.0
 11
79.0939705535
 21
126.1577833977
 31
0.0
  0
LINE
  5
371
  8
0
  6
CONTINUOUS
 62
     7
 10
79.0287689079
 20
126.1799133642
 30
0.0
 11
79.0955180069
 21
126.1803942706
 31
0.0
  0
LINE
  5
372
  8
0
  6
CONTINUOUS
 62
     7
 10
78.4024265018
 20
122.9787311644
 30
0.0
 11
78.4131548363
 21
123.0031748713
 31
0.0
  0
ARC
  5
373
  8
0
  6
CONTINUOUS
 62
     7
 10
78.4094010739
 20
122.9832586717
 30
0.0
 40
0.0083152257296089
 50
212.9894080954
 51
252.3091788631
  0
ARC
  5
374
  8
0
  6
CONTINUOUS
 62
     7
 10
78.2735646556
 20
121.3945117057
 30
0.0
 40
0.0170114834354145
 50
234.1740858163
 51
246.1113011685
  0
ARC
  5
375
  8
0
  6
CONTINUOUS
 62
     7
 10
78.2657082441
 20
121.3838924686
 30
0.0
 40
0.0038059930387486
 50
203.8749584104
 51
236.4971597001
  0
LINE
  5
376
  8
0
  6
CONTINUOUS
 62
     7
 10
78.5847217268
 20
125.7320989408
 30
0.0
 11
78.5670342489
 21
125.7386312072
 31
0.0
  0
LINE
  5
377
  8
0
  6
CONTINUOUS
 62
     7
 10
78.5670342488
 20
125.7386312065
 30
0.0
 11
78.578421069
 21
125.8034713245
 31
0.0
  0
LINE
  5
378
  8
0
  6
CONTINUOUS
 62
     7
 10
78.5670342488
 20
125.7386312065
 30
0.0
 11
78.5227667202
 21
125.7719070245
 31
0.0
  0
ARC
  5
379
  8
0
  6
CONTINUOUS
 62
     7
 10
79.0503301397
 20
125.72535966
 30
0.0
 40
0.5296130226695871
 50
129.8632378656
 51
174.9582043959
  0
ARC
  5
37A
  8
0
  6
CONTINUOUS
 62
     7
 10
79.0529295622
 20
125.7223431225
 30
0.0
 40
0.533594568540049
 50
85.0047989894
 51
129.8698720551
  0
LINE
  5
37B
  8
0
  6
CONTINUOUS
 62
     7
 10
79.0993908681
 20
126.2539110561
 30
0.0
 11
79.0955179583
 21
126.1803942749
 31
0.0
  0
ARC
  5
37C
  8
0
  6
CONTINUOUS
 62
     7
 10
78.4165091024
 20
121.3749475948
 30
0.0
 40
0.1544587545188032
 50
177.2523074475
 51
229.2585463893
  0
LINE
  5
37D
  8
0
  6
CONTINUOUS
 62
     7
 10
78.180454952
 20
121.3368238134
 30
0.0
 11
78.1981424299
 21
121.330291547
 31
0.0
  0
LINE
  5
37E
  8
0
  6
CONTINUOUS
 62
     7
 10
78.1804549496
 20
121.3368237867
 30
0.0
 11
78.5670342489
 21
125.7386312068
 31
0.0
  0
LINE
  5
37F
  8
0
  6
CONTINUOUS
 62
     7
 10
79.153113003
 20
126.2492288285
 30
0.0
 11
79.0993908681
 21
126.2539110561
 31
0.0
  0
LINE
  5
380
  8
0
  6
CONTINUOUS
 62
     7
 10
78.149050478
 20
121.5165652234
 30
0.0
 11
78.1361873853
 21
121.370099603
 31
0.0
  0
LINE
  5
381
  8
0
  6
CONTINUOUS
 62
     7
 10
78.173839484
 20
121.7988260034
 30
0.0
 11
78.149050478
 21
121.5165652234
 31
0.0
  0
LINE
  5
382
  8
0
  6
CONTINUOUS
 62
     7
 10
78.5227667202
 20
125.7719070245
 30
0.0
 11
78.1738394031
 21
121.7988260642
 31
0.0
  0
LINE
  5
383
  8
0
  6
CONTINUOUS
 62
     7
 10
78.1361873853
 20
121.370099603
 30
0.0
 11
78.1804549473
 21
121.33682376
 31
0.0
  0
POLYLINE
  5
384
  8
0
  6
CONTINUOUS
 62
     7
 66
     1
 10
0.0
 20
0.0
 30
0.0
 70
   128
  0
VERTEX
  5
566
  8
0
  6
CONTINUOUS
 62
     7
 10
78.1973935597
 20
121.2873493491
 30
0.0
  0
VERTEX
  5
567
  8
0
  6
CONTINUOUS
 62
     7
 10
78.2058391291
 20
121.2257512965
 30
0.0
  0
VERTEX
  5
568
  8
0
  6
CONTINUOUS
 62
     7
 10
78.2327375614
 20
121.1708691092
 30
0.0
  0
SEQEND
  5
667
  8
0
  6
CONTINUOUS
 62
     7
  0
POLYLINE
  5
385
  8
0
  6
CONTINUOUS
 62
     7
 66
     1
 10
0.0
 20
0.0
 30
0.0
 70
   128
  0
VERTEX
  5
569
  8
0
  6
CONTINUOUS
 62
     7
 10
78.4740716125
 20
120.8843531557
 30
0.0
  0
VERTEX
  5
56A
  8
0
  6
CONTINUOUS
 62
     7
 10
78.524244443
 20
120.8477417634
 30
0.0
  0
VERTEX
  5
56B
  8
0
  6
CONTINUOUS
 62
     7
 10
78.5833942348
 20
120.8290982635
 30
0.0
  0
SEQEND
  5
668
  8
0
  6
CONTINUOUS
 62
     7
  0
LINE
  5
386
  8
0
  6
CONTINUOUS
 62
     7
 10
78.6254529323
 20
120.8229805659
 30
0.0
 11
78.5833941358
 21
120.8290970872
 31
0.0
  0
POLYLINE
  5
387
  8
0
  6
CONTINUOUS
 62
     7
 66
     1
 10
0.0
 20
0.0
 30
0.0
 70
   128
  0
VERTEX
  5
56C
  8
0
  6
CONTINUOUS
 62
     7
 10
78.2327375614
 20
121.1708691092
 30
0.0
  0
VERTEX
  5
56D
  8
0
  6
CONTINUOUS
 62
     7
 10
78.1971443789
 20
121.2164968716
 30
0.0
  0
VERTEX
  5
56E
  8
0
  6
CONTINUOUS
 62
     7
 10
78.1802497717
 20
121.2696444611
 30
0.0
  0
SEQEND
  5
669
  8
0
  6
CONTINUOUS
 62
     7
  0
LINE
  5
388
  8
0
  6
CONTINUOUS
 62
     7
 10
78.1861999624
 20
121.2784613002
 30
0.0
 11
78.1802497717
 21
121.2696444611
 31
0.0
  0
LINE
  5
389
  8
0
  6
CONTINUOUS
 62
     7
 10
78.1973935597
 20
121.2873493491
 30
0.0
 11
78.1861999624
 21
121.2784613002
 31
0.0
  0
POLYLINE
  5
38A
  8
0
  6
CONTINUOUS
 62
     7
 66
     1
 10
0.0
 20
0.0
 30
0.0
 70
   128
  0
VERTEX
  5
56F
  8
0
  6
CONTINUOUS
 62
     7
 10
78.5581296143
 20
120.8210026252
 30
0.0
  0
VERTEX
  5
570
  8
0
  6
CONTINUOUS
 62
     7
 10
78.5110250715
 20
120.8438466033
 30
0.0
  0
VERTEX
  5
571
  8
0
  6
CONTINUOUS
 62
     7
 10
78.4740716125
 20
120.8843531557
 30
0.0
  0
SEQEND
  5
66A
  8
0
  6
CONTINUOUS
 62
     7
  0
LINE
  5
38B
  8
0
  6
CONTINUOUS
 62
     7
 10
78.5703416208
 20
120.8224027346
 30
0.0
 11
78.5833942348
 21
120.8290982635
 31
0.0
  0
ARC
  5
38C
  8
0
  6
CONTINUOUS
 62
     7
 10
78.5609010265
 20
120.8507875843
 30
0.0
 40
0.0299136174894191
 50
264.6840844498
 51
288.3967497011
  0
LINE
  5
38D
  8
0
  6
CONTINUOUS
 62
     7
 10
78.1802445296
 20
121.2696444838
 30
0.0
 11
78.180454952
 21
121.3368238134
 31
0.0
  0
ARC
  5
38E
  8
0
  6
CONTINUOUS
 62
     7
 10
78.6269934528
 20
121.268262565
 30
0.0
 40
0.4525302487637276
 50
190.0658254059
 51
261.2470034981
  0
LINE
  5
38F
  8
0
  6
CONTINUOUS
 62
     7
 10
78.6254529323
 20
120.8229805658
 30
0.0
 11
78.6239054785
 21
120.8103510953
 31
0.0
  0
LINE
  5
390
  8
0
  6
CONTINUOUS
 62
     7
 10
78.6239054784
 20
120.8103510953
 30
0.0
 11
78.5581299531
 21
120.8210026079
 31
0.0
  0
LINE
  5
391
  8
0
  6
CONTINUOUS
 62
     7
 10
78.6200395929
 20
120.7956690821
 30
0.0
 11
78.6239124927
 21
120.810350484
 31
0.0
  0
ARC
  5
392
  8
0
  6
CONTINUOUS
 62
     7
 10
78.6660841696
 20
121.3265618089
 30
0.0
 40
0.5328857868666724
 50
220.1364312079
 51
265.0427749072
  0
ARC
  5
393
  8
0
  6
CONTINUOUS
 62
     7
 10
78.6630720595
 20
121.3239534865
 30
0.0
 40
0.5289016456881875
 50
174.9946368756
 51
220.1307485535
  0
LINE
  5
394
  8
0
  6
CONTINUOUS
 62
     7
 10
78.6901245216
 20
120.7895607781
 30
0.0
 11
78.6200395769
 21
120.7956689027
 31
0.0
  0
POLYLINE
  5
395
  8
0
  6
CONTINUOUS
 62
     7
 66
     1
 10
0.0
 20
0.0
 30
0.0
 70
   128
  0
VERTEX
  5
572
  8
0
  6
CONTINUOUS
 62
     7
 10
150.4401245216
 20
126.4707879138
 30
0.0
  0
VERTEX
  5
573
  8
0
  6
CONTINUOUS
 62
     7
 10
151.5119005329
 20
125.1316517426
 30
0.0
  0
VERTEX
  5
574
  8
0
  6
CONTINUOUS
 62
     7
 10
152.4844960266
 20
123.7576981986
 30
0.0
  0
VERTEX
  5
575
  8
0
  6
CONTINUOUS
 62
     7
 10
153.3493439544
 20
122.3610296685
 30
0.0
  0
VERTEX
  5
576
  8
0
  6
CONTINUOUS
 62
     7
 10
154.0988263556
 20
120.9539486224
 30
0.0
  0
VERTEX
  5
577
  8
0
  6
CONTINUOUS
 62
     7
 10
154.7263414597
 20
119.5488492486
 30
0.0
  0
VERTEX
  5
578
  8
0
  6
CONTINUOUS
 62
     7
 10
155.2263618381
 20
118.1581082798
 30
0.0
  0
VERTEX
  5
579
  8
0
  6
CONTINUOUS
 62
     7
 10
155.5944830914
 20
116.7939759738
 30
0.0
  0
VERTEX
  5
57A
  8
0
  6
CONTINUOUS
 62
     7
 10
155.827462646
 20
115.4684682074
 30
0.0
  0
VERTEX
  5
57B
  8
0
  6
CONTINUOUS
 62
     7
 10
155.9232483153
 20
114.1932606354
 30
0.0
  0
VERTEX
  5
57C
  8
0
  6
CONTINUOUS
 62
     7
 10
155.8809963773
 20
112.9795858467
 30
0.0
  0
VERTEX
  5
57D
  8
0
  6
CONTINUOUS
 62
     7
 10
155.7010790056
 20
111.8381344221
 30
0.0
  0
SEQEND
  5
66B
  8
0
  6
CONTINUOUS
 62
     7
  0
LINE
  5
396
  8
0
  6
CONTINUOUS
 62
     7
 10
150.4401245216
 20
126.4707879138
 30
0.0
 11
150.4401245216
 21
136.1789228977
 31
0.0
  0
LINE
  5
397
  8
0
  6
CONTINUOUS
 62
     7
 10
150.4401245216
 20
106.1789228977
 30
0.0
 11
150.4401245216
 21
111.4862540414
 31
0.0
  0
ARC
  5
398
  8
0
  6
CONTINUOUS
 62
     7
 10
230.4259003289
 20
510.6120155963
 30
0.0
 40
407.0615406400856
 50
258.667898073
 51
259.109047106
  0
ARC
  5
399
  8
0
  6
CONTINUOUS
 62
     7
 10
154.0584919526
 20
112.6172767077
 30
0.0
 40
1.818008506022707
 50
252.6231773855
 51
334.6232135694
  0
LINE
  5
39A
  8
0
  6
CONTINUOUS
 62
     7
 10
155.9401245216
 20
106.1789228977
 30
0.0
 11
155.9401245216
 21
136.1789228977
 31
0.0
  0
LINE
  5
39B
  8
0
  6
CONTINUOUS
 62
     7
 10
156.4401245216
 20
135.6789228977
 30
0.0
 11
156.4401245216
 21
106.6789228977
 31
0.0
  0
LINE
  5
39C
  8
0
  6
CONTINUOUS
 62
     7
 10
155.7010790056
 20
111.8381344221
 30
0.0
 11
143.9788458338
 21
120.7929883154
 31
0.0
  0
LINE
  5
39D
  8
0
  6
CONTINUOUS
 62
     7
 10
143.6285214214
 20
129.0027792666
 30
0.0
 11
143.9788458341
 21
120.7929883112
 31
0.0
  0
ARC
  5
39E
  8
0
  6
CONTINUOUS
 62
     7
 10
138.2201725863
 20
104.0248170866
 30
0.0
 40
25.55677662925058
 50
61.4354079664
 51
77.7826401918
  0
LINE
  5
39F
  8
0
  6
CONTINUOUS
 62
     7
 10
142.8525435119
 20
128.992637885
 30
0.0
 11
139.7849207095
 21
128.2806008663
 31
0.0
  0
LINE
  5
3A0
  8
0
  6
CONTINUOUS
 62
     7
 10
143.6285214218
 20
129.0027792643
 30
0.0
 11
142.8525435112
 21
128.9926378849
 31
0.0
  0
LINE
  5
3A1
  8
0
  6
CONTINUOUS
 62
     7
 10
153.5155350642
 20
110.8822398939
 30
0.0
 11
143.2901245216
 21
118.6936403383
 31
0.0
  0
LINE
  5
3A2
  8
0
  6
CONTINUOUS
 62
     7
 10
143.2901245216
 20
120.5099551515
 30
0.0
 11
143.2901245216
 21
118.6936403383
 31
0.0
  0
LINE
  5
3A3
  8
0
  6
CONTINUOUS
 62
     7
 10
143.9788458338
 20
120.7929883154
 30
0.0
 11
143.2901244628
 21
120.5099551135
 31
0.0
  0
POLYLINE
  5
3A4
  8
0
  6
CONTINUOUS
 62
     7
 66
     1
 10
0.0
 20
0.0
 30
0.0
 70
   128
  0
VERTEX
  5
57E
  8
0
  6
CONTINUOUS
 62
     7
 10
139.7849207095
 20
117.3000220641
 30
0.0
  0
VERTEX
  5
57F
  8
0
  6
CONTINUOUS
 62
     7
 10
141.5422053528
 20
116.299707019
 30
0.0
  0
VERTEX
  5
580
  8
0
  6
CONTINUOUS
 62
     7
 10
143.2901245216
 20
115.2139886998
 30
0.0
  0
SEQEND
  5
66C
  8
0
  6
CONTINUOUS
 62
     7
  0
POLYLINE
  5
3A5
  8
0
  6
CONTINUOUS
 62
     7
 66
     1
 10
0.0
 20
0.0
 30
0.0
 70
   128
  0
VERTEX
  5
581
  8
0
  6
CONTINUOUS
 62
     7
 10
150.4401245216
 20
111.4862540414
 30
0.0
  0
VERTEX
  5
582
  8
0
  6
CONTINUOUS
 62
     7
 10
148.645365346
 20
112.4116939974
 30
0.0
  0
VERTEX
  5
583
  8
0
  6
CONTINUOUS
 62
     7
 10
146.854744321
 20
113.3408357434
 30
0.0
  0
VERTEX
  5
584
  8
0
  6
CONTINUOUS
 62
     7
 10
145.069173595
 20
114.2745733378
 30
0.0
  0
VERTEX
  5
585
  8
0
  6
CONTINUOUS
 62
     7
 10
143.2901245216
 20
115.2139886998
 30
0.0
  0
SEQEND
  5
66D
  8
0
  6
CONTINUOUS
 62
     7
  0
LINE
  5
3A6
  8
0
  6
CONTINUOUS
 62
     7
 10
143.2901245216
 20
118.6936403383
 30
0.0
 11
143.2901245216
 21
115.2139886998
 31
0.0
  0
LINE
  5
3A7
  8
0
  6
CONTINUOUS
 62
     7
 10
158.1696615107
 20
131.1789228977
 30
0.0
 11
158.1696615107
 21
111.1789228977
 31
0.0
  0
LINE
  5
3A8
  8
0
  6
CONTINUOUS
 62
     7
 10
157.6991984997
 20
131.0789228977
 30
0.0
 11
157.6991984997
 21
111.2789228977
 31
0.0
  0
LINE
  5
3A9
  8
0
  6
CONTINUOUS
 62
     7
 10
204.1901245216
 20
127.1789228977
 30
0.0
 11
204.1901245216
 21
131.1789228977
 31
0.0
  0
LINE
  5
3AA
  8
0
  6
CONTINUOUS
 62
     7
 10
204.1901245216
 20
111.1789228977
 30
0.0
 11
204.1901245216
 21
115.1789228977
 31
0.0
  0
LINE
  5
3AB
  8
0
  6
CONTINUOUS
 62
     7
 10
204.1901245216
 20
127.1789228977
 30
0.0
 11
162.4401245216
 21
127.1789228977
 31
0.0
  0
ARC
  5
3AC
  8
0
  6
CONTINUOUS
 62
     7
 10
170.4401245216
 20
121.1789228977
 30
0.0
 40
10.00000000000021
 50
143.1301023542
 51
216.8698976458
  0
LINE
  5
3AD
  8
0
  6
CONTINUOUS
 62
     7
 10
162.4401245216
 20
115.1789228977
 30
0.0
 11
204.1901245216
 21
115.1789228977
 31
0.0
  0
LINE
  5
3AE
  8
0
  6
CONTINUOUS
 62
     7
 10
162.4401245216
 20
115.1789228977
 30
0.0
 11
162.4401245216
 21
127.1789228977
 31
0.0
  0
ARC
  5
3AF
  8
0
  6
CONTINUOUS
 62
     7
 10
129.9305443992
 20
98.4969378306
 30
0.0
 40
21.22886499922999
 50
62.3417317256
 51
76.4755730261
  0
POLYLINE
  5
3B0
  8
0
  6
CONTINUOUS
 62
     7
 66
     1
 10
0.0
 20
0.0
 30
0.0
 70
   128
  0
VERTEX
  5
586
  8
0
  6
CONTINUOUS
 62
     7
 10
87.1901245216
 20
128.8631873734
 30
0.0
  0
VERTEX
  5
587
  8
0
  6
CONTINUOUS
 62
     7
 10
92.173980568
 20
128.5622673143
 30
0.0
  0
VERTEX
  5
588
  8
0
  6
CONTINUOUS
 62
     7
 10
97.4822353845
 20
127.9849250305
 30
0.0
  0
VERTEX
  5
589
  8
0
  6
CONTINUOUS
 62
     7
 10
102.1770589719
 20
127.2700074993
 30
0.0
  0
VERTEX
  5
58A
  8
0
  6
CONTINUOUS
 62
     7
 10
104.8622217776
 20
126.7816745836
 30
0.0
  0
VERTEX
  5
58B
  8
0
  6
CONTINUOUS
 62
     7
 10
108.8961052107
 20
125.9526494163
 30
0.0
  0
VERTEX
  5
58C
  8
0
  6
CONTINUOUS
 62
     7
 10
113.2791940948
 20
124.9416507465
 30
0.0
  0
VERTEX
  5
58D
  8
0
  6
CONTINUOUS
 62
     7
 10
118.3501929372
 20
123.6570120957
 30
0.0
  0
VERTEX
  5
58E
  8
0
  6
CONTINUOUS
 62
     7
 10
122.4707758342
 20
122.5504314916
 30
0.0
  0
VERTEX
  5
58F
  8
0
  6
CONTINUOUS
 62
     7
 10
125.2230817291
 20
121.7943559594
 30
0.0
  0
VERTEX
  5
590
  8
0
  6
CONTINUOUS
 62
     7
 10
129.3614238332
 20
120.6491297003
 30
0.0
  0
VERTEX
  5
591
  8
0
  6
CONTINUOUS
 62
     7
 10
134.8951245216
 20
119.1371329209
 30
0.0
  0
SEQEND
  5
66E
  8
0
  6
CONTINUOUS
 62
     7
  0
ARC
  5
3B1
  8
0
  6
CONTINUOUS
 62
     7
 10
145.4765619409
 20
123.5020986323
 30
0.0
 40
3.705864442029333
 50
213.2899688028
 51
233.843424306
  0
POLYLINE
  5
3B2
  8
0
  6
CONTINUOUS
 62
     7
 66
     1
 10
0.0
 20
0.0
 30
0.0
 70
   128
  0
VERTEX
  5
592
  8
0
  6
CONTINUOUS
 62
     7
 10
142.3663178063
 20
121.4700427034
 30
0.0
  0
VERTEX
  5
593
  8
0
  6
CONTINUOUS
 62
     7
 10
142.626053115
 20
125.2453246398
 30
0.0
  0
VERTEX
  5
594
  8
0
  6
CONTINUOUS
 62
     7
 10
142.8525443722
 20
128.9926356366
 30
0.0
  0
SEQEND
  5
66F
  8
0
  6
CONTINUOUS
 62
     7
  0
POLYLINE
  5
3B3
  8
0
  6
CONTINUOUS
 62
     7
 66
     1
 10
0.0
 20
0.0
 30
0.0
 70
   128
  0
VERTEX
  5
595
  8
0
  6
CONTINUOUS
 62
     7
 10
204.9401245216
 20
115.2794652956
 30
0.0
  0
VERTEX
  5
596
  8
0
  6
CONTINUOUS
 62
     7
 10
204.3871026981
 20
115.205223605
 30
0.0
  0
VERTEX
  5
597
  8
0
  6
CONTINUOUS
 62
     7
 10
204.1901245216
 20
115.1789228977
 30
0.0
  0
SEQEND
  5
670
  8
0
  6
CONTINUOUS
 62
     7
  0
ARC
  5
3B4
  8
0
  6
CONTINUOUS
 62
     7
 10
212.1662194398
 20
121.1964220202
 30
0.0
 40
9.339530215620854
 50
219.3117095876
 51
223.9310804443
  0
LINE
  5
3B5
  8
0
  6
CONTINUOUS
 62
     7
 10
205.4401245216
 20
127.6411206663
 30
0.0
 11
205.4401245216
 21
131.0789228977
 31
0.0
  0
LINE
  5
3B6
  8
0
  6
CONTINUOUS
 62
     7
 10
205.4401245216
 20
111.2789228977
 30
0.0
 11
205.4401245216
 21
114.7167251292
 31
0.0
  0
ARC
  5
3B7
  8
0
  6
CONTINUOUS
 62
     7
 10
212.1662194398
 20
121.1614237753
 30
0.0
 40
9.339530215620876
 50
136.0689195557
 51
140.6882904124
  0
POLYLINE
  5
3B8
  8
0
  6
CONTINUOUS
 62
     7
 66
     1
 10
0.0
 20
0.0
 30
0.0
 70
   128
  0
VERTEX
  5
598
  8
0
  6
CONTINUOUS
 62
     7
 10
204.1901245216
 20
127.1789228977
 30
0.0
  0
VERTEX
  5
599
  8
0
  6
CONTINUOUS
 62
     7
 10
204.3871026981
 20
127.1526221905
 30
0.0
  0
VERTEX
  5
59A
  8
0
  6
CONTINUOUS
 62
     7
 10
204.9401245216
 20
127.0783804999
 30
0.0
  0
SEQEND
  5
671
  8
0
  6
CONTINUOUS
 62
     7
  0
LINE
  5
3B9
  8
0
  6
CONTINUOUS
 62
     7
 10
205.4401245216
 20
127.6411206663
 30
0.0
 11
206.4401245216
 21
127.2583965592
 31
0.0
  0
LINE
  5
3BA
  8
0
  6
CONTINUOUS
 62
     7
 10
206.4401245216
 20
115.0994492363
 30
0.0
 11
206.4401245216
 21
127.2583965592
 31
0.0
  0
POLYLINE
  5
3BB
  8
0
  6
CONTINUOUS
 62
     7
 66
     1
 10
0.0
 20
0.0
 30
0.0
 70
   128
  0
VERTEX
  5
59B
  8
0
  6
CONTINUOUS
 62
     7
 10
206.4401245216
 20
115.0994492363
 30
0.0
  0
VERTEX
  5
59C
  8
0
  6
CONTINUOUS
 62
     7
 10
205.9406602638
 20
114.9053729906
 30
0.0
  0
VERTEX
  5
59D
  8
0
  6
CONTINUOUS
 62
     7
 10
205.4401245216
 20
114.7167251292
 30
0.0
  0
SEQEND
  5
672
  8
0
  6
CONTINUOUS
 62
     7
  0
LINE
  5
3BC
  8
0
  6
CONTINUOUS
 62
     7
 10
204.9401245216
 20
115.2794652956
 30
0.0
 11
204.9401245216
 21
127.0783804999
 31
0.0
  0
LINE
  5
3BD
  8
0
  6
CONTINUOUS
 62
     7
 10
79.8847970306
 20
128.8631873734
 30
0.0
 11
87.1901245216
 21
128.8631873734
 31
0.0
  0
POLYLINE
  5
3BE
  8
0
  6
CONTINUOUS
 62
     7
 66
     1
 10
0.0
 20
0.0
 30
0.0
 70
   128
  0
VERTEX
  5
59E
  8
0
  6
CONTINUOUS
 62
     7
 10
87.6299184954
 20
119.2414167321
 30
0.0
  0
VERTEX
  5
59F
  8
0
  6
CONTINUOUS
 62
     7
 10
87.1905515899
 20
119.3433849922
 30
0.0
  0
VERTEX
  5
5A0
  8
0
  6
CONTINUOUS
 62
     7
 10
86.7290926446
 20
119.3789228977
 30
0.0
  0
SEQEND
  5
673
  8
0
  6
CONTINUOUS
 62
     7
  0
LINE
  5
3BF
  8
0
  6
CONTINUOUS
 62
     7
 10
86.7290926446
 20
119.3789228977
 30
0.0
 11
79.1901245216
 21
119.3789228977
 31
0.0
  0
LINE
  5
3C0
  8
0
  6
CONTINUOUS
 62
     7
 10
79.1901245216
 20
119.3789228977
 30
0.0
 11
79.1901245216
 21
125.9248271197
 31
0.0
  0
ARC
  5
3C1
  8
0
  6
CONTINUOUS
 62
     7
 10
45.6550547059
 20
135.4043170796
 30
0.0
 40
34.84912678172638
 50
344.2157855639
 51
349.1814968611
  0
POLYLINE
  5
3C2
  8
0
  6
CONTINUOUS
 62
     7
 66
     1
 10
0.0
 20
0.0
 30
0.0
 70
   128
  0
VERTEX
  5
5A1
  8
0
  6
CONTINUOUS
 62
     7
 10
81.0690225343
 20
123.5080412201
 30
0.0
  0
VERTEX
  5
5A2
  8
0
  6
CONTINUOUS
 62
     7
 10
81.3199602391
 20
123.4663747122
 30
0.0
  0
VERTEX
  5
5A3
  8
0
  6
CONTINUOUS
 62
     7
 10
81.5423559349
 20
123.3481525329
 30
0.0
  0
VERTEX
  5
5A4
  8
0
  6
CONTINUOUS
 62
     7
 10
81.721209326
 20
123.1612728506
 30
0.0
  0
VERTEX
  5
5A5
  8
0
  6
CONTINUOUS
 62
     7
 10
81.8380303018
 20
122.9121730109
 30
0.0
  0
VERTEX
  5
5A6
  8
0
  6
CONTINUOUS
 62
     7
 10
81.8668566956
 20
122.6265221438
 30
0.0
  0
VERTEX
  5
5A7
  8
0
  6
CONTINUOUS
 62
     7
 10
81.7964804011
 20
122.3472443268
 30
0.0
  0
VERTEX
  5
5A8
  8
0
  6
CONTINUOUS
 62
     7
 10
81.6389616849
 20
122.1150617781
 30
0.0
  0
VERTEX
  5
5A9
  8
0
  6
CONTINUOUS
 62
     7
 10
81.4187871912
 20
121.9548099898
 30
0.0
  0
VERTEX
  5
5AA
  8
0
  6
CONTINUOUS
 62
     7
 10
81.1626003516
 20
121.8788689663
 30
0.0
  0
VERTEX
  5
5AB
  8
0
  6
CONTINUOUS
 62
     7
 10
80.8979600551
 20
121.8920352204
 30
0.0
  0
VERTEX
  5
5AC
  8
0
  6
CONTINUOUS
 62
     7
 10
80.6530708354
 20
121.9914045846
 30
0.0
  0
VERTEX
  5
5AD
  8
0
  6
CONTINUOUS
 62
     7
 10
80.4540069654
 20
122.1655831727
 30
0.0
  0
VERTEX
  5
5AE
  8
0
  6
CONTINUOUS
 62
     7
 10
80.3214078895
 20
122.396237778
 30
0.0
  0
VERTEX
  5
5AF
  8
0
  6
CONTINUOUS
 62
     7
 10
80.2694064029
 20
122.6612850855
 30
0.0
  0
VERTEX
  5
5B0
  8
0
  6
CONTINUOUS
 62
     7
 10
80.3070613329
 20
122.9359799075
 30
0.0
  0
VERTEX
  5
5B1
  8
0
  6
CONTINUOUS
 62
     7
 10
80.4374405792
 20
123.1897609871
 30
0.0
  0
VERTEX
  5
5B2
  8
0
  6
CONTINUOUS
 62
     7
 10
80.6487942309
 20
123.3850334855
 30
0.0
  0
VERTEX
  5
5B3
  8
0
  6
CONTINUOUS
 62
     7
 10
80.9057061585
 20
123.4906519021
 30
0.0
  0
VERTEX
  5
5B4
  8
0
  6
CONTINUOUS
 62
     7
 10
81.0690225343
 20
123.5080412201
 30
0.0
  0
SEQEND
  5
674
  8
0
  6
CONTINUOUS
 62
     7
  0
POLYLINE
  5
3C3
  8
0
  6
CONTINUOUS
 62
     7
 66
     1
 10
0.0
 20
0.0
 30
0.0
 70
   128
  0
VERTEX
  5
5B5
  8
0
  6
CONTINUOUS
 62
     7
 10
119.2642269757
 20
113.4538425968
 30
0.0
  0
VERTEX
  5
5B6
  8
0
  6
CONTINUOUS
 62
     7
 10
114.6361319037
 20
113.5731329785
 30
0.0
  0
VERTEX
  5
5B7
  8
0
  6
CONTINUOUS
 62
     7
 10
111.3672072684
 20
113.8462594221
 30
0.0
  0
VERTEX
  5
5B8
  8
0
  6
CONTINUOUS
 62
     7
 10
106.9934709405
 20
114.4232308851
 30
0.0
  0
VERTEX
  5
5B9
  8
0
  6
CONTINUOUS
 62
     7
 10
102.498179022
 20
115.2485862703
 30
0.0
  0
VERTEX
  5
5BA
  8
0
  6
CONTINUOUS
 62
     7
 10
99.938832844
 20
115.8129966654
 30
0.0
  0
VERTEX
  5
5BB
  8
0
  6
CONTINUOUS
 62
     7
 10
97.1690666424
 20
116.4920498266
 30
0.0
  0
VERTEX
  5
5BC
  8
0
  6
CONTINUOUS
 62
     7
 10
94.7892824134
 20
117.1254096457
 30
0.0
  0
VERTEX
  5
5BD
  8
0
  6
CONTINUOUS
 62
     7
 10
92.406709317
 20
117.7990310395
 30
0.0
  0
VERTEX
  5
5BE
  8
0
  6
CONTINUOUS
 62
     7
 10
90.0202606275
 20
118.5066055684
 30
0.0
  0
VERTEX
  5
5BF
  8
0
  6
CONTINUOUS
 62
     7
 10
87.6299184954
 20
119.2414167321
 30
0.0
  0
SEQEND
  5
675
  8
0
  6
CONTINUOUS
 62
     7
  0
LINE
  5
3C4
  8
0
  6
CONTINUOUS
 62
     7
 10
79.1901245216
 20
119.3789228977
 30
0.0
 11
78.6901245216
 21
119.3789228977
 31
0.0
  0
LINE
  5
3C5
  8
0
  6
CONTINUOUS
 62
     7
 10
78.6901245216
 20
119.3789228977
 30
0.0
 11
78.6901245216
 21
122.5217294821
 31
0.0
  0
LINE
  5
3C6
  8
0
  6
CONTINUOUS
 62
     7
 10
78.6901245216
 20
122.5217294821
 30
0.0
 11
78.8951073198
 21
125.1982245314
 31
0.0
  0
POLYLINE
  5
3C7
  8
0
  6
CONTINUOUS
 62
     7
 66
     1
 10
0.0
 20
0.0
 30
0.0
 70
   128
  0
VERTEX
  5
5C0
  8
0
  6
CONTINUOUS
 62
     7
 10
78.8951073198
 20
125.1982245314
 30
0.0
  0
VERTEX
  5
5C1
  8
0
  6
CONTINUOUS
 62
     7
 10
79.0454883583
 20
125.5541450742
 30
0.0
  0
VERTEX
  5
5C2
  8
0
  6
CONTINUOUS
 62
     7
 10
79.1901245216
 20
125.9248271197
 30
0.0
  0
SEQEND
  5
676
  8
0
  6
CONTINUOUS
 62
     7
  0
POLYLINE
  5
3C8
  8
0
  6
CONTINUOUS
 62
     7
 66
     1
 10
0.0
 20
0.0
 30
0.0
 70
   128
  0
VERTEX
  5
5C3
  8
0
  6
CONTINUOUS
 62
     7
 10
79.1467999612
 20
119.8798133411
 30
0.0
  0
VERTEX
  5
5C4
  8
0
  6
CONTINUOUS
 62
     7
 10
79.1419895826
 20
119.8243154064
 30
0.0
  0
VERTEX
  5
5C5
  8
0
  6
CONTINUOUS
 62
     7
 10
79.1366914449
 20
119.77380623
 30
0.0
  0
VERTEX
  5
5C6
  8
0
  6
CONTINUOUS
 62
     7
 10
79.130835154
 20
119.7281275178
 30
0.0
  0
VERTEX
  5
5C7
  8
0
  6
CONTINUOUS
 62
     7
 10
79.1245155981
 20
119.6885031776
 30
0.0
  0
VERTEX
  5
5C8
  8
0
  6
CONTINUOUS
 62
     7
 10
79.1180523754
 20
119.6566212847
 30
0.0
  0
VERTEX
  5
5C9
  8
0
  6
CONTINUOUS
 62
     7
 10
79.1039318463
 20
119.6118208055
 30
0.0
  0
VERTEX
  5
5CA
  8
0
  6
CONTINUOUS
 62
     7
 10
79.0963307859
 20
119.5996808087
 30
0.0
  0
VERTEX
  5
5CB
  8
0
  6
CONTINUOUS
 62
     7
 10
79.0887690385
 20
119.5949043211
 30
0.0
  0
VERTEX
  5
5CC
  8
0
  6
CONTINUOUS
 62
     7
 10
79.0729393809
 20
119.6064326168
 30
0.0
  0
VERTEX
  5
5CD
  8
0
  6
CONTINUOUS
 62
     7
 10
79.0647624627
 20
119.6231585565
 30
0.0
  0
VERTEX
  5
5CE
  8
0
  6
CONTINUOUS
 62
     7
 10
79.0568480946
 20
119.6461724357
 30
0.0
  0
VERTEX
  5
5CF
  8
0
  6
CONTINUOUS
 62
     7
 10
79.0489312975
 20
119.6759755397
 30
0.0
  0
VERTEX
  5
5D0
  8
0
  6
CONTINUOUS
 62
     7
 10
79.0409572081
 20
119.7130846174
 30
0.0
  0
VERTEX
  5
5D1
  8
0
  6
CONTINUOUS
 62
     7
 10
79.0331061936
 20
119.7570026073
 30
0.0
  0
VERTEX
  5
5D2
  8
0
  6
CONTINUOUS
 62
     7
 10
79.0257663977
 20
119.8052969957
 30
0.0
  0
VERTEX
  5
5D3
  8
0
  6
CONTINUOUS
 62
     7
 10
79.0117916784
 20
119.9201804214
 30
0.0
  0
VERTEX
  5
5D4
  8
0
  6
CONTINUOUS
 62
     7
 10
79.0053065053
 20
119.9863770753
 30
0.0
  0
VERTEX
  5
5D5
  8
0
  6
CONTINUOUS
 62
     7
 10
78.9995528242
 20
120.0543465817
 30
0.0
  0
VERTEX
  5
5D6
  8
0
  6
CONTINUOUS
 62
     7
 10
78.989531807
 20
120.2038404957
 30
0.0
  0
VERTEX
  5
5D7
  8
0
  6
CONTINUOUS
 62
     7
 10
78.9854115848
 20
120.28459296
 30
0.0
  0
VERTEX
  5
5D8
  8
0
  6
CONTINUOUS
 62
     7
 10
78.982142977
 20
120.3642615049
 30
0.0
  0
VERTEX
  5
5D9
  8
0
  6
CONTINUOUS
 62
     7
 10
78.9777007626
 20
120.5308336261
 30
0.0
  0
VERTEX
  5
5DA
  8
0
  6
CONTINUOUS
 62
     7
 10
78.976632505
 20
120.6166733813
 30
0.0
  0
VERTEX
  5
5DB
  8
0
  6
CONTINUOUS
 62
     7
 10
78.9763841096
 20
120.698930061
 30
0.0
  0
VERTEX
  5
5DC
  8
0
  6
CONTINUOUS
 62
     7
 10
78.9782332548
 20
120.8636079519
 30
0.0
  0
VERTEX
  5
5DD
  8
0
  6
CONTINUOUS
 62
     7
 10
78.9803654509
 20
120.9448112986
 30
0.0
  0
VERTEX
  5
5DE
  8
0
  6
CONTINUOUS
 62
     7
 10
78.9831517789
 20
121.0206454551
 30
0.0
  0
VERTEX
  5
5DF
  8
0
  6
CONTINUOUS
 62
     7
 10
78.9909058136
 20
121.1655073095
 30
0.0
  0
VERTEX
  5
5E0
  8
0
  6
CONTINUOUS
 62
     7
 10
78.9958380307
 20
121.2333120851
 30
0.0
  0
VERTEX
  5
5E1
  8
0
  6
CONTINUOUS
 62
     7
 10
79.0011829568
 20
121.2945435684
 30
0.0
  0
VERTEX
  5
5E2
  8
0
  6
CONTINUOUS
 62
     7
 10
79.0135660635
 20
121.4040095758
 30
0.0
  0
VERTEX
  5
5E3
  8
0
  6
CONTINUOUS
 62
     7
 10
79.0205214225
 20
121.4511424609
 30
0.0
  0
VERTEX
  5
5E4
  8
0
  6
CONTINUOUS
 62
     7
 10
79.0276119072
 20
121.4909181906
 30
0.0
  0
VERTEX
  5
5E5
  8
0
  6
CONTINUOUS
 62
     7
 10
79.0428278842
 20
121.5526437298
 30
0.0
  0
VERTEX
  5
5E6
  8
0
  6
CONTINUOUS
 62
     7
 10
79.0508486783
 20
121.5737193323
 30
0.0
  0
VERTEX
  5
5E7
  8
0
  6
CONTINUOUS
 62
     7
 10
79.0587206894
 20
121.5872845396
 30
0.0
  0
VERTEX
  5
5E8
  8
0
  6
CONTINUOUS
 62
     7
 10
79.0748065392
 20
121.5936852435
 30
0.0
  0
VERTEX
  5
5E9
  8
0
  6
CONTINUOUS
 62
     7
 10
79.0829113528
 20
121.5859685862
 30
0.0
  0
VERTEX
  5
5EA
  8
0
  6
CONTINUOUS
 62
     7
 10
79.0906189559
 20
121.5715287765
 30
0.0
  0
VERTEX
  5
5EB
  8
0
  6
CONTINUOUS
 62
     7
 10
79.0982082373
 20
121.5501510657
 30
0.0
  0
VERTEX
  5
5EC
  8
0
  6
CONTINUOUS
 62
     7
 10
79.1057370283
 20
121.5213703319
 30
0.0
  0
VERTEX
  5
5ED
  8
0
  6
CONTINUOUS
 62
     7
 10
79.113043771
 20
121.4854939022
 30
0.0
  0
VERTEX
  5
5EE
  8
0
  6
CONTINUOUS
 62
     7
 10
79.1197773549
 20
121.4446439557
 30
0.0
  0
VERTEX
  5
5EF
  8
0
  6
CONTINUOUS
 62
     7
 10
79.132409613
 20
121.343596595
 30
0.0
  0
VERTEX
  5
5F0
  8
0
  6
CONTINUOUS
 62
     7
 10
79.1382150601
 20
121.2836653376
 30
0.0
  0
VERTEX
  5
5F1
  8
0
  6
CONTINUOUS
 62
     7
 10
79.1433574888
 20
121.2211778903
 30
0.0
  0
VERTEX
  5
5F2
  8
0
  6
CONTINUOUS
 62
     7
 10
79.1523903371
 20
121.0810321402
 30
0.0
  0
VERTEX
  5
5F3
  8
0
  6
CONTINUOUS
 62
     7
 10
79.1562015324
 20
121.0040382923
 30
0.0
  0
VERTEX
  5
5F4
  8
0
  6
CONTINUOUS
 62
     7
 10
79.1593378333
 20
120.9271504507
 30
0.0
  0
VERTEX
  5
5F5
  8
0
  6
CONTINUOUS
 62
     7
 10
79.1640676609
 20
120.7640912752
 30
0.0
  0
VERTEX
  5
5F6
  8
0
  6
CONTINUOUS
 62
     7
 10
79.1655989939
 20
120.6789036922
 30
0.0
  0
VERTEX
  5
5F7
  8
0
  6
CONTINUOUS
 62
     7
 10
79.1665032682
 20
120.5963502614
 30
0.0
  0
VERTEX
  5
5F8
  8
0
  6
CONTINUOUS
 62
     7
 10
79.1666052567
 20
120.4288404235
 30
0.0
  0
VERTEX
  5
5F9
  8
0
  6
CONTINUOUS
 62
     7
 10
79.1657607141
 20
120.3450682302
 30
0.0
  0
VERTEX
  5
5FA
  8
0
  6
CONTINUOUS
 62
     7
 10
79.1643786692
 20
120.2660643914
 30
0.0
  0
VERTEX
  5
5FB
  8
0
  6
CONTINUOUS
 62
     7
 10
79.1598718591
 20
120.1127420927
 30
0.0
  0
VERTEX
  5
5FC
  8
0
  6
CONTINUOUS
 62
     7
 10
79.1567276795
 20
120.0396687273
 30
0.0
  0
VERTEX
  5
5FD
  8
0
  6
CONTINUOUS
 62
     7
 10
79.1521831334
 20
119.9567102355
 30
0.0
  0
VERTEX
  5
5FE
  8
0
  6
CONTINUOUS
 62
     7
 10
79.1467999612
 20
119.8798133411
 30
0.0
  0
SEQEND
  5
677
  8
0
  6
CONTINUOUS
 62
     7
  0
LINE
  5
3C9
  8
0
  6
CONTINUOUS
 62
     7
 10
206.4401245216
 20
127.2583965592
 30
0.0
 11
206.4401245216
 21
130.0789228977
 31
0.0
  0
LINE
  5
3CA
  8
0
  6
CONTINUOUS
 62
     7
 10
206.4401245216
 20
112.2789228977
 30
0.0
 11
206.4401245216
 21
115.0994492363
 31
0.0
  0
ARC
  5
3CB
  8
0
  6
CONTINUOUS
 62
     7
 10
125.0144187954
 20
68.2433019238
 30
0.0
 40
60.63280423997846
 50
80.6212682029
 51
106.8904433334
  0
ARC
  5
3CC
  8
0
  6
CONTINUOUS
 62
     7
 10
136.8639833864
 20
139.0002647588
 30
0.0
 40
11.11049363501503
 50
259.7928739853
 51
285.242146499
  0
LINE
  5
3CD
  8
0
  6
CONTINUOUS
 62
     7
 10
78.8951073198
 20
125.1982245314
 30
0.0
 11
79.1156920296
 21
125.9830292399
 31
0.0
  0
LINE
  5
3CE
  8
0
  6
CONTINUOUS
 62
     7
 10
79.1156920296
 20
125.9830292399
 30
0.0
 11
79.1156920296
 21
126.0549327276
 31
0.0
  0
LINE
  5
3CF
  8
0
  6
CONTINUOUS
 62
     7
 10
79.1156920296
 20
126.0549327276
 30
0.0
 11
79.1596876458
 21
126.2833654998
 31
0.0
  0
LINE
  5
3D0
  8
0
  6
CONTINUOUS
 62
     7
 10
79.1596876458
 20
126.2833654998
 30
0.0
 11
79.8847970306
 21
128.8631873734
 31
0.0
  0
LINE
  5
3D1
  8
0
  6
CONTINUOUS
 62
     7
 10
83.4382527997
 20
113.640852853
 30
0.0
 11
83.3766122456
 21
113.640852853
 31
0.0
  0
ARC
  5
3D2
  8
0
  6
CONTINUOUS
 62
     7
 10
84.1821895273
 20
113.624780141
 30
0.0
 40
0.1989291392041521
 50
222.4560300404
 51
257.7578099899
  0
LINE
  5
3D3
  8
0
  6
CONTINUOUS
 62
     7
 10
84.1400077046
 20
113.4303746466
 30
0.0
 11
87.1901245216
 21
113.4303746466
 31
0.0
  0
ARC
  5
3D4
  8
0
  6
CONTINUOUS
 62
     7
 10
86.609951242
 20
213.8777856863
 30
0.0
 40
100.4490865344236
 50
270.3309304871
 51
280.0135342938
  0
LINE
  5
3D5
  8
0
  6
CONTINUOUS
 62
     7
 10
87.1901245216
 20
118.3789228977
 30
0.0
 11
87.1901245216
 21
113.4303746466
 31
0.0
  0
LINE
  5
3D6
  8
0
  6
CONTINUOUS
 62
     7
 10
87.1901245216
 20
119.2125610867
 30
0.0
 11
87.1901245216
 21
118.3789228977
 31
0.0
  0
LINE
  5
3D7
  8
0
  6
CONTINUOUS
 62
     7
 10
78.7190783291
 20
118.3789228977
 30
0.0
 11
78.6901245216
 21
118.6810565639
 31
0.0
  0
LINE
  5
3D8
  8
0
  6
CONTINUOUS
 62
     7
 10
87.1901245216
 20
118.3789228977
 30
0.0
 11
84.7617477568
 21
118.3789228977
 31
0.0
  0
ARC
  5
3D9
  8
0
  6
CONTINUOUS
 62
     7
 10
83.7946785616
 20
118.1391430373
 30
0.0
 40
0.9963519507133941
 50
13.9253670139
 51
147.9483497841
  0
LINE
  5
3DA
  8
0
  6
CONTINUOUS
 62
     7
 10
78.6901245216
 20
118.6810565639
 30
0.0
 11
78.6901245216
 21
119.3789228977
 31
0.0
  0
LINE
  5
3DB
  8
0
  6
CONTINUOUS
 62
     7
 10
84.1343270246
 20
113.5387684795
 30
0.0
 11
84.1400077046
 21
113.4303746466
 31
0.0
  0
ARC
  5
3DC
  8
0
  6
CONTINUOUS
 62
     7
 10
83.7920280633
 20
118.1347022677
 30
0.0
 40
1.000000000000002
 50
281.0937340036
 51
14.1357800731
  0
LINE
  5
3DD
  8
0
  6
CONTINUOUS
 62
     7
 10
78.7197925763
 20
118.3714125776
 30
0.0
 11
78.7239084824
 21
118.3544553815
 31
0.0
  0
LINE
  5
3DE
  8
0
  6
CONTINUOUS
 62
     7
 10
78.7190783291
 20
118.3789228977
 30
0.0
 11
78.7197925763
 21
118.3714125776
 31
0.0
  0
LINE
  5
3DF
  8
0
  6
CONTINUOUS
 62
     7
 10
79.0470937521
 20
126.0149979655
 30
0.0
 11
79.1094409836
 21
125.9607890295
 31
0.0
  0
LINE
  5
3E0
  8
0
  6
CONTINUOUS
 62
     7
 10
78.8980726393
 20
125.2087746583
 30
0.0
 11
78.7086354715
 21
125.7320784537
 31
0.0
  0
ARC
  5
3E1
  8
0
  6
CONTINUOUS
 62
     7
 10
79.1808541893
 20
125.8742715368
 30
0.0
 40
0.194154016976949
 50
109.4658614089
 51
133.5462464241
  0
LINE
  5
3E2
  8
0
  6
CONTINUOUS
 62
     7
 10
78.6783767362
 20
121.8799196698
 30
0.0
 11
78.6901245216
 21
122.0136865041
 31
0.0
  0
POLYLINE
  5
3E3
  8
0
  6
CONTINUOUS
 62
     7
 66
     1
 10
0.0
 20
0.0
 30
0.0
 70
   128
  0
VERTEX
  5
5FF
  8
0
  6
CONTINUOUS
 62
     7
 10
78.6783767362
 20
121.8799196698
 30
0.0
  0
VERTEX
  5
600
  8
0
  6
CONTINUOUS
 62
     7
 10
78.6879917227
 20
121.7878683082
 30
0.0
  0
VERTEX
  5
601
  8
0
  6
CONTINUOUS
 62
     7
 10
78.6901245216
 20
121.7840445705
 30
0.0
  0
SEQEND
  5
678
  8
0
  6
CONTINUOUS
 62
     7
  0
LINE
  5
3E4
  8
0
  6
CONTINUOUS
 62
     7
 10
78.5997023174
 20
120.9207496683
 30
0.0
 11
78.6901245216
 21
120.941955554
 31
0.0
  0
ARC
  5
3E5
  8
0
  6
CONTINUOUS
 62
     7
 10
78.7354740935
 20
121.0221755037
 30
0.0
 40
0.1694732287447369
 50
216.7609009767
 51
254.4790111062
  0
LINE
  5
3E6
  8
0
  6
CONTINUOUS
 62
     7
 10
79.0939705535
 20
126.1577833977
 30
0.0
 11
79.1348152094
 21
126.1542235514
 31
0.0
  0
POLYLINE
  5
3E7
  8
0
  6
CONTINUOUS
 62
     7
 66
     1
 10
0.0
 20
0.0
 30
0.0
 70
   128
  0
VERTEX
  5
602
  8
0
  6
CONTINUOUS
 62
     7
 10
79.0287685724
 20
126.1799133298
 30
0.0
  0
VERTEX
  5
603
  8
0
  6
CONTINUOUS
 62
     7
 10
78.9406780544
 20
126.1860546955
 30
0.0
  0
VERTEX
  5
604
  8
0
  6
CONTINUOUS
 62
     7
 10
78.8632013597
 20
126.1743802469
 30
0.0
  0
SEQEND
  5
679
  8
0
  6
CONTINUOUS
 62
     7
  0
LINE
  5
3E8
  8
0
  6
CONTINUOUS
 62
     7
 10
78.5951811211
 20
125.8977670992
 30
0.0
 11
78.5784211542
 21
125.8034716415
 31
0.0
  0
LINE
  5
3E9
  8
0
  6
CONTINUOUS
 62
     7
 10
79.0955179828
 20
126.1803942727
 30
0.0
 11
79.1391236644
 21
126.1765937872
 31
0.0
  0
LINE
  5
3EA
  8
0
  6
CONTINUOUS
 62
     7
 10
78.5833941358
 20
120.8290970872
 30
0.0
 11
78.6275370443
 21
120.8547799203
 31
0.0
  0
LINE
  5
3EB
  8
0
  6
CONTINUOUS
 62
     7
 10
78.6901245216
 20
120.8173440654
 30
0.0
 11
78.6254529323
 21
120.8229805658
 31
0.0
  0
LINE
  5
3EC
  8
0
  6
CONTINUOUS
 62
     7
 10
78.180244557
 20
121.2696441425
 30
0.0
 11
78.1814287289
 21
121.1891695639
 31
0.0
  0
LINE
  5
3ED
  8
0
  6
CONTINUOUS
 62
     7
 10
78.6239054785
 20
120.8103510953
 30
0.0
 11
78.6901245216
 21
120.8045797254
 31
0.0
  0
LINE
  5
3EE
  8
0
  6
CONTINUOUS
 62
     7
 10
139.7849207095
 20
128.2806008663
 30
0.0
 11
139.7849207095
 21
130.2059708034
 31
0.0
  0
LINE
  5
3EF
  8
0
  6
CONTINUOUS
 62
     7
 10
139.7849207095
 20
112.1518749921
 30
0.0
 11
139.7849207095
 21
117.3000220641
 31
0.0
  0
POLYLINE
  5
3F0
  8
0
  6
CONTINUOUS
 62
     7
 66
     1
 10
0.0
 20
0.0
 30
0.0
 70
   128
  0
VERTEX
  5
605
  8
0
  6
CONTINUOUS
 62
     7
 10
127.3303820873
 20
121.1998356052
 30
0.0
  0
VERTEX
  5
606
  8
0
  6
CONTINUOUS
 62
     7
 10
135.0619509648
 20
120.1441426441
 30
0.0
  0
VERTEX
  5
607
  8
0
  6
CONTINUOUS
 62
     7
 10
143.2901245216
 20
118.6936403383
 30
0.0
  0
SEQEND
  5
67A
  8
0
  6
CONTINUOUS
 62
     7
  0
LINE
  5
3F1
  8
0
  6
CONTINUOUS
 62
     7
 10
134.8951245216
 20
113.4289228977
 30
0.0
 11
134.8951245216
 21
119.1371329209
 31
0.0
  0
ARC
  5
3F2
  8
0
  6
CONTINUOUS
 62
     7
 10
123.5515333515
 20
12.8215865907
 30
0.0
 40
110.2655268672279
 50
80.174829425
 51
91.5246517782
  0
LINE
  5
3F3
  8
0
  6
CONTINUOUS
 62
     7
 10
134.8951245216
 20
128.0656105081
 30
0.0
 11
134.8951245216
 21
128.9289228977
 31
0.0
  0
LINE
  5
3F4
  8
0
  6
CONTINUOUS
 62
     7
 10
87.1901245216
 20
118.3789228977
 30
0.0
 11
90.5530781059
 21
118.3486268622
 31
0.0
  0
LINE
  5
3F5
  8
0
  6
CONTINUOUS
 62
     7
 10
78.4396701316
 20
117.8632913839
 30
0.0
 11
78.4396701316
 21
105.9078449456
 31
0.0
  0
LINE
  5
3F6
  8
0
  6
CONTINUOUS
 62
     7
 10
79.2311932756
 20
112.9301957016
 30
0.0
 11
79.1754784474
 21
112.9301957016
 31
0.0
  0
LINE
  5
3F7
  8
0
  6
CONTINUOUS
 62
     7
 10
79.2311932756
 20
112.9301957016
 30
0.0
 11
77.0444800611
 21
112.9301957016
 31
0.0
  0
LINE
  5
3F8
  8
0
  6
CONTINUOUS
 62
     7
 10
78.4396701316
 20
129.4301957016
 30
0.0
 11
75.2873596606
 21
129.4301957016
 31
0.0
  0
LINE
  5
3F9
  8
0
  6
CONTINUOUS
 62
     7
 10
129.4396701316
 20
113.4289228977
 30
0.0
 11
129.4396701316
 21
107.5526229048
 31
0.0
  0
DIMENSION
  5
3FA
  8
0
  6
CONTINUOUS
 62
     7
  2
_D
 10
71.4921548788
 20
112.9301957016
 30
0.0
 11
71.4921548788
 21
119.9544207798
 31
0.0
 70
   160
  1
%%c<>
  3
SLDDIMSTYLE0
 13
75.2873596606
 23
129.4301957016
 33
0.0
 14
77.0444800611
 24
112.9301957016
 34
0.0
 50
90.0
  0
DIMENSION
  5
408
  8
0
  6
CONTINUOUS
 62
     7
  2
_D_1
 10
78.4396701316
 20
86.9548676458
 30
0.0
 11
119.4586256938
 21
86.9548676458
 31
0.0
 70
   160
  1
<>
  3
SLDDIMSTYLE1
 13
156.4401245216
 23
106.6789228977
 33
0.0
 14
78.4396701316
 24
105.9078449456
 34
0.0
  0
DIMENSION
  5
413
  8
0
  6
CONTINUOUS
 62
     7
  2
_D_2
 10
129.4396701316
 20
100.1310685933
 30
0.0
 11
105.6867722793
 21
100.1310685933
 31
0.0
 70
   160
  1
<>
  3
SLDDIMSTYLE1
 13
78.4396701316
 23
105.9078449456
 33
0.0
 14
129.4396701316
 24
107.5526229048
 34
0.0
  0
DIMENSION
  5
41D
  8
0
  6
CONTINUOUS
 62
     7
  2
_D_3
 10
206.4401245216
 20
76.41062262
 30
0.0
 11
146.0918716766
 21
76.41062262
 31
0.0
 70
   160
  1
<>
  3
SLDDIMSTYLE1
 13
78.4396701316
 23
105.9078449456
 33
0.0
 14
206.4401245216
 24
112.2789228977
 34
0.0
 50
0.0
  0
DIMENSION
  5
427
  8
0
  6
CONTINUOUS
 62
     7
  2
_D_4
 10
222.6755523489
 20
106.1789228977
 30
0.0
 11
222.6755523489
 21
121.4330063634
 31
0.0
 70
   160
  1
%%c<>
  3
SLDDIMSTYLE1
 13
155.9401245216
 23
136.1789228977
 33
0.0
 14
155.9401245216
 24
106.1789228977
 34
0.0
 50
90.0
  0
DIMENSION
  5
432
  8
0
  6
CONTINUOUS
 62
     7
  2
_D_5
 10
213.9053344082
 20
131.1789228977
 30
0.0
 11
213.9053344082
 21
121.4330063634
 31
0.0
 70
   160
  1
%%c<>h6
  3
SLDDIMSTYLE1
 13
204.1901245216
 23
111.1789228977
 33
0.0
 14
204.1901245216
 24
131.1789228977
 34
0.0
 50
90.0
  0
DIMENSION
  5
43E
  8
0
  6
CONTINUOUS
 62
     7
  2
_D_6
 10
206.4401245216
 20
86.9548676458
 30
0.0
 11
177.4894850839
 21
86.9548676458
 31
0.0
 70
   160
  1
<>
  3
SLDDIMSTYLE1
 13
156.4401245216
 23
106.6789228977
 33
0.0
 14
206.4401245216
 24
115.0994492363
 34
0.0
  0
LINE
  5
448
  8
0
  6
CENTERX2
 62
     7
 10
76.0853865802
 20
121.1789228977
 30
0.0
 11
206.1901245216
 21
121.1789228977
 31
0.0
  0
ENDSEC
  0
EOF
