  0
SECTION
  2
HEADER
  9
$ACADVER
  1
AC1009
  9
$DWGCODEPAGE
  3
ansi_1252
  9
$INSBASE
 10
0.0
 20
0.0
 30
0.0
  9
$EXTMIN
 10
0.0
 20
0.0
 30
0.0
  9
$EXTMAX
 10
297.0
 20
210.0
 30
0.0
  9
$LIMMIN
 10
0.0
 20
0.0
  9
$LIMMAX
 10
297.0
 20
210.0
  9
$ORTHOMODE
 70
     0
  9
$REGENMODE
 70
     1
  9
$FILLMODE
 70
     1
  9
$QTEXTMODE
 70
     0
  9
$MIRRTEXT
 70
     1
  9
$DRAGMODE
 70
     2
  9
$LTSCALE
 40
1.0
  9
$OSMODE
 70
    37
  9
$ATTMODE
 70
     1
  9
$TEXTSIZE
 40
3.5
  9
$TRACEWID
 40
1.0
  9
$TEXTSTYLE
  7
STANDARD
  9
$CLAYER
  8
0
  9
$CELTYPE
  6
BYLAYER
  9
$CECOLOR
 62
   256
  9
$DIMSCALE
 40
1.0
  9
$DIMASZ
 40
4.0
  9
$DIMEXO
 40
1.0
  9
$DIMDLI
 40
3.75
  9
$DIMRND
 40
0.0
  9
$DIMDLE
 40
0.0
  9
$DIMEXE
 40
1.0
  9
$DIMTP
 40
0.0
  9
$DIMTM
 40
0.0
  9
$DIMTXT
 40
3.8805555556
  9
$DIMCEN
 40
2.5
  9
$DIMTSZ
 40
0.0
  9
$DIMTOL
 70
     0
  9
$DIMLIM
 70
     0
  9
$DIMTIH
 70
     1
  9
$DIMTOH
 70
     1
  9
$DIMSE1
 70
     0
  9
$DIMSE2
 70
     0
  9
$DIMTAD
 70
     1
  9
$DIMZIN
 70
     0
  9
$DIMBLK
  1

  9
$DIMASO
 70
     1
  9
$DIMSHO
 70
     1
  9
$DIMPOST
  1

  9
$DIMAPOST
  1

  9
$DIMALT
 70
     0
  9
$DIMALTD
 70
     3
  9
$DIMALTF
 40
0.0393700787
  9
$DIMLFAC
 40
0.6666666667
  9
$DIMTOFL
 70
     1
  9
$DIMTVP
 40
0.0
  9
$DIMTIX
 70
     0
  9
$DIMSOXD
 70
     0
  9
$DIMSAH
 70
     0
  9
$DIMBLK1
  1

  9
$DIMBLK2
  1

  9
$DIMSTYLE
  2
ISO-25
  9
$DIMCLRD
 70
     0
  9
$DIMCLRE
 70
     0
  9
$DIMCLRT
 70
     0
  9
$DIMTFAC
 40
1.0
  9
$DIMGAP
 40
1.524
  9
$LUNITS
 70
     2
  9
$LUPREC
 70
     3
  9
$SKETCHINC
 40
1.0
  9
$FILLETRAD
 40
10.0
  9
$AUNITS
 70
     0
  9
$AUPREC
 70
     3
  9
$MENU
  1
.
  9
$ELEVATION
 40
0.0
  9
$PELEVATION
 40
0.0
  9
$THICKNESS
 40
0.0
  9
$LIMCHECK
 70
     0
  9
$CHAMFERA
 40
0.0
  9
$CHAMFERB
 40
0.0
  9
$SKPOLY
 70
     0
  9
$TDCREATE
 40
2457379.36494434
  9
$TDUPDATE
 40
2457379.364947465
  9
$TDINDWG
 40
0.0000000116
  9
$TDUSRTIMER
 40
0.0000000116
  9
$USRTIMER
 70
     1
  9
$ANGBASE
 50
0.0
  9
$ANGDIR
 70
     0
  9
$PDMODE
 70
     0
  9
$PDSIZE
 40
-1.0
  9
$PLINEWID
 40
0.0
  9
$COORDS
 70
     1
  9
$SPLFRAME
 70
     0
  9
$SPLINETYPE
 70
     6
  9
$SPLINESEGS
 70
     8
  9
$ATTDIA
 70
     0
  9
$ATTREQ
 70
     1
  9
$HANDLING
 70
     1
  9
$HANDSEED
  5
880
  9
$SURFTAB1
 70
     6
  9
$SURFTAB2
 70
     6
  9
$SURFTYPE
 70
     6
  9
$SURFU
 70
     6
  9
$SURFV
 70
     6
  9
$UCSNAME
  2

  9
$UCSORG
 10
0.0
 20
0.0
 30
0.0
  9
$UCSXDIR
 10
1.0
 20
0.0
 30
0.0
  9
$UCSYDIR
 10
0.0
 20
1.0
 30
0.0
  9
$PUCSNAME
  2

  9
$PUCSORG
 10
0.0
 20
0.0
 30
0.0
  9
$PUCSXDIR
 10
1.0
 20
0.0
 30
0.0
  9
$PUCSYDIR
 10
0.0
 20
1.0
 30
0.0
  9
$USERI1
 70
     0
  9
$USERI2
 70
     0
  9
$USERI3
 70
     0
  9
$USERI4
 70
     0
  9
$USERI5
 70
     0
  9
$USERR1
 40
0.0
  9
$USERR2
 40
0.0
  9
$USERR3
 40
0.0
  9
$USERR4
 40
0.0
  9
$USERR5
 40
0.0
  9
$WORLDVIEW
 70
     1
  9
$SHADEDGE
 70
     3
  9
$SHADEDIF
 70
    70
  9
$TILEMODE
 70
     1
  9
$MAXACTVP
 70
    64
  9
$PLIMCHECK
 70
     0
  9
$PEXTMIN
 10
1.0000000000E+20
 20
1.0000000000E+20
 30
1.0000000000E+20
  9
$PEXTMAX
 10
-1.0000000000E+20
 20
-1.0000000000E+20
 30
-1.0000000000E+20
  9
$PLIMMIN
 10
0.0
 20
0.0
  9
$PLIMMAX
 10
420.0
 20
297.0
  9
$UNITMODE
 70
     0
  9
$VISRETAIN
 70
     1
  9
$PLINEGEN
 70
     0
  9
$PSLTSCALE
 70
     1
  0
ENDSEC
  0
SECTION
  2
TABLES
  0
TABLE
  2
VPORT
 70
     1
  0
VPORT
  2
*ACTIVE
 70
     0
 10
0.0
 20
0.0
 11
1.0
 21
1.0
 12
148.5
 22
105.0
 13
0.0
 23
0.0
 14
10.0
 24
10.0
 15
10.0
 25
10.0
 16
0.0
 26
0.0
 36
1.0
 17
0.0
 27
0.0
 37
0.0
 40
210.0
 41
1.4142857143
 42
50.0
 43
0.0
 44
0.0
 50
0.0
 51
0.0
 71
     0
 72
  2000
 73
     1
 74
     3
 75
     0
 76
     0
 77
     0
 78
     0
  0
ENDTAB
  0
TABLE
  2
LTYPE
 70
     6
  0
LTYPE
  2
CONTINUOUS
 70
     0
  3
Solid line
 72
    65
 73
     0
 40
0.0
  0
LTYPE
  2
HIDDEN
 70
     0
  3
Hidden __ __ __ __ __ __ __ __ __ __ __ __ __ __
 72
    65
 73
     2
 40
1.905
 49
1.27
 49
-0.635
  0
LTYPE
  2
PHANTOM
 70
     0
  3
Phantom ______  __  __  ______  __  __  ______
 72
    65
 73
     6
 40
12.7
 49
6.35
 49
-1.27
 49
1.27
 49
-1.27
 49
1.27
 49
-1.27
  0
LTYPE
  2
CENTER
 70
     0
  3
Center ____ _ ____ _ ____ _ ____ _ ____ _ ____
 72
    65
 73
     4
 40
10.16
 49
6.35
 49
-1.27
 49
1.27
 49
-1.27
  0
LTYPE
  2
CENTERX2
 70
     0
  3
Center (2x) ________  __  ________  __  _____
 72
    65
 73
     4
 40
20.32
 49
12.7
 49
-2.54
 49
2.54
 49
-2.54
  0
LTYPE
  2
DOT2
 70
     0
  3
Dot (.5x) ........................................
 72
    65
 73
     2
 40
0.635
 49
0.0
 49
-0.635
  0
ENDTAB
  0
TABLE
  2
LAYER
 70
     1
  0
LAYER
  2
0
 70
     0
 62
     7
  6
CONTINUOUS
  0
ENDTAB
  0
TABLE
  2
STYLE
 70
     1
  0
STYLE
  2
STANDARD
 70
     0
 40
0.0
 41
1.0
 50
0.0
 71
     0
 42
3.5
  3
txt
  4

  0
ENDTAB
  0
TABLE
  2
VIEW
 70
     0
  0
ENDTAB
  0
TABLE
  2
UCS
 70
     0
  0
ENDTAB
  0
TABLE
  2
APPID
 70
     1
  0
APPID
  2
ACAD
 70
     0
  0
ENDTAB
  0
TABLE
  2
DIMSTYLE
 70
     2
  0
DIMSTYLE
  2
ISO-25
 70
     0
  3

  4

  5

  6

  7

 40
1.0
 41
2.5
 42
0.625
 43
3.75
 44
1.25
 45
0.0
 46
0.0
 47
0.0
 48
0.0
140
2.5
141
2.5
142
0.0
143
0.0393700787
144
1.0
145
0.0
146
1.0
147
0.625
 71
     0
 72
     0
 73
     0
 74
     0
 75
     0
 76
     0
 77
     1
 78
     8
170
     0
171
     3
172
     1
173
     0
174
     0
175
     0
176
     0
177
     0
178
     0
  0
DIMSTYLE
  2
SLDDIMSTYLE0
 70
     0
  3

  4

  5

  6

  7

 40
1.0
 41
4.0
 42
0.0625
 43
0.38
 44
0.0
 45
0.000000001
 46
0.0
 47
0.0
 48
0.0
140
2.9104166667
141
0.09
142
0.0
143
25.4
144
1.0
145
0.0
146
1.0
147
0.7276041667
 71
     0
 72
     0
 73
     0
 74
     0
 75
     0
 76
     0
 77
     1
 78
    12
170
     0
171
     2
172
     0
173
     1
174
     0
175
     0
176
     0
177
     0
178
     0
  0
ENDTAB
  0
ENDSEC
  0
SECTION
  2
BLOCKS
  0
BLOCK
  8
0
  2
$MODEL_SPACE
 70
     0
 10
0.0
 20
0.0
 30
0.0
  3
$MODEL_SPACE
  1

  0
ENDBLK
  5
21
  8
0
  0
BLOCK
 67
     1
  8
0
  2
$PAPER_SPACE
 70
     0
 10
0.0
 20
0.0
 30
0.0
  3
$PAPER_SPACE
  1

  0
ENDBLK
  5
1D
 67
     1
  8
0
  0
BLOCK
  8
0
  2
SW_NOTE_0
 70
     0
 10
0.0
 20
0.0
 30
0.0
  3
SW_NOTE_0
  1

  0
TEXT
  5
76
  8
0
  6
CONTINUOUS
 62
     0
 10
0.0
 20
1.6824010449
 30
0.0
 40
4.7625
  1
Wendeplatte BP0402
 41
0.7
 11
0.0
 21
0.0
 31
0.0
 73
     1
  0
TEXT
  5
77
  8
0
  6
CONTINUOUS
 62
     0
 10
0.0
 20
-5.6675990423
 30
0.0
 40
4.7625
  1
Spannschraube SS1,8-1
 41
0.7
 11
0.0
 21
-7.3500000872
 31
0.0
 73
     1
  0
ENDBLK
  5
75
  8
0
  0
BLOCK
  8
0
  2
SW_NOTE_1
 70
     0
 10
0.0
 20
0.0
 30
0.0
  3
SW_NOTE_1
  1

  0
TEXT
  5
7C
  8
0
  6
CONTINUOUS
 62
     0
 10
-0.9346672472
 20
0.0
 30
0.0
 40
2.6458333333
  1
Z=2
 50
90.0
 41
0.7
 11
0.0
 21
0.0
 31
0.0
 73
     1
  0
TEXT
  5
7D
  8
0
  6
CONTINUOUS
 62
     0
 10
3.5931106519
 20
0.0
 30
0.0
 40
2.6458333333
  1
Zeff=1
 50
90.0
 41
0.7
 11
4.5277778991
 21
0.0
 31
0.0
 73
     1
  0
ENDBLK
  5
7B
  8
0
  0
BLOCK
  8
0
  2
_D
 70
     0
 10
0.0
 20
0.0
 30
0.0
  3
_D
  1

  0
SOLID
  5
3EA
  8
0
  6
CONTINUOUS
 62
     7
 10
73.7649568166
 20
83.6621762016
 30
0.0
 11
77.7649568166
 21
82.9121762016
 31
0.0
 12
77.7649568166
 22
84.4121762016
 32
0.0
 13
77.7649568166
 23
84.4121762016
 33
0.0
  0
SOLID
  5
3EB
  8
0
  6
CONTINUOUS
 62
     7
 10
145.7651578948
 20
83.6621762016
 30
0.0
 11
141.7651578948
 21
84.4121762016
 31
0.0
 12
141.7651578948
 22
82.9121762016
 32
0.0
 13
141.7651578948
 23
82.9121762016
 33
0.0
  0
LINE
  5
3EC
  8
0
  6
CONTINUOUS
 62
     7
 10
73.7649568166
 20
102.0015857525
 30
0.0
 11
73.7649568166
 21
82.6621762016
 31
0.0
  0
LINE
  5
3ED
  8
0
  6
CONTINUOUS
 62
     7
 10
145.7651578948
 20
103.6032215998
 30
0.0
 11
145.7651578948
 21
82.6621762016
 31
0.0
  0
LINE
  5
3EE
  8
0
  6
CONTINUOUS
 62
     7
 10
73.7649568166
 20
83.6621762016
 30
0.0
 11
145.7651578948
 21
83.6621762016
 31
0.0
  0
TEXT
  5
3EF
  8
0
  6
CONTINUOUS
 62
     7
 10
110.6931577735
 20
84.6903101735
 30
0.0
 40
2.9104166667
  1
72
 41
0.7
 11
110.6931577735
 21
83.6621762016
 31
0.0
 73
     1
  0
ENDBLK
  5
3E9
  8
0
  0
BLOCK
  8
0
  2
_D_1
 70
     0
 10
0.0
 20
0.0
 30
0.0
  3
_D_1
  1

  0
SOLID
  5
3F4
  8
0
  6
CONTINUOUS
 62
     7
 10
73.7649568166
 20
71.4940059128
 30
0.0
 11
77.7649568166
 21
70.7440059128
 31
0.0
 12
77.7649568166
 22
72.2440059128
 32
0.0
 13
77.7649568166
 23
72.2440059128
 33
0.0
  0
SOLID
  5
3F5
  8
0
  6
CONTINUOUS
 62
     7
 10
195.7651578948
 20
71.4940059128
 30
0.0
 11
191.7651578948
 21
72.2440059128
 31
0.0
 12
191.7651578948
 22
70.7440059128
 32
0.0
 13
191.7651578948
 23
70.7440059128
 33
0.0
  0
LINE
  5
3F6
  8
0
  6
CONTINUOUS
 62
     7
 10
73.7649568166
 20
102.0015857525
 30
0.0
 11
73.7649568166
 21
70.4940059128
 31
0.0
  0
LINE
  5
3F7
  8
0
  6
CONTINUOUS
 62
     7
 10
195.7651578948
 20
112.0237479384
 30
0.0
 11
195.7651578948
 21
70.4940059128
 31
0.0
  0
LINE
  5
3F8
  8
0
  6
CONTINUOUS
 62
     7
 10
73.7649568166
 20
71.4940059128
 30
0.0
 11
195.7651578948
 21
71.4940059128
 31
0.0
  0
TEXT
  5
3F9
  8
0
  6
CONTINUOUS
 62
     7
 10
137.8815322383
 20
72.5221398847
 30
0.0
 40
2.9104166667
  1
122
 41
0.7
 11
137.8815322383
 21
71.4940059128
 31
0.0
 73
     1
  0
ENDBLK
  5
3F3
  8
0
  0
BLOCK
  8
0
  2
_D_2
 70
     0
 10
0.0
 20
0.0
 30
0.0
  3
_D_2
  1

  0
SOLID
  5
3FE
  8
0
  6
CONTINUOUS
 62
     7
 10
118.7649568166
 20
97.9610211831
 30
0.0
 11
114.7649568166
 21
98.7110211831
 31
0.0
 12
114.7649568166
 22
97.2110211831
 32
0.0
 13
114.7649568166
 23
97.2110211831
 33
0.0
  0
SOLID
  5
3FF
  8
0
  6
CONTINUOUS
 62
     7
 10
73.7649568166
 20
97.9610211831
 30
0.0
 11
77.7649568166
 21
97.2110211831
 31
0.0
 12
77.7649568166
 22
98.7110211831
 32
0.0
 13
77.7649568166
 23
98.7110211831
 33
0.0
  0
LINE
  5
400
  8
0
  6
CONTINUOUS
 62
     7
 10
118.7649568166
 20
105.3663442708
 30
0.0
 11
118.7649568166
 21
96.9610211831
 31
0.0
  0
LINE
  5
401
  8
0
  6
CONTINUOUS
 62
     7
 10
73.7649568166
 20
102.0015857525
 30
0.0
 11
73.7649568166
 21
96.9610211831
 31
0.0
  0
LINE
  5
402
  8
0
  6
CONTINUOUS
 62
     7
 10
118.7649568166
 20
97.9610211831
 30
0.0
 11
73.7649568166
 21
97.9610211831
 31
0.0
  0
TEXT
  5
403
  8
0
  6
CONTINUOUS
 62
     7
 10
98.686505286
 20
98.989155155
 30
0.0
 40
2.9104166667
  1
45
 50
0.0
 41
0.7
 11
98.686505286
 21
97.9610211831
 31
0.0
 73
     1
  0
ENDBLK
  5
3FD
  8
0
  0
BLOCK
  8
0
  2
_D_3
 70
     0
 10
0.0
 20
0.0
 30
0.0
  3
_D_3
  1

  0
SOLID
  5
408
  8
0
  6
CONTINUOUS
 62
     7
 10
64.3357282044
 20
126.6065474409
 30
0.0
 11
63.5857282044
 21
122.6065474409
 31
0.0
 12
65.0857282044
 22
122.6065474409
 32
0.0
 13
65.0857282044
 23
122.6065474409
 33
0.0
  0
SOLID
  5
409
  8
0
  6
CONTINUOUS
 62
     7
 10
64.3357282044
 20
111.6065474409
 30
0.0
 11
65.0857282044
 21
115.6065474409
 31
0.0
 12
63.5857282044
 22
115.6065474409
 32
0.0
 13
63.5857282044
 23
115.6065474409
 33
0.0
  0
LINE
  5
40A
  8
0
  6
CONTINUOUS
 62
     7
 10
68.9434074905
 20
126.6065474409
 30
0.0
 11
63.3357282044
 21
126.6065474409
 31
0.0
  0
LINE
  5
40B
  8
0
  6
CONTINUOUS
 62
     7
 10
69.4652626803
 20
111.6065474409
 30
0.0
 11
63.3357282044
 21
111.6065474409
 31
0.0
  0
LINE
  5
40C
  8
0
  6
CONTINUOUS
 62
     7
 10
64.3357282044
 20
126.6065474409
 30
0.0
 11
64.3357282044
 21
111.6065474409
 31
0.0
  0
TEXT
  5
40D
  8
0
  6
CONTINUOUS
 62
     7
 10
63.3075939997
 20
114.077724321
 30
0.0
 40
2.9104166667
  1
%%c
 50
90.0
 41
0.7
 11
64.3357279716
 21
114.077724321
 31
0.0
 73
     1
  0
TEXT
  5
40E
  8
0
  6
CONTINUOUS
 62
     7
 10
63.3075939997
 20
118.470836701
 30
0.0
 40
2.9104166667
  1
15
 50
90.0
 41
0.7
 11
64.3357279716
 21
118.470836701
 31
0.0
 73
     1
  0
ENDBLK
  5
407
  8
0
  0
BLOCK
  8
0
  2
_D_4
 70
     0
 10
0.0
 20
0.0
 30
0.0
  3
_D_4
  1

  0
SOLID
  5
413
  8
0
  6
CONTINUOUS
 62
     7
 10
215.4642058081
 20
104.1032215998
 30
0.0
 11
216.2142058081
 21
108.1032215998
 31
0.0
 12
214.7142058081
 22
108.1032215998
 32
0.0
 13
214.7142058081
 23
108.1032215998
 33
0.0
  0
SOLID
  5
414
  8
0
  6
CONTINUOUS
 62
     7
 10
215.4642058081
 20
134.1032215998
 30
0.0
 11
214.7142058081
 21
130.1032215998
 31
0.0
 12
216.2142058081
 22
130.1032215998
 32
0.0
 13
216.2142058081
 23
130.1032215998
 33
0.0
  0
LINE
  5
415
  8
0
  6
CONTINUOUS
 62
     7
 10
140.7651578948
 20
104.1032215998
 30
0.0
 11
216.4642058081
 21
104.1032215998
 31
0.0
  0
LINE
  5
416
  8
0
  6
CONTINUOUS
 62
     7
 10
140.7651578948
 20
134.1032215998
 30
0.0
 11
216.4642058081
 21
134.1032215998
 31
0.0
  0
LINE
  5
417
  8
0
  6
CONTINUOUS
 62
     7
 10
215.4642058081
 20
104.1032215998
 30
0.0
 11
215.4642058081
 21
134.1032215998
 31
0.0
  0
TEXT
  5
418
  8
0
  6
CONTINUOUS
 62
     7
 10
214.4360716034
 20
115.8661765049
 30
6.0090621718
 40
2.9104166667
  1
%%c
 50
90.0
 41
0.7
 11
215.4642055752
 21
115.8661765049
 31
6.0090621718
 73
     1
  0
TEXT
  5
419
  8
0
  6
CONTINUOUS
 62
     7
 10
214.4360716034
 20
120.259288885
 30
6.0090621718
 40
2.9104166667
  1
30
 50
90.0
 41
0.7
 11
215.4642055752
 21
120.259288885
 31
6.0090621718
 73
     1
  0
ENDBLK
  5
412
  8
0
  0
BLOCK
  8
0
  2
_D_5
 70
     0
 10
0.0
 20
0.0
 30
0.0
  3
_D_5
  1

  0
SOLID
  5
41E
  8
0
  6
CONTINUOUS
 62
     7
 10
209.1449097594
 20
109.1032215998
 30
0.0
 11
209.8949097594
 21
113.1032215998
 31
0.0
 12
208.3949097594
 22
113.1032215998
 32
0.0
 13
208.3949097594
 23
113.1032215998
 33
0.0
  0
SOLID
  5
41F
  8
0
  6
CONTINUOUS
 62
     7
 10
209.1449097594
 20
129.1032215998
 30
0.0
 11
208.3949097594
 21
125.1032215998
 31
0.0
 12
209.8949097594
 22
125.1032215998
 32
0.0
 13
209.8949097594
 23
125.1032215998
 33
0.0
  0
LINE
  5
420
  8
0
  6
CONTINUOUS
 62
     7
 10
194.5151578948
 20
109.1032215998
 30
0.0
 11
210.1449097594
 21
109.1032215998
 31
0.0
  0
LINE
  5
421
  8
0
  6
CONTINUOUS
 62
     7
 10
194.5151578948
 20
129.1032215998
 30
0.0
 11
210.1449097594
 21
129.1032215998
 31
0.0
  0
LINE
  5
422
  8
0
  6
CONTINUOUS
 62
     7
 10
209.1449097594
 20
109.1032215998
 30
0.0
 11
209.1449097594
 21
129.1032215998
 31
0.0
  0
TEXT
  5
423
  8
0
  6
CONTINUOUS
 62
     7
 10
208.1167755547
 20
113.6079092513
 30
6.0090621718
 40
2.9104166667
  1
%%c
 50
90.0
 41
0.7
 11
209.1449095265
 21
113.6079092513
 31
6.0090621718
 73
     1
  0
TEXT
  5
424
  8
0
  6
CONTINUOUS
 62
     7
 10
208.1167755547
 20
118.0010216313
 30
6.0090621718
 40
2.9104166667
  1
20
 50
90.0
 41
0.7
 11
209.1449095265
 21
118.0010216313
 31
6.0090621718
 73
     1
  0
TEXT
  5
425
  8
0
  6
CONTINUOUS
 62
     7
 10
208.1167755547
 20
122.3019712607
 30
6.0090621718
 40
2.9104166667
  1
h6
 50
90.0
 41
0.7
 11
209.1449095265
 21
122.3019712607
 31
6.0090621718
 73
     1
  0
ENDBLK
  5
41D
  8
0
  0
BLOCK
  8
0
  2
_D_6
 70
     0
 10
0.0
 20
0.0
 30
0.0
  3
_D_6
  1

  0
SOLID
  5
42A
  8
0
  6
CONTINUOUS
 62
     7
 10
195.7651578948
 20
83.5466741143
 30
0.0
 11
191.7651578948
 21
84.2966741143
 31
0.0
 12
191.7651578948
 22
82.7966741143
 32
0.0
 13
191.7651578948
 23
82.7966741143
 33
0.0
  0
SOLID
  5
42B
  8
0
  6
CONTINUOUS
 62
     7
 10
145.7651578948
 20
83.5466741143
 30
0.0
 11
149.7651578948
 21
82.7966741143
 31
0.0
 12
149.7651578948
 22
84.2966741143
 32
0.0
 13
149.7651578948
 23
84.2966741143
 33
0.0
  0
LINE
  5
42C
  8
0
  6
CONTINUOUS
 62
     7
 10
195.7651578948
 20
115.5258713306
 30
0.0
 11
195.7651578948
 21
82.5466741143
 31
0.0
  0
LINE
  5
42D
  8
0
  6
CONTINUOUS
 62
     7
 10
145.7651578948
 20
103.6032215998
 30
0.0
 11
145.7651578948
 21
82.5466741143
 31
0.0
  0
LINE
  5
42E
  8
0
  6
CONTINUOUS
 62
     7
 10
195.7651578948
 20
83.5466741143
 30
0.0
 11
145.7651578948
 21
83.5466741143
 31
0.0
  0
TEXT
  5
42F
  8
0
  6
CONTINUOUS
 62
     7
 10
165.6388012198
 20
84.5748080862
 30
6.0090621718
 40
2.9104166667
  1
50
 50
0.0
 41
0.7
 11
165.6388012198
 21
83.5466741143
 31
6.0090621718
 73
     1
  0
ENDBLK
  5
429
  8
0
  0
ENDSEC
  0
SECTION
  2
ENTITIES
  0
INSERT
  5
78
  8
0
  6
CONTINUOUS
 62
     7
  2
SW_NOTE_0
 10
109.4831295844
 20
59.6805624928
 30
0.0
  0
INSERT
  5
7E
  8
0
  6
CONTINUOUS
 62
     7
  2
SW_NOTE_1
 10
53.7835234457
 20
114.4268948655
 30
0.0
  0
LINE
  5
7F
  8
0
  6
CONTINUOUS
 62
     7
 10
139.7651556775
 20
134.1032212646
 30
0.0
 11
128.1884360954
 21
127.588402857
 31
0.0
  0
LINE
  5
80
  8
0
  6
CONTINUOUS
 62
     7
 10
128.1884360954
 20
110.6180403427
 30
0.0
 11
139.7651556775
 21
104.1032219351
 31
0.0
  0
LINE
  5
81
  8
0
  6
CONTINUOUS
 62
     7
 10
139.7651556775
 20
104.1032219351
 30
0.0
 11
145.265159373
 21
104.1032219351
 31
0.0
  0
LINE
  5
82
  8
0
  6
CONTINUOUS
 62
     7
 10
145.265159373
 20
134.1032212646
 30
0.0
 11
139.7651556775
 21
134.1032212646
 31
0.0
  0
LINE
  5
83
  8
0
  6
CONTINUOUS
 62
     7
 10
145.265159373
 20
104.1032219351
 30
0.0
 11
145.7651603863
 21
104.6032220171
 31
0.0
  0
LINE
  5
84
  8
0
  6
CONTINUOUS
 62
     7
 10
145.7651603863
 20
133.6032211826
 30
0.0
 11
145.265159373
 21
134.1032212646
 31
0.0
  0
LINE
  5
85
  8
0
  6
CONTINUOUS
 62
     7
 10
147.4946934626
 20
109.1032218233
 30
0.0
 11
193.5151565716
 21
109.1032218233
 31
0.0
  0
LINE
  5
86
  8
0
  6
CONTINUOUS
 62
     7
 10
193.5151565716
 20
129.1032213763
 30
0.0
 11
147.4946934626
 21
129.1032213763
 31
0.0
  0
LINE
  5
87
  8
0
  6
CONTINUOUS
 62
     7
 10
147.4946934626
 20
129.1032213763
 30
0.0
 11
147.0242340014
 21
129.0032215462
 31
0.0
  0
LINE
  5
88
  8
0
  6
CONTINUOUS
 62
     7
 10
147.0242340014
 20
109.2032216535
 30
0.0
 11
147.4946934626
 21
109.1032218233
 31
0.0
  0
LINE
  5
89
  8
0
  6
CONTINUOUS
 62
     7
 10
147.0242340014
 20
129.0032215462
 30
0.0
 11
145.7651603863
 21
129.0032215462
 31
0.0
  0
LINE
  5
8A
  8
0
  6
CONTINUOUS
 62
     7
 10
145.7651603863
 20
109.2032216535
 30
0.0
 11
147.0242340014
 21
109.2032216535
 31
0.0
  0
ARC
  5
8B
  8
0
  6
CONTINUOUS
 62
     7
 10
123.2841578948
 20
101.9032215998
 30
0.0
 40
9.999999999999993
 50
60.6312990352
 51
90.0
  0
LINE
  5
8C
  8
0
  6
CONTINUOUS
 62
     7
 10
193.5151565716
 20
109.1032218233
 30
0.0
 11
194.7651553795
 21
109.2032216535
 31
0.0
  0
LINE
  5
8D
  8
0
  6
CONTINUOUS
 62
     7
 10
194.7651553795
 20
129.0032215462
 30
0.0
 11
193.5151565716
 21
129.1032213763
 31
0.0
  0
LINE
  5
8E
  8
0
  6
CONTINUOUS
 62
     7
 10
194.7651553795
 20
109.2032216535
 30
0.0
 11
195.7651574061
 21
110.2032218174
 31
0.0
  0
LINE
  5
8F
  8
0
  6
CONTINUOUS
 62
     7
 10
195.7651574061
 20
128.0032213823
 30
0.0
 11
194.7651553795
 21
129.0032215462
 31
0.0
  0
LINE
  5
90
  8
0
  6
CONTINUOUS
 62
     7
 10
113.6487211928
 20
111.9032217235
 30
0.0
 11
123.2841584727
 21
111.9032217235
 31
0.0
  0
LINE
  5
91
  8
0
  6
CONTINUOUS
 62
     7
 10
73.8151578711
 20
117.6032215868
 30
0.0
 11
73.8853660599
 21
116.8028485541
 31
0.0
  0
ARC
  5
92
  8
0
  6
CONTINUOUS
 62
     7
 10
123.2841578948
 20
136.3032215998
 30
0.0
 40
10.0
 50
270.0
 51
299.3687009648
  0
LINE
  5
93
  8
0
  6
CONTINUOUS
 62
     7
 10
123.2841584727
 20
126.3032214762
 30
0.0
 11
119.9373874709
 21
126.3032214762
 31
0.0
  0
ARC
  5
94
  8
0
  6
CONTINUOUS
 62
     7
 10
76.1011071777
 20
120.7516963784
 30
0.0
 40
0.800402442671557
 50
190.5833032822
 51
348.5977868761
  0
LINE
  5
95
  8
0
  6
CONTINUOUS
 62
     7
 10
75.5219032884
 20
113.8322347821
 30
0.0
 11
75.8299228631
 21
113.8019444466
 31
0.0
  0
POLYLINE
  5
96
  8
0
  6
CONTINUOUS
 62
     7
 66
     1
 10
0.0
 20
0.0
 30
0.0
 70
   128
  0
VERTEX
  5
431
  8
0
  6
CONTINUOUS
 62
     7
 10
75.8299228631
 20
113.8019444466
 30
0.0
  0
VERTEX
  5
432
  8
0
  6
CONTINUOUS
 62
     7
 10
75.8297348524
 20
113.8000324414
 30
0.0
  0
VERTEX
  5
433
  8
0
  6
CONTINUOUS
 62
     7
 10
75.8291779215
 20
113.7943690688
 30
0.0
  0
VERTEX
  5
434
  8
0
  6
CONTINUOUS
 62
     7
 10
75.8282736072
 20
113.7851722584
 30
0.0
  0
VERTEX
  5
435
  8
0
  6
CONTINUOUS
 62
     7
 10
75.8270564851
 20
113.7727959127
 30
0.0
  0
VERTEX
  5
436
  8
0
  6
CONTINUOUS
 62
     7
 10
75.8255734703
 20
113.7577150062
 30
0.0
  0
VERTEX
  5
437
  8
0
  6
CONTINUOUS
 62
     7
 10
75.82388149
 20
113.7405092873
 30
0.0
  0
VERTEX
  5
438
  8
0
  6
CONTINUOUS
 62
     7
 10
75.8220456204
 20
113.721839995
 30
0.0
  0
VERTEX
  5
439
  8
0
  6
CONTINUOUS
 62
     7
 10
75.8201362927
 20
113.7024247133
 30
0.0
  0
SEQEND
  5
7D4
  8
0
  6
CONTINUOUS
 62
     7
  0
LINE
  5
97
  8
0
  6
CONTINUOUS
 62
     7
 10
75.8201362927
 20
113.7024247133
 30
0.0
 11
75.5121167179
 21
113.7327145831
 31
0.0
  0
POLYLINE
  5
98
  8
0
  6
CONTINUOUS
 62
     7
 66
     1
 10
0.0
 20
0.0
 30
0.0
 70
   128
  0
VERTEX
  5
43A
  8
0
  6
CONTINUOUS
 62
     7
 10
75.5219032884
 20
113.8322347821
 30
0.0
  0
VERTEX
  5
43B
  8
0
  6
CONTINUOUS
 62
     7
 10
75.5217152776
 20
113.8303223111
 30
0.0
  0
VERTEX
  5
43C
  8
0
  6
CONTINUOUS
 62
     7
 10
75.5211583467
 20
113.8246589386
 30
0.0
  0
VERTEX
  5
43D
  8
0
  6
CONTINUOUS
 62
     7
 10
75.5202539161
 20
113.8154625938
 30
0.0
  0
VERTEX
  5
43E
  8
0
  6
CONTINUOUS
 62
     7
 10
75.5190369103
 20
113.8030857825
 30
0.0
  0
VERTEX
  5
43F
  8
0
  6
CONTINUOUS
 62
     7
 10
75.5175538955
 20
113.788004876
 30
0.0
  0
VERTEX
  5
440
  8
0
  6
CONTINUOUS
 62
     7
 10
75.5158619153
 20
113.7707991571
 30
0.0
  0
VERTEX
  5
441
  8
0
  6
CONTINUOUS
 62
     7
 10
75.5140259292
 20
113.7521298648
 30
0.0
  0
VERTEX
  5
442
  8
0
  6
CONTINUOUS
 62
     7
 10
75.5121167179
 20
113.7327145831
 30
0.0
  0
SEQEND
  5
7D5
  8
0
  6
CONTINUOUS
 62
     7
  0
ARC
  5
99
  8
0
  6
CONTINUOUS
 62
     7
 10
75.5292432357
 20
113.9068746035
 30
0.0
 40
0.0750000000000184
 50
130.9861878664
 51
264.3837096094
  0
ARC
  5
9A
  8
0
  6
CONTINUOUS
 62
     7
 10
75.5292432357
 20
113.9068746035
 30
0.0
 40
0.1749999999999728
 50
130.9861878663
 51
264.3837096094
  0
POLYLINE
  5
9B
  8
0
  6
CONTINUOUS
 62
     7
 66
     1
 10
0.0
 20
0.0
 30
0.0
 70
   128
  0
VERTEX
  5
443
  8
0
  6
CONTINUOUS
 62
     7
 10
75.4800524458
 20
113.9634897978
 30
0.0
  0
VERTEX
  5
444
  8
0
  6
CONTINUOUS
 62
     7
 10
75.47879225
 20
113.9649403327
 30
0.0
  0
VERTEX
  5
445
  8
0
  6
CONTINUOUS
 62
     7
 10
75.4750598584
 20
113.9692355924
 30
0.0
  0
VERTEX
  5
446
  8
0
  6
CONTINUOUS
 62
     7
 10
75.4689989275
 20
113.9762116642
 30
0.0
  0
VERTEX
  5
447
  8
0
  6
CONTINUOUS
 62
     7
 10
75.4608422879
 20
113.9855993957
 30
0.0
  0
VERTEX
  5
448
  8
0
  6
CONTINUOUS
 62
     7
 10
75.4509033298
 20
113.9970383652
 30
0.0
  0
VERTEX
  5
449
  8
0
  6
CONTINUOUS
 62
     7
 10
75.4395641282
 20
114.0100889885
 30
0.0
  0
VERTEX
  5
44A
  8
0
  6
CONTINUOUS
 62
     7
 10
75.4272603093
 20
114.0242497482
 30
0.0
  0
VERTEX
  5
44B
  8
0
  6
CONTINUOUS
 62
     7
 10
75.414464752
 20
114.0389762864
 30
0.0
  0
SEQEND
  5
7D6
  8
0
  6
CONTINUOUS
 62
     7
  0
LINE
  5
9C
  8
0
  6
CONTINUOUS
 62
     7
 10
76.8682902575
 20
113.4366476022
 30
0.0
 11
76.5756714985
 21
113.5374832944
 31
0.0
  0
POLYLINE
  5
9D
  8
0
  6
CONTINUOUS
 62
     7
 66
     1
 10
0.0
 20
0.0
 30
0.0
 70
   128
  0
VERTEX
  5
44C
  8
0
  6
CONTINUOUS
 62
     7
 10
76.5756714985
 20
113.5374832944
 30
0.0
  0
VERTEX
  5
44D
  8
0
  6
CONTINUOUS
 62
     7
 10
76.5820275422
 20
113.555928138
 30
0.0
  0
VERTEX
  5
44E
  8
0
  6
CONTINUOUS
 62
     7
 10
76.5881391138
 20
113.5736637794
 30
0.0
  0
VERTEX
  5
44F
  8
0
  6
CONTINUOUS
 62
     7
 10
76.5937717527
 20
113.5900094219
 30
0.0
  0
VERTEX
  5
450
  8
0
  6
CONTINUOUS
 62
     7
 10
76.5987086937
 20
113.6043359571
 30
0.0
  0
VERTEX
  5
451
  8
0
  6
CONTINUOUS
 62
     7
 10
76.6027604126
 20
113.6160939046
 30
0.0
  0
VERTEX
  5
452
  8
0
  6
CONTINUOUS
 62
     7
 10
76.6057711456
 20
113.6248306417
 30
0.0
  0
VERTEX
  5
453
  8
0
  6
CONTINUOUS
 62
     7
 10
76.607625176
 20
113.6302108922
 30
0.0
  0
VERTEX
  5
454
  8
0
  6
CONTINUOUS
 62
     7
 10
76.6082510248
 20
113.6320274369
 30
0.0
  0
SEQEND
  5
7D7
  8
0
  6
CONTINUOUS
 62
     7
  0
LINE
  5
9E
  8
0
  6
CONTINUOUS
 62
     7
 10
76.6082510248
 20
113.6320274369
 30
0.0
 11
76.9008697838
 21
113.5311917447
 31
0.0
  0
POLYLINE
  5
9F
  8
0
  6
CONTINUOUS
 62
     7
 66
     1
 10
0.0
 20
0.0
 30
0.0
 70
   128
  0
VERTEX
  5
455
  8
0
  6
CONTINUOUS
 62
     7
 10
76.8682902575
 20
113.4366476022
 30
0.0
  0
VERTEX
  5
456
  8
0
  6
CONTINUOUS
 62
     7
 10
76.8746463012
 20
113.4550924458
 30
0.0
  0
VERTEX
  5
457
  8
0
  6
CONTINUOUS
 62
     7
 10
76.8807578728
 20
113.4728280873
 30
0.0
  0
VERTEX
  5
458
  8
0
  6
CONTINUOUS
 62
     7
 10
76.8863905117
 20
113.4891737298
 30
0.0
  0
VERTEX
  5
459
  8
0
  6
CONTINUOUS
 62
     7
 10
76.8913274527
 20
113.5035007306
 30
0.0
  0
VERTEX
  5
45A
  8
0
  6
CONTINUOUS
 62
     7
 10
76.8953791715
 20
113.5152582125
 30
0.0
  0
VERTEX
  5
45B
  8
0
  6
CONTINUOUS
 62
     7
 10
76.8983899046
 20
113.5239949495
 30
0.0
  0
VERTEX
  5
45C
  8
0
  6
CONTINUOUS
 62
     7
 10
76.900243935
 20
113.5293752
 30
0.0
  0
VERTEX
  5
45D
  8
0
  6
CONTINUOUS
 62
     7
 10
76.9008697838
 20
113.5311917447
 30
0.0
  0
SEQEND
  5
7D8
  8
0
  6
CONTINUOUS
 62
     7
  0
ARC
  5
A0
  8
0
  6
CONTINUOUS
 62
     7
 10
76.9253045968
 20
113.6020998076
 30
0.0
 40
0.1750000000000085
 50
250.9861878664
 51
24.3837096094
  0
ARC
  5
A1
  8
0
  6
CONTINUOUS
 62
     7
 10
76.9253045968
 20
113.6020998076
 30
0.0
 40
0.075000000000005
 50
250.9861878664
 51
24.3837096094
  0
POLYLINE
  5
A2
  8
0
  6
CONTINUOUS
 62
     7
 66
     1
 10
0.0
 20
0.0
 30
0.0
 70
   128
  0
VERTEX
  5
45E
  8
0
  6
CONTINUOUS
 62
     7
 10
77.0846946992
 20
113.674347666
 30
0.0
  0
VERTEX
  5
45F
  8
0
  6
CONTINUOUS
 62
     7
 10
77.0669259958
 20
113.6662935884
 30
0.0
  0
VERTEX
  5
460
  8
0
  6
CONTINUOUS
 62
     7
 10
77.0498399519
 20
113.6585487098
 30
0.0
  0
VERTEX
  5
461
  8
0
  6
CONTINUOUS
 62
     7
 10
77.0340933826
 20
113.6514115193
 30
0.0
  0
VERTEX
  5
462
  8
0
  6
CONTINUOUS
 62
     7
 10
77.0202914149
 20
113.6451553599
 30
0.0
  0
VERTEX
  5
463
  8
0
  6
CONTINUOUS
 62
     7
 10
77.0089644369
 20
113.6400209785
 30
0.0
  0
VERTEX
  5
464
  8
0
  6
CONTINUOUS
 62
     7
 10
77.000547842
 20
113.6362058156
 30
0.0
  0
VERTEX
  5
465
  8
0
  6
CONTINUOUS
 62
     7
 10
76.995364799
 20
113.6338565544
 30
0.0
  0
VERTEX
  5
466
  8
0
  6
CONTINUOUS
 62
     7
 10
76.993614611
 20
113.6330630676
 30
0.0
  0
SEQEND
  5
7D9
  8
0
  6
CONTINUOUS
 62
     7
  0
LINE
  5
A3
  8
0
  6
CONTINUOUS
 62
     7
 10
76.0222585535
 20
114.682963495
 30
0.0
 11
75.7296397945
 21
114.7837991872
 31
0.0
  0
POLYLINE
  5
A4
  8
0
  6
CONTINUOUS
 62
     7
 66
     1
 10
0.0
 20
0.0
 30
0.0
 70
   128
  0
VERTEX
  5
467
  8
0
  6
CONTINUOUS
 62
     7
 10
75.7296397945
 20
114.7837991872
 30
0.0
  0
VERTEX
  5
468
  8
0
  6
CONTINUOUS
 62
     7
 10
75.7302657597
 20
114.7856157319
 30
0.0
  0
VERTEX
  5
469
  8
0
  6
CONTINUOUS
 62
     7
 10
75.7321196737
 20
114.7909955167
 30
0.0
  0
VERTEX
  5
46A
  8
0
  6
CONTINUOUS
 62
     7
 10
75.7351304067
 20
114.7997327194
 30
0.0
  0
VERTEX
  5
46B
  8
0
  6
CONTINUOUS
 62
     7
 10
75.7391821256
 20
114.8114902013
 30
0.0
  0
VERTEX
  5
46C
  8
0
  6
CONTINUOUS
 62
     7
 10
75.7441190666
 20
114.8258172021
 30
0.0
  0
VERTEX
  5
46D
  8
0
  6
CONTINUOUS
 62
     7
 10
75.7497517055
 20
114.842162379
 30
0.0
  0
VERTEX
  5
46E
  8
0
  6
CONTINUOUS
 62
     7
 10
75.7558633935
 20
114.8598984861
 30
0.0
  0
VERTEX
  5
46F
  8
0
  6
CONTINUOUS
 62
     7
 10
75.7622193208
 20
114.878342864
 30
0.0
  0
SEQEND
  5
7DA
  8
0
  6
CONTINUOUS
 62
     7
  0
LINE
  5
A5
  8
0
  6
CONTINUOUS
 62
     7
 10
75.7622193208
 20
114.878342864
 30
0.0
 11
76.0548380798
 21
114.7775071719
 31
0.0
  0
POLYLINE
  5
A6
  8
0
  6
CONTINUOUS
 62
     7
 66
     1
 10
0.0
 20
0.0
 30
0.0
 70
   128
  0
VERTEX
  5
470
  8
0
  6
CONTINUOUS
 62
     7
 10
76.0222585535
 20
114.682963495
 30
0.0
  0
VERTEX
  5
471
  8
0
  6
CONTINUOUS
 62
     7
 10
76.0228845187
 20
114.6847800397
 30
0.0
  0
VERTEX
  5
472
  8
0
  6
CONTINUOUS
 62
     7
 10
76.0247384327
 20
114.6901602902
 30
0.0
  0
VERTEX
  5
473
  8
0
  6
CONTINUOUS
 62
     7
 10
76.0277491657
 20
114.6988970273
 30
0.0
  0
VERTEX
  5
474
  8
0
  6
CONTINUOUS
 62
     7
 10
76.0318008846
 20
114.7106545091
 30
0.0
  0
VERTEX
  5
475
  8
0
  6
CONTINUOUS
 62
     7
 10
76.0367378256
 20
114.72498151
 30
0.0
  0
VERTEX
  5
476
  8
0
  6
CONTINUOUS
 62
     7
 10
76.0423704645
 20
114.7413271525
 30
0.0
  0
VERTEX
  5
477
  8
0
  6
CONTINUOUS
 62
     7
 10
76.0484821525
 20
114.7590627939
 30
0.0
  0
VERTEX
  5
478
  8
0
  6
CONTINUOUS
 62
     7
 10
76.0548380798
 20
114.7775071719
 30
0.0
  0
SEQEND
  5
7DB
  8
0
  6
CONTINUOUS
 62
     7
  0
ARC
  5
A7
  8
0
  6
CONTINUOUS
 62
     7
 10
75.7052050462
 20
114.7128910061
 30
0.0
 40
0.0750000000000168
 50
70.9861878664
 51
204.3837096094
  0
POLYLINE
  5
A8
  8
0
  6
CONTINUOUS
 62
     7
 66
     1
 10
0.0
 20
0.0
 30
0.0
 70
   128
  0
VERTEX
  5
479
  8
0
  6
CONTINUOUS
 62
     7
 10
75.6368949672
 20
114.6819273987
 30
0.0
  0
VERTEX
  5
47A
  8
0
  6
CONTINUOUS
 62
     7
 10
75.6351448957
 20
114.6811343775
 30
0.0
  0
VERTEX
  5
47B
  8
0
  6
CONTINUOUS
 62
     7
 10
75.6299618527
 20
114.6787851163
 30
0.0
  0
VERTEX
  5
47C
  8
0
  6
CONTINUOUS
 62
     7
 10
75.6215451414
 20
114.6749699534
 30
0.0
  0
VERTEX
  5
47D
  8
0
  6
CONTINUOUS
 62
     7
 10
75.6102181634
 20
114.669835572
 30
0.0
  0
VERTEX
  5
47E
  8
0
  6
CONTINUOUS
 62
     7
 10
75.5964163121
 20
114.6635794126
 30
0.0
  0
VERTEX
  5
47F
  8
0
  6
CONTINUOUS
 62
     7
 10
75.5806697428
 20
114.6564417564
 30
0.0
  0
VERTEX
  5
480
  8
0
  6
CONTINUOUS
 62
     7
 10
75.5635836989
 20
114.6486973435
 30
0.0
  0
VERTEX
  5
481
  8
0
  6
CONTINUOUS
 62
     7
 10
75.5458148791
 20
114.6406432659
 30
0.0
  0
SEQEND
  5
7DC
  8
0
  6
CONTINUOUS
 62
     7
  0
ARC
  5
A9
  8
0
  6
CONTINUOUS
 62
     7
 10
75.7052050462
 20
114.7128910061
 30
0.0
 40
0.1750000000000434
 50
70.9861878664
 51
204.3837096094
  0
ARC
  5
AA
  8
0
  6
CONTINUOUS
 62
     7
 10
76.0874177276
 20
114.8720513939
 30
0.0
 40
0.2000000000000022
 50
250.9861878664
 51
324.3837096094
  0
ARC
  5
AB
  8
0
  6
CONTINUOUS
 62
     7
 10
76.0874177276
 20
114.8720513939
 30
0.0
 40
0.1000000000000361
 50
250.9861878664
 51
324.3837096094
  0
POLYLINE
  5
AC
  8
0
  6
CONTINUOUS
 62
     7
 66
     1
 10
0.0
 20
0.0
 30
0.0
 70
   128
  0
VERTEX
  5
482
  8
0
  6
CONTINUOUS
 62
     7
 10
76.250004758
 20
114.7555805788
 30
0.0
  0
VERTEX
  5
483
  8
0
  6
CONTINUOUS
 62
     7
 10
76.2484426972
 20
114.7566995629
 30
0.0
  0
VERTEX
  5
484
  8
0
  6
CONTINUOUS
 62
     7
 10
76.2438167015
 20
114.7600136743
 30
0.0
  0
VERTEX
  5
485
  8
0
  6
CONTINUOUS
 62
     7
 10
76.2363043044
 20
114.7653948561
 30
0.0
  0
VERTEX
  5
486
  8
0
  6
CONTINUOUS
 62
     7
 10
76.2261944486
 20
114.7726372861
 30
0.0
  0
VERTEX
  5
487
  8
0
  6
CONTINUOUS
 62
     7
 10
76.2138754957
 20
114.7814620332
 30
0.0
  0
VERTEX
  5
488
  8
0
  6
CONTINUOUS
 62
     7
 10
76.1998209067
 20
114.7915300959
 30
0.0
  0
VERTEX
  5
489
  8
0
  6
CONTINUOUS
 62
     7
 10
76.1845708488
 20
114.8024549753
 30
0.0
  0
VERTEX
  5
48A
  8
0
  6
CONTINUOUS
 62
     7
 10
76.1687112402
 20
114.8138161794
 30
0.0
  0
SEQEND
  5
7DD
  8
0
  6
CONTINUOUS
 62
     7
  0
LINE
  5
AD
  8
0
  6
CONTINUOUS
 62
     7
 10
76.4302464098
 20
115.0071885482
 30
0.0
 11
76.250004758
 21
114.7555805788
 31
0.0
  0
LINE
  5
AE
  8
0
  6
CONTINUOUS
 62
     7
 10
76.1687112402
 20
114.8138161794
 30
0.0
 11
76.3489528921
 21
115.0654236832
 31
0.0
  0
POLYLINE
  5
AF
  8
0
  6
CONTINUOUS
 62
     7
 66
     1
 10
0.0
 20
0.0
 30
0.0
 70
   128
  0
VERTEX
  5
48B
  8
0
  6
CONTINUOUS
 62
     7
 10
76.4302464098
 20
115.0071885482
 30
0.0
  0
VERTEX
  5
48C
  8
0
  6
CONTINUOUS
 62
     7
 10
76.428684349
 20
115.0083075323
 30
0.0
  0
VERTEX
  5
48D
  8
0
  6
CONTINUOUS
 62
     7
 10
76.4240584698
 20
115.011621178
 30
0.0
  0
VERTEX
  5
48E
  8
0
  6
CONTINUOUS
 62
     7
 10
76.4165459562
 20
115.0170028255
 30
0.0
  0
VERTEX
  5
48F
  8
0
  6
CONTINUOUS
 62
     7
 10
76.4064362168
 20
115.0242452555
 30
0.0
  0
VERTEX
  5
490
  8
0
  6
CONTINUOUS
 62
     7
 10
76.3941171475
 20
115.0330700026
 30
0.0
  0
VERTEX
  5
491
  8
0
  6
CONTINUOUS
 62
     7
 10
76.3800625585
 20
115.0431380653
 30
0.0
  0
VERTEX
  5
492
  8
0
  6
CONTINUOUS
 62
     7
 10
76.364812617
 20
115.0540624791
 30
0.0
  0
VERTEX
  5
493
  8
0
  6
CONTINUOUS
 62
     7
 10
76.3489528921
 20
115.0654236832
 30
0.0
  0
SEQEND
  5
7DE
  8
0
  6
CONTINUOUS
 62
     7
  0
ARC
  5
B0
  8
0
  6
CONTINUOUS
 62
     7
 10
76.139293011
 20
113.3514790043
 30
0.0
 40
0.1750000000000169
 50
190.9861878664
 51
324.3837096094
  0
POLYLINE
  5
B1
  8
0
  6
CONTINUOUS
 62
     7
 66
     1
 10
0.0
 20
0.0
 30
0.0
 70
   128
  0
VERTEX
  5
494
  8
0
  6
CONTINUOUS
 62
     7
 10
75.9675001621
 20
113.3181288884
 30
0.0
  0
VERTEX
  5
495
  8
0
  6
CONTINUOUS
 62
     7
 10
75.9866516467
 20
113.3218467281
 30
0.0
  0
VERTEX
  5
496
  8
0
  6
CONTINUOUS
 62
     7
 10
76.0050672701
 20
113.3254216098
 30
0.0
  0
VERTEX
  5
497
  8
0
  6
CONTINUOUS
 62
     7
 10
76.0220389942
 20
113.3287166291
 30
0.0
  0
VERTEX
  5
498
  8
0
  6
CONTINUOUS
 62
     7
 10
76.0369150097
 20
113.3316041947
 30
0.0
  0
VERTEX
  5
499
  8
0
  6
CONTINUOUS
 62
     7
 10
76.0491233681
 20
113.3339744107
 30
0.0
  0
VERTEX
  5
49A
  8
0
  6
CONTINUOUS
 62
     7
 10
76.058195032
 20
113.3357355417
 30
0.0
  0
VERTEX
  5
49B
  8
0
  6
CONTINUOUS
 62
     7
 10
76.0637812212
 20
113.3368200668
 30
0.0
  0
VERTEX
  5
49C
  8
0
  6
CONTINUOUS
 62
     7
 10
76.0656674987
 20
113.3371860766
 30
0.0
  0
SEQEND
  5
7DF
  8
0
  6
CONTINUOUS
 62
     7
  0
ARC
  5
B2
  8
0
  6
CONTINUOUS
 62
     7
 10
76.139293011
 20
113.3514790043
 30
0.0
 40
0.0750000000000407
 50
190.9861878664
 51
324.3837096094
  0
POLYLINE
  5
B3
  8
0
  6
CONTINUOUS
 62
     7
 66
     1
 10
0.0
 20
0.0
 30
0.0
 70
   128
  0
VERTEX
  5
49D
  8
0
  6
CONTINUOUS
 62
     7
 10
76.2815565698
 20
113.2495672487
 30
0.0
  0
VERTEX
  5
49E
  8
0
  6
CONTINUOUS
 62
     7
 10
76.2656970777
 20
113.2609279872
 30
0.0
  0
VERTEX
  5
49F
  8
0
  6
CONTINUOUS
 62
     7
 10
76.2504470198
 20
113.2718528666
 30
0.0
  0
VERTEX
  5
4A0
  8
0
  6
CONTINUOUS
 62
     7
 10
76.2363924308
 20
113.2819209293
 30
0.0
  0
VERTEX
  5
4A1
  8
0
  6
CONTINUOUS
 62
     7
 10
76.2240734779
 20
113.2907456764
 30
0.0
  0
VERTEX
  5
4A2
  8
0
  6
CONTINUOUS
 62
     7
 10
76.2139636221
 20
113.2979881064
 30
0.0
  0
VERTEX
  5
4A3
  8
0
  6
CONTINUOUS
 62
     7
 10
76.2064512249
 20
113.3033697539
 30
0.0
  0
VERTEX
  5
4A4
  8
0
  6
CONTINUOUS
 62
     7
 10
76.2018252293
 20
113.3066833996
 30
0.0
  0
VERTEX
  5
4A5
  8
0
  6
CONTINUOUS
 62
     7
 10
76.2002631685
 20
113.3078023837
 30
0.0
  0
SEQEND
  5
7E0
  8
0
  6
CONTINUOUS
 62
     7
  0
ARC
  5
B4
  8
0
  6
CONTINUOUS
 62
     7
 10
76.491216632
 20
114.9635118094
 30
0.0
 40
0.0750000000000187
 50
10.9861878664
 51
144.3837096094
  0
ARC
  5
B5
  8
0
  6
CONTINUOUS
 62
     7
 10
76.491216632
 20
114.9635118094
 30
0.0
 40
0.1750000000000144
 50
10.9861878664
 51
144.3837096094
  0
POLYLINE
  5
B6
  8
0
  6
CONTINUOUS
 62
     7
 66
     1
 10
0.0
 20
0.0
 30
0.0
 70
   128
  0
VERTEX
  5
4A6
  8
0
  6
CONTINUOUS
 62
     7
 10
76.5648420796
 20
114.9778048553
 30
0.0
  0
VERTEX
  5
4A7
  8
0
  6
CONTINUOUS
 62
     7
 10
76.5667284735
 20
114.9781708651
 30
0.0
  0
VERTEX
  5
4A8
  8
0
  6
CONTINUOUS
 62
     7
 10
76.5723145463
 20
114.9792553902
 30
0.0
  0
VERTEX
  5
4A9
  8
0
  6
CONTINUOUS
 62
     7
 10
76.5813863266
 20
114.9810165212
 30
0.0
  0
VERTEX
  5
4AA
  8
0
  6
CONTINUOUS
 62
     7
 10
76.5935945686
 20
114.9833862715
 30
0.0
  0
VERTEX
  5
4AB
  8
0
  6
CONTINUOUS
 62
     7
 10
76.6084705841
 20
114.9862743028
 30
0.0
  0
VERTEX
  5
4AC
  8
0
  6
CONTINUOUS
 62
     7
 10
76.625442541
 20
114.9895688564
 30
0.0
  0
VERTEX
  5
4AD
  8
0
  6
CONTINUOUS
 62
     7
 10
76.643858048
 20
114.9931442038
 30
0.0
  0
VERTEX
  5
4AE
  8
0
  6
CONTINUOUS
 62
     7
 10
76.6630095326
 20
114.9968620435
 30
0.0
  0
SEQEND
  5
7E1
  8
0
  6
CONTINUOUS
 62
     7
  0
LINE
  5
B7
  8
0
  6
CONTINUOUS
 62
     7
 10
76.4617984545
 20
113.5011747525
 30
0.0
 11
76.2815565698
 21
113.2495672487
 31
0.0
  0
LINE
  5
B8
  8
0
  6
CONTINUOUS
 62
     7
 10
76.2002631685
 20
113.3078023837
 30
0.0
 11
76.3805049367
 21
113.5594103531
 31
0.0
  0
POLYLINE
  5
B9
  8
0
  6
CONTINUOUS
 62
     7
 66
     1
 10
0.0
 20
0.0
 30
0.0
 70
   128
  0
VERTEX
  5
4AF
  8
0
  6
CONTINUOUS
 62
     7
 10
76.4617984545
 20
113.5011747525
 30
0.0
  0
VERTEX
  5
4B0
  8
0
  6
CONTINUOUS
 62
     7
 10
76.4459387295
 20
113.5125359566
 30
0.0
  0
VERTEX
  5
4B1
  8
0
  6
CONTINUOUS
 62
     7
 10
76.430688788
 20
113.5234603704
 30
0.0
  0
VERTEX
  5
4B2
  8
0
  6
CONTINUOUS
 62
     7
 10
76.416634199
 20
113.5335288987
 30
0.0
  0
VERTEX
  5
4B3
  8
0
  6
CONTINUOUS
 62
     7
 10
76.4043151297
 20
113.5423536458
 30
0.0
  0
VERTEX
  5
4B4
  8
0
  6
CONTINUOUS
 62
     7
 10
76.3942053903
 20
113.5495956101
 30
0.0
  0
VERTEX
  5
4B5
  8
0
  6
CONTINUOUS
 62
     7
 10
76.3866928768
 20
113.5549772576
 30
0.0
  0
VERTEX
  5
4B6
  8
0
  6
CONTINUOUS
 62
     7
 10
76.3820669975
 20
113.558291369
 30
0.0
  0
VERTEX
  5
4B7
  8
0
  6
CONTINUOUS
 62
     7
 10
76.3805049367
 20
113.5594103531
 30
0.0
  0
SEQEND
  5
7E2
  8
0
  6
CONTINUOUS
 62
     7
  0
LINE
  5
BA
  8
0
  6
CONTINUOUS
 62
     7
 10
77.2160449427
 20
114.2760141798
 30
0.0
 11
76.9824094035
 21
114.0730170579
 31
0.0
  0
POLYLINE
  5
BB
  8
0
  6
CONTINUOUS
 62
     7
 66
     1
 10
0.0
 20
0.0
 30
0.0
 70
   128
  0
VERTEX
  5
4B8
  8
0
  6
CONTINUOUS
 62
     7
 10
76.9824094035
 20
114.0730170579
 30
0.0
  0
VERTEX
  5
4B9
  8
0
  6
CONTINUOUS
 62
     7
 10
76.9696137298
 20
114.0877435961
 30
0.0
  0
VERTEX
  5
4BA
  8
0
  6
CONTINUOUS
 62
     7
 10
76.9573100273
 20
114.1019043558
 30
0.0
  0
VERTEX
  5
4BB
  8
0
  6
CONTINUOUS
 62
     7
 10
76.9459707093
 20
114.114954979
 30
0.0
  0
VERTEX
  5
4BC
  8
0
  6
CONTINUOUS
 62
     7
 10
76.9360318676
 20
114.1263939486
 30
0.0
  0
VERTEX
  5
4BD
  8
0
  6
CONTINUOUS
 62
     7
 10
76.9278751116
 20
114.1357816801
 30
0.0
  0
VERTEX
  5
4BE
  8
0
  6
CONTINUOUS
 62
     7
 10
76.9218140643
 20
114.1427577519
 30
0.0
  0
VERTEX
  5
4BF
  8
0
  6
CONTINUOUS
 62
     7
 10
76.9180817891
 20
114.1470530116
 30
0.0
  0
VERTEX
  5
4C0
  8
0
  6
CONTINUOUS
 62
     7
 10
76.9168214768
 20
114.1485035465
 30
0.0
  0
SEQEND
  5
7E3
  8
0
  6
CONTINUOUS
 62
     7
  0
LINE
  5
BC
  8
0
  6
CONTINUOUS
 62
     7
 10
76.9168214768
 20
114.1485035465
 30
0.0
 11
77.1504572489
 21
114.3515011341
 31
0.0
  0
POLYLINE
  5
BD
  8
0
  6
CONTINUOUS
 62
     7
 66
     1
 10
0.0
 20
0.0
 30
0.0
 70
   128
  0
VERTEX
  5
4C1
  8
0
  6
CONTINUOUS
 62
     7
 10
77.2160449427
 20
114.2760141798
 30
0.0
  0
VERTEX
  5
4C2
  8
0
  6
CONTINUOUS
 62
     7
 10
77.203249269
 20
114.2907411837
 30
0.0
  0
VERTEX
  5
4C3
  8
0
  6
CONTINUOUS
 62
     7
 10
77.1909455665
 20
114.3049019434
 30
0.0
  0
VERTEX
  5
4C4
  8
0
  6
CONTINUOUS
 62
     7
 10
77.1796062485
 20
114.3179525667
 30
0.0
  0
VERTEX
  5
4C5
  8
0
  6
CONTINUOUS
 62
     7
 10
77.1696674068
 20
114.3293915362
 30
0.0
  0
VERTEX
  5
4C6
  8
0
  6
CONTINUOUS
 62
     7
 10
77.1615106508
 20
114.3387792677
 30
0.0
  0
VERTEX
  5
4C7
  8
0
  6
CONTINUOUS
 62
     7
 10
77.1554498363
 20
114.3457548738
 30
0.0
  0
VERTEX
  5
4C8
  8
0
  6
CONTINUOUS
 62
     7
 10
77.1517173283
 20
114.3500505992
 30
0.0
  0
VERTEX
  5
4C9
  8
0
  6
CONTINUOUS
 62
     7
 10
77.1504572489
 20
114.3515011341
 30
0.0
  0
SEQEND
  5
7E4
  8
0
  6
CONTINUOUS
 62
     7
  0
LINE
  5
BE
  8
0
  6
CONTINUOUS
 62
     7
 10
75.7136881015
 20
114.1664869197
 30
0.0
 11
75.4800524458
 21
113.9634897978
 31
0.0
  0
LINE
  5
BF
  8
0
  6
CONTINUOUS
 62
     7
 10
75.414464752
 20
114.0389762864
 30
0.0
 11
75.6481002912
 21
114.241973874
 31
0.0
  0
POLYLINE
  5
C0
  8
0
  6
CONTINUOUS
 62
     7
 66
     1
 10
0.0
 20
0.0
 30
0.0
 70
   128
  0
VERTEX
  5
4CA
  8
0
  6
CONTINUOUS
 62
     7
 10
75.7136881015
 20
114.1664869197
 30
0.0
  0
VERTEX
  5
4CB
  8
0
  6
CONTINUOUS
 62
     7
 10
75.7124277892
 20
114.1679374547
 30
0.0
  0
VERTEX
  5
4CC
  8
0
  6
CONTINUOUS
 62
     7
 10
75.708695514
 20
114.17223318
 30
0.0
  0
VERTEX
  5
4CD
  8
0
  6
CONTINUOUS
 62
     7
 10
75.7026345831
 20
114.1792087861
 30
0.0
  0
VERTEX
  5
4CE
  8
0
  6
CONTINUOUS
 62
     7
 10
75.6944778271
 20
114.1885965177
 30
0.0
  0
VERTEX
  5
4CF
  8
0
  6
CONTINUOUS
 62
     7
 10
75.684538869
 20
114.2000354872
 30
0.0
  0
VERTEX
  5
4D0
  8
0
  6
CONTINUOUS
 62
     7
 10
75.6731996674
 20
114.2130865761
 30
0.0
  0
VERTEX
  5
4D1
  8
0
  6
CONTINUOUS
 62
     7
 10
75.6608958485
 20
114.2272473358
 30
0.0
  0
VERTEX
  5
4D2
  8
0
  6
CONTINUOUS
 62
     7
 10
75.6481002912
 20
114.241973874
 30
0.0
  0
SEQEND
  5
7E5
  8
0
  6
CONTINUOUS
 62
     7
  0
ARC
  5
C1
  8
0
  6
CONTINUOUS
 62
     7
 10
77.1012664073
 20
114.4081162102
 30
0.0
 40
0.1749999999999901
 50
310.9861878664
 51
84.3837096094
  0
ARC
  5
C2
  8
0
  6
CONTINUOUS
 62
     7
 10
77.1012664073
 20
114.4081162102
 30
0.0
 40
0.074999999999989
 50
310.9861878664
 51
84.3837096095
  0
POLYLINE
  5
C3
  8
0
  6
CONTINUOUS
 62
     7
 66
     1
 10
0.0
 20
0.0
 30
0.0
 70
   128
  0
VERTEX
  5
4D3
  8
0
  6
CONTINUOUS
 62
     7
 10
77.1183929768
 20
114.5822763488
 30
0.0
  0
VERTEX
  5
4D4
  8
0
  6
CONTINUOUS
 62
     7
 10
77.1164837655
 20
114.5628606015
 30
0.0
  0
VERTEX
  5
4D5
  8
0
  6
CONTINUOUS
 62
     7
 10
77.114647663
 20
114.5441913091
 30
0.0
  0
VERTEX
  5
4D6
  8
0
  6
CONTINUOUS
 62
     7
 10
77.1129556827
 20
114.5269855902
 30
0.0
  0
VERTEX
  5
4D7
  8
0
  6
CONTINUOUS
 62
     7
 10
77.1114727844
 20
114.5119046838
 30
0.0
  0
VERTEX
  5
4D8
  8
0
  6
CONTINUOUS
 62
     7
 10
77.1102557786
 20
114.4995283381
 30
0.0
  0
VERTEX
  5
4D9
  8
0
  6
CONTINUOUS
 62
     7
 10
77.1093512315
 20
114.4903315277
 30
0.0
  0
VERTEX
  5
4DA
  8
0
  6
CONTINUOUS
 62
     7
 10
77.1087943006
 20
114.4846686208
 30
0.0
  0
VERTEX
  5
4DB
  8
0
  6
CONTINUOUS
 62
     7
 10
77.1086064063
 20
114.4827561498
 30
0.0
  0
SEQEND
  5
7E6
  8
0
  6
CONTINUOUS
 62
     7
  0
ARC
  5
C4
  8
0
  6
CONTINUOUS
 62
     7
 10
76.5430919154
 20
113.4429394198
 30
0.0
 40
0.1000000000000125
 50
70.9861878664
 51
144.3837096094
  0
LINE
  5
C5
  8
0
  6
CONTINUOUS
 62
     7
 10
76.9569170091
 20
113.9562455051
 30
0.0
 11
77.0846946992
 21
113.674347666
 31
0.0
  0
ARC
  5
C6
  8
0
  6
CONTINUOUS
 62
     7
 10
77.0479970057
 20
113.9975301246
 30
0.0
 40
0.0999999999999997
 50
130.9861878664
 51
204.3837096094
  0
LINE
  5
C7
  8
0
  6
CONTINUOUS
 62
     7
 10
76.810373402
 20
114.6125662186
 30
0.0
 11
77.1183929768
 21
114.5822763488
 31
0.0
  0
ARC
  5
C8
  8
0
  6
CONTINUOUS
 62
     7
 10
76.8201599117
 20
114.7120861116
 30
0.0
 40
0.1000000000000489
 50
190.9861878664
 51
264.3837096094
  0
LINE
  5
C9
  8
0
  6
CONTINUOUS
 62
     7
 10
76.6630095326
 20
114.9968620435
 30
0.0
 11
76.7219925195
 21
114.6930287638
 31
0.0
  0
LINE
  5
CA
  8
0
  6
CONTINUOUS
 62
     7
 10
75.673592802
 20
114.3587454268
 30
0.0
 11
75.5458148791
 21
114.6406432659
 31
0.0
  0
ARC
  5
CB
  8
0
  6
CONTINUOUS
 62
     7
 10
75.5825126373
 20
114.3174606891
 30
0.0
 40
0.1000000000000106
 50
310.9861878664
 51
24.3837096094
  0
ARC
  5
CC
  8
0
  6
CONTINUOUS
 62
     7
 10
75.8103497313
 20
113.6029047021
 30
0.0
 40
0.0999999999999958
 50
10.9861878664
 51
84.3837096094
  0
LINE
  5
CD
  8
0
  6
CONTINUOUS
 62
     7
 10
75.9675001621
 20
113.3181288884
 30
0.0
 11
75.9085170588
 21
113.6219621681
 31
0.0
  0
CIRCLE
  5
CE
  8
0
  6
CONTINUOUS
 62
     7
 10
76.3152548215
 20
114.1574954068
 30
0.0
 40
1.125000000000042
  0
POLYLINE
  5
CF
  8
0
  6
CONTINUOUS
 62
     7
 66
     1
 10
0.0
 20
0.0
 30
0.0
 70
   128
  0
VERTEX
  5
4DC
  8
0
  6
CONTINUOUS
 62
     7
 10
75.9085170588
 20
113.6219621681
 30
0.0
  0
VERTEX
  5
4DD
  8
0
  6
CONTINUOUS
 62
     7
 10
75.9276685434
 20
113.6256800079
 30
0.0
  0
VERTEX
  5
4DE
  8
0
  6
CONTINUOUS
 62
     7
 10
75.9460840503
 20
113.6292548896
 30
0.0
  0
VERTEX
  5
4DF
  8
0
  6
CONTINUOUS
 62
     7
 10
75.9630558908
 20
113.6325494432
 30
0.0
  0
VERTEX
  5
4E0
  8
0
  6
CONTINUOUS
 62
     7
 10
75.9779317899
 20
113.6354374745
 30
0.0
  0
VERTEX
  5
4E1
  8
0
  6
CONTINUOUS
 62
     7
 10
75.9901401483
 20
113.6378072248
 30
0.0
  0
VERTEX
  5
4E2
  8
0
  6
CONTINUOUS
 62
     7
 10
75.9992118122
 20
113.6395683558
 30
0.0
  0
VERTEX
  5
4E3
  8
0
  6
CONTINUOUS
 62
     7
 10
76.0047981179
 20
113.6406528809
 30
0.0
  0
VERTEX
  5
4E4
  8
0
  6
CONTINUOUS
 62
     7
 10
76.0066843953
 20
113.6410193563
 30
0.0
  0
SEQEND
  5
7E7
  8
0
  6
CONTINUOUS
 62
     7
  0
LINE
  5
D0
  8
0
  6
CONTINUOUS
 62
     7
 10
76.0066843953
 20
113.6410193563
 30
0.0
 11
76.0656674987
 21
113.3371860766
 31
0.0
  0
LINE
  5
D1
  8
0
  6
CONTINUOUS
 62
     7
 10
76.993614611
 20
113.6330630676
 30
0.0
 11
76.8658366881
 21
113.9149609067
 31
0.0
  0
POLYLINE
  5
D2
  8
0
  6
CONTINUOUS
 62
     7
 66
     1
 10
0.0
 20
0.0
 30
0.0
 70
   128
  0
VERTEX
  5
4E5
  8
0
  6
CONTINUOUS
 62
     7
 10
76.9569170091
 20
113.9562455051
 30
0.0
  0
VERTEX
  5
4E6
  8
0
  6
CONTINUOUS
 62
     7
 10
76.9391480729
 20
113.9481914275
 30
0.0
  0
VERTEX
  5
4E7
  8
0
  6
CONTINUOUS
 62
     7
 10
76.922062029
 20
113.940446549
 30
0.0
  0
VERTEX
  5
4E8
  8
0
  6
CONTINUOUS
 62
     7
 10
76.9063154597
 20
113.9333088928
 30
0.0
  0
VERTEX
  5
4E9
  8
0
  6
CONTINUOUS
 62
     7
 10
76.892513492
 20
113.927053199
 30
0.0
  0
VERTEX
  5
4EA
  8
0
  6
CONTINUOUS
 62
     7
 10
76.881186514
 20
113.9219188177
 30
0.0
  0
VERTEX
  5
4EB
  8
0
  6
CONTINUOUS
 62
     7
 10
76.8727699191
 20
113.9181036548
 30
0.0
  0
VERTEX
  5
4EC
  8
0
  6
CONTINUOUS
 62
     7
 10
76.8675868761
 20
113.9157543936
 30
0.0
  0
VERTEX
  5
4ED
  8
0
  6
CONTINUOUS
 62
     7
 10
76.8658366881
 20
113.9149609067
 30
0.0
  0
SEQEND
  5
7E8
  8
0
  6
CONTINUOUS
 62
     7
  0
ARC
  5
D3
  8
0
  6
CONTINUOUS
 62
     7
 10
75.5825126373
 20
114.3174606891
 30
0.0
 40
0.2000000000000044
 50
310.9861878664
 51
24.3837096094
  0
POLYLINE
  5
D4
  8
0
  6
CONTINUOUS
 62
     7
 66
     1
 10
0.0
 20
0.0
 30
0.0
 70
   128
  0
VERTEX
  5
4EE
  8
0
  6
CONTINUOUS
 62
     7
 10
75.7646728901
 20
114.4000295595
 30
0.0
  0
VERTEX
  5
4EF
  8
0
  6
CONTINUOUS
 62
     7
 10
75.7629228186
 20
114.3992365383
 30
0.0
  0
VERTEX
  5
4F0
  8
0
  6
CONTINUOUS
 62
     7
 10
75.7577397756
 20
114.3968872771
 30
0.0
  0
VERTEX
  5
4F1
  8
0
  6
CONTINUOUS
 62
     7
 10
75.7493230643
 20
114.3930721142
 30
0.0
  0
VERTEX
  5
4F2
  8
0
  6
CONTINUOUS
 62
     7
 10
75.7379960863
 20
114.3879377329
 30
0.0
  0
VERTEX
  5
4F3
  8
0
  6
CONTINUOUS
 62
     7
 10
75.7241941186
 20
114.3816815735
 30
0.0
  0
VERTEX
  5
4F4
  8
0
  6
CONTINUOUS
 62
     7
 10
75.7084475493
 20
114.3745443829
 30
0.0
  0
VERTEX
  5
4F5
  8
0
  6
CONTINUOUS
 62
     7
 10
75.6913616218
 20
114.3667995044
 30
0.0
  0
VERTEX
  5
4F6
  8
0
  6
CONTINUOUS
 62
     7
 10
75.673592802
 20
114.3587454268
 30
0.0
  0
SEQEND
  5
7E9
  8
0
  6
CONTINUOUS
 62
     7
  0
ARC
  5
D5
  8
0
  6
CONTINUOUS
 62
     7
 10
75.8103497312
 20
113.6029047021
 30
0.0
 40
0.2000000000000307
 50
10.9861878664
 51
84.3837096094
  0
LINE
  5
D6
  8
0
  6
CONTINUOUS
 62
     7
 10
75.6368949672
 20
114.6819273987
 30
0.0
 11
75.7646728901
 21
114.4000295595
 31
0.0
  0
LINE
  5
D7
  8
0
  6
CONTINUOUS
 62
     7
 10
77.1086064063
 20
114.4827561498
 30
0.0
 11
76.8005868316
 21
114.5130460196
 31
0.0
  0
POLYLINE
  5
D8
  8
0
  6
CONTINUOUS
 62
     7
 66
     1
 10
0.0
 20
0.0
 30
0.0
 70
   128
  0
VERTEX
  5
4F7
  8
0
  6
CONTINUOUS
 62
     7
 10
76.810373402
 20
114.6125662186
 30
0.0
  0
VERTEX
  5
4F8
  8
0
  6
CONTINUOUS
 62
     7
 10
76.8084639579
 20
114.5931509369
 30
0.0
  0
VERTEX
  5
4F9
  8
0
  6
CONTINUOUS
 62
     7
 10
76.8066280883
 20
114.5744816446
 30
0.0
  0
VERTEX
  5
4FA
  8
0
  6
CONTINUOUS
 62
     7
 10
76.804936108
 20
114.5572759257
 30
0.0
  0
VERTEX
  5
4FB
  8
0
  6
CONTINUOUS
 62
     7
 10
76.8034532096
 20
114.5421950192
 30
0.0
  0
VERTEX
  5
4FC
  8
0
  6
CONTINUOUS
 62
     7
 10
76.802235971
 20
114.5298182078
 30
0.0
  0
VERTEX
  5
4FD
  8
0
  6
CONTINUOUS
 62
     7
 10
76.8013316568
 20
114.5206218631
 30
0.0
  0
VERTEX
  5
4FE
  8
0
  6
CONTINUOUS
 62
     7
 10
76.8007747259
 20
114.5149584905
 30
0.0
  0
VERTEX
  5
4FF
  8
0
  6
CONTINUOUS
 62
     7
 10
76.8005868316
 20
114.5130460196
 30
0.0
  0
SEQEND
  5
7EA
  8
0
  6
CONTINUOUS
 62
     7
  0
ARC
  5
D9
  8
0
  6
CONTINUOUS
 62
     7
 10
77.0479970057
 20
113.9975301246
 30
0.0
 40
0.2000000000000058
 50
130.9861878664
 51
204.3837096094
  0
LINE
  5
DA
  8
0
  6
CONTINUOUS
 62
     7
 10
76.6238252994
 20
114.6739715756
 30
0.0
 11
76.5648420796
 21
114.9778048553
 31
0.0
  0
POLYLINE
  5
DB
  8
0
  6
CONTINUOUS
 62
     7
 66
     1
 10
0.0
 20
0.0
 30
0.0
 70
   128
  0
VERTEX
  5
500
  8
0
  6
CONTINUOUS
 62
     7
 10
76.6238252994
 20
114.6739715756
 30
0.0
  0
VERTEX
  5
501
  8
0
  6
CONTINUOUS
 62
     7
 10
76.6257114604
 20
114.674338051
 30
0.0
  0
VERTEX
  5
502
  8
0
  6
CONTINUOUS
 62
     7
 10
76.6312977661
 20
114.6754221105
 30
0.0
  0
VERTEX
  5
503
  8
0
  6
CONTINUOUS
 62
     7
 10
76.6403695464
 20
114.6771832415
 30
0.0
  0
VERTEX
  5
504
  8
0
  6
CONTINUOUS
 62
     7
 10
76.6525777884
 20
114.6795534574
 30
0.0
  0
VERTEX
  5
505
  8
0
  6
CONTINUOUS
 62
     7
 10
76.6674538039
 20
114.6824410231
 30
0.0
  0
VERTEX
  5
506
  8
0
  6
CONTINUOUS
 62
     7
 10
76.684425528
 20
114.6857360423
 30
0.0
  0
VERTEX
  5
507
  8
0
  6
CONTINUOUS
 62
     7
 10
76.7028410349
 20
114.689310924
 30
0.0
  0
VERTEX
  5
508
  8
0
  6
CONTINUOUS
 62
     7
 10
76.7219925195
 20
114.6930287638
 30
0.0
  0
SEQEND
  5
7EB
  8
0
  6
CONTINUOUS
 62
     7
  0
CIRCLE
  5
DC
  8
0
  6
CONTINUOUS
 62
     7
 10
76.3152548215
 20
114.1574954068
 30
0.0
 40
1.225000000000042
  0
ARC
  5
DD
  8
0
  6
CONTINUOUS
 62
     7
 10
76.8201599117
 20
114.7120861116
 30
0.0
 40
0.2000000000000167
 50
190.9861878664
 51
264.3837096094
  0
ARC
  5
DE
  8
0
  6
CONTINUOUS
 62
     7
 10
76.5430919154
 20
113.4429394198
 30
0.0
 40
0.2000000000000358
 50
70.9861878664
 51
144.3837096094
  0
LINE
  5
DF
  8
0
  6
CONTINUOUS
 62
     7
 10
76.9253046613
 20
113.6020998516
 30
0.0
 11
76.993614611
 21
113.6330630676
 31
0.0
  0
LINE
  5
E0
  8
0
  6
CONTINUOUS
 62
     7
 10
76.6761151038
 20
113.8289644428
 30
0.0
 11
76.9253046613
 21
113.6020998516
 31
0.0
  0
LINE
  5
E1
  8
0
  6
CONTINUOUS
 62
     7
 10
76.6761151038
 20
113.8289644428
 30
0.0
 11
76.8658366881
 21
113.9149609067
 31
0.0
  0
LINE
  5
E2
  8
0
  6
CONTINUOUS
 62
     7
 10
76.3152548474
 20
114.1574954659
 30
0.0
 11
76.7802011118
 21
114.3057443247
 31
0.0
  0
LINE
  5
E3
  8
0
  6
CONTINUOUS
 62
     7
 10
76.7802011118
 20
114.3057443247
 30
0.0
 11
76.9168214768
 21
114.1485035465
 31
0.0
  0
LINE
  5
E4
  8
0
  6
CONTINUOUS
 62
     7
 10
76.3152548474
 20
114.1574954659
 30
0.0
 11
76.6761151038
 21
113.8289644428
 31
0.0
  0
LINE
  5
E5
  8
0
  6
CONTINUOUS
 62
     7
 10
75.5292432744
 20
113.9068746985
 30
0.0
 11
75.5219032884
 21
113.8322347821
 31
0.0
  0
LINE
  5
E6
  8
0
  6
CONTINUOUS
 62
     7
 10
75.8503085829
 20
114.0092466072
 30
0.0
 11
75.5292432744
 21
113.9068746985
 31
0.0
  0
LINE
  5
E7
  8
0
  6
CONTINUOUS
 62
     7
 10
75.8503085829
 20
114.0092466072
 30
0.0
 11
75.8299228631
 21
113.8019444466
 31
0.0
  0
LINE
  5
E8
  8
0
  6
CONTINUOUS
 62
     7
 10
75.5292432744
 20
113.9068746985
 30
0.0
 11
75.4800524458
 21
113.9634897978
 31
0.0
  0
LINE
  5
E9
  8
0
  6
CONTINUOUS
 62
     7
 10
76.4193408553
 20
114.6342748822
 30
0.0
 11
76.6238252994
 21
114.6739715756
 31
0.0
  0
LINE
  5
EA
  8
0
  6
CONTINUOUS
 62
     7
 10
76.7802011118
 20
114.3057443247
 30
0.0
 11
76.8005868316
 21
114.5130460196
 31
0.0
  0
POLYLINE
  5
EB
  8
0
  6
CONTINUOUS
 62
     7
 66
     1
 10
0.0
 20
0.0
 30
0.0
 70
   128
  0
VERTEX
  5
509
  8
0
  6
CONTINUOUS
 62
     7
 10
76.4193408553
 20
114.6342748822
 30
0.0
  0
VERTEX
  5
50A
  8
0
  6
CONTINUOUS
 62
     7
 10
76.3413751859
 20
114.2771434084
 30
0.0
  0
VERTEX
  5
50B
  8
0
  6
CONTINUOUS
 62
     7
 10
76.3152548474
 20
114.1574954659
 30
0.0
  0
SEQEND
  5
7EC
  8
0
  6
CONTINUOUS
 62
     7
  0
LINE
  5
EC
  8
0
  6
CONTINUOUS
 62
     7
 10
75.9543945909
 20
114.4860264891
 30
0.0
 11
76.0222585535
 21
114.682963495
 31
0.0
  0
LINE
  5
ED
  8
0
  6
CONTINUOUS
 62
     7
 10
75.9543945909
 20
114.4860264891
 30
0.0
 11
75.7052050334
 21
114.7128910803
 31
0.0
  0
LINE
  5
EE
  8
0
  6
CONTINUOUS
 62
     7
 10
75.7052050334
 20
114.7128910803
 30
0.0
 11
75.7296397945
 21
114.7837991872
 31
0.0
  0
LINE
  5
EF
  8
0
  6
CONTINUOUS
 62
     7
 10
76.4193408553
 20
114.6342748822
 30
0.0
 11
76.4912166063
 21
114.9635118478
 31
0.0
  0
LINE
  5
F0
  8
0
  6
CONTINUOUS
 62
     7
 10
76.4912166063
 20
114.9635118478
 30
0.0
 11
76.5648420796
 21
114.9778048553
 31
0.0
  0
LINE
  5
F1
  8
0
  6
CONTINUOUS
 62
     7
 10
76.3152548474
 20
114.1574954659
 30
0.0
 11
76.2111688394
 21
113.6807155841
 31
0.0
  0
LINE
  5
F2
  8
0
  6
CONTINUOUS
 62
     7
 10
76.2111688394
 20
113.6807155841
 30
0.0
 11
76.0066843953
 21
113.6410193563
 31
0.0
  0
LINE
  5
F3
  8
0
  6
CONTINUOUS
 62
     7
 10
76.3152548474
 20
114.1574954659
 30
0.0
 11
75.8503085829
 21
114.0092466072
 31
0.0
  0
LINE
  5
F4
  8
0
  6
CONTINUOUS
 62
     7
 10
75.7052050334
 20
114.7128910803
 30
0.0
 11
75.6368949672
 21
114.6819273987
 31
0.0
  0
LINE
  5
F5
  8
0
  6
CONTINUOUS
 62
     7
 10
76.9253046613
 20
113.6020998516
 30
0.0
 11
76.9008697838
 21
113.5311917447
 31
0.0
  0
LINE
  5
F6
  8
0
  6
CONTINUOUS
 62
     7
 10
76.139292972
 20
113.3514790841
 30
0.0
 11
76.2002631685
 21
113.3078023837
 31
0.0
  0
LINE
  5
F7
  8
0
  6
CONTINUOUS
 62
     7
 10
76.139292972
 20
113.3514790841
 30
0.0
 11
76.0656674987
 21
113.3371860766
 31
0.0
  0
LINE
  5
F8
  8
0
  6
CONTINUOUS
 62
     7
 10
76.2111688394
 20
113.6807155841
 30
0.0
 11
76.139292972
 21
113.3514790841
 31
0.0
  0
LINE
  5
F9
  8
0
  6
CONTINUOUS
 62
     7
 10
76.2111688394
 20
113.6807155841
 30
0.0
 11
76.3805049367
 21
113.5594103531
 31
0.0
  0
LINE
  5
FA
  8
0
  6
CONTINUOUS
 62
     7
 10
77.1012664203
 20
114.4081162334
 30
0.0
 11
77.1086064063
 21
114.4827561498
 31
0.0
  0
LINE
  5
FB
  8
0
  6
CONTINUOUS
 62
     7
 10
76.7802011118
 20
114.3057443247
 30
0.0
 11
77.1012664203
 21
114.4081162334
 31
0.0
  0
LINE
  5
FC
  8
0
  6
CONTINUOUS
 62
     7
 10
77.1012664203
 20
114.4081162334
 30
0.0
 11
77.1504572489
 21
114.3515011341
 31
0.0
  0
LINE
  5
FD
  8
0
  6
CONTINUOUS
 62
     7
 10
76.6761151038
 20
113.8289644428
 30
0.0
 11
76.6082510248
 21
113.6320274369
 31
0.0
  0
LINE
  5
FE
  8
0
  6
CONTINUOUS
 62
     7
 10
75.8503085829
 20
114.0092466072
 30
0.0
 11
75.7136881015
 21
114.1664869197
 31
0.0
  0
LINE
  5
FF
  8
0
  6
CONTINUOUS
 62
     7
 10
75.9543945909
 20
114.4860264891
 30
0.0
 11
75.7646728901
 21
114.4000295595
 31
0.0
  0
LINE
  5
100
  8
0
  6
CONTINUOUS
 62
     7
 10
76.3152548474
 20
114.1574954659
 30
0.0
 11
75.9543945909
 21
114.4860264891
 31
0.0
  0
LINE
  5
101
  8
0
  6
CONTINUOUS
 62
     7
 10
76.4193408553
 20
114.6342748822
 30
0.0
 11
76.250004758
 21
114.7555805788
 31
0.0
  0
LINE
  5
102
  8
0
  6
CONTINUOUS
 62
     7
 10
76.4912166063
 20
114.9635118478
 30
0.0
 11
76.4302464098
 21
115.0071885482
 31
0.0
  0
ARC
  5
103
  8
0
  6
CONTINUOUS
 62
     7
 10
76.3152548215
 20
114.1574954068
 30
0.0
 40
1.600000000000011
 50
248.1737642681
 51
297.8262357319
  0
ARC
  5
104
  8
0
  6
CONTINUOUS
 62
     7
 10
77.0971757538
 20
112.6605402579
 30
0.0
 40
0.0891485648882786
 50
113.1544606954
 51
174.1906445041
  0
ARC
  5
105
  8
0
  6
CONTINUOUS
 62
     7
 10
76.9794804328
 20
112.6731966447
 30
0.0
 40
0.029231233020913
 50
290.881623441
 51
352.8607751972
  0
ARC
  5
106
  8
0
  6
CONTINUOUS
 62
     7
 10
76.3152548215
 20
114.1574954068
 30
0.0
 40
1.655328000001854
 50
282.006984372
 51
294.0516193426
  0
POLYLINE
  5
107
  8
0
  6
CONTINUOUS
 62
     7
 66
     1
 10
0.0
 20
0.0
 30
0.0
 70
   128
  0
VERTEX
  5
50C
  8
0
  6
CONTINUOUS
 62
     7
 10
76.6596141633
 20
112.5383823224
 30
0.0
  0
VERTEX
  5
50D
  8
0
  6
CONTINUOUS
 62
     7
 10
76.536964801
 20
112.5182811216
 30
0.0
  0
VERTEX
  5
50E
  8
0
  6
CONTINUOUS
 62
     7
 10
76.1420252396
 20
112.5112566211
 30
0.0
  0
SEQEND
  5
7ED
  8
0
  6
CONTINUOUS
 62
     7
  0
ARC
  5
108
  8
0
  6
CONTINUOUS
 62
     7
 10
76.3152548215
 20
114.1574954068
 30
0.0
 40
1.655328000000012
 50
251.948380658
 51
263.9930156262
  0
ARC
  5
109
  8
0
  6
CONTINUOUS
 62
     7
 10
75.808950868
 20
112.6110547475
 30
0.0
 40
0.0282008216793524
 50
191.8738509105
 51
256.3843396079
  0
ARC
  5
10A
  8
0
  6
CONTINUOUS
 62
     7
 10
75.6929240949
 20
112.5859439126
 30
0.0
 40
0.0905127783791829
 50
12.3170592707
 51
72.3378142176
  0
POLYLINE
  5
10B
  8
0
  6
CONTINUOUS
 62
     7
 66
     1
 10
0.0
 20
0.0
 30
0.0
 70
   128
  0
VERTEX
  5
50F
  8
0
  6
CONTINUOUS
 62
     7
 10
77.0404158987
 20
112.600400024
 30
0.0
  0
VERTEX
  5
510
  8
0
  6
CONTINUOUS
 62
     7
 10
77.0432638832
 20
112.6035627954
 30
0.0
  0
VERTEX
  5
511
  8
0
  6
CONTINUOUS
 62
     7
 10
77.0460785728
 20
112.6066887797
 30
0.0
  0
VERTEX
  5
512
  8
0
  6
CONTINUOUS
 62
     7
 10
77.0488273714
 20
112.6097416551
 30
0.0
  0
VERTEX
  5
513
  8
0
  6
CONTINUOUS
 62
     7
 10
77.0514783811
 20
112.6126860314
 30
0.0
  0
VERTEX
  5
514
  8
0
  6
CONTINUOUS
 62
     7
 10
77.0540006355
 20
112.6154874497
 30
0.0
  0
VERTEX
  5
515
  8
0
  6
CONTINUOUS
 62
     7
 10
77.0563650306
 20
112.6181133137
 30
0.0
  0
VERTEX
  5
516
  8
0
  6
CONTINUOUS
 62
     7
 10
77.0585438598
 20
112.6205328897
 30
0.0
  0
VERTEX
  5
517
  8
0
  6
CONTINUOUS
 62
     7
 10
77.0605117444
 20
112.6227187038
 30
0.0
  0
SEQEND
  5
7EE
  8
0
  6
CONTINUOUS
 62
     7
  0
LINE
  5
10C
  8
0
  6
CONTINUOUS
 62
     7
 10
76.9898995653
 20
112.6458853529
 30
0.0
 11
77.0404158987
 21
112.600400024
 31
0.0
  0
LINE
  5
10D
  8
0
  6
CONTINUOUS
 62
     7
 10
77.0605117444
 20
112.6227187038
 30
0.0
 11
77.0084850386
 21
112.6695637637
 31
0.0
  0
ARC
  5
10E
  8
0
  6
CONTINUOUS
 62
     7
 10
76.3152548215
 20
114.1574954068
 30
0.0
 40
1.600000000000005
 50
158.1737642682
 51
207.8262357319
  0
ARC
  5
10F
  8
0
  6
CONTINUOUS
 62
     7
 10
74.8182994727
 20
113.3755739284
 30
0.0
 40
0.089148966216696
 50
23.1547915482
 51
84.1906383401
  0
ARC
  5
110
  8
0
  6
CONTINUOUS
 62
     7
 10
74.8309764483
 20
113.4932958145
 30
0.0
 40
0.0292597545164942
 50
200.9151618676
 51
262.8272367706
  0
ARC
  5
111
  8
0
  6
CONTINUOUS
 62
     7
 10
76.3152548215
 20
114.1574954068
 30
0.0
 40
1.655328000001855
 50
192.0063086257
 51
204.0516193426
  0
POLYLINE
  5
112
  8
0
  6
CONTINUOUS
 62
     7
 66
     1
 10
0.0
 20
0.0
 30
0.0
 70
   128
  0
VERTEX
  5
518
  8
0
  6
CONTINUOUS
 62
     7
 10
74.6961376002
 20
113.8131552421
 30
0.0
  0
VERTEX
  5
519
  8
0
  6
CONTINUOUS
 62
     7
 10
74.6760403284
 20
113.9357862108
 30
0.0
  0
VERTEX
  5
51A
  8
0
  6
CONTINUOUS
 62
     7
 10
74.6690139361
 20
114.3307056323
 30
0.0
  0
SEQEND
  5
7EF
  8
0
  6
CONTINUOUS
 62
     7
  0
ARC
  5
113
  8
0
  6
CONTINUOUS
 62
     7
 10
76.3152548215
 20
114.1574954068
 30
0.0
 40
1.655328000024136
 50
161.948380658
 51
173.9936913725
  0
ARC
  5
114
  8
0
  6
CONTINUOUS
 62
     7
 10
74.7688119362
 20
114.6638013047
 30
0.0
 40
0.0281982811500782
 50
101.8699604716
 51
166.3869766888
  0
ARC
  5
115
  8
0
  6
CONTINUOUS
 62
     7
 10
74.7436998884
 20
114.7798298846
 30
0.0
 40
0.0905173576992658
 50
282.3187648397
 51
342.3363017025
  0
POLYLINE
  5
116
  8
0
  6
CONTINUOUS
 62
     7
 66
     1
 10
0.0
 20
0.0
 30
0.0
 70
   128
  0
VERTEX
  5
51B
  8
0
  6
CONTINUOUS
 62
     7
 10
74.7804779397
 20
113.4122385689
 30
0.0
  0
VERTEX
  5
51C
  8
0
  6
CONTINUOUS
 62
     7
 10
74.7782923002
 20
113.4142064535
 30
0.0
  0
VERTEX
  5
51D
  8
0
  6
CONTINUOUS
 62
     7
 10
74.7758724914
 20
113.4163852827
 30
0.0
  0
VERTEX
  5
51E
  8
0
  6
CONTINUOUS
 62
     7
 10
74.7732466565
 20
113.418749445
 30
0.0
  0
VERTEX
  5
51F
  8
0
  6
CONTINUOUS
 62
     7
 10
74.7704453546
 20
113.4212719322
 30
0.0
  0
VERTEX
  5
520
  8
0
  6
CONTINUOUS
 62
     7
 10
74.7675011238
 20
113.4239229419
 30
0.0
  0
VERTEX
  5
521
  8
0
  6
CONTINUOUS
 62
     7
 10
74.7644482193
 20
113.4266717405
 30
0.0
  0
VERTEX
  5
522
  8
0
  6
CONTINUOUS
 62
     7
 10
74.761322206
 20
113.4294861973
 30
0.0
  0
VERTEX
  5
523
  8
0
  6
CONTINUOUS
 62
     7
 10
74.7581593763
 20
113.4323341817
 30
0.0
  0
SEQEND
  5
7F0
  8
0
  6
CONTINUOUS
 62
     7
  0
LINE
  5
117
  8
0
  6
CONTINUOUS
 62
     7
 10
74.8036446179
 20
113.4828505152
 30
0.0
 11
74.7581593763
 21
113.4323341817
 31
0.0
  0
LINE
  5
118
  8
0
  6
CONTINUOUS
 62
     7
 10
74.7804779397
 20
113.4122385689
 30
0.0
 11
74.8273230286
 21
113.4642650419
 31
0.0
  0
ARC
  5
119
  8
0
  6
CONTINUOUS
 62
     7
 10
76.3152548215
 20
114.1574954068
 30
0.0
 40
1.600000000000005
 50
338.1737642682
 51
27.8262357319
  0
ARC
  5
11A
  8
0
  6
CONTINUOUS
 62
     7
 10
77.812210792
 20
114.9394169891
 30
0.0
 40
0.0891494846154335
 50
203.1546389795
 51
264.1902288152
  0
ARC
  5
11B
  8
0
  6
CONTINUOUS
 62
     7
 10
77.7995483045
 20
114.8217139845
 30
0.0
 40
0.0292386810202934
 50
20.8903889932
 51
82.852009645
  0
ARC
  5
11C
  8
0
  6
CONTINUOUS
 62
     7
 10
76.3152548215
 20
114.1574954068
 30
0.0
 40
1.655328000001854
 50
12.0063086257
 51
24.0516193426
  0
POLYLINE
  5
11D
  8
0
  6
CONTINUOUS
 62
     7
 66
     1
 10
0.0
 20
0.0
 30
0.0
 70
   128
  0
VERTEX
  5
524
  8
0
  6
CONTINUOUS
 62
     7
 10
77.934371949
 20
114.5018356898
 30
0.0
  0
VERTEX
  5
525
  8
0
  6
CONTINUOUS
 62
     7
 10
77.9544694245
 20
114.3792042554
 30
0.0
  0
VERTEX
  5
526
  8
0
  6
CONTINUOUS
 62
     7
 10
77.9614957877
 20
113.9842852996
 30
0.0
  0
SEQEND
  5
7F1
  8
0
  6
CONTINUOUS
 62
     7
  0
ARC
  5
11E
  8
0
  6
CONTINUOUS
 62
     7
 10
76.3152548215
 20
114.1574954068
 30
0.0
 40
1.655328000024122
 50
341.948380658
 51
353.9936913725
  0
ARC
  5
11F
  8
0
  6
CONTINUOUS
 62
     7
 10
77.861696048
 20
113.6511907473
 30
0.0
 40
0.0282001789437249
 50
281.8726408184
 51
346.3855687524
  0
ARC
  5
120
  8
0
  6
CONTINUOUS
 62
     7
 10
77.8868087448
 20
113.5351615466
 30
0.0
 40
0.0905161946930439
 50
102.318256672
 51
162.3363989584
  0
POLYLINE
  5
121
  8
0
  6
CONTINUOUS
 62
     7
 66
     1
 10
0.0
 20
0.0
 30
0.0
 70
   128
  0
VERTEX
  5
527
  8
0
  6
CONTINUOUS
 62
     7
 10
77.8500316095
 20
114.902752363
 30
0.0
  0
VERTEX
  5
528
  8
0
  6
CONTINUOUS
 62
     7
 10
77.8522174236
 20
114.9007844784
 30
0.0
  0
VERTEX
  5
529
  8
0
  6
CONTINUOUS
 62
     7
 10
77.8546372324
 20
114.8986056492
 30
0.0
  0
VERTEX
  5
52A
  8
0
  6
CONTINUOUS
 62
     7
 10
77.8572628636
 20
114.8962410212
 30
0.0
  0
VERTEX
  5
52B
  8
0
  6
CONTINUOUS
 62
     7
 10
77.8600642819
 20
114.8937189997
 30
0.0
  0
VERTEX
  5
52C
  8
0
  6
CONTINUOUS
 62
     7
 10
77.8630084254
 20
114.89106799
 30
0.0
  0
VERTEX
  5
52D
  8
0
  6
CONTINUOUS
 62
     7
 10
77.8660613008
 20
114.8883191914
 30
0.0
  0
VERTEX
  5
52E
  8
0
  6
CONTINUOUS
 62
     7
 10
77.8691875179
 20
114.8855042689
 30
0.0
  0
VERTEX
  5
52F
  8
0
  6
CONTINUOUS
 62
     7
 10
77.8723502893
 20
114.8826567502
 30
0.0
  0
SEQEND
  5
7F2
  8
0
  6
CONTINUOUS
 62
     7
  0
LINE
  5
122
  8
0
  6
CONTINUOUS
 62
     7
 10
77.8268649604
 20
114.8321399511
 30
0.0
 11
77.8723502893
 21
114.8826567502
 31
0.0
  0
LINE
  5
123
  8
0
  6
CONTINUOUS
 62
     7
 10
77.8500316095
 20
114.902752363
 30
0.0
 11
77.8031865496
 21
114.8507254244
 31
0.0
  0
ARC
  5
124
  8
0
  6
CONTINUOUS
 62
     7
 10
76.3152548215
 20
114.1574954068
 30
0.0
 40
1.599999999999998
 50
68.1737642681
 51
117.8262357319
  0
ARC
  5
125
  8
0
  6
CONTINUOUS
 62
     7
 10
75.5333339396
 20
115.6544506749
 30
0.0
 40
0.0891485662230104
 50
293.1544612011
 51
354.1906439985
  0
ARC
  5
126
  8
0
  6
CONTINUOUS
 62
     7
 10
75.6510450885
 20
115.6417818647
 30
0.0
 40
0.0292484826074584
 50
110.9019164546
 51
172.8404821835
  0
ARC
  5
127
  8
0
  6
CONTINUOUS
 62
     7
 10
76.3152548215
 20
114.1574954068
 30
0.0
 40
1.655328000001855
 50
102.006984372
 51
114.0516193426
  0
POLYLINE
  5
128
  8
0
  6
CONTINUOUS
 62
     7
 66
     1
 10
0.0
 20
0.0
 30
0.0
 70
   128
  0
VERTEX
  5
530
  8
0
  6
CONTINUOUS
 62
     7
 10
75.970895415
 20
115.7766086095
 30
0.0
  0
VERTEX
  5
531
  8
0
  6
CONTINUOUS
 62
     7
 10
76.0935448937
 20
115.7967098103
 30
0.0
  0
VERTEX
  5
532
  8
0
  6
CONTINUOUS
 62
     7
 10
76.4884843387
 20
115.8037343108
 30
0.0
  0
SEQEND
  5
7F3
  8
0
  6
CONTINUOUS
 62
     7
  0
ARC
  5
129
  8
0
  6
CONTINUOUS
 62
     7
 10
76.3152548215
 20
114.1574954068
 30
0.0
 40
1.655328000000007
 50
71.948380658
 51
83.9930156262
  0
ARC
  5
12A
  8
0
  6
CONTINUOUS
 62
     7
 10
76.8215581408
 20
115.7039355816
 30
0.0
 40
0.028201568986148
 50
11.8742997386
 51
76.3832736305
  0
ARC
  5
12B
  8
0
  6
CONTINUOUS
 62
     7
 10
76.9375907636
 20
115.7290514897
 30
0.0
 40
0.090518826683609
 50
192.3192704987
 51
252.3356029896
  0
POLYLINE
  5
12C
  8
0
  6
CONTINUOUS
 62
     7
 66
     1
 10
0.0
 20
0.0
 30
0.0
 70
   128
  0
VERTEX
  5
533
  8
0
  6
CONTINUOUS
 62
     7
 10
75.5699979503
 20
115.6922722281
 30
0.0
  0
VERTEX
  5
534
  8
0
  6
CONTINUOUS
 62
     7
 10
75.5719658349
 20
115.6944578093
 30
0.0
  0
VERTEX
  5
535
  8
0
  6
CONTINUOUS
 62
     7
 10
75.5741446641
 20
115.6968776182
 30
0.0
  0
VERTEX
  5
536
  8
0
  6
CONTINUOUS
 62
     7
 10
75.5765089428
 20
115.6995034822
 30
0.0
  0
VERTEX
  5
537
  8
0
  6
CONTINUOUS
 62
     7
 10
75.5790313136
 20
115.7023049005
 30
0.0
  0
VERTEX
  5
538
  8
0
  6
CONTINUOUS
 62
     7
 10
75.5816823233
 20
115.705249044
 30
0.0
  0
VERTEX
  5
539
  8
0
  6
CONTINUOUS
 62
     7
 10
75.5844311219
 20
115.7083019194
 30
0.0
  0
VERTEX
  5
53A
  8
0
  6
CONTINUOUS
 62
     7
 10
75.5872458115
 20
115.7114281365
 30
0.0
  0
VERTEX
  5
53B
  8
0
  6
CONTINUOUS
 62
     7
 10
75.5900936796
 20
115.7145909079
 30
0.0
  0
SEQEND
  5
7F4
  8
0
  6
CONTINUOUS
 62
     7
  0
LINE
  5
12D
  8
0
  6
CONTINUOUS
 62
     7
 10
75.6406101294
 20
115.669105579
 30
0.0
 11
75.5900936796
 21
115.7145909079
 31
0.0
  0
LINE
  5
12E
  8
0
  6
CONTINUOUS
 62
     7
 10
75.5699979503
 20
115.6922722281
 30
0.0
 11
75.6220246561
 21
115.6454271682
 31
0.0
  0
ARC
  5
12F
  8
0
  6
CONTINUOUS
 62
     7
 10
77.1330723858
 20
112.7023178944
 30
0.0
 40
0.1377406145928909
 50
227.7251174749
 51
318.2749159822
  0
LINE
  5
130
  8
0
  6
CONTINUOUS
 62
     7
 10
77.2358746629
 20
112.610643641
 30
0.0
 11
77.9498638015
 21
113.4036089339
 31
0.0
  0
ARC
  5
131
  8
0
  6
CONTINUOUS
 62
     7
 10
77.8479462576
 20
113.4962654249
 30
0.0
 40
0.137740375644359
 50
317.7250249461
 51
48.2748795174
  0
LINE
  5
132
  8
0
  6
CONTINUOUS
 62
     7
 10
77.9396204174
 20
113.5990674653
 30
0.0
 11
77.8891038511
 21
113.6445527942
 31
0.0
  0
LINE
  5
133
  8
0
  6
CONTINUOUS
 62
     7
 10
77.9614957877
 20
113.9842852996
 30
0.0
 11
78.0312197179
 21
112.6538723753
 31
0.0
  0
ARC
  5
134
  8
0
  6
CONTINUOUS
 62
     7
 10
77.9873833091
 20
112.6519082405
 30
0.0
 40
0.0438803892196719
 50
273.2047351522
 51
2.5654796426
  0
LINE
  5
135
  8
0
  6
CONTINUOUS
 62
     7
 10
77.9898363993
 20
112.6080964737
 30
0.0
 11
76.6596141633
 21
112.5383823224
 31
0.0
  0
LINE
  5
136
  8
0
  6
CONTINUOUS
 62
     7
 10
77.9275453545
 20
113.4237045468
 30
0.0
 11
77.2135562159
 21
112.6307392538
 31
0.0
  0
POLYLINE
  5
137
  8
0
  6
CONTINUOUS
 62
     7
 66
     1
 10
0.0
 20
0.0
 30
0.0
 70
   128
  0
VERTEX
  5
53C
  8
0
  6
CONTINUOUS
 62
     7
 10
77.9275453545
 20
113.4237045468
 30
0.0
  0
VERTEX
  5
53D
  8
0
  6
CONTINUOUS
 62
     7
 10
77.9297309358
 20
113.4217366622
 30
0.0
  0
VERTEX
  5
53E
  8
0
  6
CONTINUOUS
 62
     7
 10
77.9321507447
 20
113.419557833
 30
0.0
  0
VERTEX
  5
53F
  8
0
  6
CONTINUOUS
 62
     7
 10
77.9347766087
 20
113.417193205
 30
0.0
  0
VERTEX
  5
540
  8
0
  6
CONTINUOUS
 62
     7
 10
77.9375777941
 20
113.4146711835
 30
0.0
  0
VERTEX
  5
541
  8
0
  6
CONTINUOUS
 62
     7
 10
77.9405221705
 20
113.4120201737
 30
0.0
  0
VERTEX
  5
542
  8
0
  6
CONTINUOUS
 62
     7
 10
77.9435750459
 20
113.4092713752
 30
0.0
  0
VERTEX
  5
543
  8
0
  6
CONTINUOUS
 62
     7
 10
77.9467010301
 20
113.4064564527
 30
0.0
  0
VERTEX
  5
544
  8
0
  6
CONTINUOUS
 62
     7
 10
77.9498638015
 20
113.4036089339
 30
0.0
  0
SEQEND
  5
7F5
  8
0
  6
CONTINUOUS
 62
     7
  0
POLYLINE
  5
138
  8
0
  6
CONTINUOUS
 62
     7
 66
     1
 10
0.0
 20
0.0
 30
0.0
 70
   128
  0
VERTEX
  5
545
  8
0
  6
CONTINUOUS
 62
     7
 10
77.2135562159
 20
112.6307392538
 30
0.0
  0
VERTEX
  5
546
  8
0
  6
CONTINUOUS
 62
     7
 10
77.2157417972
 20
112.6287713692
 30
0.0
  0
VERTEX
  5
547
  8
0
  6
CONTINUOUS
 62
     7
 10
77.2181616061
 20
112.6265925401
 30
0.0
  0
VERTEX
  5
548
  8
0
  6
CONTINUOUS
 62
     7
 10
77.2207874701
 20
112.6242283777
 30
0.0
  0
VERTEX
  5
549
  8
0
  6
CONTINUOUS
 62
     7
 10
77.2235888884
 20
112.6217058905
 30
0.0
  0
VERTEX
  5
54A
  8
0
  6
CONTINUOUS
 62
     7
 10
77.2265330319
 20
112.6190548808
 30
0.0
  0
VERTEX
  5
54B
  8
0
  6
CONTINUOUS
 62
     7
 10
77.2295859073
 20
112.6163060822
 30
0.0
  0
VERTEX
  5
54C
  8
0
  6
CONTINUOUS
 62
     7
 10
77.2327118915
 20
112.6134911598
 30
0.0
  0
VERTEX
  5
54D
  8
0
  6
CONTINUOUS
 62
     7
 10
77.2358746629
 20
112.610643641
 30
0.0
  0
SEQEND
  5
7F6
  8
0
  6
CONTINUOUS
 62
     7
  0
ARC
  5
139
  8
0
  6
CONTINUOUS
 62
     7
 10
75.4974372093
 20
115.6126727165
 30
0.0
 40
0.1377408407984869
 50
47.7252124764
 51
138.2748209807
  0
LINE
  5
13A
  8
0
  6
CONTINUOUS
 62
     7
 10
75.3946349153
 20
115.7043472909
 30
0.0
 11
74.6806457767
 21
114.911381998
 31
0.0
  0
ARC
  5
13B
  8
0
  6
CONTINUOUS
 62
     7
 10
74.7825634782
 20
114.8187255972
 30
0.0
 40
0.1377404315118429
 50
137.7250967562
 51
228.2749098032
  0
LINE
  5
13C
  8
0
  6
CONTINUOUS
 62
     7
 10
74.6908893355
 20
114.7159234666
 30
0.0
 11
74.7414058145
 21
114.6704381377
 31
0.0
  0
LINE
  5
13D
  8
0
  6
CONTINUOUS
 62
     7
 10
74.6690139361
 20
114.3307056323
 30
0.0
 11
74.5992899477
 21
115.6611185566
 31
0.0
  0
ARC
  5
13E
  8
0
  6
CONTINUOUS
 62
     7
 10
74.6431269977
 20
115.6630821164
 30
0.0
 40
0.0438810040508488
 50
93.2056429258
 51
182.5646921406
  0
LINE
  5
13F
  8
0
  6
CONTINUOUS
 62
     7
 10
74.640673179
 20
115.7068944582
 30
0.0
 11
75.970895415
 21
115.7766086095
 31
0.0
  0
CIRCLE
  5
140
  8
0
  6
CONTINUOUS
 62
     7
 10
74.8468006464
 20
115.479697485
 30
0.0
 40
0.177840000000079
  0
ARC
  5
141
  8
0
  6
CONTINUOUS
 62
     7
 10
77.7704324248
 20
114.9753131151
 30
0.0
 40
0.1377405281128373
 50
317.7251534423
 51
48.274887149
  0
LINE
  5
142
  8
0
  6
CONTINUOUS
 62
     7
 10
77.8621066723
 20
115.0781152815
 30
0.0
 11
77.0691413794
 21
115.7921044201
 31
0.0
  0
ARC
  5
143
  8
0
  6
CONTINUOUS
 62
     7
 10
76.9764848921
 20
115.6901865538
 30
0.0
 40
0.1377406117430654
 50
47.725116278
 51
138.2749171791
  0
LINE
  5
144
  8
0
  6
CONTINUOUS
 62
     7
 10
76.8736826152
 20
115.7818608031
 30
0.0
 11
76.8281975191
 21
115.7313444697
 31
0.0
  0
LINE
  5
145
  8
0
  6
CONTINUOUS
 62
     7
 10
76.4884843387
 20
115.8037343108
 30
0.0
 11
77.8187065747
 21
115.8734482293
 31
0.0
  0
ARC
  5
146
  8
0
  6
CONTINUOUS
 62
     7
 10
77.8208460059
 20
115.8296195741
 30
0.0
 40
0.0438808407542589
 50
3.434828461
 51
92.7945908362
  0
LINE
  5
147
  8
0
  6
CONTINUOUS
 62
     7
 10
77.8646480188
 20
115.8322486141
 30
0.0
 11
77.934371949
 21
114.5018356898
 31
0.0
  0
LINE
  5
148
  8
0
  6
CONTINUOUS
 62
     7
 10
74.7029643402
 20
114.8912863851
 30
0.0
 11
75.4169534788
 21
115.6842516781
 31
0.0
  0
POLYLINE
  5
149
  8
0
  6
CONTINUOUS
 62
     7
 66
     1
 10
0.0
 20
0.0
 30
0.0
 70
   128
  0
VERTEX
  5
54E
  8
0
  6
CONTINUOUS
 62
     7
 10
74.7029643402
 20
114.8912863851
 30
0.0
  0
VERTEX
  5
54F
  8
0
  6
CONTINUOUS
 62
     7
 10
74.7007787007
 20
114.8932542697
 30
0.0
  0
VERTEX
  5
550
  8
0
  6
CONTINUOUS
 62
     7
 10
74.6983588918
 20
114.8954330989
 30
0.0
  0
VERTEX
  5
551
  8
0
  6
CONTINUOUS
 62
     7
 10
74.6957330569
 20
114.8977972613
 30
0.0
  0
VERTEX
  5
552
  8
0
  6
CONTINUOUS
 62
     7
 10
74.6929317259
 20
114.9003197484
 30
0.0
  0
VERTEX
  5
553
  8
0
  6
CONTINUOUS
 62
     7
 10
74.6899874951
 20
114.9029707582
 30
0.0
  0
VERTEX
  5
554
  8
0
  6
CONTINUOUS
 62
     7
 10
74.6869346197
 20
114.9057195567
 30
0.0
  0
VERTEX
  5
555
  8
0
  6
CONTINUOUS
 62
     7
 10
74.6838085773
 20
114.9085340136
 30
0.0
  0
VERTEX
  5
556
  8
0
  6
CONTINUOUS
 62
     7
 10
74.6806457767
 20
114.911381998
 30
0.0
  0
SEQEND
  5
7F7
  8
0
  6
CONTINUOUS
 62
     7
  0
POLYLINE
  5
14A
  8
0
  6
CONTINUOUS
 62
     7
 66
     1
 10
0.0
 20
0.0
 30
0.0
 70
   128
  0
VERTEX
  5
557
  8
0
  6
CONTINUOUS
 62
     7
 10
75.4169534788
 20
115.6842516781
 30
0.0
  0
VERTEX
  5
558
  8
0
  6
CONTINUOUS
 62
     7
 10
75.4147677811
 20
115.6862195627
 30
0.0
  0
VERTEX
  5
559
  8
0
  6
CONTINUOUS
 62
     7
 10
75.4123479722
 20
115.6883983918
 30
0.0
  0
VERTEX
  5
55A
  8
0
  6
CONTINUOUS
 62
     7
 10
75.4097222246
 20
115.6907625542
 30
0.0
  0
VERTEX
  5
55B
  8
0
  6
CONTINUOUS
 62
     7
 10
75.4069208063
 20
115.6932850414
 30
0.0
  0
VERTEX
  5
55C
  8
0
  6
CONTINUOUS
 62
     7
 10
75.4039766628
 20
115.6959360511
 30
0.0
  0
VERTEX
  5
55D
  8
0
  6
CONTINUOUS
 62
     7
 10
75.4009237874
 20
115.6986848497
 30
0.0
  0
VERTEX
  5
55E
  8
0
  6
CONTINUOUS
 62
     7
 10
75.3977976868
 20
115.7014995393
 30
0.0
  0
VERTEX
  5
55F
  8
0
  6
CONTINUOUS
 62
     7
 10
75.3946349153
 20
115.7043472909
 30
0.0
  0
SEQEND
  5
7F8
  8
0
  6
CONTINUOUS
 62
     7
  0
LINE
  5
14B
  8
0
  6
CONTINUOUS
 62
     7
 10
77.0490457665
 20
115.7697859731
 30
0.0
 11
77.8420110595
 21
115.0557966017
 31
0.0
  0
POLYLINE
  5
14C
  8
0
  6
CONTINUOUS
 62
     7
 66
     1
 10
0.0
 20
0.0
 30
0.0
 70
   128
  0
VERTEX
  5
560
  8
0
  6
CONTINUOUS
 62
     7
 10
77.0490457665
 20
115.7697859731
 30
0.0
  0
VERTEX
  5
561
  8
0
  6
CONTINUOUS
 62
     7
 10
77.0510136511
 20
115.7719715544
 30
0.0
  0
VERTEX
  5
562
  8
0
  6
CONTINUOUS
 62
     7
 10
77.0531924803
 20
115.7743913633
 30
0.0
  0
VERTEX
  5
563
  8
0
  6
CONTINUOUS
 62
     7
 10
77.0555568755
 20
115.7770172273
 30
0.0
  0
VERTEX
  5
564
  8
0
  6
CONTINUOUS
 62
     7
 10
77.0580791298
 20
115.7798184127
 30
0.0
  0
VERTEX
  5
565
  8
0
  6
CONTINUOUS
 62
     7
 10
77.0607301396
 20
115.7827627891
 30
0.0
  0
VERTEX
  5
566
  8
0
  6
CONTINUOUS
 62
     7
 10
77.0634789381
 20
115.7858156645
 30
0.0
  0
VERTEX
  5
567
  8
0
  6
CONTINUOUS
 62
     7
 10
77.0662936278
 20
115.7889416487
 30
0.0
  0
VERTEX
  5
568
  8
0
  6
CONTINUOUS
 62
     7
 10
77.0691413794
 20
115.7921044201
 30
0.0
  0
SEQEND
  5
7F9
  8
0
  6
CONTINUOUS
 62
     7
  0
POLYLINE
  5
14D
  8
0
  6
CONTINUOUS
 62
     7
 66
     1
 10
0.0
 20
0.0
 30
0.0
 70
   128
  0
VERTEX
  5
569
  8
0
  6
CONTINUOUS
 62
     7
 10
77.8420110595
 20
115.0557966017
 30
0.0
  0
VERTEX
  5
56A
  8
0
  6
CONTINUOUS
 62
     7
 10
77.8439789441
 20
115.0579824158
 30
0.0
  0
VERTEX
  5
56B
  8
0
  6
CONTINUOUS
 62
     7
 10
77.8461577732
 20
115.0604019918
 30
0.0
  0
VERTEX
  5
56C
  8
0
  6
CONTINUOUS
 62
     7
 10
77.8485219356
 20
115.0630278558
 30
0.0
  0
VERTEX
  5
56D
  8
0
  6
CONTINUOUS
 62
     7
 10
77.8510444228
 20
115.0658292741
 30
0.0
  0
VERTEX
  5
56E
  8
0
  6
CONTINUOUS
 62
     7
 10
77.8536954325
 20
115.0687736505
 30
0.0
  0
VERTEX
  5
56F
  8
0
  6
CONTINUOUS
 62
     7
 10
77.8564442311
 20
115.0718265259
 30
0.0
  0
VERTEX
  5
570
  8
0
  6
CONTINUOUS
 62
     7
 10
77.8592589207
 20
115.0749525101
 30
0.0
  0
VERTEX
  5
571
  8
0
  6
CONTINUOUS
 62
     7
 10
77.8621066723
 20
115.0781152815
 30
0.0
  0
SEQEND
  5
7FA
  8
0
  6
CONTINUOUS
 62
     7
  0
POLYLINE
  5
14E
  8
0
  6
CONTINUOUS
 62
     7
 66
     1
 10
0.0
 20
0.0
 30
0.0
 70
   128
  0
VERTEX
  5
572
  8
0
  6
CONTINUOUS
 62
     7
 10
77.9195245717
 20
113.5767487855
 30
0.0
  0
VERTEX
  5
573
  8
0
  6
CONTINUOUS
 62
     7
 10
77.9214924563
 20
113.5789345995
 30
0.0
  0
VERTEX
  5
574
  8
0
  6
CONTINUOUS
 62
     7
 10
77.9236712855
 20
113.5813541756
 30
0.0
  0
VERTEX
  5
575
  8
0
  6
CONTINUOUS
 62
     7
 10
77.9260356806
 20
113.5839800396
 30
0.0
  0
VERTEX
  5
576
  8
0
  6
CONTINUOUS
 62
     7
 10
77.928557935
 20
113.5867814579
 30
0.0
  0
VERTEX
  5
577
  8
0
  6
CONTINUOUS
 62
     7
 10
77.9312089447
 20
113.5897258342
 30
0.0
  0
VERTEX
  5
578
  8
0
  6
CONTINUOUS
 62
     7
 10
77.9339577433
 20
113.5927787096
 30
0.0
  0
VERTEX
  5
579
  8
0
  6
CONTINUOUS
 62
     7
 10
77.9367724329
 20
113.5959046938
 30
0.0
  0
VERTEX
  5
57A
  8
0
  6
CONTINUOUS
 62
     7
 10
77.9396204174
 20
113.5990674653
 30
0.0
  0
SEQEND
  5
7FB
  8
0
  6
CONTINUOUS
 62
     7
  0
LINE
  5
14F
  8
0
  6
CONTINUOUS
 62
     7
 10
77.8674978659
 20
113.6235938453
 30
0.0
 11
77.9195245717
 21
113.5767487855
 31
0.0
  0
POLYLINE
  5
150
  8
0
  6
CONTINUOUS
 62
     7
 66
     1
 10
0.0
 20
0.0
 30
0.0
 70
   128
  0
VERTEX
  5
57B
  8
0
  6
CONTINUOUS
 62
     7
 10
74.7109850648
 20
114.7382416808
 30
0.0
  0
VERTEX
  5
57C
  8
0
  6
CONTINUOUS
 62
     7
 10
74.7090170929
 20
114.7360563324
 30
0.0
  0
VERTEX
  5
57D
  8
0
  6
CONTINUOUS
 62
     7
 10
74.7068382928
 20
114.7336362907
 30
0.0
  0
VERTEX
  5
57E
  8
0
  6
CONTINUOUS
 62
     7
 10
74.704473985
 20
114.7310104267
 30
0.0
  0
VERTEX
  5
57F
  8
0
  6
CONTINUOUS
 62
     7
 10
74.7019516724
 20
114.728209474
 30
0.0
  0
VERTEX
  5
580
  8
0
  6
CONTINUOUS
 62
     7
 10
74.6993006627
 20
114.7252650977
 30
0.0
  0
VERTEX
  5
581
  8
0
  6
CONTINUOUS
 62
     7
 10
74.696551835
 20
114.7222122223
 30
0.0
  0
VERTEX
  5
582
  8
0
  6
CONTINUOUS
 62
     7
 10
74.6937371453
 20
114.7190862381
 30
0.0
  0
VERTEX
  5
583
  8
0
  6
CONTINUOUS
 62
     7
 10
74.6908893355
 20
114.7159234666
 30
0.0
  0
SEQEND
  5
7FC
  8
0
  6
CONTINUOUS
 62
     7
  0
LINE
  5
151
  8
0
  6
CONTINUOUS
 62
     7
 10
74.7630117997
 20
114.6913966209
 30
0.0
 11
74.7109850648
 21
114.7382416808
 31
0.0
  0
POLYLINE
  5
152
  8
0
  6
CONTINUOUS
 62
     7
 66
     1
 10
0.0
 20
0.0
 30
0.0
 70
   128
  0
VERTEX
  5
584
  8
0
  6
CONTINUOUS
 62
     7
 10
76.896001295
 20
115.7617651903
 30
0.0
  0
VERTEX
  5
585
  8
0
  6
CONTINUOUS
 62
     7
 10
76.8938157138
 20
115.7637330749
 30
0.0
  0
VERTEX
  5
586
  8
0
  6
CONTINUOUS
 62
     7
 10
76.8913959049
 20
115.7659119041
 30
0.0
  0
VERTEX
  5
587
  8
0
  6
CONTINUOUS
 62
     7
 10
76.8887700409
 20
115.7682762992
 30
0.0
  0
VERTEX
  5
588
  8
0
  6
CONTINUOUS
 62
     7
 10
76.8859686226
 20
115.7707985536
 30
0.0
  0
VERTEX
  5
589
  8
0
  6
CONTINUOUS
 62
     7
 10
76.8830244791
 20
115.7734495633
 30
0.0
  0
VERTEX
  5
58A
  8
0
  6
CONTINUOUS
 62
     7
 10
76.8799716037
 20
115.7761983619
 30
0.0
  0
VERTEX
  5
58B
  8
0
  6
CONTINUOUS
 62
     7
 10
76.8768456195
 20
115.7790130515
 30
0.0
  0
VERTEX
  5
58C
  8
0
  6
CONTINUOUS
 62
     7
 10
76.8736826152
 20
115.7818608031
 30
0.0
  0
SEQEND
  5
7FD
  8
0
  6
CONTINUOUS
 62
     7
  0
LINE
  5
153
  8
0
  6
CONTINUOUS
 62
     7
 10
76.8491562352
 20
115.7097384845
 30
0.0
 11
76.896001295
 21
115.7617651903
 31
0.0
  0
ARC
  5
154
  8
0
  6
CONTINUOUS
 62
     7
 10
74.8600770777
 20
113.3396777809
 30
0.0
 40
0.1377404315118429
 50
137.7250967562
 51
228.2749098032
  0
LINE
  5
155
  8
0
  6
CONTINUOUS
 62
     7
 10
74.7684029351
 20
113.2368756504
 30
0.0
 11
75.5613681989
 21
112.5228865118
 31
0.0
  0
ARC
  5
156
  8
0
  6
CONTINUOUS
 62
     7
 10
75.6540247204
 20
112.6248037251
 30
0.0
 40
0.1377401516070124
 50
227.7249230293
 51
318.2751104278
  0
LINE
  5
157
  8
0
  6
CONTINUOUS
 62
     7
 10
75.7568269631
 20
112.5331301288
 30
0.0
 11
75.8023121756
 21
112.5836464622
 31
0.0
  0
LINE
  5
158
  8
0
  6
CONTINUOUS
 62
     7
 10
76.1420252396
 20
112.5112566211
 30
0.0
 11
74.8118030036
 21
112.4415424698
 31
0.0
  0
ARC
  5
159
  8
0
  6
CONTINUOUS
 62
     7
 10
74.8096637453
 20
112.4853712721
 30
0.0
 40
0.0438809792102382
 50
183.4347054213
 51
272.7943559115
  0
LINE
  5
15A
  8
0
  6
CONTINUOUS
 62
     7
 10
74.7658615886
 20
112.4827423178
 30
0.0
 11
74.6961376002
 21
113.8131552421
 31
0.0
  0
LINE
  5
15B
  8
0
  6
CONTINUOUS
 62
     7
 10
75.5814639282
 20
112.5452047259
 30
0.0
 11
74.7884986643
 21
113.2591938645
 31
0.0
  0
POLYLINE
  5
15C
  8
0
  6
CONTINUOUS
 62
     7
 66
     1
 10
0.0
 20
0.0
 30
0.0
 70
   128
  0
VERTEX
  5
58D
  8
0
  6
CONTINUOUS
 62
     7
 10
75.5814639282
 20
112.5452047259
 30
0.0
  0
VERTEX
  5
58E
  8
0
  6
CONTINUOUS
 62
     7
 10
75.5794959272
 20
112.5430193775
 30
0.0
  0
VERTEX
  5
58F
  8
0
  6
CONTINUOUS
 62
     7
 10
75.5773172144
 20
112.5405993358
 30
0.0
  0
VERTEX
  5
590
  8
0
  6
CONTINUOUS
 62
     7
 10
75.5749528192
 20
112.5379734718
 30
0.0
  0
VERTEX
  5
591
  8
0
  6
CONTINUOUS
 62
     7
 10
75.5724305649
 20
112.5351725192
 30
0.0
  0
VERTEX
  5
592
  8
0
  6
CONTINUOUS
 62
     7
 10
75.5697795551
 20
112.5322281428
 30
0.0
  0
VERTEX
  5
593
  8
0
  6
CONTINUOUS
 62
     7
 10
75.5670307566
 20
112.5291752674
 30
0.0
  0
VERTEX
  5
594
  8
0
  6
CONTINUOUS
 62
     7
 10
75.5642159505
 20
112.5260492832
 30
0.0
  0
VERTEX
  5
595
  8
0
  6
CONTINUOUS
 62
     7
 10
75.5613681989
 20
112.5228865118
 30
0.0
  0
SEQEND
  5
7FE
  8
0
  6
CONTINUOUS
 62
     7
  0
POLYLINE
  5
15D
  8
0
  6
CONTINUOUS
 62
     7
 66
     1
 10
0.0
 20
0.0
 30
0.0
 70
   128
  0
VERTEX
  5
596
  8
0
  6
CONTINUOUS
 62
     7
 10
74.7884986643
 20
113.2591938645
 30
0.0
  0
VERTEX
  5
597
  8
0
  6
CONTINUOUS
 62
     7
 10
74.7865307215
 20
113.2570085161
 30
0.0
  0
VERTEX
  5
598
  8
0
  6
CONTINUOUS
 62
     7
 10
74.7843519215
 20
113.2545884744
 30
0.0
  0
VERTEX
  5
599
  8
0
  6
CONTINUOUS
 62
     7
 10
74.7819875845
 20
113.2519626104
 30
0.0
  0
VERTEX
  5
59A
  8
0
  6
CONTINUOUS
 62
     7
 10
74.7794652719
 20
113.2491616578
 30
0.0
  0
VERTEX
  5
59B
  8
0
  6
CONTINUOUS
 62
     7
 10
74.7768142622
 20
113.2462172814
 30
0.0
  0
VERTEX
  5
59C
  8
0
  6
CONTINUOUS
 62
     7
 10
74.7740654345
 20
113.243164406
 30
0.0
  0
VERTEX
  5
59D
  8
0
  6
CONTINUOUS
 62
     7
 10
74.7712507449
 20
113.2400384218
 30
0.0
  0
VERTEX
  5
59E
  8
0
  6
CONTINUOUS
 62
     7
 10
74.7684029351
 20
113.2368756504
 30
0.0
  0
SEQEND
  5
7FF
  8
0
  6
CONTINUOUS
 62
     7
  0
POLYLINE
  5
15E
  8
0
  6
CONTINUOUS
 62
     7
 66
     1
 10
0.0
 20
0.0
 30
0.0
 70
   128
  0
VERTEX
  5
59F
  8
0
  6
CONTINUOUS
 62
     7
 10
75.7345083997
 20
112.5532257416
 30
0.0
  0
VERTEX
  5
5A0
  8
0
  6
CONTINUOUS
 62
     7
 10
75.7366939809
 20
112.551257857
 30
0.0
  0
VERTEX
  5
5A1
  8
0
  6
CONTINUOUS
 62
     7
 10
75.7391137898
 20
112.5490790278
 30
0.0
  0
VERTEX
  5
5A2
  8
0
  6
CONTINUOUS
 62
     7
 10
75.7417396538
 20
112.5467143998
 30
0.0
  0
VERTEX
  5
5A3
  8
0
  6
CONTINUOUS
 62
     7
 10
75.7445409557
 20
112.5441923783
 30
0.0
  0
VERTEX
  5
5A4
  8
0
  6
CONTINUOUS
 62
     7
 10
75.7474852156
 20
112.5415413686
 30
0.0
  0
VERTEX
  5
5A5
  8
0
  6
CONTINUOUS
 62
     7
 10
75.750538091
 20
112.53879257
 30
0.0
  0
VERTEX
  5
5A6
  8
0
  6
CONTINUOUS
 62
     7
 10
75.7536640752
 20
112.5359776475
 30
0.0
  0
VERTEX
  5
5A7
  8
0
  6
CONTINUOUS
 62
     7
 10
75.7568269631
 20
112.5331301288
 30
0.0
  0
SEQEND
  5
800
  8
0
  6
CONTINUOUS
 62
     7
  0
LINE
  5
15F
  8
0
  6
CONTINUOUS
 62
     7
 10
75.7813534595
 20
112.6052522146
 30
0.0
 11
75.7345083997
 21
112.5532257416
 31
0.0
  0
POLYLINE
  5
160
  8
0
  6
CONTINUOUS
 62
     7
 66
     1
 10
0.0
 20
0.0
 30
0.0
 70
   128
  0
VERTEX
  5
5A8
  8
0
  6
CONTINUOUS
 62
     7
 10
74.7204594676
 20
112.4806682625
 30
0.0
  0
VERTEX
  5
5A9
  8
0
  6
CONTINUOUS
 62
     7
 10
74.7420526471
 20
112.4816470825
 30
0.0
  0
VERTEX
  5
5AA
  8
0
  6
CONTINUOUS
 62
     7
 10
74.7658615886
 20
112.4827423178
 30
0.0
  0
SEQEND
  5
801
  8
0
  6
CONTINUOUS
 62
     7
  0
LINE
  5
161
  8
0
  6
CONTINUOUS
 62
     7
 10
74.5539197536
 20
115.6584354163
 30
0.0
 11
74.7204594676
 21
112.4806682625
 31
0.0
  0
POLYLINE
  5
162
  8
0
  6
CONTINUOUS
 62
     7
 66
     1
 10
0.0
 20
0.0
 30
0.0
 70
   128
  0
VERTEX
  5
5AB
  8
0
  6
CONTINUOUS
 62
     7
 10
74.5539197536
 20
115.6584354163
 30
0.0
  0
VERTEX
  5
5AC
  8
0
  6
CONTINUOUS
 62
     7
 10
74.5754969551
 20
115.6597187788
 30
0.0
  0
VERTEX
  5
5AD
  8
0
  6
CONTINUOUS
 62
     7
 10
74.5992899477
 20
115.6611185566
 30
0.0
  0
SEQEND
  5
802
  8
0
  6
CONTINUOUS
 62
     7
  0
POLYLINE
  5
163
  8
0
  6
CONTINUOUS
 62
     7
 66
     1
 10
0.0
 20
0.0
 30
0.0
 70
   128
  0
VERTEX
  5
5AE
  8
0
  6
CONTINUOUS
 62
     7
 10
77.9100502271
 20
115.8343226694
 30
0.0
  0
VERTEX
  5
5AF
  8
0
  6
CONTINUOUS
 62
     7
 10
77.8884570476
 20
115.8333438494
 30
0.0
  0
VERTEX
  5
5B0
  8
0
  6
CONTINUOUS
 62
     7
 10
77.8646480188
 20
115.8322486141
 30
0.0
  0
SEQEND
  5
803
  8
0
  6
CONTINUOUS
 62
     7
  0
LINE
  5
164
  8
0
  6
CONTINUOUS
 62
     7
 10
78.0765897956
 20
112.6565555156
 30
0.0
 11
77.9100502271
 21
115.8343226694
 31
0.0
  0
POLYLINE
  5
165
  8
0
  6
CONTINUOUS
 62
     7
 66
     1
 10
0.0
 20
0.0
 30
0.0
 70
   128
  0
VERTEX
  5
5B1
  8
0
  6
CONTINUOUS
 62
     7
 10
78.0765897956
 20
112.6565555156
 30
0.0
  0
VERTEX
  5
5B2
  8
0
  6
CONTINUOUS
 62
     7
 10
78.0550126814
 20
112.6552721531
 30
0.0
  0
VERTEX
  5
5B3
  8
0
  6
CONTINUOUS
 62
     7
 10
78.0312197179
 20
112.6538723753
 30
0.0
  0
SEQEND
  5
804
  8
0
  6
CONTINUOUS
 62
     7
  0
POLYLINE
  5
166
  8
0
  6
CONTINUOUS
 62
     7
 66
     1
 10
0.0
 20
0.0
 30
0.0
 70
   128
  0
VERTEX
  5
5B4
  8
0
  6
CONTINUOUS
 62
     7
 10
77.9898363993
 20
112.6080964737
 30
0.0
  0
VERTEX
  5
5B5
  8
0
  6
CONTINUOUS
 62
     7
 10
77.9909975257
 20
112.5843090982
 30
0.0
  0
VERTEX
  5
5B6
  8
0
  6
CONTINUOUS
 62
     7
 10
77.9920427025
 20
112.5627317511
 30
0.0
  0
SEQEND
  5
805
  8
0
  6
CONTINUOUS
 62
     7
  0
LINE
  5
167
  8
0
  6
CONTINUOUS
 62
     7
 10
74.8143507529
 20
112.396195908
 30
0.0
 11
77.9920427025
 21
112.5627317511
 31
0.0
  0
POLYLINE
  5
168
  8
0
  6
CONTINUOUS
 62
     7
 66
     1
 10
0.0
 20
0.0
 30
0.0
 70
   128
  0
VERTEX
  5
5B7
  8
0
  6
CONTINUOUS
 62
     7
 10
74.8143507529
 20
112.396195908
 30
0.0
  0
VERTEX
  5
5B8
  8
0
  6
CONTINUOUS
 62
     7
 10
74.8131347949
 20
112.4177639418
 30
0.0
  0
VERTEX
  5
5B9
  8
0
  6
CONTINUOUS
 62
     7
 10
74.8118030036
 20
112.4415424698
 30
0.0
  0
SEQEND
  5
806
  8
0
  6
CONTINUOUS
 62
     7
  0
POLYLINE
  5
169
  8
0
  6
CONTINUOUS
 62
     7
 66
     1
 10
0.0
 20
0.0
 30
0.0
 70
   128
  0
VERTEX
  5
5BA
  8
0
  6
CONTINUOUS
 62
     7
 10
74.638466934
 20
115.7522589479
 30
0.0
  0
VERTEX
  5
5BB
  8
0
  6
CONTINUOUS
 62
     7
 10
74.6395121399
 20
115.7306818337
 30
0.0
  0
VERTEX
  5
5BC
  8
0
  6
CONTINUOUS
 62
     7
 10
74.640673179
 20
115.7068944582
 30
0.0
  0
SEQEND
  5
807
  8
0
  6
CONTINUOUS
 62
     7
  0
LINE
  5
16A
  8
0
  6
CONTINUOUS
 62
     7
 10
77.8161589418
 20
115.9187947911
 30
0.0
 11
74.638466934
 21
115.7522589479
 31
0.0
  0
POLYLINE
  5
16B
  8
0
  6
CONTINUOUS
 62
     7
 66
     1
 10
0.0
 20
0.0
 30
0.0
 70
   128
  0
VERTEX
  5
5BD
  8
0
  6
CONTINUOUS
 62
     7
 10
77.8161589418
 20
115.9187947911
 30
0.0
  0
VERTEX
  5
5BE
  8
0
  6
CONTINUOUS
 62
     7
 10
77.8173747834
 20
115.8972265244
 30
0.0
  0
VERTEX
  5
5BF
  8
0
  6
CONTINUOUS
 62
     7
 10
77.8187065747
 20
115.8734482293
 30
0.0
  0
SEQEND
  5
808
  8
0
  6
CONTINUOUS
 62
     7
  0
ARC
  5
16C
  8
0
  6
CONTINUOUS
 62
     7
 10
75.6539757863
 20
112.6257375056
 30
0.0
 40
0.1083672827830041
 50
227.9999999997
 51
317.9999999997
  0
ARC
  5
16D
  8
0
  6
CONTINUOUS
 62
     7
 10
77.8470127227
 20
113.4962163716
 30
0.0
 40
0.1083672827829851
 50
317.9999999997
 51
47.9999999997
  0
ARC
  5
16E
  8
0
  6
CONTINUOUS
 62
     7
 10
74.7834969203
 20
114.8187744421
 30
0.0
 40
0.1083672827829745
 50
137.9999999997
 51
227.9999999998
  0
ARC
  5
16F
  8
0
  6
CONTINUOUS
 62
     7
 10
76.9765338567
 20
115.6892533081
 30
0.0
 40
0.1083672827829946
 50
47.9999999997
 51
137.9999999997
  0
ARC
  5
170
  8
0
  6
CONTINUOUS
 62
     7
 10
74.8610105317
 20
113.3397266278
 30
0.0
 40
0.108367282782857
 50
138.0000000002
 51
228.0000000003
  0
ARC
  5
171
  8
0
  6
CONTINUOUS
 62
     7
 10
75.4974860425
 20
115.6117396967
 30
0.0
 40
0.1083672827828771
 50
48.0000000002
 51
138.0000000003
  0
ARC
  5
172
  8
0
  6
CONTINUOUS
 62
     7
 10
77.1330236005
 20
112.703251117
 30
0.0
 40
0.108367282782876
 50
228.0000000002
 51
318.0000000002
  0
ARC
  5
173
  8
0
  6
CONTINUOUS
 62
     7
 10
77.7694991113
 20
114.9752641859
 30
0.0
 40
0.1083672827828877
 50
318.0000000002
 51
48.0000000003
  0
ARC
  5
174
  8
0
  6
CONTINUOUS
 62
     7
 10
74.829421123
 20
112.5073637167
 30
0.0
 40
0.1121842055974799
 50
193.7662220873
 51
262.2797480266
  0
ARC
  5
175
  8
0
  6
CONTINUOUS
 62
     7
 10
77.8010878981
 20
115.8076264936
 30
0.0
 40
0.1121850032517256
 50
13.7665016802
 51
82.2794860951
  0
ARC
  5
176
  8
0
  6
CONTINUOUS
 62
     7
 10
77.9654341847
 20
112.6717159129
 30
0.0
 40
0.1121849332075311
 50
283.7204216195
 51
352.2334260357
  0
ARC
  5
177
  8
0
  6
CONTINUOUS
 62
     7
 10
74.6650756187
 20
115.6432749893
 30
0.0
 40
0.1121850016414039
 50
103.7205008197
 51
172.2334154937
  0
CIRCLE
  5
178
  8
0
  6
CONTINUOUS
 62
     7
 10
74.8468006464
 20
115.479697485
 30
0.0
 40
0.0409387041693682
  0
LINE
  5
179
  8
0
  6
CONTINUOUS
 62
     7
 10
75.5683881592
 20
115.5724831902
 30
0.0
 11
75.5097107625
 21
115.6253166542
 31
0.0
  0
POLYLINE
  5
17A
  8
0
  6
CONTINUOUS
 62
     7
 66
     1
 10
0.0
 20
0.0
 30
0.0
 70
   128
  0
VERTEX
  5
5C0
  8
0
  6
CONTINUOUS
 62
     7
 10
75.5699979503
 20
115.6922722281
 30
0.0
  0
VERTEX
  5
5C1
  8
0
  6
CONTINUOUS
 62
     7
 10
75.5640940637
 20
115.6857154843
 30
0.0
  0
VERTEX
  5
5C2
  8
0
  6
CONTINUOUS
 62
     7
 10
75.5575576926
 20
115.6784560577
 30
0.0
  0
VERTEX
  5
5C3
  8
0
  6
CONTINUOUS
 62
     7
 10
75.5504647399
 20
115.6705784657
 30
0.0
  0
VERTEX
  5
5C4
  8
0
  6
CONTINUOUS
 62
     7
 10
75.5428977439
 20
115.6621744436
 30
0.0
  0
VERTEX
  5
5C5
  8
0
  6
CONTINUOUS
 62
     7
 10
75.5349447148
 20
115.6533417803
 30
0.0
  0
VERTEX
  5
5C6
  8
0
  6
CONTINUOUS
 62
     7
 10
75.5266982027
 20
115.6441831541
 30
0.0
  0
VERTEX
  5
5C7
  8
0
  6
CONTINUOUS
 62
     7
 10
75.5182541337
 20
115.6348049686
 30
0.0
  0
VERTEX
  5
5C8
  8
0
  6
CONTINUOUS
 62
     7
 10
75.5097107625
 20
115.6253166542
 30
0.0
  0
SEQEND
  5
809
  8
0
  6
CONTINUOUS
 62
     7
  0
LINE
  5
17B
  8
0
  6
CONTINUOUS
 62
     7
 10
77.0621215355
 20
112.7425077417
 30
0.0
 11
77.1207988158
 21
112.6896742777
 31
0.0
  0
LINE
  5
17C
  8
0
  6
CONTINUOUS
 62
     7
 10
74.9002671231
 20
113.4106287778
 30
0.0
 11
74.8474336591
 21
113.3519512647
 31
0.0
  0
POLYLINE
  5
17D
  8
0
  6
CONTINUOUS
 62
     7
 66
     1
 10
0.0
 20
0.0
 30
0.0
 70
   128
  0
VERTEX
  5
5C9
  8
0
  6
CONTINUOUS
 62
     7
 10
74.7804779397
 20
113.4122385689
 30
0.0
  0
VERTEX
  5
5CA
  8
0
  6
CONTINUOUS
 62
     7
 10
74.7870348581
 20
113.4063344494
 30
0.0
  0
VERTEX
  5
5CB
  8
0
  6
CONTINUOUS
 62
     7
 10
74.7942942556
 20
113.3997984276
 30
0.0
  0
VERTEX
  5
5CC
  8
0
  6
CONTINUOUS
 62
     7
 10
74.8021717894
 20
113.3927054749
 30
0.0
  0
VERTEX
  5
5CD
  8
0
  6
CONTINUOUS
 62
     7
 10
74.8105757533
 20
113.3851384789
 30
0.0
  0
VERTEX
  5
5CE
  8
0
  6
CONTINUOUS
 62
     7
 10
74.8194084166
 20
113.3771854498
 30
0.0
  0
VERTEX
  5
5CF
  8
0
  6
CONTINUOUS
 62
     7
 10
74.828567101
 20
113.3689390541
 30
0.0
  0
VERTEX
  5
5D0
  8
0
  6
CONTINUOUS
 62
     7
 10
74.8379451701
 20
113.3604947523
 30
0.0
  0
VERTEX
  5
5D1
  8
0
  6
CONTINUOUS
 62
     7
 10
74.8474336591
 20
113.3519512647
 30
0.0
  0
SEQEND
  5
80A
  8
0
  6
CONTINUOUS
 62
     7
  0
LINE
  5
17E
  8
0
  6
CONTINUOUS
 62
     7
 10
77.7302425716
 20
114.9043621541
 30
0.0
 11
77.7830760356
 21
114.9630396672
 31
0.0
  0
POLYLINE
  5
17F
  8
0
  6
CONTINUOUS
 62
     7
 66
     1
 10
0.0
 20
0.0
 30
0.0
 70
   128
  0
VERTEX
  5
5D2
  8
0
  6
CONTINUOUS
 62
     7
 10
77.8500316095
 20
114.902752363
 30
0.0
  0
VERTEX
  5
5D3
  8
0
  6
CONTINUOUS
 62
     7
 10
77.8434748657
 20
114.9086560168
 30
0.0
  0
VERTEX
  5
5D4
  8
0
  6
CONTINUOUS
 62
     7
 10
77.8362154391
 20
114.9151925043
 30
0.0
  0
VERTEX
  5
5D5
  8
0
  6
CONTINUOUS
 62
     7
 10
77.8283378471
 20
114.922285457
 30
0.0
  0
VERTEX
  5
5D6
  8
0
  6
CONTINUOUS
 62
     7
 10
77.819933825
 20
114.9298524529
 30
0.0
  0
VERTEX
  5
5D7
  8
0
  6
CONTINUOUS
 62
     7
 10
77.8111011617
 20
114.9378054821
 30
0.0
  0
VERTEX
  5
5D8
  8
0
  6
CONTINUOUS
 62
     7
 10
77.8019425355
 20
114.9460518778
 30
0.0
  0
VERTEX
  5
5D9
  8
0
  6
CONTINUOUS
 62
     7
 10
77.79256435
 20
114.9544961796
 30
0.0
  0
VERTEX
  5
5DA
  8
0
  6
CONTINUOUS
 62
     7
 10
77.7830760356
 20
114.9630396672
 30
0.0
  0
SEQEND
  5
80B
  8
0
  6
CONTINUOUS
 62
     7
  0
POLYLINE
  5
180
  8
0
  6
CONTINUOUS
 62
     7
 66
     1
 10
0.0
 20
0.0
 30
0.0
 70
   128
  0
VERTEX
  5
5DB
  8
0
  6
CONTINUOUS
 62
     7
 10
75.7345083997
 20
112.5532257416
 30
0.0
  0
VERTEX
  5
5DC
  8
0
  6
CONTINUOUS
 62
     7
 10
75.7279514231
 20
112.5591293954
 30
0.0
  0
VERTEX
  5
5DD
  8
0
  6
CONTINUOUS
 62
     7
 10
75.7206919965
 20
112.5656658829
 30
0.0
  0
VERTEX
  5
5DE
  8
0
  6
CONTINUOUS
 62
     7
 10
75.7128145209
 20
112.5727588356
 30
0.0
  0
VERTEX
  5
5DF
  8
0
  6
CONTINUOUS
 62
     7
 10
75.7044106152
 20
112.5803258315
 30
0.0
  0
VERTEX
  5
5E0
  8
0
  6
CONTINUOUS
 62
     7
 10
75.6955778355
 20
112.5882788607
 30
0.0
  0
VERTEX
  5
5E1
  8
0
  6
CONTINUOUS
 62
     7
 10
75.6864192093
 20
112.5965252564
 30
0.0
  0
VERTEX
  5
5E2
  8
0
  6
CONTINUOUS
 62
     7
 10
75.6770411402
 20
112.6049695582
 30
0.0
  0
VERTEX
  5
5E3
  8
0
  6
CONTINUOUS
 62
     7
 10
75.6675527094
 20
112.6135130458
 30
0.0
  0
SEQEND
  5
80C
  8
0
  6
CONTINUOUS
 62
     7
  0
POLYLINE
  5
181
  8
0
  6
CONTINUOUS
 62
     7
 66
     1
 10
0.0
 20
0.0
 30
0.0
 70
   128
  0
VERTEX
  5
5E4
  8
0
  6
CONTINUOUS
 62
     7
 10
76.896001295
 20
115.7617651903
 30
0.0
  0
VERTEX
  5
5E5
  8
0
  6
CONTINUOUS
 62
     7
 10
76.9025582716
 20
115.7558613037
 30
0.0
  0
VERTEX
  5
5E6
  8
0
  6
CONTINUOUS
 62
     7
 10
76.9098176982
 20
115.7493248162
 30
0.0
  0
VERTEX
  5
5E7
  8
0
  6
CONTINUOUS
 62
     7
 10
76.9176950574
 20
115.7422318634
 30
0.0
  0
VERTEX
  5
5E8
  8
0
  6
CONTINUOUS
 62
     7
 10
76.9260990795
 20
115.7346651004
 30
0.0
  0
VERTEX
  5
5E9
  8
0
  6
CONTINUOUS
 62
     7
 10
76.9349317428
 20
115.7267120712
 30
0.0
  0
VERTEX
  5
5EA
  8
0
  6
CONTINUOUS
 62
     7
 10
76.944090369
 20
115.7184654427
 30
0.0
  0
VERTEX
  5
5EB
  8
0
  6
CONTINUOUS
 62
     7
 10
76.9534685545
 20
115.7100213737
 30
0.0
  0
VERTEX
  5
5EC
  8
0
  6
CONTINUOUS
 62
     7
 10
76.9629568689
 20
115.7014778861
 30
0.0
  0
SEQEND
  5
80D
  8
0
  6
CONTINUOUS
 62
     7
  0
LINE
  5
182
  8
0
  6
CONTINUOUS
 62
     7
 10
76.9629568689
 20
115.7014778861
 30
0.0
 11
76.9101236377
 21
115.6428006057
 31
0.0
  0
POLYLINE
  5
183
  8
0
  6
CONTINUOUS
 62
     7
 66
     1
 10
0.0
 20
0.0
 30
0.0
 70
   128
  0
VERTEX
  5
5ED
  8
0
  6
CONTINUOUS
 62
     7
 10
74.7109850648
 20
114.7382416808
 30
0.0
  0
VERTEX
  5
5EE
  8
0
  6
CONTINUOUS
 62
     7
 10
74.7168889223
 20
114.7447986574
 30
0.0
  0
VERTEX
  5
5EF
  8
0
  6
CONTINUOUS
 62
     7
 10
74.7234253225
 20
114.7520583168
 30
0.0
  0
VERTEX
  5
5F0
  8
0
  6
CONTINUOUS
 62
     7
 10
74.7305182752
 20
114.7599359088
 30
0.0
  0
VERTEX
  5
5F1
  8
0
  6
CONTINUOUS
 62
     7
 10
74.7380852421
 20
114.7683396981
 30
0.0
  0
VERTEX
  5
5F2
  8
0
  6
CONTINUOUS
 62
     7
 10
74.746038213
 20
114.7771723614
 30
0.0
  0
VERTEX
  5
5F3
  8
0
  6
CONTINUOUS
 62
     7
 10
74.7542847251
 20
114.7863309876
 30
0.0
  0
VERTEX
  5
5F4
  8
0
  6
CONTINUOUS
 62
     7
 10
74.7627287941
 20
114.7957089403
 30
0.0
  0
VERTEX
  5
5F5
  8
0
  6
CONTINUOUS
 62
     7
 10
74.7712722526
 20
114.8051977203
 30
0.0
  0
SEQEND
  5
80E
  8
0
  6
CONTINUOUS
 62
     7
  0
LINE
  5
184
  8
0
  6
CONTINUOUS
 62
     7
 10
74.7712722526
 20
114.8051977203
 30
0.0
 11
74.8299497076
 21
114.7523642563
 31
0.0
  0
POLYLINE
  5
185
  8
0
  6
CONTINUOUS
 62
     7
 66
     1
 10
0.0
 20
0.0
 30
0.0
 70
   128
  0
VERTEX
  5
5F6
  8
0
  6
CONTINUOUS
 62
     7
 10
77.9195245717
 20
113.5767487855
 30
0.0
  0
VERTEX
  5
5F7
  8
0
  6
CONTINUOUS
 62
     7
 10
77.9136206851
 20
113.5701922745
 30
0.0
  0
VERTEX
  5
5F8
  8
0
  6
CONTINUOUS
 62
     7
 10
77.9070844304
 20
113.5629326151
 30
0.0
  0
VERTEX
  5
5F9
  8
0
  6
CONTINUOUS
 62
     7
 10
77.8999914777
 20
113.5550550231
 30
0.0
  0
VERTEX
  5
5FA
  8
0
  6
CONTINUOUS
 62
     7
 10
77.8924244818
 20
113.5466512338
 30
0.0
  0
VERTEX
  5
5FB
  8
0
  6
CONTINUOUS
 62
     7
 10
77.8844714526
 20
113.5378185705
 30
0.0
  0
VERTEX
  5
5FC
  8
0
  6
CONTINUOUS
 62
     7
 10
77.8762248241
 20
113.5286599443
 30
0.0
  0
VERTEX
  5
5FD
  8
0
  6
CONTINUOUS
 62
     7
 10
77.8677807551
 20
113.519281526
 30
0.0
  0
VERTEX
  5
5FE
  8
0
  6
CONTINUOUS
 62
     7
 10
77.8592375003
 20
113.5097932116
 30
0.0
  0
SEQEND
  5
80F
  8
0
  6
CONTINUOUS
 62
     7
  0
LINE
  5
186
  8
0
  6
CONTINUOUS
 62
     7
 10
77.8592375003
 20
113.5097932116
 30
0.0
 11
77.8005599871
 21
113.5626266756
 31
0.0
  0
LINE
  5
187
  8
0
  6
CONTINUOUS
 62
     7
 10
74.4295393464
 20
115.7126854219
 30
0.0
 11
74.4299965603
 21
115.7439776276
 31
0.0
  0
POLYLINE
  5
188
  8
0
  6
CONTINUOUS
 62
     7
 66
     1
 10
0.0
 20
0.0
 30
0.0
 70
   128
  0
VERTEX
  5
5FF
  8
0
  6
CONTINUOUS
 62
     7
 10
74.4299965603
 20
115.7439776276
 30
0.0
  0
VERTEX
  5
600
  8
0
  6
CONTINUOUS
 62
     7
 10
74.4418486296
 20
115.7862370879
 30
0.0
  0
VERTEX
  5
601
  8
0
  6
CONTINUOUS
 62
     7
 10
74.4657642802
 20
115.8227840484
 30
0.0
  0
SEQEND
  5
810
  8
0
  6
CONTINUOUS
 62
     7
  0
ARC
  5
189
  8
0
  6
CONTINUOUS
 62
     7
 10
74.5728836305
 20
115.725877127
 30
0.0
 40
0.1444489758146494
 50
90.5593973327
 51
137.8655188959
  0
LINE
  5
18A
  8
0
  6
CONTINUOUS
 62
     7
 10
74.5714733506
 20
115.8703192183
 30
0.0
 11
74.638466934
 21
115.7522589479
 31
0.0
  0
LINE
  5
18B
  8
0
  6
CONTINUOUS
 62
     7
 10
74.5539196808
 20
115.6584354163
 30
0.0
 11
74.4295393464
 21
115.7126854219
 31
0.0
  0
LINE
  5
18C
  8
0
  6
CONTINUOUS
 62
     7
 10
78.2009702537
 20
112.60230551
 30
0.0
 11
78.2005129744
 21
112.5710130715
 31
0.0
  0
POLYLINE
  5
18D
  8
0
  6
CONTINUOUS
 62
     7
 66
     1
 10
0.0
 20
0.0
 30
0.0
 70
   128
  0
VERTEX
  5
602
  8
0
  6
CONTINUOUS
 62
     7
 10
78.2005129744
 20
112.5710130715
 30
0.0
  0
VERTEX
  5
603
  8
0
  6
CONTINUOUS
 62
     7
 10
78.1886609633
 20
112.528753844
 30
0.0
  0
VERTEX
  5
604
  8
0
  6
CONTINUOUS
 62
     7
 10
78.164745298
 20
112.4922064178
 30
0.0
  0
SEQEND
  5
811
  8
0
  6
CONTINUOUS
 62
     7
  0
ARC
  5
18E
  8
0
  6
CONTINUOUS
 62
     7
 10
78.0576263007
 20
112.5891139693
 30
0.0
 40
0.1444491367488493
 50
270.5592566984
 51
317.8652396451
  0
LINE
  5
18F
  8
0
  6
CONTINUOUS
 62
     7
 10
78.0590362277
 20
112.4446717136
 30
0.0
 11
77.9920427025
 21
112.5627317511
 31
0.0
  0
LINE
  5
190
  8
0
  6
CONTINUOUS
 62
     7
 10
78.0765900284
 20
112.6565555156
 30
0.0
 11
78.2009702537
 21
112.60230551
 31
0.0
  0
LINE
  5
191
  8
0
  6
CONTINUOUS
 62
     7
 10
74.6024311241
 20
112.4137140856
 30
0.0
 11
74.7204594094
 21
112.4806682625
 31
0.0
  0
LINE
  5
192
  8
0
  6
CONTINUOUS
 62
     7
 10
74.7600648041
 20
112.2717800596
 30
0.0
 11
74.8143506947
 21
112.396195908
 31
0.0
  0
LINE
  5
193
  8
0
  6
CONTINUOUS
 62
     7
 10
74.7287726566
 20
112.2722373389
 30
0.0
 11
74.7600648041
 21
112.2717800596
 31
0.0
  0
POLYLINE
  5
194
  8
0
  6
CONTINUOUS
 62
     7
 66
     1
 10
0.0
 20
0.0
 30
0.0
 70
   128
  0
VERTEX
  5
605
  8
0
  6
CONTINUOUS
 62
     7
 10
74.6499660612
 20
112.3080047824
 30
0.0
  0
VERTEX
  5
606
  8
0
  6
CONTINUOUS
 62
     7
 10
74.6865130799
 20
112.28408935
 30
0.0
  0
VERTEX
  5
607
  8
0
  6
CONTINUOUS
 62
     7
 10
74.7287726566
 20
112.2722373389
 30
0.0
  0
SEQEND
  5
812
  8
0
  6
CONTINUOUS
 62
     7
  0
ARC
  5
195
  8
0
  6
CONTINUOUS
 62
     7
 10
74.7468725953
 20
112.4151236373
 30
0.0
 40
0.144448348640521
 50
180.5591108968
 51
227.8655009832
  0
LINE
  5
196
  8
0
  6
CONTINUOUS
 62
     7
 10
77.9100502271
 20
115.8343226694
 30
0.0
 11
78.0280785997
 21
115.9012768463
 31
0.0
  0
LINE
  5
197
  8
0
  6
CONTINUOUS
 62
     7
 10
77.8704448033
 20
116.0432108723
 30
0.0
 11
77.8161589418
 21
115.9187947911
 31
0.0
  0
LINE
  5
198
  8
0
  6
CONTINUOUS
 62
     7
 10
77.901737009
 20
116.042753593
 30
0.0
 11
77.8704448033
 21
116.0432108723
 31
0.0
  0
POLYLINE
  5
199
  8
0
  6
CONTINUOUS
 62
     7
 66
     1
 10
0.0
 20
0.0
 30
0.0
 70
   128
  0
VERTEX
  5
608
  8
0
  6
CONTINUOUS
 62
     7
 10
77.9805436626
 20
116.0069859166
 30
0.0
  0
VERTEX
  5
609
  8
0
  6
CONTINUOUS
 62
     7
 10
77.9439964693
 20
116.0309015819
 30
0.0
  0
VERTEX
  5
60A
  8
0
  6
CONTINUOUS
 62
     7
 10
77.901737009
 20
116.042753593
 30
0.0
  0
SEQEND
  5
813
  8
0
  6
CONTINUOUS
 62
     7
  0
ARC
  5
19A
  8
0
  6
CONTINUOUS
 62
     7
 10
77.8836373638
 20
115.8998671645
 30
0.0
 40
0.1444481145911741
 50
0.5591634149
 51
47.8655428713
  0
LINE
  5
19B
  8
0
  6
CONTINUOUS
 62
     7
 10
77.8704448033
 20
116.0432108723
 30
0.0
 11
77.8098625027
 21
116.0400359937
 31
0.0
  0
LINE
  5
19C
  8
0
  6
CONTINUOUS
 62
     7
 10
77.8098625027
 20
116.0400359937
 30
0.0
 11
74.5714733506
 21
115.8703192183
 31
0.0
  0
LINE
  5
19D
  8
0
  6
CONTINUOUS
 62
     7
 10
74.8206472502
 20
112.2749549382
 30
0.0
 11
78.0590362277
 21
112.4446717136
 31
0.0
  0
LINE
  5
19E
  8
0
  6
CONTINUOUS
 62
     7
 10
74.7600648041
 20
112.2717800596
 30
0.0
 11
74.8206472502
 21
112.2749549382
 31
0.0
  0
LINE
  5
19F
  8
0
  6
CONTINUOUS
 62
     7
 10
74.4327143414
 20
115.6521028885
 30
0.0
 11
74.6024311241
 21
112.4137140856
 31
0.0
  0
LINE
  5
1A0
  8
0
  6
CONTINUOUS
 62
     7
 10
74.4295393464
 20
115.7126854219
 30
0.0
 11
74.4327143414
 21
115.6521028885
 31
0.0
  0
LINE
  5
1A1
  8
0
  6
CONTINUOUS
 62
     7
 10
78.0280785997
 20
115.9012768463
 30
0.0
 11
78.1977953751
 21
112.6628880434
 31
0.0
  0
LINE
  5
1A2
  8
0
  6
CONTINUOUS
 62
     7
 10
78.1977953751
 20
112.6628880434
 30
0.0
 11
78.2009702537
 21
112.60230551
 31
0.0
  0
POLYLINE
  5
1A3
  8
0
  6
CONTINUOUS
 62
     7
 66
     1
 10
0.0
 20
0.0
 30
0.0
 70
   128
  0
VERTEX
  5
60B
  8
0
  6
CONTINUOUS
 62
     7
 10
75.5814639282
 20
112.5452047259
 30
0.0
  0
VERTEX
  5
60C
  8
0
  6
CONTINUOUS
 62
     7
 10
75.5873678148
 20
112.5517617025
 30
0.0
  0
VERTEX
  5
60D
  8
0
  6
CONTINUOUS
 62
     7
 10
75.5939041859
 20
112.559021362
 30
0.0
  0
VERTEX
  5
60E
  8
0
  6
CONTINUOUS
 62
     7
 10
75.6009971386
 20
112.566898954
 30
0.0
  0
VERTEX
  5
60F
  8
0
  6
CONTINUOUS
 62
     7
 10
75.6085641345
 20
112.5753027432
 30
0.0
  0
VERTEX
  5
610
  8
0
  6
CONTINUOUS
 62
     7
 10
75.6165170472
 20
112.5841354065
 30
0.0
  0
VERTEX
  5
611
  8
0
  6
CONTINUOUS
 62
     7
 10
75.6247635594
 20
112.5932940327
 30
0.0
  0
VERTEX
  5
612
  8
0
  6
CONTINUOUS
 62
     7
 10
75.6332076283
 20
112.6026719854
 30
0.0
  0
VERTEX
  5
613
  8
0
  6
CONTINUOUS
 62
     7
 10
75.641751116
 20
112.6121607655
 30
0.0
  0
SEQEND
  5
814
  8
0
  6
CONTINUOUS
 62
     7
  0
ARC
  5
1A4
  8
0
  6
CONTINUOUS
 62
     7
 10
75.6539757863
 20
112.6257375056
 30
0.0
 40
0.0182694831207873
 50
227.9999999983
 51
317.9999999989
  0
POLYLINE
  5
1A5
  8
0
  6
CONTINUOUS
 62
     7
 66
     1
 10
0.0
 20
0.0
 30
0.0
 70
   128
  0
VERTEX
  5
614
  8
0
  6
CONTINUOUS
 62
     7
 10
77.2135562159
 20
112.6307392538
 30
0.0
  0
VERTEX
  5
615
  8
0
  6
CONTINUOUS
 62
     7
 10
77.2069992393
 20
112.6366429076
 30
0.0
  0
VERTEX
  5
616
  8
0
  6
CONTINUOUS
 62
     7
 10
77.1997398127
 20
112.6431793951
 30
0.0
  0
VERTEX
  5
617
  8
0
  6
CONTINUOUS
 62
     7
 10
77.1918624535
 20
112.6502723479
 30
0.0
  0
VERTEX
  5
618
  8
0
  6
CONTINUOUS
 62
     7
 10
77.1834584315
 20
112.6578393438
 30
0.0
  0
VERTEX
  5
619
  8
0
  6
CONTINUOUS
 62
     7
 10
77.1746257682
 20
112.6657923729
 30
0.0
  0
VERTEX
  5
61A
  8
0
  6
CONTINUOUS
 62
     7
 10
77.165467142
 20
112.6740387686
 30
0.0
  0
VERTEX
  5
61B
  8
0
  6
CONTINUOUS
 62
     7
 10
77.1560889565
 20
112.6824830704
 30
0.0
  0
VERTEX
  5
61C
  8
0
  6
CONTINUOUS
 62
     7
 10
77.1466004092
 20
112.6910265581
 30
0.0
  0
SEQEND
  5
815
  8
0
  6
CONTINUOUS
 62
     7
  0
LINE
  5
1A6
  8
0
  6
CONTINUOUS
 62
     7
 10
75.2858144127
 20
112.9326474898
 30
0.0
 11
75.641751116
 21
112.6121607655
 31
0.0
  0
POLYLINE
  5
1A7
  8
0
  6
CONTINUOUS
 62
     7
 66
     1
 10
0.0
 20
0.0
 30
0.0
 70
   128
  0
VERTEX
  5
61D
  8
0
  6
CONTINUOUS
 62
     7
 10
74.7884986643
 20
113.2591938645
 30
0.0
  0
VERTEX
  5
61E
  8
0
  6
CONTINUOUS
 62
     7
 10
74.7944025219
 20
113.2657508411
 30
0.0
  0
VERTEX
  5
61F
  8
0
  6
CONTINUOUS
 62
     7
 10
74.8009389511
 20
113.2730105006
 30
0.0
  0
VERTEX
  5
620
  8
0
  6
CONTINUOUS
 62
     7
 10
74.8080319039
 20
113.2808880926
 30
0.0
  0
VERTEX
  5
621
  8
0
  6
CONTINUOUS
 62
     7
 10
74.8155988416
 20
113.2892918818
 30
0.0
  0
VERTEX
  5
622
  8
0
  6
CONTINUOUS
 62
     7
 10
74.8235518125
 20
113.2981245451
 30
0.0
  0
VERTEX
  5
623
  8
0
  6
CONTINUOUS
 62
     7
 10
74.8317983247
 20
113.3072831713
 30
0.0
  0
VERTEX
  5
624
  8
0
  6
CONTINUOUS
 62
     7
 10
74.8402423936
 20
113.316661124
 30
0.0
  0
VERTEX
  5
625
  8
0
  6
CONTINUOUS
 62
     7
 10
74.8487858813
 20
113.3261499041
 30
0.0
  0
SEQEND
  5
816
  8
0
  6
CONTINUOUS
 62
     7
  0
LINE
  5
1A8
  8
0
  6
CONTINUOUS
 62
     7
 10
74.8487858813
 20
113.3261499041
 30
0.0
 11
75.2047225263
 21
113.005662714
 31
0.0
  0
LINE
  5
1A9
  8
0
  6
CONTINUOUS
 62
     7
 10
75.2051659523
 20
113.0061227874
 30
0.0
 11
75.2862254752
 21
112.9331364342
 31
0.0
  0
LINE
  5
1AA
  8
0
  6
CONTINUOUS
 62
     7
 10
77.5401028235
 20
113.1280547985
 30
0.0
 11
77.8605895478
 21
113.483991851
 31
0.0
  0
POLYLINE
  5
1AB
  8
0
  6
CONTINUOUS
 62
     7
 66
     1
 10
0.0
 20
0.0
 30
0.0
 70
   128
  0
VERTEX
  5
626
  8
0
  6
CONTINUOUS
 62
     7
 10
77.9275453545
 20
113.4237045468
 30
0.0
  0
VERTEX
  5
627
  8
0
  6
CONTINUOUS
 62
     7
 10
77.9209883779
 20
113.4296082006
 30
0.0
  0
VERTEX
  5
628
  8
0
  6
CONTINUOUS
 62
     7
 10
77.9137289513
 20
113.4361446881
 30
0.0
  0
VERTEX
  5
629
  8
0
  6
CONTINUOUS
 62
     7
 10
77.9058513593
 20
113.4432376408
 30
0.0
  0
VERTEX
  5
62A
  8
0
  6
CONTINUOUS
 62
     7
 10
77.8974475701
 20
113.4508046367
 30
0.0
  0
VERTEX
  5
62B
  8
0
  6
CONTINUOUS
 62
     7
 10
77.8886149068
 20
113.4587576658
 30
0.0
  0
VERTEX
  5
62C
  8
0
  6
CONTINUOUS
 62
     7
 10
77.8794560477
 20
113.4670040616
 30
0.0
  0
VERTEX
  5
62D
  8
0
  6
CONTINUOUS
 62
     7
 10
77.8700780951
 20
113.4754483633
 30
0.0
  0
VERTEX
  5
62E
  8
0
  6
CONTINUOUS
 62
     7
 10
77.8605895478
 20
113.483991851
 30
0.0
  0
SEQEND
  5
817
  8
0
  6
CONTINUOUS
 62
     7
  0
LINE
  5
1AC
  8
0
  6
CONTINUOUS
 62
     7
 10
77.1466004092
 20
112.6910265581
 30
0.0
 11
77.4670873664
 21
113.0469631449
 31
0.0
  0
LINE
  5
1AD
  8
0
  6
CONTINUOUS
 62
     7
 10
77.4666275259
 20
113.0474064545
 30
0.0
 11
77.5396136463
 21
113.1284659774
 31
0.0
  0
ARC
  5
1AE
  8
0
  6
CONTINUOUS
 62
     7
 10
74.8610105317
 20
113.3397266278
 30
0.0
 40
0.0182694831207628
 50
138.0000000004
 51
228.000000001
  0
ARC
  5
1AF
  8
0
  6
CONTINUOUS
 62
     7
 10
77.8470127227
 20
113.4962163716
 30
0.0
 40
0.0182694831207863
 50
317.9999999982
 51
47.9999999989
  0
POLYLINE
  5
1B0
  8
0
  6
CONTINUOUS
 62
     7
 66
     1
 10
0.0
 20
0.0
 30
0.0
 70
   128
  0
VERTEX
  5
62F
  8
0
  6
CONTINUOUS
 62
     7
 10
74.7029643402
 20
114.8912863851
 30
0.0
  0
VERTEX
  5
630
  8
0
  6
CONTINUOUS
 62
     7
 10
74.7095212294
 20
114.8853822657
 30
0.0
  0
VERTEX
  5
631
  8
0
  6
CONTINUOUS
 62
     7
 10
74.7167806561
 20
114.8788462438
 30
0.0
  0
VERTEX
  5
632
  8
0
  6
CONTINUOUS
 62
     7
 10
74.7246581608
 20
114.8717532911
 30
0.0
  0
VERTEX
  5
633
  8
0
  6
CONTINUOUS
 62
     7
 10
74.7330621537
 20
114.8641862952
 30
0.0
  0
VERTEX
  5
634
  8
0
  6
CONTINUOUS
 62
     7
 10
74.741894817
 20
114.8562332661
 30
0.0
  0
VERTEX
  5
635
  8
0
  6
CONTINUOUS
 62
     7
 10
74.7510534723
 20
114.8479868703
 30
0.0
  0
VERTEX
  5
636
  8
0
  6
CONTINUOUS
 62
     7
 10
74.7604315705
 20
114.8395425685
 30
0.0
  0
VERTEX
  5
637
  8
0
  6
CONTINUOUS
 62
     7
 10
74.7699200595
 20
114.8309990809
 30
0.0
  0
SEQEND
  5
818
  8
0
  6
CONTINUOUS
 62
     7
  0
ARC
  5
1B1
  8
0
  6
CONTINUOUS
 62
     7
 10
74.7834969203
 20
114.8187744421
 30
0.0
 40
0.0182694831207768
 50
137.9999999982
 51
227.9999999989
  0
LINE
  5
1B2
  8
0
  6
CONTINUOUS
 62
     7
 10
75.0904068712
 20
115.1869356678
 30
0.0
 11
74.7699200595
 21
114.8309990809
 31
0.0
  0
POLYLINE
  5
1B3
  8
0
  6
CONTINUOUS
 62
     7
 66
     1
 10
0.0
 20
0.0
 30
0.0
 70
   128
  0
VERTEX
  5
638
  8
0
  6
CONTINUOUS
 62
     7
 10
75.4169534788
 20
115.6842516781
 30
0.0
  0
VERTEX
  5
639
  8
0
  6
CONTINUOUS
 62
     7
 10
75.4235103389
 20
115.6783477914
 30
0.0
  0
VERTEX
  5
63A
  8
0
  6
CONTINUOUS
 62
     7
 10
75.4307697656
 20
115.6718113039
 30
0.0
  0
VERTEX
  5
63B
  8
0
  6
CONTINUOUS
 62
     7
 10
75.4386472412
 20
115.6647183512
 30
0.0
  0
VERTEX
  5
63C
  8
0
  6
CONTINUOUS
 62
     7
 10
75.4470512632
 20
115.6571513553
 30
0.0
  0
VERTEX
  5
63D
  8
0
  6
CONTINUOUS
 62
     7
 10
75.4558839265
 20
115.6491983262
 30
0.0
  0
VERTEX
  5
63E
  8
0
  6
CONTINUOUS
 62
     7
 10
75.4650425527
 20
115.6409519304
 30
0.0
  0
VERTEX
  5
63F
  8
0
  6
CONTINUOUS
 62
     7
 10
75.4744207382
 20
115.6325078615
 30
0.0
  0
VERTEX
  5
640
  8
0
  6
CONTINUOUS
 62
     7
 10
75.483909169
 20
115.6239643738
 30
0.0
  0
SEQEND
  5
819
  8
0
  6
CONTINUOUS
 62
     7
  0
LINE
  5
1B4
  8
0
  6
CONTINUOUS
 62
     7
 10
75.483909169
 20
115.6239643738
 30
0.0
 11
75.1634223283
 21
115.268027787
 31
0.0
  0
LINE
  5
1B5
  8
0
  6
CONTINUOUS
 62
     7
 10
75.163882227
 20
115.2675842446
 30
0.0
 11
75.090895932
 21
115.1865249545
 31
0.0
  0
LINE
  5
1B6
  8
0
  6
CONTINUOUS
 62
     7
 10
77.344695282
 20
115.3823434421
 30
0.0
 11
76.9887584623
 21
115.7028301664
 31
0.0
  0
POLYLINE
  5
1B7
  8
0
  6
CONTINUOUS
 62
     7
 66
     1
 10
0.0
 20
0.0
 30
0.0
 70
   128
  0
VERTEX
  5
641
  8
0
  6
CONTINUOUS
 62
     7
 10
77.0490457665
 20
115.7697859731
 30
0.0
  0
VERTEX
  5
642
  8
0
  6
CONTINUOUS
 62
     7
 10
77.0431418799
 20
115.7632289965
 30
0.0
  0
VERTEX
  5
643
  8
0
  6
CONTINUOUS
 62
     7
 10
77.0366053924
 20
115.7559695699
 30
0.0
  0
VERTEX
  5
644
  8
0
  6
CONTINUOUS
 62
     7
 10
77.0295124397
 20
115.7480919779
 30
0.0
  0
VERTEX
  5
645
  8
0
  6
CONTINUOUS
 62
     7
 10
77.0219454438
 20
115.7396881887
 30
0.0
  0
VERTEX
  5
646
  8
0
  6
CONTINUOUS
 62
     7
 10
77.0139926475
 20
115.7308552925
 30
0.0
  0
VERTEX
  5
647
  8
0
  6
CONTINUOUS
 62
     7
 10
77.0057460189
 20
115.7216966663
 30
0.0
  0
VERTEX
  5
648
  8
0
  6
CONTINUOUS
 62
     7
 10
76.99730195
 20
115.7123187137
 30
0.0
  0
VERTEX
  5
649
  8
0
  6
CONTINUOUS
 62
     7
 10
76.9887584623
 20
115.7028301664
 30
0.0
  0
SEQEND
  5
81A
  8
0
  6
CONTINUOUS
 62
     7
  0
POLYLINE
  5
1B8
  8
0
  6
CONTINUOUS
 62
     7
 66
     1
 10
0.0
 20
0.0
 30
0.0
 70
   128
  0
VERTEX
  5
64A
  8
0
  6
CONTINUOUS
 62
     7
 10
77.8420110595
 20
115.0557966017
 30
0.0
  0
VERTEX
  5
64B
  8
0
  6
CONTINUOUS
 62
     7
 10
77.8361071728
 20
115.0492400908
 30
0.0
  0
VERTEX
  5
64C
  8
0
  6
CONTINUOUS
 62
     7
 10
77.8295706853
 20
115.0419804313
 30
0.0
  0
VERTEX
  5
64D
  8
0
  6
CONTINUOUS
 62
     7
 10
77.8224777326
 20
115.0341028393
 30
0.0
  0
VERTEX
  5
64E
  8
0
  6
CONTINUOUS
 62
     7
 10
77.8149107367
 20
115.0256990501
 30
0.0
  0
VERTEX
  5
64F
  8
0
  6
CONTINUOUS
 62
     7
 10
77.8069577076
 20
115.0168663868
 30
0.0
  0
VERTEX
  5
650
  8
0
  6
CONTINUOUS
 62
     7
 10
77.7987113118
 20
115.0077077606
 30
0.0
  0
VERTEX
  5
651
  8
0
  6
CONTINUOUS
 62
     7
 10
77.7902672429
 20
114.9983293422
 30
0.0
  0
VERTEX
  5
652
  8
0
  6
CONTINUOUS
 62
     7
 10
77.7817237552
 20
114.9888410278
 30
0.0
  0
SEQEND
  5
81B
  8
0
  6
CONTINUOUS
 62
     7
  0
LINE
  5
1B9
  8
0
  6
CONTINUOUS
 62
     7
 10
77.7817237552
 20
114.9888410278
 30
0.0
 11
77.4257871684
 21
115.309327985
 31
0.0
  0
LINE
  5
1BA
  8
0
  6
CONTINUOUS
 62
     7
 10
77.425343626
 20
115.3088679117
 30
0.0
 11
77.3442841031
 21
115.3818542649
 31
0.0
  0
ARC
  5
1BB
  8
0
  6
CONTINUOUS
 62
     7
 10
77.7694991113
 20
114.9752641859
 30
0.0
 40
0.0182694831207533
 50
318.0000000004
 51
48.000000001
  0
ARC
  5
1BC
  8
0
  6
CONTINUOUS
 62
     7
 10
76.9765338567
 20
115.6892533081
 30
0.0
 40
0.0182694831207768
 50
47.9999999982
 51
137.999999999
  0
ARC
  5
1BD
  8
0
  6
CONTINUOUS
 62
     7
 10
75.4974860425
 20
115.6117396967
 30
0.0
 40
0.0182694831207734
 50
48.0000000004
 51
138.000000001
  0
CIRCLE
  5
1BE
  8
0
  6
CONTINUOUS
 62
     7
 10
76.3152548215
 20
114.1574954068
 30
0.0
 40
1.477314948768371
  0
ARC
  5
1BF
  8
0
  6
CONTINUOUS
 62
     7
 10
76.3152548215
 20
114.1574954068
 30
0.0
 40
1.598722349105488
 50
229.9541631385
 51
316.0458368615
  0
ARC
  5
1C0
  8
0
  6
CONTINUOUS
 62
     7
 10
76.3152548215
 20
114.1574954068
 30
0.0
 40
1.598722349105488
 50
139.9541631385
 51
226.0458368615
  0
ARC
  5
1C1
  8
0
  6
CONTINUOUS
 62
     7
 10
76.3152548215
 20
114.1574954068
 30
0.0
 40
1.598722349105488
 50
49.9541631385
 51
136.0458368615
  0
ARC
  5
1C2
  8
0
  6
CONTINUOUS
 62
     7
 10
76.3152548215
 20
114.1574954068
 30
0.0
 40
1.598722349105497
 50
319.9541631385
 51
46.0458368615
  0
ARC
  5
1C3
  8
0
  6
CONTINUOUS
 62
     7
 10
78.3919660311
 20
112.2876136507
 30
0.0
 40
0.4742342631069023
 50
272.999195108
 51
318.0002377506
  0
LINE
  5
1C4
  8
0
  6
CONTINUOUS
 62
     7
 10
78.4167760879
 20
111.8140289605
 30
0.0
 11
78.242429708
 21
112.1969510847
 31
0.0
  0
LINE
  5
1C5
  8
0
  6
CONTINUOUS
 62
     7
 10
78.242429708
 20
112.1969510847
 30
0.0
 11
78.3440542303
 21
112.2207542927
 31
0.0
  0
LINE
  5
1C6
  8
0
  6
CONTINUOUS
 62
     7
 10
78.344054696
 20
112.2207547583
 30
0.0
 11
78.3899139509
 21
112.2450036042
 31
0.0
  0
LINE
  5
1C7
  8
0
  6
CONTINUOUS
 62
     7
 10
78.3899139509
 20
112.2450036042
 30
0.0
 11
78.7443920866
 21
111.9702904531
 31
0.0
  0
ARC
  5
1C8
  8
0
  6
CONTINUOUS
 62
     7
 10
74.2385450005
 20
116.0273744266
 30
0.0
 40
0.4742372100640271
 50
92.9993989437
 51
138.0000942376
  0
LINE
  5
1C9
  8
0
  6
CONTINUOUS
 62
     7
 10
74.2137334613
 20
116.5009619714
 30
0.0
 11
74.3880799504
 21
116.1180396144
 31
0.0
  0
LINE
  5
1CA
  8
0
  6
CONTINUOUS
 62
     7
 10
74.3880800086
 20
116.1180396144
 30
0.0
 11
74.2864553079
 21
116.0942364064
 31
0.0
  0
LINE
  5
1CB
  8
0
  6
CONTINUOUS
 62
     7
 10
74.2864549114
 20
116.0942361736
 30
0.0
 11
74.2405957657
 21
116.0699870948
 31
0.0
  0
LINE
  5
1CC
  8
0
  6
CONTINUOUS
 62
     7
 10
74.2405956201
 20
116.0699870948
 30
0.0
 11
73.886117579
 21
116.3447004788
 31
0.0
  0
ARC
  5
1CD
  8
0
  6
CONTINUOUS
 62
     7
 10
78.1851332596
 20
116.2342044469
 30
0.0
 40
0.4742380214048966
 50
2.9994659928
 51
48.000131201
  0
LINE
  5
1CE
  8
0
  6
CONTINUOUS
 62
     7
 10
78.6587215856
 20
116.2590167065
 30
0.0
 11
78.2757989958
 21
116.0846703266
 31
0.0
  0
LINE
  5
1CF
  8
0
  6
CONTINUOUS
 62
     7
 10
78.2757989958
 20
116.0846703266
 30
0.0
 11
78.2519957878
 21
116.1862948489
 31
0.0
  0
LINE
  5
1D0
  8
0
  6
CONTINUOUS
 62
     7
 10
78.2519957878
 20
116.1862953146
 30
0.0
 11
78.2277464763
 21
116.2321545695
 31
0.0
  0
LINE
  5
1D1
  8
0
  6
CONTINUOUS
 62
     7
 10
78.2277464763
 20
116.2321545695
 30
0.0
 11
78.5024596274
 21
116.5866327052
 31
0.0
  0
ARC
  5
1D2
  8
0
  6
CONTINUOUS
 62
     7
 10
74.4453747248
 20
112.0807849114
 30
0.0
 40
0.4742360559058442
 50
182.998950036
 51
228.000152848
  0
LINE
  5
1D3
  8
0
  6
CONTINUOUS
 62
     7
 10
73.9717881382
 20
112.0559739926
 30
0.0
 11
74.3547107244
 21
112.2303203725
 31
0.0
  0
LINE
  5
1D4
  8
0
  6
CONTINUOUS
 62
     7
 10
74.3547107134
 20
112.2303203725
 30
0.0
 11
74.3785137832
 21
112.1286958501
 31
0.0
  0
LINE
  5
1D5
  8
0
  6
CONTINUOUS
 62
     7
 10
74.3785140161
 20
112.1286953845
 30
0.0
 11
74.4027630584
 21
112.0828361296
 31
0.0
  0
LINE
  5
1D6
  8
0
  6
CONTINUOUS
 62
     7
 10
74.4027631821
 20
112.0828361296
 30
0.0
 11
74.1280498199
 21
111.7283579939
 31
0.0
  0
LINE
  5
1D7
  8
0
  6
CONTINUOUS
 62
     7
 10
78.4167760879
 20
111.8140289605
 30
0.0
 11
78.1864099566
 21
112.1535514527
 31
0.0
  0
LINE
  5
1D8
  8
0
  6
CONTINUOUS
 62
     7
 10
78.1864078611
 20
112.1535542466
 30
0.0
 11
78.2424292423
 21
112.1969510847
 31
0.0
  0
LINE
  5
1D9
  8
0
  6
CONTINUOUS
 62
     7
 10
74.2137334613
 20
116.5009619714
 30
0.0
 11
74.4440996799
 21
116.1614394792
 31
0.0
  0
LINE
  5
1DA
  8
0
  6
CONTINUOUS
 62
     7
 10
74.4441018918
 20
116.1614366852
 30
0.0
 11
74.3880805834
 21
116.1180398472
 31
0.0
  0
LINE
  5
1DB
  8
0
  6
CONTINUOUS
 62
     7
 10
78.3191990934
 20
116.0286505752
 30
0.0
 11
78.6587215856
 21
116.2590167065
 31
0.0
  0
LINE
  5
1DC
  8
0
  6
CONTINUOUS
 62
     7
 10
78.3191962995
 20
116.0286482469
 30
0.0
 11
78.2757994615
 21
116.0846696281
 31
0.0
  0
LINE
  5
1DD
  8
0
  6
CONTINUOUS
 62
     7
 10
73.9717881382
 20
112.0559739926
 30
0.0
 11
74.3113106558
 21
112.2863403567
 31
0.0
  0
LINE
  5
1DE
  8
0
  6
CONTINUOUS
 62
     7
 10
74.3113135371
 20
112.286342685
 30
0.0
 11
74.3547102696
 21
112.2303213038
 31
0.0
  0
LINE
  5
1DF
  8
0
  6
CONTINUOUS
 62
     7
 10
78.845407524
 20
112.6968277664
 30
0.0
 11
78.4540429607
 21
112.6925963023
 31
0.0
  0
LINE
  5
1E0
  8
0
  6
CONTINUOUS
 62
     7
 10
78.845407524
 20
112.6968277664
 30
0.0
 11
78.4528587841
 21
112.6599329569
 31
0.0
  0
LINE
  5
1E1
  8
0
  6
CONTINUOUS
 62
     7
 10
78.4528587841
 20
112.6599329569
 30
0.0
 11
78.4540429607
 21
112.6925963023
 31
0.0
  0
LINE
  5
1E2
  8
0
  6
CONTINUOUS
 62
     7
 10
74.8503559165
 20
112.0187071197
 30
0.0
 11
74.8545871478
 21
111.6273425565
 31
0.0
  0
LINE
  5
1E3
  8
0
  6
CONTINUOUS
 62
     7
 10
74.8545871478
 20
111.6273425565
 30
0.0
 11
74.8176924547
 21
112.0198917621
 31
0.0
  0
LINE
  5
1E4
  8
0
  6
CONTINUOUS
 62
     7
 10
74.8176923965
 20
112.0198912964
 30
0.0
 11
74.8503559165
 21
112.0187071197
 31
0.0
  0
LINE
  5
1E5
  8
0
  6
CONTINUOUS
 62
     7
 10
77.7801537782
 20
116.2962835793
 30
0.0
 11
77.7759225469
 21
116.6876483754
 31
0.0
  0
LINE
  5
1E6
  8
0
  6
CONTINUOUS
 62
     7
 10
77.7759225469
 20
116.6876483754
 30
0.0
 11
77.8128171236
 21
116.2950991698
 31
0.0
  0
LINE
  5
1E7
  8
0
  6
CONTINUOUS
 62
     7
 10
77.8128171236
 20
116.2950994027
 30
0.0
 11
77.7801537782
 21
116.2962835793
 31
0.0
  0
LINE
  5
1E8
  8
0
  6
CONTINUOUS
 62
     7
 10
74.1764666612
 20
115.6223943968
 30
0.0
 11
73.7851018797
 21
115.6181631655
 31
0.0
  0
LINE
  5
1E9
  8
0
  6
CONTINUOUS
 62
     7
 10
73.7851018797
 20
115.6181631655
 30
0.0
 11
74.177651027
 21
115.6550577421
 31
0.0
  0
LINE
  5
1EA
  8
0
  6
CONTINUOUS
 62
     7
 10
74.1776508379
 20
115.6550577421
 30
0.0
 11
74.1764666903
 21
115.6223943968
 31
0.0
  0
LINE
  5
1EB
  8
0
  6
CONTINUOUS
 62
     7
 10
78.1799710252
 20
116.2789735523
 30
0.0
 11
78.5024596274
 21
116.5866327052
 31
0.0
  0
POLYLINE
  5
1EC
  8
0
  6
CONTINUOUS
 62
     7
 66
     1
 10
0.0
 20
0.0
 30
0.0
 70
   128
  0
VERTEX
  5
653
  8
0
  6
CONTINUOUS
 62
     7
 10
78.0102258444
 20
116.3212122907
 30
0.0
  0
VERTEX
  5
654
  8
0
  6
CONTINUOUS
 62
     7
 10
78.1164324738
 20
116.3076662038
 30
0.0
  0
VERTEX
  5
655
  8
0
  6
CONTINUOUS
 62
     7
 10
78.1799714908
 20
116.2789730866
 30
0.0
  0
SEQEND
  5
81C
  8
0
  6
CONTINUOUS
 62
     7
  0
LINE
  5
1ED
  8
0
  6
CONTINUOUS
 62
     7
 10
78.1603112713
 20
116.7077933484
 30
0.0
 11
78.0102258444
 21
116.3212122907
 31
0.0
  0
ARC
  5
1EE
  8
0
  6
CONTINUOUS
 62
     7
 10
78.1851330394
 20
116.2342074472
 30
0.0
 40
0.4742359391080051
 50
47.999868874
 51
93.0002633476
  0
LINE
  5
1EF
  8
0
  6
CONTINUOUS
 62
     7
 10
78.4367329337
 20
112.2927790553
 30
0.0
 11
78.7443920866
 21
111.9702904531
 31
0.0
  0
POLYLINE
  5
1F0
  8
0
  6
CONTINUOUS
 62
     7
 66
     1
 10
0.0
 20
0.0
 30
0.0
 70
   128
  0
VERTEX
  5
656
  8
0
  6
CONTINUOUS
 62
     7
 10
78.4789716721
 20
112.4625242361
 30
0.0
  0
VERTEX
  5
657
  8
0
  6
CONTINUOUS
 62
     7
 10
78.4654255852
 20
112.3563176066
 30
0.0
  0
VERTEX
  5
658
  8
0
  6
CONTINUOUS
 62
     7
 10
78.436732468
 20
112.2927785897
 30
0.0
  0
SEQEND
  5
81D
  8
0
  6
CONTINUOUS
 62
     7
  0
LINE
  5
1F1
  8
0
  6
CONTINUOUS
 62
     7
 10
78.8655529626
 20
112.3124392749
 30
0.0
 11
78.4789716721
 21
112.4625242361
 31
0.0
  0
ARC
  5
1F2
  8
0
  6
CONTINUOUS
 62
     7
 10
78.3919657161
 20
112.2876177911
 30
0.0
 40
0.4742372677046387
 50
317.9998914717
 51
3.0002205335
  0
LINE
  5
1F3
  8
0
  6
CONTINUOUS
 62
     7
 10
74.1937766009
 20
116.0222116438
 30
0.0
 11
73.886117579
 21
116.3447004788
 31
0.0
  0
POLYLINE
  5
1F4
  8
0
  6
CONTINUOUS
 62
     7
 66
     1
 10
0.0
 20
0.0
 30
0.0
 70
   128
  0
VERTEX
  5
659
  8
0
  6
CONTINUOUS
 62
     7
 10
74.1515378335
 20
115.852466463
 30
0.0
  0
VERTEX
  5
65A
  8
0
  6
CONTINUOUS
 62
     7
 10
74.1650839931
 20
115.9586730924
 30
0.0
  0
VERTEX
  5
65B
  8
0
  6
CONTINUOUS
 62
     7
 10
74.1937771539
 20
116.0222121094
 30
0.0
  0
SEQEND
  5
81E
  8
0
  6
CONTINUOUS
 62
     7
  0
LINE
  5
1F5
  8
0
  6
CONTINUOUS
 62
     7
 10
73.7649567903
 20
116.002551657
 30
0.0
 11
74.1515378335
 21
115.852466463
 31
0.0
  0
ARC
  5
1F6
  8
0
  6
CONTINUOUS
 62
     7
 10
74.2385440031
 20
116.0273732726
 30
0.0
 40
0.4742372409777386
 50
137.9999099976
 51
183.0002366526
  0
LINE
  5
1F7
  8
0
  6
CONTINUOUS
 62
     7
 10
74.4505385968
 20
112.0360171468
 30
0.0
 11
74.1280498199
 21
111.7283579939
 31
0.0
  0
POLYLINE
  5
1F8
  8
0
  6
CONTINUOUS
 62
     7
 66
     1
 10
0.0
 20
0.0
 30
0.0
 70
   128
  0
VERTEX
  5
65C
  8
0
  6
CONTINUOUS
 62
     7
 10
74.6202837339
 20
111.9937784084
 30
0.0
  0
VERTEX
  5
65D
  8
0
  6
CONTINUOUS
 62
     7
 10
74.5140772063
 20
112.0073244952
 30
0.0
  0
VERTEX
  5
65E
  8
0
  6
CONTINUOUS
 62
     7
 10
74.4505380875
 20
112.0360176124
 30
0.0
  0
SEQEND
  5
81F
  8
0
  6
CONTINUOUS
 62
     7
  0
LINE
  5
1F9
  8
0
  6
CONTINUOUS
 62
     7
 10
74.4701984962
 20
111.6071975835
 30
0.0
 11
74.6202837339
 21
111.9937784084
 31
0.0
  0
ARC
  5
1FA
  8
0
  6
CONTINUOUS
 62
     7
 10
74.445376601
 20
112.0807846795
 30
0.0
 40
0.4742371389238028
 50
227.9999656519
 51
273.0002711316
  0
LINE
  5
1FB
  8
0
  6
CONTINUOUS
 62
     7
 10
74.8503523658
 20
112.0235043623
 30
0.0
 11
74.8503559165
 21
112.0187071197
 31
0.0
  0
POLYLINE
  5
1FC
  8
0
  6
CONTINUOUS
 62
     7
 66
     1
 10
0.0
 20
0.0
 30
0.0
 70
   128
  0
VERTEX
  5
65F
  8
0
  6
CONTINUOUS
 62
     7
 10
74.849986065
 20
112.0383934163
 30
0.0
  0
VERTEX
  5
660
  8
0
  6
CONTINUOUS
 62
     7
 10
74.850187871
 20
112.030055751
 30
0.0
  0
VERTEX
  5
661
  8
0
  6
CONTINUOUS
 62
     7
 10
74.8503523658
 20
112.0235043623
 30
0.0
  0
SEQEND
  5
820
  8
0
  6
CONTINUOUS
 62
     7
  0
LINE
  5
1FD
  8
0
  6
CONTINUOUS
 62
     7
 10
74.8500060302
 20
112.0399268389
 30
0.0
 11
74.849986065
 21
112.0383934163
 31
0.0
  0
LINE
  5
1FE
  8
0
  6
CONTINUOUS
 62
     7
 10
78.1400501158
 20
112.2123500378
 30
0.0
 11
74.8500060302
 21
112.0399268389
 31
0.0
  0
LINE
  5
1FF
  8
0
  6
CONTINUOUS
 62
     7
 10
78.1684300758
 20
112.1808652811
 30
0.0
 11
78.1400501158
 21
112.2123500378
 31
0.0
  0
LINE
  5
200
  8
0
  6
CONTINUOUS
 62
     7
 10
78.1753276836
 20
112.1697252662
 30
0.0
 11
78.1684300758
 21
112.1808652811
 31
0.0
  0
LINE
  5
201
  8
0
  6
CONTINUOUS
 62
     7
 10
78.1864099566
 20
112.1535514527
 30
0.0
 11
78.1753276836
 21
112.1697252662
 31
0.0
  0
LINE
  5
202
  8
0
  6
CONTINUOUS
 62
     7
 10
74.8545871478
 20
111.6273425565
 30
0.0
 11
78.4167760879
 21
111.8140289605
 31
0.0
  0
LINE
  5
203
  8
0
  6
CONTINUOUS
 62
     7
 10
74.1812638456
 20
115.6223978893
 30
0.0
 11
74.1764666612
 21
115.6223943968
 31
0.0
  0
LINE
  5
204
  8
0
  6
CONTINUOUS
 62
     7
 10
74.196152725
 20
115.6227641319
 30
0.0
 11
74.1812638456
 21
115.6223978893
 31
0.0
  0
LINE
  5
205
  8
0
  6
CONTINUOUS
 62
     7
 10
74.1976862276
 20
115.6227441084
 30
0.0
 11
74.196152725
 21
115.6227641319
 31
0.0
  0
LINE
  5
206
  8
0
  6
CONTINUOUS
 62
     7
 10
74.3701106706
 20
112.3327006631
 30
0.0
 11
74.1976862276
 21
115.6227441084
 31
0.0
  0
LINE
  5
207
  8
0
  6
CONTINUOUS
 62
     7
 10
74.3386246134
 20
112.3043204703
 30
0.0
 11
74.3701106706
 21
112.3327006631
 31
0.0
  0
LINE
  5
208
  8
0
  6
CONTINUOUS
 62
     7
 10
74.3274848204
 20
112.2974226297
 30
0.0
 11
74.3386246134
 21
112.3043204703
 31
0.0
  0
LINE
  5
209
  8
0
  6
CONTINUOUS
 62
     7
 10
74.3113106558
 20
112.2863403567
 30
0.0
 11
74.3274848204
 21
112.2974226297
 31
0.0
  0
LINE
  5
20A
  8
0
  6
CONTINUOUS
 62
     7
 10
73.7851018797
 20
115.6181631655
 30
0.0
 11
73.9717883128
 21
112.0559739926
 31
0.0
  0
LINE
  5
20B
  8
0
  6
CONTINUOUS
 62
     7
 10
78.3030248143
 20
116.0175683022
 30
0.0
 11
78.3191990934
 21
116.0286505752
 31
0.0
  0
LINE
  5
20C
  8
0
  6
CONTINUOUS
 62
     7
 10
78.4540429607
 20
112.6925963023
 30
0.0
 11
78.4492457181
 21
112.6925930426
 31
0.0
  0
POLYLINE
  5
20D
  8
0
  6
CONTINUOUS
 62
     7
 66
     1
 10
0.0
 20
0.0
 30
0.0
 70
   128
  0
VERTEX
  5
662
  8
0
  6
CONTINUOUS
 62
     7
 10
78.4343571298
 20
112.6922265672
 30
0.0
  0
VERTEX
  5
663
  8
0
  6
CONTINUOUS
 62
     7
 10
78.4426943295
 20
112.6924286642
 30
0.0
  0
VERTEX
  5
664
  8
0
  6
CONTINUOUS
 62
     7
 10
78.4492457181
 20
112.6925930426
 30
0.0
  0
SEQEND
  5
821
  8
0
  6
CONTINUOUS
 62
     7
  0
LINE
  5
20E
  8
0
  6
CONTINUOUS
 62
     7
 10
78.4328232415
 20
112.6922465906
 30
0.0
 11
78.4343571298
 21
112.6922265672
 31
0.0
  0
LINE
  5
20F
  8
0
  6
CONTINUOUS
 62
     7
 10
78.260399577
 20
115.9822902688
 30
0.0
 11
78.4328232415
 21
112.6922465906
 31
0.0
  0
LINE
  5
210
  8
0
  6
CONTINUOUS
 62
     7
 10
78.260399577
 20
115.9822902688
 30
0.0
 11
78.2918847993
 21
116.0106704616
 31
0.0
  0
LINE
  5
211
  8
0
  6
CONTINUOUS
 62
     7
 10
78.2918847993
 20
116.0106704616
 30
0.0
 11
78.3030248143
 21
116.0175683022
 31
0.0
  0
LINE
  5
212
  8
0
  6
CONTINUOUS
 62
     7
 10
78.6587211199
 20
116.2590229929
 30
0.0
 11
78.8454079896
 21
112.6968277664
 31
0.0
  0
POLYLINE
  5
213
  8
0
  6
CONTINUOUS
 62
     7
 66
     1
 10
0.0
 20
0.0
 30
0.0
 70
   128
  0
VERTEX
  5
665
  8
0
  6
CONTINUOUS
 62
     7
 10
78.1799710252
 20
116.2789735523
 30
0.0
  0
VERTEX
  5
666
  8
0
  6
CONTINUOUS
 62
     7
 10
78.203964223
 20
116.2553365853
 30
0.0
  0
VERTEX
  5
667
  8
0
  6
CONTINUOUS
 62
     7
 10
78.2277464763
 20
116.2321545695
 30
0.0
  0
SEQEND
  5
822
  8
0
  6
CONTINUOUS
 62
     7
  0
POLYLINE
  5
214
  8
0
  6
CONTINUOUS
 62
     7
 66
     1
 10
0.0
 20
0.0
 30
0.0
 70
   128
  0
VERTEX
  5
668
  8
0
  6
CONTINUOUS
 62
     7
 10
78.4367329337
 20
112.2927790553
 30
0.0
  0
VERTEX
  5
669
  8
0
  6
CONTINUOUS
 62
     7
 10
78.4130959667
 20
112.2687858575
 30
0.0
  0
VERTEX
  5
66A
  8
0
  6
CONTINUOUS
 62
     7
 10
78.3899139509
 20
112.2450036042
 30
0.0
  0
SEQEND
  5
823
  8
0
  6
CONTINUOUS
 62
     7
  0
POLYLINE
  5
215
  8
0
  6
CONTINUOUS
 62
     7
 66
     1
 10
0.0
 20
0.0
 30
0.0
 70
   128
  0
VERTEX
  5
66B
  8
0
  6
CONTINUOUS
 62
     7
 10
74.1937766373
 20
116.0222116438
 30
0.0
  0
VERTEX
  5
66C
  8
0
  6
CONTINUOUS
 62
     7
 10
74.2174137207
 20
116.0462048416
 30
0.0
  0
VERTEX
  5
66D
  8
0
  6
CONTINUOUS
 62
     7
 10
74.2405956201
 20
116.0699870948
 30
0.0
  0
SEQEND
  5
824
  8
0
  6
CONTINUOUS
 62
     7
  0
POLYLINE
  5
216
  8
0
  6
CONTINUOUS
 62
     7
 66
     1
 10
0.0
 20
0.0
 30
0.0
 70
   128
  0
VERTEX
  5
66E
  8
0
  6
CONTINUOUS
 62
     7
 10
74.4505386259
 20
112.0360171468
 30
0.0
  0
VERTEX
  5
66F
  8
0
  6
CONTINUOUS
 62
     7
 10
74.4265455008
 20
112.0596541137
 30
0.0
  0
VERTEX
  5
670
  8
0
  6
CONTINUOUS
 62
     7
 10
74.4027631821
 20
112.0828361296
 30
0.0
  0
SEQEND
  5
825
  8
0
  6
CONTINUOUS
 62
     7
  0
LINE
  5
217
  8
0
  6
CONTINUOUS
 62
     7
 10
74.4620796625
 20
116.1341256507
 30
0.0
 11
74.4904594334
 21
116.1026406613
 31
0.0
  0
LINE
  5
218
  8
0
  6
CONTINUOUS
 62
     7
 10
74.4551818656
 20
116.1452654329
 30
0.0
 11
74.4620796625
 21
116.1341256507
 31
0.0
  0
LINE
  5
219
  8
0
  6
CONTINUOUS
 62
     7
 10
74.4440996799
 20
116.1614394792
 30
0.0
 11
74.4551818656
 21
116.1452654329
 31
0.0
  0
LINE
  5
21A
  8
0
  6
CONTINUOUS
 62
     7
 10
77.7759225469
 20
116.6876483754
 30
0.0
 11
74.2137334758
 21
116.5009619714
 31
0.0
  0
LINE
  5
21B
  8
0
  6
CONTINUOUS
 62
     7
 10
77.7801572707
 20
116.2914863367
 30
0.0
 11
77.7801537782
 21
116.2962835793
 31
0.0
  0
POLYLINE
  5
21C
  8
0
  6
CONTINUOUS
 62
     7
 66
     1
 10
0.0
 20
0.0
 30
0.0
 70
   128
  0
VERTEX
  5
671
  8
0
  6
CONTINUOUS
 62
     7
 10
77.7805235133
 20
116.2765975156
 30
0.0
  0
VERTEX
  5
672
  8
0
  6
CONTINUOUS
 62
     7
 10
77.7803216491
 20
116.2849349481
 30
0.0
  0
VERTEX
  5
673
  8
0
  6
CONTINUOUS
 62
     7
 10
77.7801572707
 20
116.2914863367
 30
0.0
  0
SEQEND
  5
826
  8
0
  6
CONTINUOUS
 62
     7
  0
LINE
  5
21D
  8
0
  6
CONTINUOUS
 62
     7
 10
77.7805034898
 20
116.2750640929
 30
0.0
 11
77.7805235133
 21
116.2765975156
 31
0.0
  0
LINE
  5
21E
  8
0
  6
CONTINUOUS
 62
     7
 10
74.4904594334
 20
116.1026406613
 30
0.0
 11
77.7805034898
 21
116.2750640929
 31
0.0
  0
LINE
  5
21F
  8
0
  6
CONTINUOUS
 62
     7
 10
74.601517031
 20
111.6140795917
 30
0.0
 11
74.694778917
 21
112.0018404023
 31
0.0
  0
LINE
  5
220
  8
0
  6
CONTINUOUS
 62
     7
 10
74.697763311
 20
112.0022948877
 30
0.0
 11
74.694778917
 21
112.0018404023
 31
0.0
  0
LINE
  5
221
  8
0
  6
CONTINUOUS
 62
     7
 10
74.8176924547
 20
112.0198917621
 30
0.0
 11
74.697763311
 21
112.0022948877
 31
0.0
  0
LINE
  5
222
  8
0
  6
CONTINUOUS
 62
     7
 10
74.601517031
 20
111.6140795917
 30
0.0
 11
74.854587206
 21
111.6273425565
 31
0.0
  0
LINE
  5
223
  8
0
  6
CONTINUOUS
 62
     7
 10
73.7718389731
 20
115.8712333114
 30
0.0
 11
74.15959974
 21
115.7779713672
 31
0.0
  0
LINE
  5
224
  8
0
  6
CONTINUOUS
 62
     7
 10
74.1600544583
 20
115.774986944
 30
0.0
 11
74.1595997255
 21
115.7779713672
 31
0.0
  0
LINE
  5
225
  8
0
  6
CONTINUOUS
 62
     7
 10
74.177651027
 20
115.6550577421
 30
0.0
 11
74.1600544583
 21
115.774986944
 31
0.0
  0
LINE
  5
226
  8
0
  6
CONTINUOUS
 62
     7
 10
73.7718389731
 20
115.8712330785
 30
0.0
 11
73.7851018215
 21
115.6181631655
 31
0.0
  0
LINE
  5
227
  8
0
  6
CONTINUOUS
 62
     7
 10
78.8586704888
 20
112.4437576205
 30
0.0
 11
78.4709096782
 21
112.5370193318
 31
0.0
  0
LINE
  5
228
  8
0
  6
CONTINUOUS
 62
     7
 10
78.4704551928
 20
112.540003755
 30
0.0
 11
78.4709101439
 21
112.5370193318
 31
0.0
  0
LINE
  5
229
  8
0
  6
CONTINUOUS
 62
     7
 10
78.4528587841
 20
112.6599329569
 30
0.0
 11
78.4704551928
 21
112.540003755
 31
0.0
  0
LINE
  5
22A
  8
0
  6
CONTINUOUS
 62
     7
 10
78.845407524
 20
112.6968277664
 30
0.0
 11
78.8586704888
 21
112.4437576205
 31
0.0
  0
LINE
  5
22B
  8
0
  6
CONTINUOUS
 62
     7
 10
78.0289926928
 20
116.7009111074
 30
0.0
 11
77.9357307486
 21
116.3131505296
 31
0.0
  0
LINE
  5
22C
  8
0
  6
CONTINUOUS
 62
     7
 10
77.9327463255
 20
116.3126958114
 30
0.0
 11
77.9357307486
 21
116.3131505296
 31
0.0
  0
LINE
  5
22D
  8
0
  6
CONTINUOUS
 62
     7
 10
77.8128171236
 20
116.2950991698
 30
0.0
 11
77.9327463255
 21
116.3126958114
 31
0.0
  0
LINE
  5
22E
  8
0
  6
CONTINUOUS
 62
     7
 10
77.7759225469
 20
116.6876483754
 30
0.0
 11
78.0289926928
 21
116.7009113402
 31
0.0
  0
LINE
  5
22F
  8
0
  6
CONTINUOUS
 62
     7
 10
74.6275095456
 20
111.9942612991
 30
0.0
 11
74.6202837339
 21
111.9937784084
 31
0.0
  0
LINE
  5
230
  8
0
  6
CONTINUOUS
 62
     7
 10
74.6451152967
 20
111.9958152109
 30
0.0
 11
74.6275095456
 21
111.9942612991
 31
0.0
  0
LINE
  5
231
  8
0
  6
CONTINUOUS
 62
     7
 10
74.694778917
 20
112.0018404023
 30
0.0
 11
74.6451152967
 21
111.9958152109
 31
0.0
  0
LINE
  5
232
  8
0
  6
CONTINUOUS
 62
     7
 10
74.4701984962
 20
111.6071975835
 30
0.0
 11
74.601517031
 21
111.6140795917
 31
0.0
  0
LINE
  5
233
  8
0
  6
CONTINUOUS
 62
     7
 10
74.152020535
 20
115.8452407968
 30
0.0
 11
74.1515378335
 21
115.852466463
 31
0.0
  0
LINE
  5
234
  8
0
  6
CONTINUOUS
 62
     7
 10
74.1535744904
 20
115.827634842
 30
0.0
 11
74.152020535
 21
115.8452407968
 31
0.0
  0
LINE
  5
235
  8
0
  6
CONTINUOUS
 62
     7
 10
74.15959974
 20
115.7779713672
 30
0.0
 11
74.1535744904
 21
115.827634842
 31
0.0
  0
LINE
  5
236
  8
0
  6
CONTINUOUS
 62
     7
 10
73.7649567903
 20
116.002551657
 30
0.0
 11
73.7718389731
 21
115.8712330785
 31
0.0
  0
LINE
  5
237
  8
0
  6
CONTINUOUS
 62
     7
 10
78.0030001782
 20
116.3207296328
 30
0.0
 11
78.0102258444
 21
116.3212122907
 31
0.0
  0
LINE
  5
238
  8
0
  6
CONTINUOUS
 62
     7
 10
77.9853942234
 20
116.319175721
 30
0.0
 11
78.0030001782
 21
116.3207296328
 31
0.0
  0
LINE
  5
239
  8
0
  6
CONTINUOUS
 62
     7
 10
77.9357307486
 20
116.3131505296
 30
0.0
 11
77.9853942234
 21
116.319175721
 31
0.0
  0
LINE
  5
23A
  8
0
  6
CONTINUOUS
 62
     7
 10
78.0289926928
 20
116.7009113402
 30
0.0
 11
78.1603112713
 21
116.7077933484
 31
0.0
  0
LINE
  5
23B
  8
0
  6
CONTINUOUS
 62
     7
 10
78.478489247
 20
112.4697499023
 30
0.0
 11
78.4789716721
 21
112.4625242361
 31
0.0
  0
LINE
  5
23C
  8
0
  6
CONTINUOUS
 62
     7
 10
78.4769353353
 20
112.4873560899
 30
0.0
 11
78.478489247
 21
112.4697499023
 31
0.0
  0
LINE
  5
23D
  8
0
  6
CONTINUOUS
 62
     7
 10
78.4709096782
 20
112.5370193318
 30
0.0
 11
78.4769353353
 21
112.4873560899
 31
0.0
  0
LINE
  5
23E
  8
0
  6
CONTINUOUS
 62
     7
 10
78.8586704888
 20
112.4437576205
 30
0.0
 11
78.8655529626
 21
112.3124392749
 31
0.0
  0
LINE
  5
23F
  8
0
  6
CONTINUOUS
 62
     7
 10
74.2405957657
 20
116.0699870948
 30
0.0
 11
74.2832661248
 21
116.0332662099
 31
0.0
  0
POLYLINE
  5
240
  8
0
  6
CONTINUOUS
 62
     7
 66
     1
 10
0.0
 20
0.0
 30
0.0
 70
   128
  0
VERTEX
  5
674
  8
0
  6
CONTINUOUS
 62
     7
 10
74.2390778335
 20
115.9793330868
 30
0.0
  0
VERTEX
  5
675
  8
0
  6
CONTINUOUS
 62
     7
 10
74.2618626149
 20
116.0060331737
 30
0.0
  0
VERTEX
  5
676
  8
0
  6
CONTINUOUS
 62
     7
 10
74.2832657792
 20
116.0332659771
 30
0.0
  0
SEQEND
  5
827
  8
0
  6
CONTINUOUS
 62
     7
  0
LINE
  5
241
  8
0
  6
CONTINUOUS
 62
     7
 10
74.2390783647
 20
115.9793323883
 30
0.0
 11
74.1937771248
 21
116.0222121094
 31
0.0
  0
LINE
  5
242
  8
0
  6
CONTINUOUS
 62
     7
 10
78.3899139509
 20
112.2450036042
 30
0.0
 11
78.3472435445
 21
112.281724722
 31
0.0
  0
POLYLINE
  5
243
  8
0
  6
CONTINUOUS
 62
     7
 66
     1
 10
0.0
 20
0.0
 30
0.0
 70
   128
  0
VERTEX
  5
677
  8
0
  6
CONTINUOUS
 62
     7
 10
78.3914320067
 20
112.3356576123
 30
0.0
  0
VERTEX
  5
678
  8
0
  6
CONTINUOUS
 62
     7
 10
78.3686471999
 20
112.3089575254
 30
0.0
  0
VERTEX
  5
679
  8
0
  6
CONTINUOUS
 62
     7
 10
78.3472440101
 20
112.281724722
 30
0.0
  0
SEQEND
  5
828
  8
0
  6
CONTINUOUS
 62
     7
  0
LINE
  5
244
  8
0
  6
CONTINUOUS
 62
     7
 10
78.3914310754
 20
112.3356585436
 30
0.0
 11
78.436732468
 21
112.2927785897
 31
0.0
  0
LINE
  5
245
  8
0
  6
CONTINUOUS
 62
     7
 10
74.4027630584
 20
112.0828361296
 30
0.0
 11
74.4394840743
 21
112.125506536
 31
0.0
  0
POLYLINE
  5
246
  8
0
  6
CONTINUOUS
 62
     7
 66
     1
 10
0.0
 20
0.0
 30
0.0
 70
   128
  0
VERTEX
  5
67A
  8
0
  6
CONTINUOUS
 62
     7
 10
74.4934171829
 20
112.0813185395
 30
0.0
  0
VERTEX
  5
67B
  8
0
  6
CONTINUOUS
 62
     7
 10
74.4667171396
 20
112.1041033462
 30
0.0
  0
VERTEX
  5
67C
  8
0
  6
CONTINUOUS
 62
     7
 10
74.4394841762
 20
112.125506536
 30
0.0
  0
SEQEND
  5
829
  8
0
  6
CONTINUOUS
 62
     7
  0
LINE
  5
247
  8
0
  6
CONTINUOUS
 62
     7
 10
74.4934177359
 20
112.0813190051
 30
0.0
 11
74.4505381311
 21
112.0360176124
 31
0.0
  0
LINE
  5
248
  8
0
  6
CONTINUOUS
 62
     7
 10
78.2277464763
 20
116.2321545695
 30
0.0
 11
78.1910255913
 21
116.1894841631
 31
0.0
  0
POLYLINE
  5
249
  8
0
  6
CONTINUOUS
 62
     7
 66
     1
 10
0.0
 20
0.0
 30
0.0
 70
   128
  0
VERTEX
  5
67D
  8
0
  6
CONTINUOUS
 62
     7
 10
78.1370924682
 20
116.2336723924
 30
0.0
  0
VERTEX
  5
67E
  8
0
  6
CONTINUOUS
 62
     7
 10
78.1637925551
 20
116.2108875857
 30
0.0
  0
VERTEX
  5
67F
  8
0
  6
CONTINUOUS
 62
     7
 10
78.1910253585
 20
116.1894843959
 30
0.0
  0
SEQEND
  5
82A
  8
0
  6
CONTINUOUS
 62
     7
  0
LINE
  5
24A
  8
0
  6
CONTINUOUS
 62
     7
 10
78.1370920025
 20
116.2336719268
 30
0.0
 11
78.1799714908
 21
116.2789730866
 31
0.0
  0
POLYLINE
  5
24B
  8
0
  6
CONTINUOUS
 62
     7
 66
     1
 10
0.0
 20
0.0
 30
0.0
 70
   128
  0
VERTEX
  5
680
  8
0
  6
CONTINUOUS
 62
     7
 10
78.0025182188
 20
116.2852057301
 30
0.0
  0
VERTEX
  5
681
  8
0
  6
CONTINUOUS
 62
     7
 10
78.0748617266
 20
116.2700512492
 30
0.0
  0
VERTEX
  5
682
  8
0
  6
CONTINUOUS
 62
     7
 10
78.1370901399
 20
116.2336695985
 30
0.0
  0
SEQEND
  5
82B
  8
0
  6
CONTINUOUS
 62
     7
  0
LINE
  5
24C
  8
0
  6
CONTINUOUS
 62
     7
 10
78.0102258444
 20
116.3212122907
 30
0.0
 11
78.0025179859
 21
116.2852057301
 31
0.0
  0
POLYLINE
  5
24D
  8
0
  6
CONTINUOUS
 62
     7
 66
     1
 10
0.0
 20
0.0
 30
0.0
 70
   128
  0
VERTEX
  5
683
  8
0
  6
CONTINUOUS
 62
     7
 10
78.4429653444
 20
112.4702318617
 30
0.0
  0
VERTEX
  5
684
  8
0
  6
CONTINUOUS
 62
     7
 10
78.4278103978
 20
112.3978885867
 30
0.0
  0
VERTEX
  5
685
  8
0
  6
CONTINUOUS
 62
     7
 10
78.3914292127
 20
112.3356599406
 30
0.0
  0
SEQEND
  5
82C
  8
0
  6
CONTINUOUS
 62
     7
  0
LINE
  5
24E
  8
0
  6
CONTINUOUS
 62
     7
 10
78.4789716721
 20
112.4625242361
 30
0.0
 11
78.4429653444
 21
112.4702323274
 31
0.0
  0
POLYLINE
  5
24F
  8
0
  6
CONTINUOUS
 62
     7
 66
     1
 10
0.0
 20
0.0
 30
0.0
 70
   128
  0
VERTEX
  5
686
  8
0
  6
CONTINUOUS
 62
     7
 10
74.187544525
 20
115.8447586045
 30
0.0
  0
VERTEX
  5
687
  8
0
  6
CONTINUOUS
 62
     7
 10
74.2026990568
 20
115.9171023452
 30
0.0
  0
VERTEX
  5
688
  8
0
  6
CONTINUOUS
 62
     7
 10
74.2390806275
 20
115.9793307585
 30
0.0
  0
SEQEND
  5
82D
  8
0
  6
CONTINUOUS
 62
     7
  0
LINE
  5
250
  8
0
  6
CONTINUOUS
 62
     7
 10
74.1515378335
 20
115.852466463
 30
0.0
 11
74.1875444668
 21
115.8447583717
 31
0.0
  0
POLYLINE
  5
251
  8
0
  6
CONTINUOUS
 62
     7
 66
     1
 10
0.0
 20
0.0
 30
0.0
 70
   128
  0
VERTEX
  5
689
  8
0
  6
CONTINUOUS
 62
     7
 10
74.627991505
 20
112.0297852018
 30
0.0
  0
VERTEX
  5
68A
  8
0
  6
CONTINUOUS
 62
     7
 10
74.5556478663
 20
112.0449396827
 30
0.0
  0
VERTEX
  5
68B
  8
0
  6
CONTINUOUS
 62
     7
 10
74.493419453
 20
112.0813213334
 30
0.0
  0
SEQEND
  5
82E
  8
0
  6
CONTINUOUS
 62
     7
  0
LINE
  5
252
  8
0
  6
CONTINUOUS
 62
     7
 10
74.6202837339
 20
111.9937784084
 30
0.0
 11
74.627991767
 21
112.0297852018
 31
0.0
  0
LINE
  5
253
  8
0
  6
CONTINUOUS
 62
     7
 10
74.3922252671
 20
115.8706659031
 30
0.0
 11
74.4090805686
 21
115.8941166055
 31
0.0
  0
LINE
  5
254
  8
0
  6
CONTINUOUS
 62
     7
 10
74.3922248306
 20
115.8706661359
 30
0.0
 11
74.2390778335
 21
115.9793330868
 31
0.0
  0
LINE
  5
255
  8
0
  6
CONTINUOUS
 62
     7
 10
74.409080736
 20
115.8941166055
 30
0.0
 11
74.2832657792
 21
116.0332659771
 31
0.0
  0
LINE
  5
256
  8
0
  6
CONTINUOUS
 62
     7
 10
78.2382843912
 20
112.444324796
 30
0.0
 11
78.2214288496
 21
112.4208740935
 31
0.0
  0
LINE
  5
257
  8
0
  6
CONTINUOUS
 62
     7
 10
78.2382848568
 20
112.444324796
 30
0.0
 11
78.3914320067
 21
112.3356576123
 31
0.0
  0
LINE
  5
258
  8
0
  6
CONTINUOUS
 62
     7
 10
78.2214288496
 20
112.4208740935
 30
0.0
 11
78.3472440101
 21
112.281724722
 31
0.0
  0
LINE
  5
259
  8
0
  6
CONTINUOUS
 62
     7
 10
74.6020844102
 20
112.2344656893
 30
0.0
 11
74.5786335914
 21
112.2513212309
 31
0.0
  0
LINE
  5
25A
  8
0
  6
CONTINUOUS
 62
     7
 10
74.6020840901
 20
112.2344652236
 30
0.0
 11
74.4934171829
 21
112.0813185395
 31
0.0
  0
LINE
  5
25B
  8
0
  6
CONTINUOUS
 62
     7
 10
74.5786337078
 20
112.2513212309
 30
0.0
 11
74.4394841762
 21
112.125506536
 31
0.0
  0
LINE
  5
25C
  8
0
  6
CONTINUOUS
 62
     7
 10
78.0284252845
 20
116.0805250098
 30
0.0
 11
78.0518759869
 21
116.063669701
 31
0.0
  0
LINE
  5
25D
  8
0
  6
CONTINUOUS
 62
     7
 10
78.0284255173
 20
116.0805254754
 30
0.0
 11
78.1370924682
 21
116.2336723924
 31
0.0
  0
LINE
  5
25E
  8
0
  6
CONTINUOUS
 62
     7
 10
78.0518759869
 20
116.0636694682
 30
0.0
 11
78.1910253585
 21
116.1894843959
 31
0.0
  0
POLYLINE
  5
25F
  8
0
  6
CONTINUOUS
 62
     7
 66
     1
 10
0.0
 20
0.0
 30
0.0
 70
   128
  0
VERTEX
  5
68C
  8
0
  6
CONTINUOUS
 62
     7
 10
77.9308478244
 20
116.1152181727
 30
0.0
  0
VERTEX
  5
68D
  8
0
  6
CONTINUOUS
 62
     7
 10
77.9824288923
 20
116.1052574449
 30
0.0
  0
VERTEX
  5
68E
  8
0
  6
CONTINUOUS
 62
     7
 10
78.0284234218
 20
116.0805264068
 30
0.0
  0
SEQEND
  5
82F
  8
0
  6
CONTINUOUS
 62
     7
  0
LINE
  5
260
  8
0
  6
CONTINUOUS
 62
     7
 10
77.9963947728
 20
116.2854292475
 30
0.0
 11
77.9308478244
 21
116.1152181727
 31
0.0
  0
LINE
  5
261
  8
0
  6
CONTINUOUS
 62
     7
 10
78.0025182188
 20
116.2852057301
 30
0.0
 11
77.9963947728
 21
116.2854292475
 31
0.0
  0
POLYLINE
  5
262
  8
0
  6
CONTINUOUS
 62
     7
 66
     1
 10
0.0
 20
0.0
 30
0.0
 70
   128
  0
VERTEX
  5
68F
  8
0
  6
CONTINUOUS
 62
     7
 10
74.6996617539
 20
112.1997725264
 30
0.0
  0
VERTEX
  5
690
  8
0
  6
CONTINUOUS
 62
     7
 10
74.6480806568
 20
112.209733487
 30
0.0
  0
VERTEX
  5
691
  8
0
  6
CONTINUOUS
 62
     7
 10
74.6020862146
 20
112.2344642923
 30
0.0
  0
SEQEND
  5
830
  8
0
  6
CONTINUOUS
 62
     7
  0
LINE
  5
263
  8
0
  6
CONTINUOUS
 62
     7
 10
74.6341148928
 20
112.0295616844
 30
0.0
 11
74.6996617539
 21
112.1997725264
 31
0.0
  0
LINE
  5
264
  8
0
  6
CONTINUOUS
 62
     7
 10
74.6279914759
 20
112.0297852018
 30
0.0
 11
74.6341148928
 21
112.0295616844
 31
0.0
  0
POLYLINE
  5
265
  8
0
  6
CONTINUOUS
 62
     7
 66
     1
 10
0.0
 20
0.0
 30
0.0
 70
   128
  0
VERTEX
  5
692
  8
0
  6
CONTINUOUS
 62
     7
 10
78.2729775541
 20
112.5419022561
 30
0.0
  0
VERTEX
  5
693
  8
0
  6
CONTINUOUS
 62
     7
 10
78.2630170591
 20
112.490321421
 30
0.0
  0
VERTEX
  5
694
  8
0
  6
CONTINUOUS
 62
     7
 10
78.2382857882
 20
112.4443266586
 30
0.0
  0
SEQEND
  5
831
  8
0
  6
CONTINUOUS
 62
     7
  0
LINE
  5
266
  8
0
  6
CONTINUOUS
 62
     7
 10
78.4431888618
 20
112.4763553076
 30
0.0
 11
78.2729775541
 21
112.5419022561
 31
0.0
  0
LINE
  5
267
  8
0
  6
CONTINUOUS
 62
     7
 10
78.4429653444
 20
112.4702318617
 30
0.0
 11
78.4431888618
 21
112.4763553076
 31
0.0
  0
POLYLINE
  5
268
  8
0
  6
CONTINUOUS
 62
     7
 66
     1
 10
0.0
 20
0.0
 30
0.0
 70
   128
  0
VERTEX
  5
695
  8
0
  6
CONTINUOUS
 62
     7
 10
74.3575321697
 20
115.773088443
 30
0.0
  0
VERTEX
  5
696
  8
0
  6
CONTINUOUS
 62
     7
 10
74.3674927265
 20
115.8246695109
 30
0.0
  0
VERTEX
  5
697
  8
0
  6
CONTINUOUS
 62
     7
 10
74.3922238556
 20
115.8706640404
 30
0.0
  0
SEQEND
  5
832
  8
0
  6
CONTINUOUS
 62
     7
  0
LINE
  5
269
  8
0
  6
CONTINUOUS
 62
     7
 10
74.1873210075
 20
115.8386353914
 30
0.0
 11
74.3575321697
 21
115.773088443
 31
0.0
  0
LINE
  5
26A
  8
0
  6
CONTINUOUS
 62
     7
 10
74.1875445104
 20
115.8447588374
 30
0.0
 11
74.1873210075
 21
115.8386353914
 31
0.0
  0
LINE
  5
26B
  8
0
  6
CONTINUOUS
 62
     7
 10
74.2832661248
 20
116.0332662099
 30
0.0
 11
74.3158673911
 21
116.0640014847
 31
0.0
  0
LINE
  5
26C
  8
0
  6
CONTINUOUS
 62
     7
 10
74.3158673911
 20
116.0640014847
 30
0.0
 11
74.2864549114
 21
116.0942361736
 31
0.0
  0
LINE
  5
26D
  8
0
  6
CONTINUOUS
 62
     7
 10
78.3472435445
 20
112.281724722
 30
0.0
 11
78.3146421321
 21
112.2509892144
 31
0.0
  0
LINE
  5
26E
  8
0
  6
CONTINUOUS
 62
     7
 10
78.3146421321
 20
112.2509892144
 30
0.0
 11
78.344054696
 21
112.2207547583
 31
0.0
  0
LINE
  5
26F
  8
0
  6
CONTINUOUS
 62
     7
 10
74.4394840743
 20
112.125506536
 30
0.0
 11
74.4087487559
 21
112.1581079484
 31
0.0
  0
LINE
  5
270
  8
0
  6
CONTINUOUS
 62
     7
 10
74.4087487559
 20
112.1581079484
 30
0.0
 11
74.3785140161
 21
112.1286953845
 31
0.0
  0
LINE
  5
271
  8
0
  6
CONTINUOUS
 62
     7
 10
78.1910255913
 20
116.1894841631
 30
0.0
 11
78.2217608661
 21
116.1568827507
 31
0.0
  0
LINE
  5
272
  8
0
  6
CONTINUOUS
 62
     7
 10
78.2217608661
 20
116.1568827507
 30
0.0
 11
78.2519957878
 21
116.1862953146
 31
0.0
  0
LINE
  5
273
  8
0
  6
CONTINUOUS
 62
     7
 10
74.3158674156
 20
116.0640014847
 30
0.0
 11
74.4025931648
 21
116.0959917166
 31
0.0
  0
POLYLINE
  5
274
  8
0
  6
CONTINUOUS
 62
     7
 66
     1
 10
0.0
 20
0.0
 30
0.0
 70
   128
  0
VERTEX
  5
698
  8
0
  6
CONTINUOUS
 62
     7
 10
74.4025926555
 20
116.0959917166
 30
0.0
  0
VERTEX
  5
699
  8
0
  6
CONTINUOUS
 62
     7
 10
74.413990916
 20
116.0696564753
 30
0.0
  0
VERTEX
  5
69A
  8
0
  6
CONTINUOUS
 62
     7
 10
74.4366660013
 20
116.0372688015
 30
0.0
  0
SEQEND
  5
833
  8
0
  6
CONTINUOUS
 62
     7
  0
LINE
  5
275
  8
0
  6
CONTINUOUS
 62
     7
 10
74.436666045
 20
116.0372688015
 30
0.0
 11
74.5227503952
 21
115.9372107637
 31
0.0
  0
POLYLINE
  5
276
  8
0
  6
CONTINUOUS
 62
     7
 66
     1
 10
0.0
 20
0.0
 30
0.0
 70
   128
  0
VERTEX
  5
69B
  8
0
  6
CONTINUOUS
 62
     7
 10
74.5227503952
 20
115.9372107637
 30
0.0
  0
VERTEX
  5
69C
  8
0
  6
CONTINUOUS
 62
     7
 10
74.4623210788
 20
115.9235207875
 30
0.0
  0
VERTEX
  5
69D
  8
0
  6
CONTINUOUS
 62
     7
 10
74.4107121803
 20
115.8908821222
 30
0.0
  0
SEQEND
  5
834
  8
0
  6
CONTINUOUS
 62
     7
  0
LINE
  5
277
  8
0
  6
CONTINUOUS
 62
     7
 10
74.4107121949
 20
115.8908821222
 30
0.0
 11
74.4090808233
 21
115.8941166055
 31
0.0
  0
LINE
  5
278
  8
0
  6
CONTINUOUS
 62
     7
 10
74.4087487486
 20
112.1581079484
 30
0.0
 11
74.3767585603
 21
112.2448336378
 31
0.0
  0
POLYLINE
  5
279
  8
0
  6
CONTINUOUS
 62
     7
 66
     1
 10
0.0
 20
0.0
 30
0.0
 70
   128
  0
VERTEX
  5
69E
  8
0
  6
CONTINUOUS
 62
     7
 10
74.3767585894
 20
112.2448331722
 30
0.0
  0
VERTEX
  5
69F
  8
0
  6
CONTINUOUS
 62
     7
 10
74.4030938671
 20
112.2562316292
 30
0.0
  0
VERTEX
  5
6A0
  8
0
  6
CONTINUOUS
 62
     7
 10
74.4354813881
 20
112.2789065399
 30
0.0
  0
SEQEND
  5
835
  8
0
  6
CONTINUOUS
 62
     7
  0
LINE
  5
27A
  8
0
  6
CONTINUOUS
 62
     7
 10
74.4354796128
 20
112.2789084025
 30
0.0
 11
74.5355403936
 21
112.3649905481
 31
0.0
  0
POLYLINE
  5
27B
  8
0
  6
CONTINUOUS
 62
     7
 66
     1
 10
0.0
 20
0.0
 30
0.0
 70
   128
  0
VERTEX
  5
6A1
  8
0
  6
CONTINUOUS
 62
     7
 10
74.5355394041
 20
112.3649910138
 30
0.0
  0
VERTEX
  5
6A2
  8
0
  6
CONTINUOUS
 62
     7
 10
74.5492293948
 20
112.3045616829
 30
0.0
  0
VERTEX
  5
6A3
  8
0
  6
CONTINUOUS
 62
     7
 10
74.5818680747
 20
112.2529529081
 30
0.0
  0
SEQEND
  5
836
  8
0
  6
CONTINUOUS
 62
     7
  0
LINE
  5
27C
  8
0
  6
CONTINUOUS
 62
     7
 10
74.5818680747
 20
112.2529529081
 30
0.0
 11
74.5786337078
 21
112.2513212309
 31
0.0
  0
LINE
  5
27D
  8
0
  6
CONTINUOUS
 62
     7
 10
78.3146421321
 20
112.2509892144
 30
0.0
 11
78.2279164426
 21
112.2189992153
 31
0.0
  0
POLYLINE
  5
27E
  8
0
  6
CONTINUOUS
 62
     7
 66
     1
 10
0.0
 20
0.0
 30
0.0
 70
   128
  0
VERTEX
  5
6A4
  8
0
  6
CONTINUOUS
 62
     7
 10
78.2279169083
 20
112.2189992153
 30
0.0
  0
VERTEX
  5
6A5
  8
0
  6
CONTINUOUS
 62
     7
 10
78.2165186841
 20
112.2453342237
 30
0.0
  0
VERTEX
  5
6A6
  8
0
  6
CONTINUOUS
 62
     7
 10
78.1938435406
 20
112.2777218976
 30
0.0
  0
SEQEND
  5
837
  8
0
  6
CONTINUOUS
 62
     7
  0
LINE
  5
27F
  8
0
  6
CONTINUOUS
 62
     7
 10
78.1938435406
 20
112.2777218976
 30
0.0
 11
78.1077592995
 21
112.3777799354
 31
0.0
  0
POLYLINE
  5
280
  8
0
  6
CONTINUOUS
 62
     7
 66
     1
 10
0.0
 20
0.0
 30
0.0
 70
   128
  0
VERTEX
  5
6A7
  8
0
  6
CONTINUOUS
 62
     7
 10
78.1077592995
 20
112.3777799354
 30
0.0
  0
VERTEX
  5
6A8
  8
0
  6
CONTINUOUS
 62
     7
 10
78.1681886304
 20
112.3914699116
 30
0.0
  0
VERTEX
  5
6A9
  8
0
  6
CONTINUOUS
 62
     7
 10
78.2197974052
 20
112.4241085768
 30
0.0
  0
SEQEND
  5
838
  8
0
  6
CONTINUOUS
 62
     7
  0
LINE
  5
281
  8
0
  6
CONTINUOUS
 62
     7
 10
78.2197974052
 20
112.4241085768
 30
0.0
 11
78.2214288496
 21
112.4208740935
 31
0.0
  0
LINE
  5
282
  8
0
  6
CONTINUOUS
 62
     7
 10
78.2217608661
 20
116.1568827507
 30
0.0
 11
78.2537508652
 21
116.0701570612
 31
0.0
  0
POLYLINE
  5
283
  8
0
  6
CONTINUOUS
 62
     7
 66
     1
 10
0.0
 20
0.0
 30
0.0
 70
   128
  0
VERTEX
  5
6AA
  8
0
  6
CONTINUOUS
 62
     7
 10
78.2537508652
 20
116.0701575269
 30
0.0
  0
VERTEX
  5
6AB
  8
0
  6
CONTINUOUS
 62
     7
 10
78.2274158567
 20
116.0587593027
 30
0.0
  0
VERTEX
  5
6AC
  8
0
  6
CONTINUOUS
 62
     7
 10
78.1950281829
 20
116.0360841592
 30
0.0
  0
SEQEND
  5
839
  8
0
  6
CONTINUOUS
 62
     7
  0
LINE
  5
284
  8
0
  6
CONTINUOUS
 62
     7
 10
78.1950284157
 20
116.0360841592
 30
0.0
 11
78.0949701451
 21
115.9499999181
 31
0.0
  0
POLYLINE
  5
285
  8
0
  6
CONTINUOUS
 62
     7
 66
     1
 10
0.0
 20
0.0
 30
0.0
 70
   128
  0
VERTEX
  5
6AD
  8
0
  6
CONTINUOUS
 62
     7
 10
78.0949701451
 20
115.9499999181
 30
0.0
  0
VERTEX
  5
6AE
  8
0
  6
CONTINUOUS
 62
     7
 10
78.0812801689
 20
116.010429249
 30
0.0
  0
VERTEX
  5
6AF
  8
0
  6
CONTINUOUS
 62
     7
 10
78.0486415036
 20
116.0620380238
 30
0.0
  0
SEQEND
  5
83A
  8
0
  6
CONTINUOUS
 62
     7
  0
LINE
  5
286
  8
0
  6
CONTINUOUS
 62
     7
 10
78.0486415036
 20
116.0620380238
 30
0.0
 11
78.0518759869
 21
116.0636694682
 31
0.0
  0
POLYLINE
  5
287
  8
0
  6
CONTINUOUS
 62
     7
 66
     1
 10
0.0
 20
0.0
 30
0.0
 70
   128
  0
VERTEX
  5
6B0
  8
0
  6
CONTINUOUS
 62
     7
 10
74.4295393391
 20
115.7126854219
 30
0.0
  0
VERTEX
  5
6B1
  8
0
  6
CONTINUOUS
 62
     7
 10
74.4243777311
 20
115.7139671546
 30
0.0
  0
VERTEX
  5
6B2
  8
0
  6
CONTINUOUS
 62
     7
 10
74.4202829313
 20
115.7149808992
 30
0.0
  0
SEQEND
  5
83B
  8
0
  6
CONTINUOUS
 62
     7
  0
POLYLINE
  5
288
  8
0
  6
CONTINUOUS
 62
     7
 66
     1
 10
0.0
 20
0.0
 30
0.0
 70
   128
  0
VERTEX
  5
6B3
  8
0
  6
CONTINUOUS
 62
     7
 10
74.4237780758
 20
115.651634666
 30
0.0
  0
VERTEX
  5
6B4
  8
0
  6
CONTINUOUS
 62
     7
 10
74.4249063003
 20
115.651693805
 30
0.0
  0
VERTEX
  5
6B5
  8
0
  6
CONTINUOUS
 62
     7
 10
74.4260313744
 20
115.6517527112
 30
0.0
  0
VERTEX
  5
6B6
  8
0
  6
CONTINUOUS
 62
     7
 10
74.4271532688
 20
115.6518116173
 30
0.0
  0
VERTEX
  5
6B7
  8
0
  6
CONTINUOUS
 62
     7
 10
74.4282719619
 20
115.6518700578
 30
0.0
  0
VERTEX
  5
6B8
  8
0
  6
CONTINUOUS
 62
     7
 10
74.4293874317
 20
115.6519287311
 30
0.0
  0
VERTEX
  5
6B9
  8
0
  6
CONTINUOUS
 62
     7
 10
74.4304996709
 20
115.6519869388
 30
0.0
  0
VERTEX
  5
6BA
  8
0
  6
CONTINUOUS
 62
     7
 10
74.4316086433
 20
115.6520451465
 30
0.0
  0
VERTEX
  5
6BB
  8
0
  6
CONTINUOUS
 62
     7
 10
74.4327143414
 20
115.6521028885
 30
0.0
  0
SEQEND
  5
83C
  8
0
  6
CONTINUOUS
 62
     7
  0
LINE
  5
289
  8
0
  6
CONTINUOUS
 62
     7
 10
74.4202829313
 20
115.7149808992
 30
0.0
 11
74.4237780758
 21
115.651634666
 31
0.0
  0
LINE
  5
28A
  8
0
  6
CONTINUOUS
 62
     7
 10
74.5935453755
 20
112.4087296472
 30
0.0
 11
74.562751602
 21
112.3914191545
 31
0.0
  0
POLYLINE
  5
28B
  8
0
  6
CONTINUOUS
 62
     7
 66
     1
 10
0.0
 20
0.0
 30
0.0
 70
   128
  0
VERTEX
  5
6BC
  8
0
  6
CONTINUOUS
 62
     7
 10
74.562751602
 20
112.3914191545
 30
0.0
  0
VERTEX
  5
6BD
  8
0
  6
CONTINUOUS
 62
     7
 10
74.4757181541
 20
112.3732700058
 30
0.0
  0
VERTEX
  5
6BE
  8
0
  6
CONTINUOUS
 62
     7
 10
74.3701106706
 20
112.3327006631
 30
0.0
  0
SEQEND
  5
83D
  8
0
  6
CONTINUOUS
 62
     7
  0
POLYLINE
  5
28C
  8
0
  6
CONTINUOUS
 62
     7
 66
     1
 10
0.0
 20
0.0
 30
0.0
 70
   128
  0
VERTEX
  5
6BF
  8
0
  6
CONTINUOUS
 62
     7
 10
74.1976862276
 20
115.6227441084
 30
0.0
  0
VERTEX
  5
6C0
  8
0
  6
CONTINUOUS
 62
     7
 10
74.2992663794
 20
115.6285450839
 30
0.0
  0
VERTEX
  5
6C1
  8
0
  6
CONTINUOUS
 62
     7
 10
74.3731031738
 20
115.6424553179
 30
0.0
  0
SEQEND
  5
83E
  8
0
  6
CONTINUOUS
 62
     7
  0
LINE
  5
28D
  8
0
  6
CONTINUOUS
 62
     7
 10
74.3731031738
 20
115.6424553179
 30
0.0
 11
74.4237780758
 21
115.651634666
 31
0.0
  0
LINE
  5
28E
  8
0
  6
CONTINUOUS
 62
     7
 10
74.6024311241
 20
112.4137140856
 30
0.0
 11
74.5935453755
 21
112.4087296472
 31
0.0
  0
POLYLINE
  5
28F
  8
0
  6
CONTINUOUS
 62
     7
 66
     1
 10
0.0
 20
0.0
 30
0.0
 70
   128
  0
VERTEX
  5
6C2
  8
0
  6
CONTINUOUS
 62
     7
 10
78.2102266688
 20
112.6000097998
 30
0.0
  0
VERTEX
  5
6C3
  8
0
  6
CONTINUOUS
 62
     7
 10
78.2050210413
 20
112.6012992159
 30
0.0
  0
VERTEX
  5
6C4
  8
0
  6
CONTINUOUS
 62
     7
 10
78.2009702537
 20
112.60230551
 30
0.0
  0
SEQEND
  5
83F
  8
0
  6
CONTINUOUS
 62
     7
  0
POLYLINE
  5
290
  8
0
  6
CONTINUOUS
 62
     7
 66
     1
 10
0.0
 20
0.0
 30
0.0
 70
   128
  0
VERTEX
  5
6C5
  8
0
  6
CONTINUOUS
 62
     7
 10
78.206731648
 20
112.663356033
 30
0.0
  0
VERTEX
  5
6C6
  8
0
  6
CONTINUOUS
 62
     7
 10
78.2056033507
 20
112.6632968941
 30
0.0
  0
VERTEX
  5
6C7
  8
0
  6
CONTINUOUS
 62
     7
 10
78.204478313
 20
112.6632382207
 30
0.0
  0
VERTEX
  5
6C8
  8
0
  6
CONTINUOUS
 62
     7
 10
78.2033563022
 20
112.6631790818
 30
0.0
  0
VERTEX
  5
6C9
  8
0
  6
CONTINUOUS
 62
     7
 10
78.2022377838
 20
112.6631208741
 30
0.0
  0
VERTEX
  5
6CA
  8
0
  6
CONTINUOUS
 62
     7
 10
78.2011222921
 20
112.6630622008
 30
0.0
  0
VERTEX
  5
6CB
  8
0
  6
CONTINUOUS
 62
     7
 10
78.2000100602
 20
112.6630039931
 30
0.0
  0
VERTEX
  5
6CC
  8
0
  6
CONTINUOUS
 62
     7
 10
78.1989010878
 20
112.6629457854
 30
0.0
  0
VERTEX
  5
6CD
  8
0
  6
CONTINUOUS
 62
     7
 10
78.1977953751
 20
112.6628880434
 30
0.0
  0
SEQEND
  5
840
  8
0
  6
CONTINUOUS
 62
     7
  0
LINE
  5
291
  8
0
  6
CONTINUOUS
 62
     7
 10
78.2102266688
 20
112.6000097998
 30
0.0
 11
78.206731648
 21
112.663356033
 31
0.0
  0
LINE
  5
292
  8
0
  6
CONTINUOUS
 62
     7
 10
78.0369643483
 20
115.9062610519
 30
0.0
 11
78.0674719148
 21
115.9234085631
 31
0.0
  0
POLYLINE
  5
293
  8
0
  6
CONTINUOUS
 62
     7
 66
     1
 10
0.0
 20
0.0
 30
0.0
 70
   128
  0
VERTEX
  5
6CE
  8
0
  6
CONTINUOUS
 62
     7
 10
78.0674719148
 20
115.9234085631
 30
0.0
  0
VERTEX
  5
6CF
  8
0
  6
CONTINUOUS
 62
     7
 10
78.1557449967
 20
115.9421286125
 30
0.0
  0
VERTEX
  5
6D0
  8
0
  6
CONTINUOUS
 62
     7
 10
78.260399577
 20
115.9822902688
 30
0.0
  0
SEQEND
  5
841
  8
0
  6
CONTINUOUS
 62
     7
  0
POLYLINE
  5
294
  8
0
  6
CONTINUOUS
 62
     7
 66
     1
 10
0.0
 20
0.0
 30
0.0
 70
   128
  0
VERTEX
  5
6D1
  8
0
  6
CONTINUOUS
 62
     7
 10
78.4328232415
 20
112.6922465906
 30
0.0
  0
VERTEX
  5
6D2
  8
0
  6
CONTINUOUS
 62
     7
 10
78.3312434226
 20
112.686445848
 30
0.0
  0
VERTEX
  5
6D3
  8
0
  6
CONTINUOUS
 62
     7
 10
78.2574063063
 20
112.672535614
 30
0.0
  0
SEQEND
  5
842
  8
0
  6
CONTINUOUS
 62
     7
  0
LINE
  5
295
  8
0
  6
CONTINUOUS
 62
     7
 10
78.2574063063
 20
112.672535614
 30
0.0
 11
78.206731648
 21
112.663356033
 31
0.0
  0
LINE
  5
296
  8
0
  6
CONTINUOUS
 62
     7
 10
78.0369643483
 20
115.9062610519
 30
0.0
 11
78.0280785997
 21
115.9012768463
 31
0.0
  0
LINE
  5
297
  8
0
  6
CONTINUOUS
 62
     7
 10
78.0640204333
 20
112.435785965
 30
0.0
 11
78.0811751623
 21
112.4052655929
 31
0.0
  0
POLYLINE
  5
298
  8
0
  6
CONTINUOUS
 62
     7
 66
     1
 10
0.0
 20
0.0
 30
0.0
 70
   128
  0
VERTEX
  5
6D4
  8
0
  6
CONTINUOUS
 62
     7
 10
78.0811751623
 20
112.4052655929
 30
0.0
  0
VERTEX
  5
6D5
  8
0
  6
CONTINUOUS
 62
     7
 10
78.0999536522
 20
112.3168886685
 30
0.0
  0
VERTEX
  5
6D6
  8
0
  6
CONTINUOUS
 62
     7
 10
78.1400501158
 20
112.2123500378
 30
0.0
  0
SEQEND
  5
843
  8
0
  6
CONTINUOUS
 62
     7
  0
POLYLINE
  5
299
  8
0
  6
CONTINUOUS
 62
     7
 66
     1
 10
0.0
 20
0.0
 30
0.0
 70
   128
  0
VERTEX
  5
6D7
  8
0
  6
CONTINUOUS
 62
     7
 10
74.8500060302
 20
112.0399268389
 30
0.0
  0
VERTEX
  5
6D8
  8
0
  6
CONTINUOUS
 62
     7
 10
74.8442052294
 20
112.1415071235
 30
0.0
  0
VERTEX
  5
6D9
  8
0
  6
CONTINUOUS
 62
     7
 10
74.830294879
 20
112.2153437742
 30
0.0
  0
SEQEND
  5
844
  8
0
  6
CONTINUOUS
 62
     7
  0
LINE
  5
29A
  8
0
  6
CONTINUOUS
 62
     7
 10
74.830294879
 20
112.2153437742
 30
0.0
 11
74.8211155891
 21
112.2660184325
 31
0.0
  0
POLYLINE
  5
29B
  8
0
  6
CONTINUOUS
 62
     7
 66
     1
 10
0.0
 20
0.0
 30
0.0
 70
   128
  0
VERTEX
  5
6DA
  8
0
  6
CONTINUOUS
 62
     7
 10
74.8211155891
 20
112.2660184325
 30
0.0
  0
VERTEX
  5
6DB
  8
0
  6
CONTINUOUS
 62
     7
 10
74.8210564501
 20
112.2671467298
 30
0.0
  0
VERTEX
  5
6DC
  8
0
  6
CONTINUOUS
 62
     7
 10
74.8209974857
 20
112.2682717674
 30
0.0
  0
VERTEX
  5
6DD
  8
0
  6
CONTINUOUS
 62
     7
 10
74.820938696
 20
112.2693940111
 30
0.0
  0
VERTEX
  5
6DE
  8
0
  6
CONTINUOUS
 62
     7
 10
74.8208800809
 20
112.2705125295
 30
0.0
  0
VERTEX
  5
6DF
  8
0
  6
CONTINUOUS
 62
     7
 10
74.8208215822
 20
112.2716277883
 30
0.0
  0
VERTEX
  5
6E0
  8
0
  6
CONTINUOUS
 62
     7
 10
74.8207633163
 20
112.2727402531
 30
0.0
  0
VERTEX
  5
6E1
  8
0
  6
CONTINUOUS
 62
     7
 10
74.8207051668
 20
112.2738494583
 30
0.0
  0
VERTEX
  5
6E2
  8
0
  6
CONTINUOUS
 62
     7
 10
74.8206472502
 20
112.2749549382
 30
0.0
  0
SEQEND
  5
845
  8
0
  6
CONTINUOUS
 62
     7
  0
LINE
  5
29C
  8
0
  6
CONTINUOUS
 62
     7
 10
78.0640204333
 20
112.435785965
 30
0.0
 11
78.0590362277
 21
112.4446717136
 31
0.0
  0
POLYLINE
  5
29D
  8
0
  6
CONTINUOUS
 62
     7
 66
     1
 10
0.0
 20
0.0
 30
0.0
 70
   128
  0
VERTEX
  5
6E3
  8
0
  6
CONTINUOUS
 62
     7
 10
77.7805034898
 20
116.2750640929
 30
0.0
  0
VERTEX
  5
6E4
  8
0
  6
CONTINUOUS
 62
     7
 10
77.7863044653
 20
116.1734838084
 30
0.0
  0
VERTEX
  5
6E5
  8
0
  6
CONTINUOUS
 62
     7
 10
77.8002146993
 20
116.0996471577
 30
0.0
  0
SEQEND
  5
846
  8
0
  6
CONTINUOUS
 62
     7
  0
LINE
  5
29E
  8
0
  6
CONTINUOUS
 62
     7
 10
77.8002146993
 20
116.0996471577
 30
0.0
 11
77.8093940474
 21
116.0489722666
 31
0.0
  0
POLYLINE
  5
29F
  8
0
  6
CONTINUOUS
 62
     7
 66
     1
 10
0.0
 20
0.0
 30
0.0
 70
   128
  0
VERTEX
  5
6E6
  8
0
  6
CONTINUOUS
 62
     7
 10
77.8093940474
 20
116.0489722666
 30
0.0
  0
VERTEX
  5
6E7
  8
0
  6
CONTINUOUS
 62
     7
 10
77.8094531864
 20
116.0478439693
 30
0.0
  0
VERTEX
  5
6E8
  8
0
  6
CONTINUOUS
 62
     7
 10
77.8095120926
 20
116.0467189316
 30
0.0
  0
VERTEX
  5
6E9
  8
0
  6
CONTINUOUS
 62
     7
 10
77.8095709987
 20
116.0455969208
 30
0.0
  0
VERTEX
  5
6EA
  8
0
  6
CONTINUOUS
 62
     7
 10
77.809629672
 20
116.0444781695
 30
0.0
  0
VERTEX
  5
6EB
  8
0
  6
CONTINUOUS
 62
     7
 10
77.8096881125
 20
116.0433626779
 30
0.0
  0
VERTEX
  5
6EC
  8
0
  6
CONTINUOUS
 62
     7
 10
77.8097463202
 20
116.0422504459
 30
0.0
  0
VERTEX
  5
6ED
  8
0
  6
CONTINUOUS
 62
     7
 10
77.8098045279
 20
116.0411414736
 30
0.0
  0
VERTEX
  5
6EE
  8
0
  6
CONTINUOUS
 62
     7
 10
77.8098625027
 20
116.0400359937
 30
0.0
  0
SEQEND
  5
847
  8
0
  6
CONTINUOUS
 62
     7
  0
LINE
  5
2A0
  8
0
  6
CONTINUOUS
 62
     7
 10
74.566489145
 20
115.8792049669
 30
0.0
 11
74.5714733506
 21
115.8703192183
 31
0.0
  0
LINE
  5
2A1
  8
0
  6
CONTINUOUS
 62
     7
 10
74.566489145
 20
115.8792049669
 30
0.0
 11
74.5493925218
 21
115.9096233592
 31
0.0
  0
POLYLINE
  5
2A2
  8
0
  6
CONTINUOUS
 62
     7
 66
     1
 10
0.0
 20
0.0
 30
0.0
 70
   128
  0
VERTEX
  5
6EF
  8
0
  6
CONTINUOUS
 62
     7
 10
74.5493925218
 20
115.9096233592
 30
0.0
  0
VERTEX
  5
6F0
  8
0
  6
CONTINUOUS
 62
     7
 10
74.5306122711
 20
115.9979853825
 30
0.0
  0
VERTEX
  5
6F1
  8
0
  6
CONTINUOUS
 62
     7
 10
74.4904594334
 20
116.1026406613
 30
0.0
  0
SEQEND
  5
848
  8
0
  6
CONTINUOUS
 62
     7
  0
POLYLINE
  5
2A3
  8
0
  6
CONTINUOUS
 62
     7
 66
     1
 10
0.0
 20
0.0
 30
0.0
 70
   128
  0
VERTEX
  5
6F2
  8
0
  6
CONTINUOUS
 62
     7
 10
74.7577692394
 20
112.2625236445
 30
0.0
  0
VERTEX
  5
6F3
  8
0
  6
CONTINUOUS
 62
     7
 10
74.7590584518
 20
112.267729272
 30
0.0
  0
VERTEX
  5
6F4
  8
0
  6
CONTINUOUS
 62
     7
 10
74.7600648041
 20
112.2717800596
 30
0.0
  0
SEQEND
  5
849
  8
0
  6
CONTINUOUS
 62
     7
  0
LINE
  5
2A4
  8
0
  6
CONTINUOUS
 62
     7
 10
74.7577692394
 20
112.2625236445
 30
0.0
 11
74.8211155891
 21
112.2660184325
 31
0.0
  0
POLYLINE
  5
2A5
  8
0
  6
CONTINUOUS
 62
     7
 66
     1
 10
0.0
 20
0.0
 30
0.0
 70
   128
  0
VERTEX
  5
6F5
  8
0
  6
CONTINUOUS
 62
     7
 10
77.8727405135
 20
116.0524672874
 30
0.0
  0
VERTEX
  5
6F6
  8
0
  6
CONTINUOUS
 62
     7
 10
77.8714510974
 20
116.0472616599
 30
0.0
  0
VERTEX
  5
6F7
  8
0
  6
CONTINUOUS
 62
     7
 10
77.8704448033
 20
116.0432108723
 30
0.0
  0
SEQEND
  5
84A
  8
0
  6
CONTINUOUS
 62
     7
  0
LINE
  5
2A6
  8
0
  6
CONTINUOUS
 62
     7
 10
77.8727405135
 20
116.0524672874
 30
0.0
 11
77.8093940474
 21
116.0489722666
 31
0.0
  0
POLYLINE
  5
2A7
  8
0
  6
CONTINUOUS
 62
     7
 66
     1
 10
0.0
 20
0.0
 30
0.0
 70
   128
  0
VERTEX
  5
6F8
  8
0
  6
CONTINUOUS
 62
     7
 10
77.9054690514
 20
116.0522102424
 30
0.0
  0
VERTEX
  5
6F9
  8
0
  6
CONTINUOUS
 62
     7
 10
77.9497501802
 20
116.0402355295
 30
0.0
  0
VERTEX
  5
6FA
  8
0
  6
CONTINUOUS
 62
     7
 10
77.9880212516
 20
116.01529052
 30
0.0
  0
SEQEND
  5
84B
  8
0
  6
CONTINUOUS
 62
     7
  0
POLYLINE
  5
2A8
  8
0
  6
CONTINUOUS
 62
     7
 66
     1
 10
0.0
 20
0.0
 30
0.0
 70
   128
  0
VERTEX
  5
6FB
  8
0
  6
CONTINUOUS
 62
     7
 10
77.9805436626
 20
116.0069859166
 30
0.0
  0
VERTEX
  5
6FC
  8
0
  6
CONTINUOUS
 62
     7
 10
77.9847171519
 20
116.0116213419
 30
0.0
  0
VERTEX
  5
6FD
  8
0
  6
CONTINUOUS
 62
     7
 10
77.9880210187
 20
116.01529052
 30
0.0
  0
SEQEND
  5
84C
  8
0
  6
CONTINUOUS
 62
     7
  0
LINE
  5
2A9
  8
0
  6
CONTINUOUS
 62
     7
 10
77.9054690514
 20
116.0522102424
 30
0.0
 11
77.901737009
 21
116.042753593
 31
0.0
  0
POLYLINE
  5
2AA
  8
0
  6
CONTINUOUS
 62
     7
 66
     1
 10
0.0
 20
0.0
 30
0.0
 70
   128
  0
VERTEX
  5
6FE
  8
0
  6
CONTINUOUS
 62
     7
 10
78.2099696238
 20
112.5672812619
 30
0.0
  0
VERTEX
  5
6FF
  8
0
  6
CONTINUOUS
 62
     7
 10
78.1979949109
 20
112.5230001331
 30
0.0
  0
VERTEX
  5
700
  8
0
  6
CONTINUOUS
 62
     7
 10
78.1730499014
 20
112.4847288289
 30
0.0
  0
SEQEND
  5
84D
  8
0
  6
CONTINUOUS
 62
     7
  0
POLYLINE
  5
2AB
  8
0
  6
CONTINUOUS
 62
     7
 66
     1
 10
0.0
 20
0.0
 30
0.0
 70
   128
  0
VERTEX
  5
701
  8
0
  6
CONTINUOUS
 62
     7
 10
78.164745298
 20
112.4922064178
 30
0.0
  0
VERTEX
  5
702
  8
0
  6
CONTINUOUS
 62
     7
 10
78.1693807233
 20
112.4880331614
 30
0.0
  0
VERTEX
  5
703
  8
0
  6
CONTINUOUS
 62
     7
 10
78.1730499014
 20
112.4847292946
 30
0.0
  0
SEQEND
  5
84E
  8
0
  6
CONTINUOUS
 62
     7
  0
LINE
  5
2AC
  8
0
  6
CONTINUOUS
 62
     7
 10
78.2099696238
 20
112.5672812619
 30
0.0
 11
78.2005129744
 21
112.5710130715
 31
0.0
  0
POLYLINE
  5
2AD
  8
0
  6
CONTINUOUS
 62
     7
 66
     1
 10
0.0
 20
0.0
 30
0.0
 70
   128
  0
VERTEX
  5
704
  8
0
  6
CONTINUOUS
 62
     7
 10
74.4205399472
 20
115.74770967
 30
0.0
  0
VERTEX
  5
705
  8
0
  6
CONTINUOUS
 62
     7
 10
74.4325147619
 20
115.7919907988
 30
0.0
  0
VERTEX
  5
706
  8
0
  6
CONTINUOUS
 62
     7
 10
74.4574597205
 20
115.8302618702
 30
0.0
  0
SEQEND
  5
84F
  8
0
  6
CONTINUOUS
 62
     7
  0
LINE
  5
2AE
  8
0
  6
CONTINUOUS
 62
     7
 10
74.4657642802
 20
115.8227840484
 30
0.0
 11
74.4574597496
 21
115.8302616373
 31
0.0
  0
LINE
  5
2AF
  8
0
  6
CONTINUOUS
 62
     7
 10
74.4205399472
 20
115.74770967
 30
0.0
 11
74.4299965603
 21
115.7439776276
 31
0.0
  0
POLYLINE
  5
2B0
  8
0
  6
CONTINUOUS
 62
     7
 66
     1
 10
0.0
 20
0.0
 30
0.0
 70
   128
  0
VERTEX
  5
707
  8
0
  6
CONTINUOUS
 62
     7
 10
74.725040556
 20
112.2627806895
 30
0.0
  0
VERTEX
  5
708
  8
0
  6
CONTINUOUS
 62
     7
 10
74.6807593399
 20
112.2747551695
 30
0.0
  0
VERTEX
  5
709
  8
0
  6
CONTINUOUS
 62
     7
 10
74.642488414
 20
112.299700179
 30
0.0
  0
SEQEND
  5
850
  8
0
  6
CONTINUOUS
 62
     7
  0
POLYLINE
  5
2B1
  8
0
  6
CONTINUOUS
 62
     7
 66
     1
 10
0.0
 20
0.0
 30
0.0
 70
   128
  0
VERTEX
  5
70A
  8
0
  6
CONTINUOUS
 62
     7
 10
74.6499660612
 20
112.3080047824
 30
0.0
  0
VERTEX
  5
70B
  8
0
  6
CONTINUOUS
 62
     7
 10
74.6457924264
 20
112.30336959
 30
0.0
  0
VERTEX
  5
70C
  8
0
  6
CONTINUOUS
 62
     7
 10
74.6424886177
 20
112.299700179
 30
0.0
  0
SEQEND
  5
851
  8
0
  6
CONTINUOUS
 62
     7
  0
LINE
  5
2B2
  8
0
  6
CONTINUOUS
 62
     7
 10
74.725040556
 20
112.2627806895
 30
0.0
 11
74.7287726566
 21
112.2722373389
 31
0.0
  0
ARC
  5
2B3
  8
0
  6
CONTINUOUS
 62
     7
 10
78.0627646349
 20
112.5844958363
 30
0.0
 40
0.148715173665501
 50
270.4838296033
 51
317.8667951961
  0
ARC
  5
2B4
  8
0
  6
CONTINUOUS
 62
     7
 10
77.888254472
 20
115.9050050158
 30
0.0
 40
0.1487151806252228
 50
0.4839211768
 51
47.8667950489
  0
ARC
  5
2B5
  8
0
  6
CONTINUOUS
 62
     7
 10
74.5677457122
 20
115.7304937436
 30
0.0
 40
0.1487165320741238
 50
90.4841213933
 51
137.8665662617
  0
ARC
  5
2B6
  8
0
  6
CONTINUOUS
 62
     7
 10
74.7422553764
 20
112.409985815
 30
0.0
 40
0.1487153062927497
 50
180.4839714868
 51
227.8666834147
  0
LINE
  5
2B7
  8
0
  6
CONTINUOUS
 62
     7
 10
74.7577692394
 20
112.2625236445
 30
0.0
 11
74.725040556
 21
112.2627806895
 31
0.0
  0
LINE
  5
2B8
  8
0
  6
CONTINUOUS
 62
     7
 10
77.8727405135
 20
116.0524672874
 30
0.0
 11
77.9054690514
 21
116.0522102424
 31
0.0
  0
LINE
  5
2B9
  8
0
  6
CONTINUOUS
 62
     7
 10
78.2102266688
 20
112.6000097998
 30
0.0
 11
78.2099696238
 21
112.5672812619
 31
0.0
  0
LINE
  5
2BA
  8
0
  6
CONTINUOUS
 62
     7
 10
74.4202829313
 20
115.7149808992
 30
0.0
 11
74.4205399472
 21
115.74770967
 31
0.0
  0
LINE
  5
2BB
  8
0
  6
CONTINUOUS
 62
     7
 10
74.3649573063
 20
112.2387162455
 30
0.0
 11
74.3547107134
 21
112.2303203725
 31
0.0
  0
LINE
  5
2BC
  8
0
  6
CONTINUOUS
 62
     7
 10
74.4087487413
 20
112.1581079484
 30
0.0
 11
74.3649642294
 21
112.2387181082
 31
0.0
  0
LINE
  5
2BD
  8
0
  6
CONTINUOUS
 62
     7
 10
78.2655521192
 20
116.0762746864
 30
0.0
 11
78.2757989958
 21
116.0846703266
 31
0.0
  0
LINE
  5
2BE
  8
0
  6
CONTINUOUS
 62
     7
 10
78.2217608661
 20
116.1568827507
 30
0.0
 11
78.2655455999
 21
116.0762725909
 31
0.0
  0
LINE
  5
2BF
  8
0
  6
CONTINUOUS
 62
     7
 10
78.2340343006
 20
112.2071979613
 30
0.0
 11
78.242429708
 21
112.1969510847
 31
0.0
  0
LINE
  5
2C0
  8
0
  6
CONTINUOUS
 62
     7
 10
78.3146421321
 20
112.2509892144
 30
0.0
 11
78.2340319723
 21
112.2072049462
 31
0.0
  0
LINE
  5
2C1
  8
0
  6
CONTINUOUS
 62
     7
 10
74.3964754377
 20
116.1077929706
 30
0.0
 11
74.3880800086
 21
116.1180396144
 31
0.0
  0
LINE
  5
2C2
  8
0
  6
CONTINUOUS
 62
     7
 10
74.3158674596
 20
116.0640014847
 30
0.0
 11
74.3964775623
 21
116.1077859857
 31
0.0
  0
ARC
  5
2C3
  8
0
  6
CONTINUOUS
 62
     7
 10
74.7765769857
 20
112.1441339718
 30
0.0
 40
0.3269193570285479
 50
130.8513693778
 51
137.5016496997
  0
POLYLINE
  5
2C4
  8
0
  6
CONTINUOUS
 62
     7
 66
     1
 10
0.0
 20
0.0
 30
0.0
 70
   128
  0
VERTEX
  5
70D
  8
0
  6
CONTINUOUS
 62
     7
 10
74.6424885304
 20
112.2997006447
 30
0.0
  0
VERTEX
  5
70E
  8
0
  6
CONTINUOUS
 62
     7
 10
74.6139959095
 20
112.2757912659
 30
0.0
  0
VERTEX
  5
70F
  8
0
  6
CONTINUOUS
 62
     7
 10
74.5818680747
 20
112.2529529081
 30
0.0
  0
SEQEND
  5
852
  8
0
  6
CONTINUOUS
 62
     7
  0
LINE
  5
2C5
  8
0
  6
CONTINUOUS
 62
     7
 10
74.3587541268
 20
115.7306224619
 30
0.0
 11
74.4202829313
 21
115.7149808992
 31
0.0
  0
LINE
  5
2C6
  8
0
  6
CONTINUOUS
 62
     7
 10
74.3640889862
 20
115.6569092114
 30
0.0
 11
74.4237780758
 21
115.651634666
 31
0.0
  0
LINE
  5
2C7
  8
0
  6
CONTINUOUS
 62
     7
 10
74.3640889862
 20
115.6569092114
 30
0.0
 11
74.3587541268
 21
115.7306224619
 31
0.0
  0
LINE
  5
2C8
  8
0
  6
CONTINUOUS
 62
     7
 10
78.2717556589
 20
112.5843682372
 30
0.0
 11
78.2102266688
 21
112.6000097998
 31
0.0
  0
LINE
  5
2C9
  8
0
  6
CONTINUOUS
 62
     7
 10
78.2664205775
 20
112.6580814876
 30
0.0
 11
78.206731648
 21
112.663356033
 31
0.0
  0
LINE
  5
2CA
  8
0
  6
CONTINUOUS
 62
     7
 10
78.2664205775
 20
112.6580814876
 30
0.0
 11
78.2717556589
 21
112.5843682372
 31
0.0
  0
LINE
  5
2CB
  8
0
  6
CONTINUOUS
 62
     7
 10
74.7421278805
 20
112.2009948873
 30
0.0
 11
74.7577692394
 21
112.2625236445
 31
0.0
  0
LINE
  5
2CC
  8
0
  6
CONTINUOUS
 62
     7
 10
74.8158410437
 20
112.206329503
 30
0.0
 11
74.8211155891
 21
112.2660184325
 31
0.0
  0
LINE
  5
2CD
  8
0
  6
CONTINUOUS
 62
     7
 10
74.8158410437
 20
112.206329503
 30
0.0
 11
74.7421278805
 21
112.2009948873
 31
0.0
  0
LINE
  5
2CE
  8
0
  6
CONTINUOUS
 62
     7
 10
77.8883818433
 20
116.1139960446
 30
0.0
 11
77.8727405135
 21
116.0524672874
 31
0.0
  0
LINE
  5
2CF
  8
0
  6
CONTINUOUS
 62
     7
 10
77.8146685928
 20
116.1086611961
 30
0.0
 11
77.8093940474
 21
116.0489722666
 31
0.0
  0
LINE
  5
2D0
  8
0
  6
CONTINUOUS
 62
     7
 10
77.8146685928
 20
116.1086611961
 30
0.0
 11
77.8883818433
 21
116.1139960446
 31
0.0
  0
POLYLINE
  5
2D1
  8
0
  6
CONTINUOUS
 62
     7
 66
     1
 10
0.0
 20
0.0
 30
0.0
 70
   128
  0
VERTEX
  5
710
  8
0
  6
CONTINUOUS
 62
     7
 10
78.0949701451
 20
115.9499999181
 30
0.0
  0
VERTEX
  5
711
  8
0
  6
CONTINUOUS
 62
     7
 10
78.0805753906
 20
115.9335718536
 30
0.0
  0
VERTEX
  5
712
  8
0
  6
CONTINUOUS
 62
     7
 10
78.0674889114
 20
115.9234092616
 30
0.0
  0
SEQEND
  5
853
  8
0
  6
CONTINUOUS
 62
     7
  0
POLYLINE
  5
2D2
  8
0
  6
CONTINUOUS
 62
     7
 66
     1
 10
0.0
 20
0.0
 30
0.0
 70
   128
  0
VERTEX
  5
713
  8
0
  6
CONTINUOUS
 62
     7
 10
77.9880210187
 20
116.0152902872
 30
0.0
  0
VERTEX
  5
714
  8
0
  6
CONTINUOUS
 62
     7
 10
78.0165136688
 20
116.0391994332
 30
0.0
  0
VERTEX
  5
715
  8
0
  6
CONTINUOUS
 62
     7
 10
78.0486415036
 20
116.0620380238
 30
0.0
  0
SEQEND
  5
854
  8
0
  6
CONTINUOUS
 62
     7
  0
POLYLINE
  5
2D3
  8
0
  6
CONTINUOUS
 62
     7
 66
     1
 10
0.0
 20
0.0
 30
0.0
 70
   128
  0
VERTEX
  5
716
  8
0
  6
CONTINUOUS
 62
     7
 10
78.1077592995
 20
112.3777799354
 30
0.0
  0
VERTEX
  5
717
  8
0
  6
CONTINUOUS
 62
     7
 10
78.0913934007
 20
112.3920589731
 30
0.0
  0
VERTEX
  5
718
  8
0
  6
CONTINUOUS
 62
     7
 10
78.0811758608
 20
112.4052488291
 30
0.0
  0
SEQEND
  5
855
  8
0
  6
CONTINUOUS
 62
     7
  0
POLYLINE
  5
2D4
  8
0
  6
CONTINUOUS
 62
     7
 66
     1
 10
0.0
 20
0.0
 30
0.0
 70
   128
  0
VERTEX
  5
719
  8
0
  6
CONTINUOUS
 62
     7
 10
78.1730496686
 20
112.4847292946
 30
0.0
  0
VERTEX
  5
71A
  8
0
  6
CONTINUOUS
 62
     7
 10
78.1969590474
 20
112.4562364117
 30
0.0
  0
VERTEX
  5
71B
  8
0
  6
CONTINUOUS
 62
     7
 10
78.2197974052
 20
112.4241085768
 30
0.0
  0
SEQEND
  5
856
  8
0
  6
CONTINUOUS
 62
     7
  0
POLYLINE
  5
2D5
  8
0
  6
CONTINUOUS
 62
     7
 66
     1
 10
0.0
 20
0.0
 30
0.0
 70
   128
  0
VERTEX
  5
71C
  8
0
  6
CONTINUOUS
 62
     7
 10
74.5227503952
 20
115.9372107637
 30
0.0
  0
VERTEX
  5
71D
  8
0
  6
CONTINUOUS
 62
     7
 10
74.5391232934
 20
115.9229238097
 30
0.0
  0
VERTEX
  5
71E
  8
0
  6
CONTINUOUS
 62
     7
 10
74.5493917505
 20
115.9096408215
 30
0.0
  0
SEQEND
  5
857
  8
0
  6
CONTINUOUS
 62
     7
  0
POLYLINE
  5
2D6
  8
0
  6
CONTINUOUS
 62
     7
 66
     1
 10
0.0
 20
0.0
 30
0.0
 70
   128
  0
VERTEX
  5
71F
  8
0
  6
CONTINUOUS
 62
     7
 10
74.457459866
 20
115.8302616373
 30
0.0
  0
VERTEX
  5
720
  8
0
  6
CONTINUOUS
 62
     7
 10
74.4335506909
 20
115.8587542874
 30
0.0
  0
VERTEX
  5
721
  8
0
  6
CONTINUOUS
 62
     7
 10
74.4107121803
 20
115.8908821222
 30
0.0
  0
SEQEND
  5
858
  8
0
  6
CONTINUOUS
 62
     7
  0
LINE
  5
2D7
  8
0
  6
CONTINUOUS
 62
     7
 10
74.364088979
 20
115.6569092114
 30
0.0
 11
74.3731031665
 21
115.6424553179
 31
0.0
  0
LINE
  5
2D8
  8
0
  6
CONTINUOUS
 62
     7
 10
77.8146685928
 20
116.1086611961
 30
0.0
 11
77.8002146993
 21
116.0996471577
 31
0.0
  0
LINE
  5
2D9
  8
0
  6
CONTINUOUS
 62
     7
 10
78.2664205775
 20
112.6580814876
 30
0.0
 11
78.2574063063
 21
112.672535614
 31
0.0
  0
LINE
  5
2DA
  8
0
  6
CONTINUOUS
 62
     7
 10
74.8158410437
 20
112.206329503
 30
0.0
 11
74.830294879
 21
112.2153437742
 31
0.0
  0
POLYLINE
  5
2DB
  8
0
  6
CONTINUOUS
 62
     7
 66
     1
 10
0.0
 20
0.0
 30
0.0
 70
   128
  0
VERTEX
  5
722
  8
0
  6
CONTINUOUS
 62
     7
 10
74.6996617539
 20
112.1997725264
 30
0.0
  0
VERTEX
  5
723
  8
0
  6
CONTINUOUS
 62
     7
 10
74.7126696236
 20
112.2320428536
 30
0.0
  0
VERTEX
  5
724
  8
0
  6
CONTINUOUS
 62
     7
 10
74.725040556
 20
112.2627806895
 30
0.0
  0
SEQEND
  5
859
  8
0
  6
CONTINUOUS
 62
     7
  0
LINE
  5
2DC
  8
0
  6
CONTINUOUS
 62
     7
 10
74.6020862146
 20
112.2344642923
 30
0.0
 11
74.6026694554
 21
112.2356754773
 31
0.0
  0
ARC
  5
2DD
  8
0
  6
CONTINUOUS
 62
     7
 10
74.9980666029
 20
112.0341616224
 30
0.0
 40
0.4437868159218398
 50
143.2483157035
 51
152.9943695608
  0
POLYLINE
  5
2DE
  8
0
  6
CONTINUOUS
 62
     7
 66
     1
 10
0.0
 20
0.0
 30
0.0
 70
   128
  0
VERTEX
  5
725
  8
0
  6
CONTINUOUS
 62
     7
 10
78.2729775541
 20
112.5419022561
 30
0.0
  0
VERTEX
  5
726
  8
0
  6
CONTINUOUS
 62
     7
 10
78.2407076925
 20
112.5549100385
 30
0.0
  0
VERTEX
  5
727
  8
0
  6
CONTINUOUS
 62
     7
 10
78.2099696238
 20
112.5672812619
 30
0.0
  0
SEQEND
  5
85A
  8
0
  6
CONTINUOUS
 62
     7
  0
LINE
  5
2DF
  8
0
  6
CONTINUOUS
 62
     7
 10
78.2382857882
 20
112.4443266586
 30
0.0
 11
78.2370746032
 21
112.4449101322
 31
0.0
  0
ARC
  5
2E0
  8
0
  6
CONTINUOUS
 62
     7
 10
78.4385810321
 20
112.8402930073
 30
0.0
 40
0.4437707277790941
 50
233.2479986516
 51
242.9943870452
  0
POLYLINE
  5
2E1
  8
0
  6
CONTINUOUS
 62
     7
 66
     1
 10
0.0
 20
0.0
 30
0.0
 70
   128
  0
VERTEX
  5
728
  8
0
  6
CONTINUOUS
 62
     7
 10
74.3575321697
 20
115.773088443
 30
0.0
  0
VERTEX
  5
729
  8
0
  6
CONTINUOUS
 62
     7
 10
74.3898021113
 20
115.7600806606
 30
0.0
  0
VERTEX
  5
72A
  8
0
  6
CONTINUOUS
 62
     7
 10
74.4205399472
 20
115.74770967
 30
0.0
  0
SEQEND
  5
85B
  8
0
  6
CONTINUOUS
 62
     7
  0
LINE
  5
2E2
  8
0
  6
CONTINUOUS
 62
     7
 10
74.3922238556
 20
115.8706640404
 30
0.0
 11
74.3934350552
 21
115.8700807997
 31
0.0
  0
ARC
  5
2E3
  8
0
  6
CONTINUOUS
 62
     7
 10
74.1919329207
 20
115.4747056544
 30
0.0
 40
0.443761890746169
 50
53.2478585367
 51
62.9944278778
  0
POLYLINE
  5
2E4
  8
0
  6
CONTINUOUS
 62
     7
 66
     1
 10
0.0
 20
0.0
 30
0.0
 70
   128
  0
VERTEX
  5
72B
  8
0
  6
CONTINUOUS
 62
     7
 10
77.9308478244
 20
116.1152181727
 30
0.0
  0
VERTEX
  5
72C
  8
0
  6
CONTINUOUS
 62
     7
 10
77.917840042
 20
116.0829480783
 30
0.0
  0
VERTEX
  5
72D
  8
0
  6
CONTINUOUS
 62
     7
 10
77.9054690514
 20
116.0522102424
 30
0.0
  0
SEQEND
  5
85C
  8
0
  6
CONTINUOUS
 62
     7
  0
LINE
  5
2E5
  8
0
  6
CONTINUOUS
 62
     7
 10
78.0284234218
 20
116.0805264068
 30
0.0
 11
78.0278401811
 21
116.0793152218
 31
0.0
  0
ARC
  5
2E6
  8
0
  6
CONTINUOUS
 62
     7
 10
77.6324919009
 20
116.280800135
 30
0.0
 40
0.4437301352144216
 50
323.2475517721
 51
332.9948339248
  0
LINE
  5
2E7
  8
0
  6
CONTINUOUS
 62
     7
 10
78.0278401811
 20
116.0793152218
 30
0.0
 11
78.0486424349
 21
116.0620389552
 31
0.0
  0
LINE
  5
2E8
  8
0
  6
CONTINUOUS
 62
     7
 10
78.2370746032
 20
112.4449101322
 30
0.0
 11
78.2197985694
 21
112.4241076455
 31
0.0
  0
LINE
  5
2E9
  8
0
  6
CONTINUOUS
 62
     7
 10
74.3934350552
 20
115.8700807997
 30
0.0
 11
74.410711169
 21
115.8908830535
 31
0.0
  0
LINE
  5
2EA
  8
0
  6
CONTINUOUS
 62
     7
 10
74.6026694554
 20
112.2356754773
 30
0.0
 11
74.5818672016
 21
112.2529519767
 31
0.0
  0
LINE
  5
2EB
  8
0
  6
CONTINUOUS
 62
     7
 10
74.7421278805
 20
112.2009948873
 30
0.0
 11
74.6996617539
 21
112.1997725264
 31
0.0
  0
LINE
  5
2EC
  8
0
  6
CONTINUOUS
 62
     7
 10
77.8883818433
 20
116.1139960446
 30
0.0
 11
77.9308478244
 21
116.1152181727
 31
0.0
  0
LINE
  5
2ED
  8
0
  6
CONTINUOUS
 62
     7
 10
78.2717556589
 20
112.5843682372
 30
0.0
 11
78.2729775541
 21
112.5419022561
 31
0.0
  0
LINE
  5
2EE
  8
0
  6
CONTINUOUS
 62
     7
 10
74.3587541268
 20
115.7306224619
 30
0.0
 11
74.3575321697
 21
115.773088443
 31
0.0
  0
LINE
  5
2EF
  8
0
  6
CONTINUOUS
 62
     7
 10
74.3649573136
 20
112.2387157799
 30
0.0
 11
74.3767585603
 21
112.2448336378
 31
0.0
  0
LINE
  5
2F0
  8
0
  6
CONTINUOUS
 62
     7
 10
78.2655521192
 20
116.0762749192
 30
0.0
 11
78.2537508652
 21
116.0701570612
 31
0.0
  0
LINE
  5
2F1
  8
0
  6
CONTINUOUS
 62
     7
 10
78.2340343006
 20
112.2071979613
 30
0.0
 11
78.2279164426
 21
112.2189992153
 31
0.0
  0
LINE
  5
2F2
  8
0
  6
CONTINUOUS
 62
     7
 10
74.3964752849
 20
116.1077929706
 30
0.0
 11
74.4025931648
 21
116.0959917166
 31
0.0
  0
POLYLINE
  5
2F3
  8
0
  6
CONTINUOUS
 62
     7
 66
     1
 10
0.0
 20
0.0
 30
0.0
 70
   128
  0
VERTEX
  5
72E
  8
0
  6
CONTINUOUS
 62
     7
 10
78.1950263202
 20
116.0360818309
 30
0.0
  0
VERTEX
  5
72F
  8
0
  6
CONTINUOUS
 62
     7
 10
78.2277506672
 20
116.0098737151
 30
0.0
  0
VERTEX
  5
730
  8
0
  6
CONTINUOUS
 62
     7
 10
78.260399577
 20
115.9822902688
 30
0.0
  0
SEQEND
  5
85D
  8
0
  6
CONTINUOUS
 62
     7
  0
POLYLINE
  5
2F4
  8
0
  6
CONTINUOUS
 62
     7
 66
     1
 10
0.0
 20
0.0
 30
0.0
 70
   128
  0
VERTEX
  5
731
  8
0
  6
CONTINUOUS
 62
     7
 10
74.436667442
 20
116.0372676373
 30
0.0
  0
VERTEX
  5
732
  8
0
  6
CONTINUOUS
 62
     7
 10
74.4628759433
 20
116.0699919843
 30
0.0
  0
VERTEX
  5
733
  8
0
  6
CONTINUOUS
 62
     7
 10
74.4904594334
 20
116.1026406613
 30
0.0
  0
SEQEND
  5
85E
  8
0
  6
CONTINUOUS
 62
     7
  0
POLYLINE
  5
2F5
  8
0
  6
CONTINUOUS
 62
     7
 66
     1
 10
0.0
 20
0.0
 30
0.0
 70
   128
  0
VERTEX
  5
734
  8
0
  6
CONTINUOUS
 62
     7
 10
74.3701106233
 20
112.3327006631
 30
0.0
  0
VERTEX
  5
735
  8
0
  6
CONTINUOUS
 62
     7
 10
74.4027595004
 20
112.3051176824
 30
0.0
  0
VERTEX
  5
736
  8
0
  6
CONTINUOUS
 62
     7
 10
74.4354839129
 20
112.2789097995
 30
0.0
  0
SEQEND
  5
85F
  8
0
  6
CONTINUOUS
 62
     7
  0
POLYLINE
  5
2F6
  8
0
  6
CONTINUOUS
 62
     7
 66
     1
 10
0.0
 20
0.0
 30
0.0
 70
   128
  0
VERTEX
  5
737
  8
0
  6
CONTINUOUS
 62
     7
 10
78.1938421436
 20
112.2777232946
 30
0.0
  0
VERTEX
  5
738
  8
0
  6
CONTINUOUS
 62
     7
 10
78.167633795
 20
112.2449989476
 30
0.0
  0
VERTEX
  5
739
  8
0
  6
CONTINUOUS
 62
     7
 10
78.1400501158
 20
112.2123500378
 30
0.0
  0
SEQEND
  5
860
  8
0
  6
CONTINUOUS
 62
     7
  0
LINE
  5
2F7
  8
0
  6
CONTINUOUS
 62
     7
 10
74.6275095456
 20
111.9942612991
 30
0.0
 11
74.6341148928
 21
112.0295616844
 31
0.0
  0
LINE
  5
2F8
  8
0
  6
CONTINUOUS
 62
     7
 10
78.478489247
 20
112.4697499023
 30
0.0
 11
78.4431888618
 21
112.4763553076
 31
0.0
  0
LINE
  5
2F9
  8
0
  6
CONTINUOUS
 62
     7
 10
74.152020535
 20
115.8452407968
 30
0.0
 11
74.1873210075
 21
115.8386353914
 31
0.0
  0
LINE
  5
2FA
  8
0
  6
CONTINUOUS
 62
     7
 10
78.0030001782
 20
116.3207296328
 30
0.0
 11
77.9963947728
 21
116.2854292475
 31
0.0
  0
LINE
  5
2FB
  8
0
  6
CONTINUOUS
 62
     7
 10
74.6507605958
 20
112.0290694804
 30
0.0
 11
74.6341148928
 21
112.0295616844
 31
0.0
  0
LINE
  5
2FC
  8
0
  6
CONTINUOUS
 62
     7
 10
74.6507604793
 20
112.0290690147
 30
0.0
 11
74.6451152967
 21
111.9958152109
 31
0.0
  0
LINE
  5
2FD
  8
0
  6
CONTINUOUS
 62
     7
 10
78.4436806001
 20
112.4930013017
 30
0.0
 11
78.4431888618
 21
112.4763553076
 31
0.0
  0
LINE
  5
2FE
  8
0
  6
CONTINUOUS
 62
     7
 10
78.4436815314
 20
112.4930013017
 30
0.0
 11
78.4769353353
 21
112.4873560899
 31
0.0
  0
LINE
  5
2FF
  8
0
  6
CONTINUOUS
 62
     7
 10
74.1868289054
 20
115.8219896302
 30
0.0
 11
74.1873210075
 21
115.8386353914
 31
0.0
  0
LINE
  5
300
  8
0
  6
CONTINUOUS
 62
     7
 10
74.1868281924
 20
115.8219896302
 30
0.0
 11
74.1535744904
 21
115.827634842
 31
0.0
  0
LINE
  5
301
  8
0
  6
CONTINUOUS
 62
     7
 10
77.9797490116
 20
116.2859212187
 30
0.0
 11
77.9963947728
 21
116.2854292475
 31
0.0
  0
LINE
  5
302
  8
0
  6
CONTINUOUS
 62
     7
 10
77.9797492445
 20
116.2859219172
 30
0.0
 11
77.9853942234
 21
116.319175721
 31
0.0
  0
LINE
  5
303
  8
0
  6
CONTINUOUS
 62
     7
 10
74.6977179382
 20
112.0274331466
 30
0.0
 11
74.6507605084
 21
112.0290657551
 31
0.0
  0
LINE
  5
304
  8
0
  6
CONTINUOUS
 62
     7
 10
74.694778917
 20
112.0018404023
 30
0.0
 11
74.6977179382
 21
112.0274331466
 31
0.0
  0
LINE
  5
305
  8
0
  6
CONTINUOUS
 62
     7
 10
78.4453169339
 20
112.5399585859
 30
0.0
 11
78.4436843254
 21
112.4930013017
 31
0.0
  0
LINE
  5
306
  8
0
  6
CONTINUOUS
 62
     7
 10
78.4709096782
 20
112.5370193318
 30
0.0
 11
78.4453169339
 21
112.5399585859
 31
0.0
  0
LINE
  5
307
  8
0
  6
CONTINUOUS
 62
     7
 10
74.1851927899
 20
115.775032346
 30
0.0
 11
74.1868253111
 21
115.8219896302
 31
0.0
  0
LINE
  5
308
  8
0
  6
CONTINUOUS
 62
     7
 10
74.15959974
 20
115.7779713672
 30
0.0
 11
74.1851927899
 21
115.775032346
 31
0.0
  0
LINE
  5
309
  8
0
  6
CONTINUOUS
 62
     7
 10
77.9327917274
 20
116.2875573196
 30
0.0
 11
77.9797492445
 21
116.285924944
 31
0.0
  0
LINE
  5
30A
  8
0
  6
CONTINUOUS
 62
     7
 10
77.9357307486
 20
116.3131505296
 30
0.0
 11
77.9327917274
 21
116.2875573196
 31
0.0
  0
LINE
  5
30B
  8
0
  6
CONTINUOUS
 62
     7
 10
74.7018128471
 20
112.0314313144
 30
0.0
 11
74.7421278805
 21
112.2009948873
 31
0.0
  0
LINE
  5
30C
  8
0
  6
CONTINUOUS
 62
     7
 10
74.6507605958
 20
112.0290694804
 30
0.0
 11
74.7018128471
 21
112.0314313144
 31
0.0
  0
LINE
  5
30D
  8
0
  6
CONTINUOUS
 62
     7
 10
78.441318766
 20
112.5440536112
 30
0.0
 11
78.2717556589
 21
112.5843682372
 31
0.0
  0
LINE
  5
30E
  8
0
  6
CONTINUOUS
 62
     7
 10
78.4436806001
 20
112.4930013017
 30
0.0
 11
78.441318766
 21
112.5440536112
 31
0.0
  0
LINE
  5
30F
  8
0
  6
CONTINUOUS
 62
     7
 10
74.1891907249
 20
115.7709373207
 30
0.0
 11
74.3587541268
 21
115.7306224619
 31
0.0
  0
LINE
  5
310
  8
0
  6
CONTINUOUS
 62
     7
 10
74.1868289054
 20
115.8219896302
 30
0.0
 11
74.1891907249
 21
115.7709373207
 31
0.0
  0
LINE
  5
311
  8
0
  6
CONTINUOUS
 62
     7
 10
77.9286967021
 20
116.2835596175
 30
0.0
 11
77.8883818433
 21
116.1139960446
 31
0.0
  0
LINE
  5
312
  8
0
  6
CONTINUOUS
 62
     7
 10
77.9797490116
 20
116.2859212187
 30
0.0
 11
77.9286967021
 21
116.2835596175
 31
0.0
  0
LINE
  5
313
  8
0
  6
CONTINUOUS
 62
     7
 10
74.7008489865
 20
112.0273809925
 30
0.0
 11
74.7018109554
 21
112.0314317801
 31
0.0
  0
LINE
  5
314
  8
0
  6
CONTINUOUS
 62
     7
 10
74.6977179382
 20
112.0274331466
 30
0.0
 11
74.7008489865
 21
112.0273809925
 31
0.0
  0
LINE
  5
315
  8
0
  6
CONTINUOUS
 62
     7
 10
78.4453690879
 20
112.5430896924
 30
0.0
 11
78.4413183004
 21
112.5440517486
 31
0.0
  0
LINE
  5
316
  8
0
  6
CONTINUOUS
 62
     7
 10
78.4453169339
 20
112.5399585859
 30
0.0
 11
78.4453690879
 21
112.5430896924
 31
0.0
  0
LINE
  5
317
  8
0
  6
CONTINUOUS
 62
     7
 10
74.1851403739
 20
115.7719012395
 30
0.0
 11
74.1891912197
 21
115.7709391833
 31
0.0
  0
LINE
  5
318
  8
0
  6
CONTINUOUS
 62
     7
 10
74.1851403739
 20
115.7719012395
 30
0.0
 11
74.1851927899
 21
115.775032346
 31
0.0
  0
LINE
  5
319
  8
0
  6
CONTINUOUS
 62
     7
 10
77.9296606209
 20
116.2876099394
 30
0.0
 11
77.9286987975
 21
116.283558919
 31
0.0
  0
LINE
  5
31A
  8
0
  6
CONTINUOUS
 62
     7
 10
77.9327917274
 20
116.2875575525
 30
0.0
 11
77.9296606209
 21
116.2876099394
 31
0.0
  0
LINE
  5
31B
  8
0
  6
CONTINUOUS
 62
     7
 10
74.697763311
 20
112.0022948877
 30
0.0
 11
74.7008489865
 21
112.0273809925
 31
0.0
  0
LINE
  5
31C
  8
0
  6
CONTINUOUS
 62
     7
 10
78.4704551928
 20
112.540003755
 30
0.0
 11
78.4453690879
 21
112.5430896924
 31
0.0
  0
LINE
  5
31D
  8
0
  6
CONTINUOUS
 62
     7
 10
74.1600544583
 20
115.774986944
 30
0.0
 11
74.1851403739
 21
115.7719012395
 31
0.0
  0
LINE
  5
31E
  8
0
  6
CONTINUOUS
 62
     7
 10
77.9327463255
 20
116.3126958114
 30
0.0
 11
77.9296606209
 21
116.2876099394
 31
0.0
  0
LINE
  5
31F
  8
0
  6
CONTINUOUS
 62
     7
 10
74.8174958293
 20
112.0231178635
 30
0.0
 11
74.7008489865
 21
112.0273809925
 31
0.0
  0
LINE
  5
320
  8
0
  6
CONTINUOUS
 62
     7
 10
74.8176924547
 20
112.0198917621
 30
0.0
 11
74.8174958293
 21
112.0231178635
 31
0.0
  0
LINE
  5
321
  8
0
  6
CONTINUOUS
 62
     7
 10
78.4496326827
 20
112.6597364479
 30
0.0
 11
78.4453690879
 21
112.5430896924
 31
0.0
  0
LINE
  5
322
  8
0
  6
CONTINUOUS
 62
     7
 10
78.4528587841
 20
112.6599329569
 30
0.0
 11
78.4496326827
 21
112.6597364479
 31
0.0
  0
LINE
  5
323
  8
0
  6
CONTINUOUS
 62
     7
 10
74.1808770557
 20
115.655254484
 30
0.0
 11
74.1851403739
 21
115.7719012395
 31
0.0
  0
LINE
  5
324
  8
0
  6
CONTINUOUS
 62
     7
 10
74.177651027
 20
115.6550577421
 30
0.0
 11
74.1808770557
 21
115.655254484
 31
0.0
  0
LINE
  5
325
  8
0
  6
CONTINUOUS
 62
     7
 10
77.8130138654
 20
116.2918730684
 30
0.0
 11
77.9296606209
 21
116.2876099394
 31
0.0
  0
LINE
  5
326
  8
0
  6
CONTINUOUS
 62
     7
 10
77.8128171236
 20
116.2950991698
 30
0.0
 11
77.8130138654
 21
116.2918730684
 31
0.0
  0
LINE
  5
327
  8
0
  6
CONTINUOUS
 62
     7
 10
74.1958273805
 20
115.6564421532
 30
0.0
 11
74.1891907249
 21
115.7709373207
 31
0.0
  0
LINE
  5
328
  8
0
  6
CONTINUOUS
 62
     7
 10
74.1808770557
 20
115.655254484
 30
0.0
 11
74.1958273805
 21
115.6564421532
 31
0.0
  0
LINE
  5
329
  8
0
  6
CONTINUOUS
 62
     7
 10
74.7018128471
 20
112.0314313144
 30
0.0
 11
74.8163080437
 21
112.0380679191
 31
0.0
  0
LINE
  5
32A
  8
0
  6
CONTINUOUS
 62
     7
 10
74.8174958293
 20
112.0231178635
 30
0.0
 11
74.8163080437
 21
112.0380679191
 31
0.0
  0
LINE
  5
32B
  8
0
  6
CONTINUOUS
 62
     7
 10
78.441318766
 20
112.5440536112
 30
0.0
 11
78.4346821614
 21
112.6585485459
 31
0.0
  0
LINE
  5
32C
  8
0
  6
CONTINUOUS
 62
     7
 10
78.4496326827
 20
112.6597364479
 30
0.0
 11
78.4346821614
 21
112.6585485459
 31
0.0
  0
LINE
  5
32D
  8
0
  6
CONTINUOUS
 62
     7
 10
77.9286967021
 20
116.2835596175
 30
0.0
 11
77.8142015346
 21
116.27692278
 31
0.0
  0
LINE
  5
32E
  8
0
  6
CONTINUOUS
 62
     7
 10
77.8130138654
 20
116.2918730684
 30
0.0
 11
77.8142015346
 21
116.27692278
 31
0.0
  0
POLYLINE
  5
32F
  8
0
  6
CONTINUOUS
 62
     7
 66
     1
 10
0.0
 20
0.0
 30
0.0
 70
   128
  0
VERTEX
  5
73A
  8
0
  6
CONTINUOUS
 62
     7
 10
74.1997702074
 20
115.6568421562
 30
0.0
  0
VERTEX
  5
73B
  8
0
  6
CONTINUOUS
 62
     7
 10
74.3000318074
 20
115.6607497529
 30
0.0
  0
VERTEX
  5
73C
  8
0
  6
CONTINUOUS
 62
     7
 10
74.3640889862
 20
115.6569092114
 30
0.0
  0
SEQEND
  5
861
  8
0
  6
CONTINUOUS
 62
     7
  0
LINE
  5
330
  8
0
  6
CONTINUOUS
 62
     7
 10
74.1958273805
 20
115.6564421532
 30
0.0
 11
74.1997702074
 21
115.6568421562
 31
0.0
  0
POLYLINE
  5
331
  8
0
  6
CONTINUOUS
 62
     7
 66
     1
 10
0.0
 20
0.0
 30
0.0
 70
   128
  0
VERTEX
  5
73D
  8
0
  6
CONTINUOUS
 62
     7
 10
74.8159081571
 20
112.0420106732
 30
0.0
  0
VERTEX
  5
73E
  8
0
  6
CONTINUOUS
 62
     7
 10
74.812000444
 20
112.142272205
 30
0.0
  0
VERTEX
  5
73F
  8
0
  6
CONTINUOUS
 62
     7
 10
74.8158410437
 20
112.206329503
 30
0.0
  0
SEQEND
  5
862
  8
0
  6
CONTINUOUS
 62
     7
  0
LINE
  5
332
  8
0
  6
CONTINUOUS
 62
     7
 10
74.8163080437
 20
112.0380679191
 30
0.0
 11
74.8159081571
 21
112.0420106732
 31
0.0
  0
POLYLINE
  5
333
  8
0
  6
CONTINUOUS
 62
     7
 66
     1
 10
0.0
 20
0.0
 30
0.0
 70
   128
  0
VERTEX
  5
740
  8
0
  6
CONTINUOUS
 62
     7
 10
78.4307394073
 20
112.6581485429
 30
0.0
  0
VERTEX
  5
741
  8
0
  6
CONTINUOUS
 62
     7
 10
78.3304778755
 20
112.654241179
 30
0.0
  0
VERTEX
  5
742
  8
0
  6
CONTINUOUS
 62
     7
 10
78.2664205775
 20
112.6580814876
 30
0.0
  0
SEQEND
  5
863
  8
0
  6
CONTINUOUS
 62
     7
  0
LINE
  5
334
  8
0
  6
CONTINUOUS
 62
     7
 10
78.4346821614
 20
112.6585485459
 30
0.0
 11
78.4307394073
 21
112.6581485429
 31
0.0
  0
POLYLINE
  5
335
  8
0
  6
CONTINUOUS
 62
     7
 66
     1
 10
0.0
 20
0.0
 30
0.0
 70
   128
  0
VERTEX
  5
743
  8
0
  6
CONTINUOUS
 62
     7
 10
77.8146015376
 20
116.2729800259
 30
0.0
  0
VERTEX
  5
744
  8
0
  6
CONTINUOUS
 62
     7
 10
77.8185091343
 20
116.1727184941
 30
0.0
  0
VERTEX
  5
745
  8
0
  6
CONTINUOUS
 62
     7
 10
77.8146685928
 20
116.1086611961
 30
0.0
  0
SEQEND
  5
864
  8
0
  6
CONTINUOUS
 62
     7
  0
LINE
  5
336
  8
0
  6
CONTINUOUS
 62
     7
 10
77.8142015346
 20
116.27692278
 30
0.0
 11
77.8146015376
 21
116.2729800259
 31
0.0
  0
LINE
  5
337
  8
0
  6
CONTINUOUS
 62
     7
 10
74.8500060302
 20
112.0399268389
 30
0.0
 11
74.8159081571
 21
112.0420106732
 31
0.0
  0
LINE
  5
338
  8
0
  6
CONTINUOUS
 62
     7
 10
78.4328232415
 20
112.6922465906
 30
0.0
 11
78.4307394073
 21
112.6581485429
 31
0.0
  0
LINE
  5
339
  8
0
  6
CONTINUOUS
 62
     7
 10
74.1997746457
 20
115.6568416905
 30
0.0
 11
74.1976865041
 21
115.6227441084
 31
0.0
  0
LINE
  5
33A
  8
0
  6
CONTINUOUS
 62
     7
 10
77.7805034898
 20
116.2750640929
 30
0.0
 11
77.8146015376
 21
116.2729800259
 31
0.0
  0
LINE
  5
33B
  8
0
  6
CONTINUOUS
 62
     7
 10
74.3767585894
 20
112.2448331722
 30
0.0
 11
74.3386246134
 21
112.3043204703
 31
0.0
  0
LINE
  5
33C
  8
0
  6
CONTINUOUS
 62
     7
 10
78.2537508652
 20
116.0701575269
 30
0.0
 11
78.2918847993
 21
116.0106704616
 31
0.0
  0
LINE
  5
33D
  8
0
  6
CONTINUOUS
 62
     7
 10
78.2279169083
 20
112.2189992153
 30
0.0
 11
78.1684300758
 21
112.1808652811
 31
0.0
  0
LINE
  5
33E
  8
0
  6
CONTINUOUS
 62
     7
 10
74.4025926555
 20
116.0959917166
 30
0.0
 11
74.4620796625
 21
116.1341256507
 31
0.0
  0
LINE
  5
33F
  8
0
  6
CONTINUOUS
 62
     7
 10
74.3274812151
 20
112.2974203014
 30
0.0
 11
74.3649573136
 21
112.2387157799
 31
0.0
  0
LINE
  5
340
  8
0
  6
CONTINUOUS
 62
     7
 10
78.1753276836
 20
112.1697252662
 30
0.0
 11
78.2340319723
 21
112.2072021522
 31
0.0
  0
LINE
  5
341
  8
0
  6
CONTINUOUS
 62
     7
 10
74.4551818656
 20
116.1452654329
 30
0.0
 11
74.3964778461
 21
116.1077887797
 31
0.0
  0
LINE
  5
342
  8
0
  6
CONTINUOUS
 62
     7
 10
78.3030248143
 20
116.0175683022
 30
0.0
 11
78.2655483939
 21
116.0762723581
 31
0.0
  0
ARC
  5
343
  8
0
  6
CONTINUOUS
 62
     7
 10
75.3067233275
 20
115.652077942
 30
0.0
 40
1.125850767619622
 50
179.8383420782
 51
181.5106254202
  0
ARC
  5
344
  8
0
  6
CONTINUOUS
 62
     7
 10
74.8206889748
 20
113.1484380665
 30
0.0
 40
1.125324733394275
 50
269.8374211438
 51
271.5104831051
  0
ARC
  5
345
  8
0
  6
CONTINUOUS
 62
     7
 10
77.3235767099
 20
112.6629050373
 30
0.0
 40
1.126060430749183
 50
359.8387768194
 51
1.5107488699
  0
ARC
  5
346
  8
0
  6
CONTINUOUS
 62
     7
 10
77.8098328554
 20
115.166194634
 30
0.0
 40
1.125682929008147
 50
89.8380905614
 51
91.5106232139
  0
ARC
  5
347
  8
0
  6
CONTINUOUS
 62
     7
 10
75.3211252804
 20
115.6504724419
 30
0.0
 40
1.125313734402405
 50
179.6960484405
 51
181.4109218037
  0
ARC
  5
348
  8
0
  6
CONTINUOUS
 62
     7
 10
74.822262235
 20
113.1644435346
 30
0.0
 40
1.126391352761085
 50
269.6971286968
 51
271.4103613938
  0
ARC
  5
349
  8
0
  6
CONTINUOUS
 62
     7
 10
77.3090183108
 20
112.6645251762
 30
0.0
 40
1.125679716720993
 50
359.6957950854
 51
1.4101107115
  0
ARC
  5
34A
  8
0
  6
CONTINUOUS
 62
     7
 10
77.8082273926
 20
115.1518068178
 30
0.0
 40
1.125131822769291
 50
89.695773669
 51
91.4109242748
  0
CIRCLE
  5
34B
  8
0
  6
CONTINUOUS
 62
     7
 10
76.3152548215
 20
114.1574954068
 30
0.0
 40
1.411033253000378
  0
CIRCLE
  5
34C
  8
0
  6
CONTINUOUS
 62
     7
 10
76.3152548215
 20
114.1574954068
 30
0.0
 40
1.341257361918338
  0
POLYLINE
  5
34D
  8
0
  6
CONTINUOUS
 62
     7
 66
     1
 10
0.0
 20
0.0
 30
0.0
 70
   128
  0
VERTEX
  5
746
  8
0
  6
CONTINUOUS
 62
     7
 10
73.9980075171
 20
123.2028281362
 30
0.0
  0
VERTEX
  5
747
  8
0
  6
CONTINUOUS
 62
     7
 10
73.9856591111
 20
123.285166365
 30
0.0
  0
VERTEX
  5
748
  8
0
  6
CONTINUOUS
 62
     7
 10
73.9426836675
 20
123.3370233373
 30
0.0
  0
SEQEND
  5
865
  8
0
  6
CONTINUOUS
 62
     7
  0
ARC
  5
34E
  8
0
  6
CONTINUOUS
 62
     7
 10
74.1422362512
 20
123.3586833804
 30
0.0
 40
0.2007246649775569
 50
73.5902607704
 51
186.1948055514
  0
ARC
  5
34F
  8
0
  6
CONTINUOUS
 62
     7
 10
74.0866818521
 20
123.0776931773
 30
0.0
 40
0.153368496098766
 50
125.3225150586
 51
167.9999564508
  0
POLYLINE
  5
350
  8
0
  6
CONTINUOUS
 62
     7
 66
     1
 10
0.0
 20
0.0
 30
0.0
 70
   128
  0
VERTEX
  5
749
  8
0
  6
CONTINUOUS
 62
     7
 10
74.0743525106
 20
121.6772512113
 30
0.0
  0
VERTEX
  5
74A
  8
0
  6
CONTINUOUS
 62
     7
 10
73.9104459366
 20
121.6992548712
 30
0.0
  0
VERTEX
  5
74B
  8
0
  6
CONTINUOUS
 62
     7
 10
73.8117488812
 20
121.687217527
 30
0.0
  0
SEQEND
  5
866
  8
0
  6
CONTINUOUS
 62
     7
  0
LINE
  5
351
  8
0
  6
CONTINUOUS
 62
     7
 10
73.8117488812
 20
121.687217527
 30
0.0
 11
73.9366648498
 21
123.1095803947
 31
0.0
  0
LINE
  5
352
  8
0
  6
CONTINUOUS
 62
     7
 10
73.8117488812
 20
121.687217527
 30
0.0
 11
73.8128632087
 21
121.6609907848
 31
0.0
  0
POLYLINE
  5
353
  8
0
  6
CONTINUOUS
 62
     7
 66
     1
 10
0.0
 20
0.0
 30
0.0
 70
   128
  0
VERTEX
  5
74C
  8
0
  6
CONTINUOUS
 62
     7
 10
73.8128632087
 20
121.6609907848
 30
0.0
  0
VERTEX
  5
74D
  8
0
  6
CONTINUOUS
 62
     7
 10
73.9149880259
 20
121.6448854235
 30
0.0
  0
VERTEX
  5
74E
  8
0
  6
CONTINUOUS
 62
     7
 10
74.089762334
 20
121.5957867958
 30
0.0
  0
SEQEND
  5
867
  8
0
  6
CONTINUOUS
 62
     7
  0
ARC
  5
354
  8
0
  6
CONTINUOUS
 62
     7
 10
73.9068069498
 20
121.6280509667
 30
0.0
 40
0.0995512838200898
 50
160.6776269934
 51
174.6140527113
  0
LINE
  5
355
  8
0
  6
CONTINUOUS
 62
     7
 10
73.8076951833
 20
121.6373952617
 30
0.0
 11
73.7340499194
 21
120.7988288066
 31
0.0
  0
LINE
  5
356
  8
0
  6
CONTINUOUS
 62
     7
 10
73.7347363041
 20
120.7713940226
 30
0.0
 11
73.729140336
 21
120.7465903413
 31
0.0
  0
POLYLINE
  5
357
  8
0
  6
CONTINUOUS
 62
     7
 66
     1
 10
0.0
 20
0.0
 30
0.0
 70
   128
  0
VERTEX
  5
74F
  8
0
  6
CONTINUOUS
 62
     7
 10
74.0021472169
 20
120.5981556837
 30
0.0
  0
VERTEX
  5
750
  8
0
  6
CONTINUOUS
 62
     7
 10
73.8319637906
 20
120.7001779972
 30
0.0
  0
VERTEX
  5
751
  8
0
  6
CONTINUOUS
 62
     7
 10
73.7347363041
 20
120.7713940226
 30
0.0
  0
SEQEND
  5
868
  8
0
  6
CONTINUOUS
 62
     7
  0
POLYLINE
  5
358
  8
0
  6
CONTINUOUS
 62
     7
 66
     1
 10
0.0
 20
0.0
 30
0.0
 70
   128
  0
VERTEX
  5
752
  8
0
  6
CONTINUOUS
 62
     7
 10
73.729140336
 20
120.7465903413
 30
0.0
  0
VERTEX
  5
753
  8
0
  6
CONTINUOUS
 62
     7
 10
73.8179779158
 20
120.6471575702
 30
0.0
  0
VERTEX
  5
754
  8
0
  6
CONTINUOUS
 62
     7
 10
73.9727716731
 20
120.5205951397
 30
0.0
  0
SEQEND
  5
869
  8
0
  6
CONTINUOUS
 62
     7
  0
ARC
  5
359
  8
0
  6
CONTINUOUS
 62
     7
 10
73.87542549
 20
120.7886398722
 30
0.0
 40
0.1417422532748951
 50
175.877821497
 51
186.9885211907
  0
LINE
  5
35A
  8
0
  6
CONTINUOUS
 62
     7
 10
73.6042243674
 20
119.3242275027
 30
0.0
 11
73.729140336
 21
120.7465903413
 31
0.0
  0
LINE
  5
35B
  8
0
  6
CONTINUOUS
 62
     7
 10
73.8984214562
 20
119.6740021975
 30
0.0
 11
73.6042243674
 21
119.3242275027
 31
0.0
  0
ARC
  5
35C
  8
0
  6
CONTINUOUS
 62
     7
 10
73.7653943811
 20
119.3267411021
 30
0.0
 40
0.1611896135435661
 50
180.8935096428
 51
223.2074704242
  0
ARC
  5
35D
  8
0
  6
CONTINUOUS
 62
     7
 10
73.8090467203
 20
119.1186142769
 30
0.0
 40
0.2359280220651443
 50
175.0864425786
 51
265.1288248388
  0
POLYLINE
  5
35E
  8
0
  6
CONTINUOUS
 62
     7
 66
     1
 10
0.0
 20
0.0
 30
0.0
 70
   128
  0
VERTEX
  5
755
  8
0
  6
CONTINUOUS
 62
     7
 10
73.6479065975
 20
119.2163838992
 30
0.0
  0
VERTEX
  5
756
  8
0
  6
CONTINUOUS
 62
     7
 10
73.6234239315
 20
119.1605540067
 30
0.0
  0
VERTEX
  5
757
  8
0
  6
CONTINUOUS
 62
     7
 10
73.5739857204
 20
119.1388221438
 30
0.0
  0
SEQEND
  5
86A
  8
0
  6
CONTINUOUS
 62
     7
  0
ARC
  5
35F
  8
0
  6
CONTINUOUS
 62
     7
 10
74.0525328684
 20
123.0946150772
 30
0.0
 40
0.1211737598298991
 50
116.7421799118
 51
171.4621497924
  0
ARC
  5
360
  8
0
  6
CONTINUOUS
 62
     7
 10
73.9427965204
 20
123.1234279947
 30
0.0
 40
0.015144418439458
 50
234.1691711851
 51
246.116398792
  0
ARC
  5
361
  8
0
  6
CONTINUOUS
 62
     7
 10
73.9358006124
 20
123.1139754393
 30
0.0
 40
0.0033882366075009
 50
203.8604057528
 51
236.5111419076
  0
POLYLINE
  5
362
  8
0
  6
CONTINUOUS
 62
     7
 66
     1
 10
0.0
 20
0.0
 30
0.0
 70
   128
  0
VERTEX
  5
758
  8
0
  6
CONTINUOUS
 62
     7
 10
73.8935345738
 20
123.2397206173
 30
0.0
  0
VERTEX
  5
759
  8
0
  6
CONTINUOUS
 62
     7
 10
73.9247070754
 20
123.1923591391
 30
0.0
  0
VERTEX
  5
75A
  8
0
  6
CONTINUOUS
 62
     7
 10
73.9327019558
 20
123.1126048648
 30
0.0
  0
SEQEND
  5
86B
  8
0
  6
CONTINUOUS
 62
     7
  0
POLYLINE
  5
363
  8
0
  6
CONTINUOUS
 62
     7
 66
     1
 10
0.0
 20
0.0
 30
0.0
 70
   128
  0
VERTEX
  5
75B
  8
0
  6
CONTINUOUS
 62
     7
 10
73.9426836675
 20
123.3370233373
 30
0.0
  0
VERTEX
  5
75C
  8
0
  6
CONTINUOUS
 62
     7
 10
73.9104664548
 20
123.2919659511
 30
0.0
  0
VERTEX
  5
75D
  8
0
  6
CONTINUOUS
 62
     7
 10
73.8935355924
 20
123.2397206173
 30
0.0
  0
SEQEND
  5
86C
  8
0
  6
CONTINUOUS
 62
     7
  0
ARC
  5
364
  8
0
  6
CONTINUOUS
 62
     7
 10
73.8139997001
 20
121.6942752033
 30
0.0
 40
0.0074078998737709
 50
212.9868574043
 51
252.3115894835
  0
LINE
  5
365
  8
0
  6
CONTINUOUS
 62
     7
 10
73.9327019558
 20
123.1126048648
 30
0.0
 11
73.8077859872
 21
121.690241997
 31
0.0
  0
POLYLINE
  5
366
  8
0
  6
CONTINUOUS
 62
     7
 66
     1
 10
0.0
 20
0.0
 30
0.0
 70
   128
  0
VERTEX
  5
75E
  8
0
  6
CONTINUOUS
 62
     7
 10
73.8077859872
 20
121.690241997
 30
0.0
  0
VERTEX
  5
75F
  8
0
  6
CONTINUOUS
 62
     7
 10
73.8050124504
 20
121.6649349359
 30
0.0
  0
VERTEX
  5
760
  8
0
  6
CONTINUOUS
 62
     7
 10
73.8026279736
 20
121.6405545407
 30
0.0
  0
SEQEND
  5
86D
  8
0
  6
CONTINUOUS
 62
     7
  0
LINE
  5
367
  8
0
  6
CONTINUOUS
 62
     7
 10
73.8026279736
 20
121.6405545407
 30
0.0
 11
73.7289826514
 21
120.801988202
 31
0.0
  0
POLYLINE
  5
368
  8
0
  6
CONTINUOUS
 62
     7
 66
     1
 10
0.0
 20
0.0
 30
0.0
 70
   128
  0
VERTEX
  5
761
  8
0
  6
CONTINUOUS
 62
     7
 10
73.7289826514
 20
120.801988202
 30
0.0
  0
VERTEX
  5
762
  8
0
  6
CONTINUOUS
 62
     7
 10
73.7270251278
 20
120.7769305025
 30
0.0
  0
VERTEX
  5
763
  8
0
  6
CONTINUOUS
 62
     7
 10
73.725177442
 20
120.7496148114
 30
0.0
  0
SEQEND
  5
86E
  8
0
  6
CONTINUOUS
 62
     7
  0
LINE
  5
369
  8
0
  6
CONTINUOUS
 62
     7
 10
73.725177442
 20
120.7496148114
 30
0.0
 11
73.6002614734
 21
119.3272519728
 31
0.0
  0
POLYLINE
  5
36A
  8
0
  6
CONTINUOUS
 62
     7
 66
     1
 10
0.0
 20
0.0
 30
0.0
 70
   128
  0
VERTEX
  5
764
  8
0
  6
CONTINUOUS
 62
     7
 10
73.6002614734
 20
119.3272519728
 30
0.0
  0
VERTEX
  5
765
  8
0
  6
CONTINUOUS
 62
     7
 10
73.580039026
 20
119.2676699999
 30
0.0
  0
VERTEX
  5
766
  8
0
  6
CONTINUOUS
 62
     7
 10
73.5424978787
 20
119.2426050826
 30
0.0
  0
SEQEND
  5
86F
  8
0
  6
CONTINUOUS
 62
     7
  0
LINE
  5
36B
  8
0
  6
CONTINUOUS
 62
     7
 10
73.5424978787
 20
119.2426050826
 30
0.0
 11
73.5431617371
 21
119.2808664478
 31
0.0
  0
LINE
  5
36C
  8
0
  6
CONTINUOUS
 62
     7
 10
73.5431617371
 20
119.2808664478
 30
0.0
 11
73.887601205
 21
123.2028467626
 31
0.0
  0
LINE
  5
36D
  8
0
  6
CONTINUOUS
 62
     7
 10
73.887601205
 20
123.2028467626
 30
0.0
 11
73.8935345738
 21
123.2397206173
 31
0.0
  0
LINE
  5
36E
  8
0
  6
CONTINUOUS
 62
     7
 10
73.8128632087
 20
121.6609907848
 30
0.0
 11
73.8077859872
 21
121.690241997
 31
0.0
  0
ARC
  5
36F
  8
0
  6
CONTINUOUS
 62
     7
 10
73.8112756256
 20
121.648781303
 30
0.0
 40
0.0119357238794373
 50
223.5711974298
 51
252.5437797766
  0
POLYLINE
  5
370
  8
0
  6
CONTINUOUS
 62
     7
 66
     1
 10
0.0
 20
0.0
 30
0.0
 70
   128
  0
VERTEX
  5
767
  8
0
  6
CONTINUOUS
 62
     7
 10
73.8819874544
 20
123.2664393307
 30
0.0
  0
VERTEX
  5
768
  8
0
  6
CONTINUOUS
 62
     7
 10
73.9046768589
 20
123.3059977227
 30
0.0
  0
VERTEX
  5
769
  8
0
  6
CONTINUOUS
 62
     7
 10
73.9426836675
 20
123.3370233373
 30
0.0
  0
SEQEND
  5
870
  8
0
  6
CONTINUOUS
 62
     7
  0
LINE
  5
371
  8
0
  6
CONTINUOUS
 62
     7
 10
73.8854554378
 20
123.2533905701
 30
0.0
 11
73.8935355924
 21
123.2397206173
 31
0.0
  0
LINE
  5
372
  8
0
  6
CONTINUOUS
 62
     7
 10
73.8819874544
 20
123.2664393307
 30
0.0
 11
73.8854554378
 21
123.2533905701
 31
0.0
  0
ARC
  5
373
  8
0
  6
CONTINUOUS
 62
     7
 10
73.7376330036
 20
120.8102189414
 30
0.0
 40
0.0119404213622086
 50
223.5760936424
 51
252.5375788214
  0
ARC
  5
374
  8
0
  6
CONTINUOUS
 62
     7
 10
74.2299879131
 20
123.2666582833
 30
0.0
 40
0.3434471659063212
 50
105.9299678584
 51
165.8778728477
  0
LINE
  5
375
  8
0
  6
CONTINUOUS
 62
     7
 10
73.725177442
 20
120.7496148114
 30
0.0
 11
73.7347363041
 21
120.7713940226
 31
0.0
  0
ARC
  5
376
  8
0
  6
CONTINUOUS
 62
     7
 10
73.731391753
 20
120.7536488013
 30
0.0
 40
0.0074088281895844
 50
212.9894225481
 51
252.3090243395
  0
ARC
  5
377
  8
0
  6
CONTINUOUS
 62
     7
 10
73.6103607177
 20
119.338083255
 30
0.0
 40
0.0151537674130555
 50
234.1728699488
 51
246.1127000283
  0
ARC
  5
378
  8
0
  6
CONTINUOUS
 62
     7
 10
73.6033621439
 20
119.3286242483
 30
0.0
 40
0.0033907665196832
 50
203.8729267052
 51
236.4986209553
  0
LINE
  5
379
  8
0
  6
CONTINUOUS
 62
     7
 10
73.887601205
 20
123.2028467626
 30
0.0
 11
73.8718418009
 21
123.2086665974
 31
0.0
  0
LINE
  5
37A
  8
0
  6
CONTINUOUS
 62
     7
 10
73.8718418009
 20
123.2086665974
 30
0.0
 11
73.8819873671
 21
123.266438865
 31
0.0
  0
LINE
  5
37B
  8
0
  6
CONTINUOUS
 62
     7
 10
73.8718418009
 20
123.2086665974
 30
0.0
 11
73.8323997369
 21
123.2383152515
 31
0.0
  0
ARC
  5
37C
  8
0
  6
CONTINUOUS
 62
     7
 10
74.3024535683
 20
123.1968424819
 30
0.0
 40
0.4718799716750756
 50
129.8631571722
 51
174.9582581882
  0
LINE
  5
37D
  8
0
  6
CONTINUOUS
 62
     7
 10
74.0882349504
 20
123.6169700556
 30
0.0
 11
73.9999991796
 21
123.5590469138
 31
0.0
  0
ARC
  5
37E
  8
0
  6
CONTINUOUS
 62
     7
 10
73.7377246999
 20
119.3206545703
 30
0.0
 40
0.1376214530876588
 50
177.2522579745
 51
229.2585964197
  0
LINE
  5
37F
  8
0
  6
CONTINUOUS
 62
     7
 10
73.5274023039
 20
119.2866866464
 30
0.0
 11
73.5431617371
 21
119.2808664478
 31
0.0
  0
LINE
  5
380
  8
0
  6
CONTINUOUS
 62
     7
 10
73.5274023039
 20
119.2866866173
 30
0.0
 11
73.8718418009
 21
123.2086665974
 31
0.0
  0
LINE
  5
381
  8
0
  6
CONTINUOUS
 62
     7
 10
73.4994211246
 20
119.4468350137
 30
0.0
 11
73.4879602108
 21
119.3163351405
 31
0.0
  0
LINE
  5
382
  8
0
  6
CONTINUOUS
 62
     7
 10
73.5215079634
 20
119.6983274118
 30
0.0
 11
73.4994211246
 21
119.4468350137
 31
0.0
  0
LINE
  5
383
  8
0
  6
CONTINUOUS
 62
     7
 10
73.8323997369
 20
123.2383152515
 30
0.0
 11
73.5215079052
 21
119.69832747
 31
0.0
  0
LINE
  5
384
  8
0
  6
CONTINUOUS
 62
     7
 10
73.4879602108
 20
119.3163351405
 30
0.0
 11
73.5274023039
 21
119.2866866028
 31
0.0
  0
POLYLINE
  5
385
  8
0
  6
CONTINUOUS
 62
     7
 66
     1
 10
0.0
 20
0.0
 30
0.0
 70
   128
  0
VERTEX
  5
76A
  8
0
  6
CONTINUOUS
 62
     7
 10
73.5424945027
 20
119.2426052427
 30
0.0
  0
VERTEX
  5
76B
  8
0
  6
CONTINUOUS
 62
     7
 10
73.5500194145
 20
119.1877217994
 30
0.0
  0
VERTEX
  5
76C
  8
0
  6
CONTINUOUS
 62
     7
 10
73.5739857204
 20
119.1388221438
 30
0.0
  0
SEQEND
  5
871
  8
0
  6
CONTINUOUS
 62
     7
  0
POLYLINE
  5
386
  8
0
  6
CONTINUOUS
 62
     7
 66
     1
 10
0.0
 20
0.0
 30
0.0
 70
   128
  0
VERTEX
  5
76D
  8
0
  6
CONTINUOUS
 62
     7
 10
73.5739857204
 20
119.1388221438
 30
0.0
  0
VERTEX
  5
76E
  8
0
  6
CONTINUOUS
 62
     7
 10
73.5422724405
 20
119.1794761677
 30
0.0
  0
VERTEX
  5
76F
  8
0
  6
CONTINUOUS
 62
     7
 10
73.5272194737
 20
119.2268302972
 30
0.0
  0
SEQEND
  5
872
  8
0
  6
CONTINUOUS
 62
     7
  0
LINE
  5
387
  8
0
  6
CONTINUOUS
 62
     7
 10
73.5325210856
 20
119.2346860467
 30
0.0
 11
73.5272194737
 21
119.2268302972
 31
0.0
  0
LINE
  5
388
  8
0
  6
CONTINUOUS
 62
     7
 10
73.5424945027
 20
119.2426052427
 30
0.0
 11
73.5325210856
 21
119.2346860467
 31
0.0
  0
LINE
  5
389
  8
0
  6
CONTINUOUS
 62
     7
 10
73.5272148171
 20
119.2268303263
 30
0.0
 11
73.5274023039
 21
119.2866866464
 31
0.0
  0
ARC
  5
38A
  8
0
  6
CONTINUOUS
 62
     7
 10
73.90378965
 20
119.2095278487
 30
0.0
 40
0.379439613863767
 50
188.2428804985
 51
253.1126368241
  0
ARC
  5
38B
  8
0
  6
CONTINUOUS
 62
     7
 10
73.9206849338
 20
119.2191991145
 30
0.0
 40
0.4075117877166817
 50
217.435799878
 51
254.9919575827
  0
ARC
  5
38C
  8
0
  6
CONTINUOUS
 62
     7
 10
73.9574111624
 20
119.2752194463
 30
0.0
 40
0.4712480791369195
 50
174.9946625468
 51
220.1307398345
  0
POLYLINE
  5
38D
  8
0
  6
CONTINUOUS
 62
     7
 66
     1
 10
0.0
 20
0.0
 30
0.0
 70
   128
  0
VERTEX
  5
770
  8
0
  6
CONTINUOUS
 62
     7
 10
128.7156131014
 20
127.0816450984
 30
0.0
  0
VERTEX
  5
771
  8
0
  6
CONTINUOUS
 62
     7
 10
129.6407740459
 20
127.0484583498
 30
0.0
  0
VERTEX
  5
772
  8
0
  6
CONTINUOUS
 62
     7
 10
130.5712509796
 20
126.8865698063
 30
0.0
  0
VERTEX
  5
773
  8
0
  6
CONTINUOUS
 62
     7
 10
131.4929101512
 20
126.5984372281
 30
0.0
  0
VERTEX
  5
774
  8
0
  6
CONTINUOUS
 62
     7
 10
132.3917593703
 20
126.1884359688
 30
0.0
  0
VERTEX
  5
775
  8
0
  6
CONTINUOUS
 62
     7
 10
133.2541491732
 20
125.6627928511
 30
0.0
  0
VERTEX
  5
776
  8
0
  6
CONTINUOUS
 62
     7
 10
134.066977714
 20
125.0294897751
 30
0.0
  0
VERTEX
  5
777
  8
0
  6
CONTINUOUS
 62
     7
 10
134.8179105565
 20
124.2981435777
 30
0.0
  0
VERTEX
  5
778
  8
0
  6
CONTINUOUS
 62
     7
 10
135.4955408618
 20
123.4798598149
 30
0.0
  0
VERTEX
  5
779
  8
0
  6
CONTINUOUS
 62
     7
 10
136.0895756528
 20
122.5870651238
 30
0.0
  0
VERTEX
  5
77A
  8
0
  6
CONTINUOUS
 62
     7
 10
136.5909960017
 20
121.6333167673
 30
0.0
  0
VERTEX
  5
77B
  8
0
  6
CONTINUOUS
 62
     7
 10
136.9921836898
 20
120.633097859
 30
0.0
  0
VERTEX
  5
77C
  8
0
  6
CONTINUOUS
 62
     7
 10
137.2870553181
 20
119.601597397
 30
0.0
  0
VERTEX
  5
77D
  8
0
  6
CONTINUOUS
 62
     7
 10
137.4711293623
 20
118.5544791211
 30
0.0
  0
VERTEX
  5
77E
  8
0
  6
CONTINUOUS
 62
     7
 10
137.5416118547
 20
117.5076440255
 30
0.0
  0
VERTEX
  5
77F
  8
0
  6
CONTINUOUS
 62
     7
 10
137.4974224612
 20
116.4769890298
 30
0.0
  0
VERTEX
  5
780
  8
0
  6
CONTINUOUS
 62
     7
 10
137.3392466352
 20
115.4781648935
 30
0.0
  0
SEQEND
  5
873
  8
0
  6
CONTINUOUS
 62
     7
  0
POLYLINE
  5
38E
  8
0
  6
CONTINUOUS
 62
     7
 66
     1
 10
0.0
 20
0.0
 30
0.0
 70
   128
  0
VERTEX
  5
781
  8
0
  6
CONTINUOUS
 62
     7
 10
128.7156131014
 20
127.0816450984
 30
0.0
  0
VERTEX
  5
782
  8
0
  6
CONTINUOUS
 62
     7
 10
128.1424101338
 20
126.9738566176
 30
0.0
  0
VERTEX
  5
783
  8
0
  6
CONTINUOUS
 62
     7
 10
127.4493943796
 20
126.7073581972
 30
0.0
  0
SEQEND
  5
874
  8
0
  6
CONTINUOUS
 62
     7
  0
LINE
  5
38F
  8
0
  6
CONTINUOUS
 62
     7
 10
127.4493943796
 20
126.7073581972
 30
0.0
 11
128.1884360954
 21
127.0319422752
 31
0.0
  0
LINE
  5
390
  8
0
  6
CONTINUOUS
 62
     7
 10
139.7651556775
 20
104.1032219351
 30
0.0
 11
139.7651556775
 21
134.1032212646
 31
0.0
  0
LINE
  5
391
  8
0
  6
CONTINUOUS
 62
     7
 10
134.4489354536
 20
114.8887098812
 30
0.0
 11
128.2151576027
 21
117.3933683009
 31
0.0
  0
POLYLINE
  5
392
  8
0
  6
CONTINUOUS
 62
     7
 66
     1
 10
0.0
 20
0.0
 30
0.0
 70
   128
  0
VERTEX
  5
784
  8
0
  6
CONTINUOUS
 62
     7
 10
137.3392466352
 20
115.4781648935
 30
0.0
  0
VERTEX
  5
785
  8
0
  6
CONTINUOUS
 62
     7
 10
137.2130710527
 20
115.1708493986
 30
0.0
  0
VERTEX
  5
786
  8
0
  6
CONTINUOUS
 62
     7
 10
136.9522187755
 20
114.8976882965
 30
0.0
  0
VERTEX
  5
787
  8
0
  6
CONTINUOUS
 62
     7
 10
136.4455010638
 20
114.6693657198
 30
0.0
  0
VERTEX
  5
788
  8
0
  6
CONTINUOUS
 62
     7
 10
135.9921853885
 20
114.6034201653
 30
0.0
  0
VERTEX
  5
789
  8
0
  6
CONTINUOUS
 62
     7
 10
135.5234395608
 20
114.6174510055
 30
0.0
  0
VERTEX
  5
78A
  8
0
  6
CONTINUOUS
 62
     7
 10
135.0494224474
 20
114.6985389338
 30
0.0
  0
VERTEX
  5
78B
  8
0
  6
CONTINUOUS
 62
     7
 10
134.4489354536
 20
114.8887098812
 30
0.0
  0
SEQEND
  5
875
  8
0
  6
CONTINUOUS
 62
     7
  0
LINE
  5
393
  8
0
  6
CONTINUOUS
 62
     7
 10
145.265159373
 20
104.1032219351
 30
0.0
 11
145.265159373
 21
134.1032212646
 31
0.0
  0
LINE
  5
394
  8
0
  6
CONTINUOUS
 62
     7
 10
145.7651603863
 20
133.6032211826
 30
0.0
 11
145.7651603863
 21
104.6032220171
 31
0.0
  0
LINE
  5
395
  8
0
  6
CONTINUOUS
 62
     7
 10
137.3392466352
 20
115.4781648935
 30
0.0
 11
128.9585914359
 21
120.1639940542
 31
0.0
  0
LINE
  5
396
  8
0
  6
CONTINUOUS
 62
     7
 10
128.7156131014
 20
127.0816450984
 30
0.0
 11
128.9585914359
 21
120.1639940542
 31
0.0
  0
LINE
  5
397
  8
0
  6
CONTINUOUS
 62
     7
 10
134.4489354536
 20
114.8887098812
 30
0.0
 11
128.2151576027
 21
118.3741665141
 31
0.0
  0
LINE
  5
398
  8
0
  6
CONTINUOUS
 62
     7
 10
128.2151576027
 20
119.520518229
 30
0.0
 11
128.2151576027
 21
118.3741665141
 31
0.0
  0
LINE
  5
399
  8
0
  6
CONTINUOUS
 62
     7
 10
128.9586361394
 20
120.1627732067
 30
0.0
 11
128.2151576027
 21
119.5205173559
 31
0.0
  0
LINE
  5
39A
  8
0
  6
CONTINUOUS
 62
     7
 10
128.2151576027
 20
118.3741665141
 30
0.0
 11
128.2151576027
 21
117.3946111508
 31
0.0
  0
LINE
  5
39B
  8
0
  6
CONTINUOUS
 62
     7
 10
147.4946934626
 20
129.1032213763
 30
0.0
 11
147.4946934626
 21
109.1032218233
 31
0.0
  0
LINE
  5
39C
  8
0
  6
CONTINUOUS
 62
     7
 10
193.5151565716
 20
125.103221652
 30
0.0
 11
193.5151565716
 21
129.1032213763
 31
0.0
  0
LINE
  5
39D
  8
0
  6
CONTINUOUS
 62
     7
 10
193.5151565716
 20
109.1032218233
 30
0.0
 11
193.5151565716
 21
113.1032215477
 31
0.0
  0
LINE
  5
39E
  8
0
  6
CONTINUOUS
 62
     7
 10
193.5151565716
 20
125.103221652
 30
0.0
 11
151.7651576445
 21
125.103221652
 31
0.0
  0
ARC
  5
39F
  8
0
  6
CONTINUOUS
 62
     7
 10
159.7651560123
 20
119.1032215998
 30
0.0
 40
9.99999872555082
 50
143.1300965041
 51
216.8699034959
  0
LINE
  5
3A0
  8
0
  6
CONTINUOUS
 62
     7
 10
151.7651576445
 20
113.1032215477
 30
0.0
 11
193.5151565716
 21
113.1032215477
 31
0.0
  0
LINE
  5
3A1
  8
0
  6
CONTINUOUS
 62
     7
 10
147.0242340014
 20
129.0032215462
 30
0.0
 11
147.0242340014
 21
109.2032216535
 31
0.0
  0
LINE
  5
3A2
  8
0
  6
CONTINUOUS
 62
     7
 10
151.7651576445
 20
113.1032215477
 30
0.0
 11
151.7651576445
 21
125.103221652
 31
0.0
  0
ARC
  5
3A3
  8
0
  6
CONTINUOUS
 62
     7
 10
115.1129606188
 20
83.8931778691
 30
0.0
 40
35.96980876558066
 50
68.6839313227
 51
76.8695891752
  0
POLYLINE
  5
3A4
  8
0
  6
CONTINUOUS
 62
     7
 66
     1
 10
0.0
 20
0.0
 30
0.0
 70
   128
  0
VERTEX
  5
78C
  8
0
  6
CONTINUOUS
 62
     7
 10
82.3151582748
 20
126.2390314647
 30
0.0
  0
VERTEX
  5
78D
  8
0
  6
CONTINUOUS
 62
     7
 10
89.2929054693
 20
125.7822237954
 30
0.0
  0
VERTEX
  5
78E
  8
0
  6
CONTINUOUS
 62
     7
 10
96.2974980369
 20
124.9095838562
 30
0.0
  0
VERTEX
  5
78F
  8
0
  6
CONTINUOUS
 62
     7
 10
102.9863834277
 20
123.7381928646
 30
0.0
  0
VERTEX
  5
790
  8
0
  6
CONTINUOUS
 62
     7
 10
109.6986468777
 20
122.2982056484
 30
0.0
  0
VERTEX
  5
791
  8
0
  6
CONTINUOUS
 62
     7
 10
116.4793532238
 20
120.6594989913
 30
0.0
  0
VERTEX
  5
792
  8
0
  6
CONTINUOUS
 62
     7
 10
123.2841584727
 20
118.9225750701
 30
0.0
  0
SEQEND
  5
876
  8
0
  6
CONTINUOUS
 62
     7
  0
POLYLINE
  5
3A5
  8
0
  6
CONTINUOUS
 62
     7
 66
     1
 10
0.0
 20
0.0
 30
0.0
 70
   128
  0
VERTEX
  5
793
  8
0
  6
CONTINUOUS
 62
     7
 10
194.2651543662
 20
113.2037638732
 30
0.0
  0
VERTEX
  5
794
  8
0
  6
CONTINUOUS
 62
     7
 10
193.7121350214
 20
113.1295220972
 30
0.0
  0
VERTEX
  5
795
  8
0
  6
CONTINUOUS
 62
     7
 10
193.5151565716
 20
113.1032215477
 30
0.0
  0
SEQEND
  5
877
  8
0
  6
CONTINUOUS
 62
     7
  0
ARC
  5
3A6
  8
0
  6
CONTINUOUS
 62
     7
 10
201.4946946849
 20
119.1237956245
 30
0.0
 40
9.344144110406642
 50
219.3129137707
 51
223.9300059449
  0
LINE
  5
3A7
  8
0
  6
CONTINUOUS
 62
     7
 10
194.7651553795
 20
125.5654193506
 30
0.0
 11
194.7651553795
 21
129.0032215462
 31
0.0
  0
LINE
  5
3A8
  8
0
  6
CONTINUOUS
 62
     7
 10
194.7651553795
 20
109.2032216535
 30
0.0
 11
194.7651553795
 21
112.641023849
 31
0.0
  0
ARC
  5
3A9
  8
0
  6
CONTINUOUS
 62
     7
 10
201.4946946849
 20
119.0826475752
 30
0.0
 40
9.344144110406631
 50
136.0699940551
 51
140.6870862293
  0
POLYLINE
  5
3AA
  8
0
  6
CONTINUOUS
 62
     7
 66
     1
 10
0.0
 20
0.0
 30
0.0
 70
   128
  0
VERTEX
  5
796
  8
0
  6
CONTINUOUS
 62
     7
 10
193.5151565716
 20
125.103221652
 30
0.0
  0
VERTEX
  5
797
  8
0
  6
CONTINUOUS
 62
     7
 10
193.7121350214
 20
125.0769211025
 30
0.0
  0
VERTEX
  5
798
  8
0
  6
CONTINUOUS
 62
     7
 10
194.2651543662
 20
125.0026793265
 30
0.0
  0
SEQEND
  5
878
  8
0
  6
CONTINUOUS
 62
     7
  0
LINE
  5
3AB
  8
0
  6
CONTINUOUS
 62
     7
 10
194.7651553795
 20
125.5654193506
 30
0.0
 11
195.7651574061
 21
125.1826951326
 31
0.0
  0
LINE
  5
3AC
  8
0
  6
CONTINUOUS
 62
     7
 10
195.7651574061
 20
113.0237480671
 30
0.0
 11
195.7651574061
 21
125.1826951326
 31
0.0
  0
LINE
  5
3AD
  8
0
  6
CONTINUOUS
 62
     7
 10
195.7651574061
 20
113.0237480671
 30
0.0
 11
194.7651553795
 21
112.641023849
 31
0.0
  0
LINE
  5
3AE
  8
0
  6
CONTINUOUS
 62
     7
 10
194.2651543662
 20
113.2037638732
 30
0.0
 11
194.2651543662
 21
125.0026793265
 31
0.0
  0
LINE
  5
3AF
  8
0
  6
CONTINUOUS
 62
     7
 10
195.7651574061
 20
125.1826951326
 30
0.0
 11
195.7651574061
 21
128.0032213823
 31
0.0
  0
LINE
  5
3B0
  8
0
  6
CONTINUOUS
 62
     7
 10
195.7651574061
 20
110.2032218174
 30
0.0
 11
195.7651574061
 21
113.0237480671
 31
0.0
  0
LINE
  5
3B1
  8
0
  6
CONTINUOUS
 62
     7
 10
74.7575708095
 20
126.2390314647
 30
0.0
 11
82.3151582748
 21
126.2390314647
 31
0.0
  0
POLYLINE
  5
3B2
  8
0
  6
CONTINUOUS
 62
     7
 66
     1
 10
0.0
 20
0.0
 30
0.0
 70
   128
  0
VERTEX
  5
799
  8
0
  6
CONTINUOUS
 62
     7
 10
113.6487211928
 20
111.9770332285
 30
0.0
  0
VERTEX
  5
79A
  8
0
  6
CONTINUOUS
 62
     7
 10
109.4418812439
 20
112.0163643778
 30
0.0
  0
VERTEX
  5
79B
  8
0
  6
CONTINUOUS
 62
     7
 10
102.7700018034
 20
112.6473242462
 30
0.0
  0
VERTEX
  5
79C
  8
0
  6
CONTINUOUS
 62
     7
 10
96.05323634
 20
113.7923797638
 30
0.0
  0
VERTEX
  5
79D
  8
0
  6
CONTINUOUS
 62
     7
 10
89.4130349055
 20
115.3365756896
 30
0.0
  0
VERTEX
  5
79E
  8
0
  6
CONTINUOUS
 62
     7
 10
82.7291842446
 20
117.1824353793
 30
0.0
  0
SEQEND
  5
879
  8
0
  6
CONTINUOUS
 62
     7
  0
LINE
  5
3B3
  8
0
  6
CONTINUOUS
 62
     7
 10
82.7291842446
 20
117.1824353793
 30
0.0
 11
81.883649052
 21
117.3032216308
 31
0.0
  0
LINE
  5
3B4
  8
0
  6
CONTINUOUS
 62
     7
 10
81.883649052
 20
117.3032216308
 30
0.0
 11
74.3151578948
 21
117.3032216308
 31
0.0
  0
LINE
  5
3B5
  8
0
  6
CONTINUOUS
 62
     7
 10
74.3151578948
 20
117.3032216308
 30
0.0
 11
74.3151578948
 21
124.3009813175
 31
0.0
  0
ARC
  5
3B6
  8
0
  6
CONTINUOUS
 62
     7
 10
52.2030229499
 20
130.3682019561
 30
0.0
 40
22.92940640527962
 50
344.656555559
 51
349.6254711895
  0
POLYLINE
  5
3B7
  8
0
  6
CONTINUOUS
 62
     7
 66
     1
 10
0.0
 20
0.0
 30
0.0
 70
   128
  0
VERTEX
  5
79F
  8
0
  6
CONTINUOUS
 62
     7
 10
76.1010961736
 20
121.285321568
 30
0.0
  0
VERTEX
  5
7A0
  8
0
  6
CONTINUOUS
 62
     7
 10
76.3519242767
 20
121.2436823685
 30
0.0
  0
VERTEX
  5
7A1
  8
0
  6
CONTINUOUS
 62
     7
 10
76.5742158413
 20
121.1255657532
 30
0.0
  0
VERTEX
  5
7A2
  8
0
  6
CONTINUOUS
 62
     7
 10
76.7531808827
 20
120.9386714314
 30
0.0
  0
VERTEX
  5
7A3
  8
0
  6
CONTINUOUS
 62
     7
 10
76.8701617502
 20
120.6892683682
 30
0.0
  0
VERTEX
  5
7A4
  8
0
  6
CONTINUOUS
 62
     7
 10
76.8989014335
 20
120.4035555989
 30
0.0
  0
VERTEX
  5
7A5
  8
0
  6
CONTINUOUS
 62
     7
 10
76.8285893731
 20
120.1249463762
 30
0.0
  0
VERTEX
  5
7A6
  8
0
  6
CONTINUOUS
 62
     7
 10
76.6716978409
 20
119.8935783746
 30
0.0
  0
VERTEX
  5
7A7
  8
0
  6
CONTINUOUS
 62
     7
 10
76.4522512339
 20
119.7335004968
 30
0.0
  0
VERTEX
  5
7A8
  8
0
  6
CONTINUOUS
 62
     7
 10
76.1962385744
 20
119.6571502065
 30
0.0
  0
VERTEX
  5
7A9
  8
0
  6
CONTINUOUS
 62
     7
 10
75.9311240994
 20
119.6698725385
 30
0.0
  0
VERTEX
  5
7AA
  8
0
  6
CONTINUOUS
 62
     7
 10
75.685501973
 20
119.7691486728
 30
0.0
  0
VERTEX
  5
7AB
  8
0
  6
CONTINUOUS
 62
     7
 10
75.4859492311
 20
119.9435278237
 30
0.0
  0
VERTEX
  5
7AC
  8
0
  6
CONTINUOUS
 62
     7
 10
75.3533356486
 20
120.1742126419
 30
0.0
  0
VERTEX
  5
7AD
  8
0
  6
CONTINUOUS
 62
     7
 10
75.3014800733
 20
120.4386920714
 30
0.0
  0
VERTEX
  5
7AE
  8
0
  6
CONTINUOUS
 62
     7
 10
75.3388680181
 20
120.7124182534
 30
0.0
  0
VERTEX
  5
7AF
  8
0
  6
CONTINUOUS
 62
     7
 10
75.4684716825
 20
120.9656283305
 30
0.0
  0
VERTEX
  5
7B0
  8
0
  6
CONTINUOUS
 62
     7
 10
75.6792314945
 20
121.1612454195
 30
0.0
  0
VERTEX
  5
7B1
  8
0
  6
CONTINUOUS
 62
     7
 10
75.9361950344
 20
121.2675849953
 30
0.0
  0
VERTEX
  5
7B2
  8
0
  6
CONTINUOUS
 62
     7
 10
76.1010961736
 20
121.285321568
 30
0.0
  0
SEQEND
  5
87A
  8
0
  6
CONTINUOUS
 62
     7
  0
LINE
  5
3B8
  8
0
  6
CONTINUOUS
 62
     7
 10
74.3151578948
 20
117.3032216308
 30
0.0
 11
73.8581932395
 21
117.3032216308
 31
0.0
  0
ARC
  5
3B9
  8
0
  6
CONTINUOUS
 62
     7
 10
81.4775507668
 20
117.3955848473
 30
0.0
 40
7.619917328418742
 50
180.6945156827
 51
187.1501402773
  0
LINE
  5
3BA
  8
0
  6
CONTINUOUS
 62
     7
 10
73.9168905433
 20
116.447135019
 30
0.0
 11
73.9345408814
 21
116.3637870037
 31
0.0
  0
LINE
  5
3BB
  8
0
  6
CONTINUOUS
 62
     7
 10
73.8151578711
 20
117.6032215868
 30
0.0
 11
73.8151578711
 21
118.8570431246
 31
0.0
  0
LINE
  5
3BC
  8
0
  6
CONTINUOUS
 62
     7
 10
73.8151578711
 20
118.8570431246
 30
0.0
 11
73.8447676716
 21
118.8249849643
 31
0.0
  0
POLYLINE
  5
3BD
  8
0
  6
CONTINUOUS
 62
     7
 66
     1
 10
0.0
 20
0.0
 30
0.0
 70
   128
  0
VERTEX
  5
7B3
  8
0
  6
CONTINUOUS
 62
     7
 10
73.8447676716
 20
118.8249849643
 30
0.0
  0
VERTEX
  5
7B4
  8
0
  6
CONTINUOUS
 62
     7
 10
73.8863389136
 20
120.3453154581
 30
0.0
  0
VERTEX
  5
7B5
  8
0
  6
CONTINUOUS
 62
     7
 10
74.1078557197
 20
123.4020552643
 30
0.0
  0
SEQEND
  5
87B
  8
0
  6
CONTINUOUS
 62
     7
  0
LINE
  5
3BE
  8
0
  6
CONTINUOUS
 62
     7
 10
74.1078557197
 20
123.4020552643
 30
0.0
 11
74.0861922398
 21
123.4758467459
 31
0.0
  0
LINE
  5
3BF
  8
0
  6
CONTINUOUS
 62
     7
 10
74.0861922398
 20
123.4758467459
 30
0.0
 11
74.0889394814
 21
123.665644233
 31
0.0
  0
LINE
  5
3C0
  8
0
  6
CONTINUOUS
 62
     7
 10
74.0889394814
 20
123.665644233
 30
0.0
 11
74.1137906892
 21
123.9485660613
 31
0.0
  0
POLYLINE
  5
3C1
  8
0
  6
CONTINUOUS
 62
     7
 66
     1
 10
0.0
 20
0.0
 30
0.0
 70
   128
  0
VERTEX
  5
7B6
  8
0
  6
CONTINUOUS
 62
     7
 10
74.1137906892
 20
123.9485660613
 30
0.0
  0
VERTEX
  5
7B7
  8
0
  6
CONTINUOUS
 62
     7
 10
74.1175444867
 20
123.9357757428
 30
0.0
  0
VERTEX
  5
7B8
  8
0
  6
CONTINUOUS
 62
     7
 10
74.1899515427
 20
124.023937066
 30
0.0
  0
VERTEX
  5
7B9
  8
0
  6
CONTINUOUS
 62
     7
 10
74.3151578948
 20
124.3009813175
 30
0.0
  0
SEQEND
  5
87C
  8
0
  6
CONTINUOUS
 62
     7
  0
POLYLINE
  5
3C2
  8
0
  6
CONTINUOUS
 62
     7
 66
     1
 10
0.0
 20
0.0
 30
0.0
 70
   128
  0
VERTEX
  5
7BA
  8
0
  6
CONTINUOUS
 62
     7
 10
74.2773984578
 20
117.844446008
 30
0.0
  0
VERTEX
  5
7BB
  8
0
  6
CONTINUOUS
 62
     7
 10
74.257096477
 20
117.652968997
 30
0.0
  0
VERTEX
  5
7BC
  8
0
  6
CONTINUOUS
 62
     7
 10
74.231320826
 20
117.5638840346
 30
0.0
  0
VERTEX
  5
7BD
  8
0
  6
CONTINUOUS
 62
     7
 10
74.2023331562
 20
117.5870596477
 30
0.0
  0
VERTEX
  5
7BE
  8
0
  6
CONTINUOUS
 62
     7
 10
74.1731203173
 20
117.720483248
 30
0.0
  0
VERTEX
  5
7BF
  8
0
  6
CONTINUOUS
 62
     7
 10
74.1473072861
 20
117.9493540245
 30
0.0
  0
VERTEX
  5
7C0
  8
0
  6
CONTINUOUS
 62
     7
 10
74.1286967108
 20
118.2471901107
 30
0.0
  0
VERTEX
  5
7C1
  8
0
  6
CONTINUOUS
 62
     7
 10
74.1203900701
 20
118.5792302991
 30
0.0
  0
VERTEX
  5
7C2
  8
0
  6
CONTINUOUS
 62
     7
 10
74.1237894702
 20
118.9076739089
 30
0.0
  0
VERTEX
  5
7C3
  8
0
  6
CONTINUOUS
 62
     7
 10
74.1381733982
 20
119.1966273169
 30
0.0
  0
VERTEX
  5
7C4
  8
0
  6
CONTINUOUS
 62
     7
 10
74.1610929557
 20
119.4148448982
 30
0.0
  0
VERTEX
  5
7C5
  8
0
  6
CONTINUOUS
 62
     7
 10
74.1891349911
 20
119.5376889651
 30
0.0
  0
VERTEX
  5
7C6
  8
0
  6
CONTINUOUS
 62
     7
 10
74.2186448709
 20
119.5502050965
 30
0.0
  0
VERTEX
  5
7C7
  8
0
  6
CONTINUOUS
 62
     7
 10
74.2462752836
 20
119.450123863
 30
0.0
  0
VERTEX
  5
7C8
  8
0
  6
CONTINUOUS
 62
     7
 10
74.2693069454
 20
119.2487825307
 30
0.0
  0
VERTEX
  5
7C9
  8
0
  6
CONTINUOUS
 62
     7
 10
74.2857617855
 20
118.9695564668
 30
0.0
  0
VERTEX
  5
7CA
  8
0
  6
CONTINUOUS
 62
     7
 10
74.2943895524
 20
118.6445585614
 30
0.0
  0
VERTEX
  5
7CB
  8
0
  6
CONTINUOUS
 62
     7
 10
74.294606516
 20
118.3105518272
 30
0.0
  0
VERTEX
  5
7CC
  8
0
  6
CONTINUOUS
 62
     7
 10
74.2864371435
 20
118.004780989
 30
0.0
  0
VERTEX
  5
7CD
  8
0
  6
CONTINUOUS
 62
     7
 10
74.2773984578
 20
117.844446008
 30
0.0
  0
SEQEND
  5
87D
  8
0
  6
CONTINUOUS
 62
     7
  0
LINE
  5
3C3
  8
0
  6
CONTINUOUS
 62
     7
 10
74.1137906892
 20
123.9485660613
 30
0.0
 11
74.7575708095
 21
126.2390314647
 31
0.0
  0
LINE
  5
3C4
  8
0
  6
CONTINUOUS
 62
     7
 10
128.2151576027
 20
119.5205181999
 30
0.0
 11
127.0677495644
 21
120.670075789
 31
0.0
  0
POLYLINE
  5
3C5
  8
0
  6
CONTINUOUS
 62
     7
 66
     1
 10
0.0
 20
0.0
 30
0.0
 70
   128
  0
VERTEX
  5
7CE
  8
0
  6
CONTINUOUS
 62
     7
 10
127.057851468
 20
120.679640239
 30
0.0
  0
VERTEX
  5
7CF
  8
0
  6
CONTINUOUS
 62
     7
 10
127.2609580204
 20
123.6950279259
 30
0.0
  0
VERTEX
  5
7D0
  8
0
  6
CONTINUOUS
 62
     7
 10
127.4493943796
 20
126.7073581972
 30
0.0
  0
SEQEND
  5
87E
  8
0
  6
CONTINUOUS
 62
     7
  0
ARC
  5
3C6
  8
0
  6
CONTINUOUS
 62
     7
 10
119.9906908701
 20
64.1915272967
 30
0.0
 40
62.10108683885392
 50
86.9599507425
 51
106.2666496942
  0
ARC
  5
3C7
  8
0
  6
CONTINUOUS
 62
     7
 10
123.9848958056
 20
137.0082333354
 30
0.0
 40
10.82571634053833
 50
266.2887092225
 51
292.8482714493
  0
ARC
  5
3C8
  8
0
  6
CONTINUOUS
 62
     7
 10
78.8841523041
 20
112.075725603
 30
0.0
 40
0.1748542913699814
 50
225.6720373509
 51
257.855568375
  0
LINE
  5
3C9
  8
0
  6
CONTINUOUS
 62
     7
 10
78.8473670267
 20
111.9047844828
 30
0.0
 11
82.3151582748
 21
111.9047844828
 31
0.0
  0
ARC
  5
3CA
  8
0
  6
CONTINUOUS
 62
     7
 10
82.1488133978
 20
212.6682732567
 30
0.0
 40
100.7636260785514
 50
270.0945863512
 51
279.5699087919
  0
LINE
  5
3CB
  8
0
  6
CONTINUOUS
 62
     7
 10
73.8151578711
 20
118.8994691171
 30
0.0
 11
73.8151578711
 21
118.8570431246
 31
0.0
  0
LINE
  5
3CC
  8
0
  6
CONTINUOUS
 62
     7
 10
74.0478351375
 20
116.4541257591
 30
0.0
 11
73.9168905433
 21
116.447135019
 31
0.0
  0
LINE
  5
3CD
  8
0
  6
CONTINUOUS
 62
     7
 10
82.3151582748
 20
117.1368599449
 30
0.0
 11
82.3151582748
 21
116.3032216997
 31
0.0
  0
LINE
  5
3CE
  8
0
  6
CONTINUOUS
 62
     7
 10
82.3151582748
 20
116.3032216997
 30
0.0
 11
79.282469292
 21
116.3032216997
 31
0.0
  0
ARC
  5
3CF
  8
0
  6
CONTINUOUS
 62
     7
 10
78.5390614473
 20
116.2040009801
 30
0.0
 40
0.7499999832075219
 50
7.6021910754
 51
142.0280433859
  0
LINE
  5
3D0
  8
0
  6
CONTINUOUS
 62
     7
 10
82.3151582748
 20
116.3032216997
 30
0.0
 11
82.3151582748
 21
111.9047844828
 31
0.0
  0
LINE
  5
3D1
  8
0
  6
CONTINUOUS
 62
     7
 10
78.8351122186
 20
112.1386190922
 30
0.0
 11
78.8473670267
 21
111.9047844828
 31
0.0
  0
ARC
  5
3D2
  8
0
  6
CONTINUOUS
 62
     7
 10
78.5390614365
 20
116.2040009698
 30
0.0
 40
0.7500000000000092
 50
282.3907707264
 51
7.6021840016
  0
LINE
  5
3D3
  8
0
  6
CONTINUOUS
 62
     7
 10
74.0775039024
 20
122.983226464
 30
0.0
 11
73.9980075171
 21
123.2028281362
 31
0.0
  0
LINE
  5
3D4
  8
0
  6
CONTINUOUS
 62
     7
 10
73.9366648498
 20
123.1095803947
 30
0.0
 11
74.0616417328
 21
122.7643423759
 31
0.0
  0
LINE
  5
3D5
  8
0
  6
CONTINUOUS
 62
     7
 10
73.9749595535
 20
121.5682033495
 30
0.0
 11
73.8076951833
 21
121.6373952617
 31
0.0
  0
LINE
  5
3D6
  8
0
  6
CONTINUOUS
 62
     7
 10
73.7340499194
 20
120.7988288066
 30
0.0
 11
73.9138153161
 21
120.7244657258
 31
0.0
  0
LINE
  5
3D7
  8
0
  6
CONTINUOUS
 62
     7
 10
73.8624443487
 20
119.4714505969
 30
0.0
 11
73.6479065975
 21
119.2163838992
 31
0.0
  0
LINE
  5
3D8
  8
0
  6
CONTINUOUS
 62
     7
 10
73.8969204552
 20
123.3504558028
 30
0.0
 11
73.8819874544
 21
123.2664393307
 31
0.0
  0
LINE
  5
3D9
  8
0
  6
CONTINUOUS
 62
     7
 10
73.5272148171
 20
119.2268300207
 30
0.0
 11
73.5282699473
 21
119.1551277248
 31
0.0
  0
LINE
  5
3DA
  8
0
  6
CONTINUOUS
 62
     7
 10
128.1884360954
 20
127.0306738139
 30
0.0
 11
128.1884360954
 21
127.588402857
 31
0.0
  0
LINE
  5
3DB
  8
0
  6
CONTINUOUS
 62
     7
 10
128.1884360954
 20
110.6180403427
 30
0.0
 11
128.1884360954
 21
117.3982072201
 31
0.0
  0
LINE
  5
3DC
  8
0
  6
CONTINUOUS
 62
     7
 10
123.2841584727
 20
111.9032217235
 30
0.0
 11
123.2841584727
 21
118.9225750701
 31
0.0
  0
LINE
  5
3DD
  8
0
  6
CONTINUOUS
 62
     7
 10
122.6233106002
 20
119.0966715168
 30
0.0
 11
128.2151576027
 21
118.3741665141
 31
0.0
  0
POLYLINE
  5
3DE
  8
0
  6
CONTINUOUS
 62
     7
 66
     1
 10
0.0
 20
0.0
 30
0.0
 70
   128
  0
VERTEX
  5
7D1
  8
0
  6
CONTINUOUS
 62
     7
 10
115.0995690271
 20
120.9929541497
 30
0.0
  0
VERTEX
  5
7D2
  8
0
  6
CONTINUOUS
 62
     7
 10
120.4958569154
 20
121.0244307573
 30
0.0
  0
VERTEX
  5
7D3
  8
0
  6
CONTINUOUS
 62
     7
 10
127.0581643924
 20
120.6796145112
 30
0.0
  0
SEQEND
  5
87F
  8
0
  6
CONTINUOUS
 62
     7
  0
LINE
  5
3DF
  8
0
  6
CONTINUOUS
 62
     7
 10
123.2841584727
 20
126.2052197986
 30
0.0
 11
123.2841584727
 21
126.3032214762
 31
0.0
  0
LINE
  5
3E0
  8
0
  6
CONTINUOUS
 62
     7
 10
82.3151582748
 20
116.3032216997
 30
0.0
 11
86.0822165281
 21
116.2564381071
 31
0.0
  0
LINE
  5
3E1
  8
0
  6
CONTINUOUS
 62
     7
 10
73.7649568166
 20
116.0025517333
 30
0.0
 11
73.7649568166
 21
103.0015857525
 31
0.0
  0
LINE
  5
3E2
  8
0
  6
CONTINUOUS
 62
     7
 10
118.7649568166
 20
111.8499986744
 30
0.0
 11
118.7649568166
 21
106.3663442708
 31
0.0
  0
LINE
  5
3E3
  8
0
  6
CONTINUOUS
 62
     7
 10
74.4453773234
 20
111.6065474409
 30
0.0
 11
70.4652626803
 21
111.6065474409
 31
0.0
  0
LINE
  5
3E4
  8
0
  6
CONTINUOUS
 62
     7
 10
73.7649568166
 20
126.6065474409
 30
0.0
 11
69.9434074905
 21
126.6065474409
 31
0.0
  0
DIMENSION
  5
3E5
  8
0
  6
CONTINUOUS
 62
     7
  2
_D
 10
145.7651578948
 20
83.6621762016
 30
0.0
 11
112.8436323554
 21
83.6621762016
 31
0.0
 70
   160
  1
<>
  3
SLDDIMSTYLE0
 13
73.7649568166
 23
103.0015857525
 33
0.0
 14
145.7651578948
 24
104.6032215998
 34
0.0
  0
DIMENSION
  5
3F0
  8
0
  6
CONTINUOUS
 62
     7
  2
_D_1
 10
195.7651578948
 20
71.4940059128
 30
0.0
 11
141.1072441111
 21
71.4940059128
 31
0.0
 70
   160
  1
<>
  3
SLDDIMSTYLE0
 13
73.7649568166
 23
103.0015857525
 33
0.0
 14
195.7651578948
 24
113.0237479384
 34
0.0
  0
DIMENSION
  5
3FA
  8
0
  6
CONTINUOUS
 62
     7
  2
_D_2
 10
73.7649568166
 20
97.9610211831
 30
0.0
 11
100.8369798679
 21
97.9610211831
 31
0.0
 70
   160
  1
<>
  3
SLDDIMSTYLE0
 13
118.7649568166
 23
106.3663442708
 33
0.0
 14
73.7649568166
 24
103.0015857525
 34
0.0
  0
DIMENSION
  5
404
  8
0
  6
CONTINUOUS
 62
     7
  2
_D_3
 10
64.3357282044
 20
111.6065474409
 30
0.0
 11
64.3357282044
 21
118.4247553257
 31
0.0
 70
   160
  1
%%c<>
  3
SLDDIMSTYLE0
 13
69.9434074905
 23
126.6065474409
 33
0.0
 14
70.4652626803
 24
111.6065474409
 34
0.0
 50
90.0
  0
DIMENSION
  5
40F
  8
0
  6
CONTINUOUS
 62
     7
  2
_D_4
 10
215.4642058081
 20
134.1032215998
 30
0.0
 11
215.4642058081
 21
120.2132075096
 31
0.0
 70
   160
  1
%%c<>
  3
SLDDIMSTYLE0
 13
139.7651578948
 23
104.1032215998
 33
0.0
 14
139.7651578948
 24
134.1032215998
 34
0.0
 50
90.0
  0
DIMENSION
  5
41A
  8
0
  6
CONTINUOUS
 62
     7
  2
_D_5
 10
209.1449097594
 20
129.1032215998
 30
0.0
 11
209.1449097594
 21
120.2132075096
 31
0.0
 70
   160
  1
%%c<>h6
  3
SLDDIMSTYLE0
 13
193.5151578948
 23
109.1032215998
 33
0.0
 14
193.5151578948
 24
129.1032215998
 34
0.0
 50
90.0
  0
DIMENSION
  5
426
  8
0
  6
CONTINUOUS
 62
     7
  2
_D_6
 10
145.7651578948
 20
83.5466741143
 30
0.0
 11
167.7892758017
 21
83.5466741143
 31
0.0
 70
   160
  1
<>
  3
SLDDIMSTYLE0
 13
195.7651578948
 23
116.5258713306
 33
0.0
 14
145.7651578948
 24
104.6032215998
 34
0.0
  0
LINE
  5
430
  8
0
  6
CENTERX2
 62
     7
 10
72.2822197374
 20
119.1032215998
 30
0.0
 11
195.5151578948
 21
119.1032215998
 31
0.0
  0
ENDSEC
  0
EOF
