  0
SECTION
  2
HEADER
  9
$ACADVER
  1
AC1009
  9
$DWGCODEPAGE
  3
ansi_1252
  9
$INSBASE
 10
0.0
 20
0.0
 30
0.0
  9
$EXTMIN
 10
0.0
 20
0.0
 30
0.0
  9
$EXTMAX
 10
297.0
 20
210.0
 30
0.0
  9
$LIMMIN
 10
0.0
 20
0.0
  9
$LIMMAX
 10
297.0
 20
210.0
  9
$ORTHOMODE
 70
     0
  9
$REGENMODE
 70
     1
  9
$FILLMODE
 70
     1
  9
$QTEXTMODE
 70
     0
  9
$MIRRTEXT
 70
     1
  9
$DRAGMODE
 70
     2
  9
$LTSCALE
 40
1.0
  9
$OSMODE
 70
    37
  9
$ATTMODE
 70
     1
  9
$TEXTSIZE
 40
3.5
  9
$TRACEWID
 40
1.0
  9
$TEXTSTYLE
  7
STANDARD
  9
$CLAYER
  8
0
  9
$CELTYPE
  6
BYLAYER
  9
$CECOLOR
 62
   256
  9
$DIMSCALE
 40
1.0
  9
$DIMASZ
 40
4.0
  9
$DIMEXO
 40
1.0
  9
$DIMDLI
 40
3.75
  9
$DIMRND
 40
0.0
  9
$DIMDLE
 40
0.0
  9
$DIMEXE
 40
1.0
  9
$DIMTP
 40
0.0
  9
$DIMTM
 40
0.0
  9
$DIMTXT
 40
3.8805555556
  9
$DIMCEN
 40
2.5
  9
$DIMTSZ
 40
0.0
  9
$DIMTOL
 70
     0
  9
$DIMLIM
 70
     0
  9
$DIMTIH
 70
     1
  9
$DIMTOH
 70
     1
  9
$DIMSE1
 70
     0
  9
$DIMSE2
 70
     0
  9
$DIMTAD
 70
     1
  9
$DIMZIN
 70
     0
  9
$DIMBLK
  1

  9
$DIMASO
 70
     1
  9
$DIMSHO
 70
     1
  9
$DIMPOST
  1

  9
$DIMAPOST
  1

  9
$DIMALT
 70
     0
  9
$DIMALTD
 70
     3
  9
$DIMALTF
 40
0.0393700787
  9
$DIMLFAC
 40
0.6666666667
  9
$DIMTOFL
 70
     1
  9
$DIMTVP
 40
0.0
  9
$DIMTIX
 70
     0
  9
$DIMSOXD
 70
     0
  9
$DIMSAH
 70
     0
  9
$DIMBLK1
  1

  9
$DIMBLK2
  1

  9
$DIMSTYLE
  2
ISO-25
  9
$DIMCLRD
 70
     0
  9
$DIMCLRE
 70
     0
  9
$DIMCLRT
 70
     0
  9
$DIMTFAC
 40
1.0
  9
$DIMGAP
 40
1.524
  9
$LUNITS
 70
     2
  9
$LUPREC
 70
     3
  9
$SKETCHINC
 40
1.0
  9
$FILLETRAD
 40
10.0
  9
$AUNITS
 70
     0
  9
$AUPREC
 70
     3
  9
$MENU
  1
.
  9
$ELEVATION
 40
0.0
  9
$PELEVATION
 40
0.0
  9
$THICKNESS
 40
0.0
  9
$LIMCHECK
 70
     0
  9
$CHAMFERA
 40
0.0
  9
$CHAMFERB
 40
0.0
  9
$SKPOLY
 70
     0
  9
$TDCREATE
 40
2457379.364597824
  9
$TDUPDATE
 40
2457379.364600834
  9
$TDINDWG
 40
0.0000000116
  9
$TDUSRTIMER
 40
0.0000000116
  9
$USRTIMER
 70
     1
  9
$ANGBASE
 50
0.0
  9
$ANGDIR
 70
     0
  9
$PDMODE
 70
     0
  9
$PDSIZE
 40
-1.0
  9
$PLINEWID
 40
0.0
  9
$COORDS
 70
     1
  9
$SPLFRAME
 70
     0
  9
$SPLINETYPE
 70
     6
  9
$SPLINESEGS
 70
     8
  9
$ATTDIA
 70
     0
  9
$ATTREQ
 70
     1
  9
$HANDLING
 70
     1
  9
$HANDSEED
  5
85D
  9
$SURFTAB1
 70
     6
  9
$SURFTAB2
 70
     6
  9
$SURFTYPE
 70
     6
  9
$SURFU
 70
     6
  9
$SURFV
 70
     6
  9
$UCSNAME
  2

  9
$UCSORG
 10
0.0
 20
0.0
 30
0.0
  9
$UCSXDIR
 10
1.0
 20
0.0
 30
0.0
  9
$UCSYDIR
 10
0.0
 20
1.0
 30
0.0
  9
$PUCSNAME
  2

  9
$PUCSORG
 10
0.0
 20
0.0
 30
0.0
  9
$PUCSXDIR
 10
1.0
 20
0.0
 30
0.0
  9
$PUCSYDIR
 10
0.0
 20
1.0
 30
0.0
  9
$USERI1
 70
     0
  9
$USERI2
 70
     0
  9
$USERI3
 70
     0
  9
$USERI4
 70
     0
  9
$USERI5
 70
     0
  9
$USERR1
 40
0.0
  9
$USERR2
 40
0.0
  9
$USERR3
 40
0.0
  9
$USERR4
 40
0.0
  9
$USERR5
 40
0.0
  9
$WORLDVIEW
 70
     1
  9
$SHADEDGE
 70
     3
  9
$SHADEDIF
 70
    70
  9
$TILEMODE
 70
     1
  9
$MAXACTVP
 70
    64
  9
$PLIMCHECK
 70
     0
  9
$PEXTMIN
 10
1.0000000000E+20
 20
1.0000000000E+20
 30
1.0000000000E+20
  9
$PEXTMAX
 10
-1.0000000000E+20
 20
-1.0000000000E+20
 30
-1.0000000000E+20
  9
$PLIMMIN
 10
0.0
 20
0.0
  9
$PLIMMAX
 10
420.0
 20
297.0
  9
$UNITMODE
 70
     0
  9
$VISRETAIN
 70
     1
  9
$PLINEGEN
 70
     0
  9
$PSLTSCALE
 70
     1
  0
ENDSEC
  0
SECTION
  2
TABLES
  0
TABLE
  2
VPORT
 70
     1
  0
VPORT
  2
*ACTIVE
 70
     0
 10
0.0
 20
0.0
 11
1.0
 21
1.0
 12
148.5
 22
105.0
 13
0.0
 23
0.0
 14
10.0
 24
10.0
 15
10.0
 25
10.0
 16
0.0
 26
0.0
 36
1.0
 17
0.0
 27
0.0
 37
0.0
 40
210.0
 41
1.4142857143
 42
50.0
 43
0.0
 44
0.0
 50
0.0
 51
0.0
 71
     0
 72
  2000
 73
     1
 74
     3
 75
     0
 76
     0
 77
     0
 78
     0
  0
ENDTAB
  0
TABLE
  2
LTYPE
 70
     6
  0
LTYPE
  2
CONTINUOUS
 70
     0
  3
Solid line
 72
    65
 73
     0
 40
0.0
  0
LTYPE
  2
HIDDEN
 70
     0
  3
Hidden __ __ __ __ __ __ __ __ __ __ __ __ __ __
 72
    65
 73
     2
 40
1.905
 49
1.27
 49
-0.635
  0
LTYPE
  2
PHANTOM
 70
     0
  3
Phantom ______  __  __  ______  __  __  ______
 72
    65
 73
     6
 40
12.7
 49
6.35
 49
-1.27
 49
1.27
 49
-1.27
 49
1.27
 49
-1.27
  0
LTYPE
  2
CENTER
 70
     0
  3
Center ____ _ ____ _ ____ _ ____ _ ____ _ ____
 72
    65
 73
     4
 40
10.16
 49
6.35
 49
-1.27
 49
1.27
 49
-1.27
  0
LTYPE
  2
CENTERX2
 70
     0
  3
Center (2x) ________  __  ________  __  _____
 72
    65
 73
     4
 40
20.32
 49
12.7
 49
-2.54
 49
2.54
 49
-2.54
  0
LTYPE
  2
DOT2
 70
     0
  3
Dot (.5x) ........................................
 72
    65
 73
     2
 40
0.635
 49
0.0
 49
-0.635
  0
ENDTAB
  0
TABLE
  2
LAYER
 70
     1
  0
LAYER
  2
0
 70
     0
 62
     7
  6
CONTINUOUS
  0
ENDTAB
  0
TABLE
  2
STYLE
 70
     1
  0
STYLE
  2
STANDARD
 70
     0
 40
0.0
 41
1.0
 50
0.0
 71
     0
 42
3.5
  3
txt
  4

  0
ENDTAB
  0
TABLE
  2
VIEW
 70
     0
  0
ENDTAB
  0
TABLE
  2
UCS
 70
     0
  0
ENDTAB
  0
TABLE
  2
APPID
 70
     1
  0
APPID
  2
ACAD
 70
     0
  0
ENDTAB
  0
TABLE
  2
DIMSTYLE
 70
     3
  0
DIMSTYLE
  2
ISO-25
 70
     0
  3

  4

  5

  6

  7

 40
1.0
 41
2.5
 42
0.625
 43
3.75
 44
1.25
 45
0.0
 46
0.0
 47
0.0
 48
0.0
140
2.5
141
2.5
142
0.0
143
0.0393700787
144
1.0
145
0.0
146
1.0
147
0.625
 71
     0
 72
     0
 73
     0
 74
     0
 75
     0
 76
     0
 77
     1
 78
     8
170
     0
171
     3
172
     1
173
     0
174
     0
175
     0
176
     0
177
     0
178
     0
  0
DIMSTYLE
  2
SLDDIMSTYLE0
 70
     0
  3

  4

  5

  6

  7

 40
1.0
 41
4.0
 42
0.0625
 43
0.38
 44
0.0
 45
0.000000001
 46
0.0
 47
0.0
 48
0.0
140
2.9104166667
141
0.09
142
0.0
143
25.4
144
1.0
145
0.0
146
1.0
147
0.7276041667
 71
     0
 72
     0
 73
     0
 74
     0
 75
     0
 76
     0
 77
     1
 78
    12
170
     0
171
     2
172
     1
173
     1
174
     0
175
     0
176
     0
177
     0
178
     0
  0
DIMSTYLE
  2
SLDDIMSTYLE1
 70
     0
  3

  4

  5

  6

  7

 40
1.0
 41
4.0
 42
0.0625
 43
0.38
 44
0.0
 45
0.000000001
 46
0.0
 47
0.0
 48
0.0
140
2.9104166667
141
0.09
142
0.0
143
25.4
144
1.0
145
0.0
146
1.0
147
0.7276041667
 71
     0
 72
     0
 73
     0
 74
     0
 75
     0
 76
     0
 77
     1
 78
    12
170
     0
171
     2
172
     0
173
     1
174
     0
175
     0
176
     0
177
     0
178
     0
  0
ENDTAB
  0
ENDSEC
  0
SECTION
  2
BLOCKS
  0
BLOCK
  8
0
  2
$MODEL_SPACE
 70
     0
 10
0.0
 20
0.0
 30
0.0
  3
$MODEL_SPACE
  1

  0
ENDBLK
  5
21
  8
0
  0
BLOCK
 67
     1
  8
0
  2
$PAPER_SPACE
 70
     0
 10
0.0
 20
0.0
 30
0.0
  3
$PAPER_SPACE
  1

  0
ENDBLK
  5
1D
 67
     1
  8
0
  0
BLOCK
  8
0
  2
SW_NOTE_0
 70
     0
 10
0.0
 20
0.0
 30
0.0
  3
SW_NOTE_0
  1

  0
TEXT
  5
76
  8
0
  6
CONTINUOUS
 62
     0
 10
0.0
 20
1.6824010449
 30
0.0
 40
4.7625
  1
Wendeplatte BP0402
 41
0.7
 11
0.0
 21
0.0
 31
0.0
 73
     1
  0
TEXT
  5
77
  8
0
  6
CONTINUOUS
 62
     0
 10
0.0
 20
-5.6675990423
 30
0.0
 40
4.7625
  1
Spannschraube SS1,8-1
 41
0.7
 11
0.0
 21
-7.3500000872
 31
0.0
 73
     1
  0
ENDBLK
  5
75
  8
0
  0
BLOCK
  8
0
  2
SW_NOTE_1
 70
     0
 10
0.0
 20
0.0
 30
0.0
  3
SW_NOTE_1
  1

  0
TEXT
  5
7C
  8
0
  6
CONTINUOUS
 62
     0
 10
-0.9346672472
 20
0.0
 30
0.0
 40
2.6458333333
  1
Z=2
 50
90.0
 41
0.7
 11
0.0
 21
0.0
 31
0.0
 73
     1
  0
TEXT
  5
7D
  8
0
  6
CONTINUOUS
 62
     0
 10
3.5931106519
 20
0.0
 30
0.0
 40
2.6458333333
  1
Zeff=1
 50
90.0
 41
0.7
 11
4.5277778991
 21
0.0
 31
0.0
 73
     1
  0
ENDBLK
  5
7B
  8
0
  0
BLOCK
  8
0
  2
_D
 70
     0
 10
0.0
 20
0.0
 30
0.0
  3
_D
  1

  0
SOLID
  5
3EB
  8
0
  6
CONTINUOUS
 62
     7
 10
76.7215996039
 20
139.600227897
 30
0.0
 11
77.4715996039
 21
143.600227897
 31
0.0
 12
75.9715996039
 22
143.600227897
 32
0.0
 13
75.9715996039
 23
143.600227897
 33
0.0
  0
SOLID
  5
3EC
  8
0
  6
CONTINUOUS
 62
     7
 10
76.7215996039
 20
124.100227897
 30
0.0
 11
75.9715996039
 21
120.100227897
 31
0.0
 12
77.4715996039
 22
120.100227897
 32
0.0
 13
77.4715996039
 23
120.100227897
 33
0.0
  0
LINE
  5
3ED
  8
0
  6
CONTINUOUS
 62
     7
 10
78.5134970291
 20
139.600227897
 30
0.0
 11
75.7215996039
 21
139.600227897
 31
0.0
  0
LINE
  5
3EE
  8
0
  6
CONTINUOUS
 62
     7
 10
82.1257408085
 20
124.100227897
 30
0.0
 11
75.7215996039
 21
124.100227897
 31
0.0
  0
LINE
  5
3EF
  8
0
  6
CONTINUOUS
 62
     7
 10
76.7215996039
 20
139.600227897
 30
0.0
 11
76.7215996039
 21
145.600227897
 31
0.0
  0
LINE
  5
3F0
  8
0
  6
CONTINUOUS
 62
     7
 10
76.7215996039
 20
139.600227897
 30
0.0
 11
76.7215996039
 21
124.100227897
 31
0.0
  0
LINE
  5
3F1
  8
0
  6
CONTINUOUS
 62
     7
 10
76.7215996039
 20
124.100227897
 30
0.0
 11
76.7215996039
 21
118.100227897
 31
0.0
  0
TEXT
  5
3F2
  8
0
  6
CONTINUOUS
 62
     7
 10
75.6934653992
 20
125.2375629569
 30
0.0
 40
2.9104166667
  1
%%c
 50
90.0
 41
0.7
 11
76.7215993711
 21
125.2375629569
 31
0.0
 73
     1
  0
TEXT
  5
3F3
  8
0
  6
CONTINUOUS
 62
     7
 10
75.6934653992
 20
129.630675337
 30
0.0
 40
2.9104166667
  1
15,5
 50
90.0
 41
0.7
 11
76.7215993711
 21
129.630675337
 31
0.0
 73
     1
  0
ENDBLK
  5
3EA
  8
0
  0
BLOCK
  8
0
  2
_D_1
 70
     0
 10
0.0
 20
0.0
 30
0.0
  3
_D_1
  1

  0
SOLID
  5
3F9
  8
0
  6
CONTINUOUS
 62
     7
 10
84.7767838249
 20
103.9237959445
 30
0.0
 11
88.7767838249
 21
103.1737959445
 31
0.0
 12
88.7767838249
 22
104.6737959445
 32
0.0
 13
88.7767838249
 23
104.6737959445
 33
0.0
  0
SOLID
  5
3FA
  8
0
  6
CONTINUOUS
 62
     7
 10
159.7769849031
 20
103.9237959445
 30
0.0
 11
155.7769849031
 21
104.6737959445
 31
0.0
 12
155.7769849031
 22
103.1737959445
 32
0.0
 13
155.7769849031
 23
103.1737959445
 33
0.0
  0
LINE
  5
3FB
  8
0
  6
CONTINUOUS
 62
     7
 10
84.7767838249
 20
121.3438304171
 30
0.0
 11
84.7767838249
 21
102.9237959445
 31
0.0
  0
LINE
  5
3FC
  8
0
  6
CONTINUOUS
 62
     7
 10
159.7769849031
 20
116.3462520949
 30
0.0
 11
159.7769849031
 21
102.9237959445
 31
0.0
  0
LINE
  5
3FD
  8
0
  6
CONTINUOUS
 62
     7
 10
84.7767838249
 20
103.9237959445
 30
0.0
 11
159.7769849031
 21
103.9237959445
 31
0.0
  0
TEXT
  5
3FE
  8
0
  6
CONTINUOUS
 62
     7
 10
116.3854845802
 20
104.9519299164
 30
0.0
 40
2.9104166667
  1
75
 41
0.7
 11
116.3854845802
 21
103.9237959445
 31
0.0
 73
     1
  0
ENDBLK
  5
3F8
  8
0
  0
BLOCK
  8
0
  2
_D_2
 70
     0
 10
0.0
 20
0.0
 30
0.0
  3
_D_2
  1

  0
SOLID
  5
403
  8
0
  6
CONTINUOUS
 62
     7
 10
84.7767838249
 20
91.0301242279
 30
0.0
 11
88.7767838249
 21
90.2801242279
 31
0.0
 12
88.7767838249
 22
91.7801242279
 32
0.0
 13
88.7767838249
 23
91.7801242279
 33
0.0
  0
SOLID
  5
404
  8
0
  6
CONTINUOUS
 62
     7
 10
209.7769849031
 20
91.0301242279
 30
0.0
 11
205.7769849031
 21
91.7801242279
 31
0.0
 12
205.7769849031
 22
90.2801242279
 32
0.0
 13
205.7769849031
 23
90.2801242279
 33
0.0
  0
LINE
  5
405
  8
0
  6
CONTINUOUS
 62
     7
 10
84.7767838249
 20
121.3438304171
 30
0.0
 11
84.7767838249
 21
90.0301242279
 31
0.0
  0
LINE
  5
406
  8
0
  6
CONTINUOUS
 62
     7
 10
209.7769849031
 20
124.7667784335
 30
0.0
 11
209.7769849031
 21
90.0301242279
 31
0.0
  0
LINE
  5
407
  8
0
  6
CONTINUOUS
 62
     7
 10
84.7767838249
 20
91.0301242279
 30
0.0
 11
209.7769849031
 21
91.0301242279
 31
0.0
  0
TEXT
  5
408
  8
0
  6
CONTINUOUS
 62
     7
 10
145.9939217542
 20
92.0582581998
 30
0.0
 40
2.9104166667
  1
125
 41
0.7
 11
145.9939217542
 21
91.0301242279
 31
0.0
 73
     1
  0
ENDBLK
  5
402
  8
0
  0
BLOCK
  8
0
  2
_D_3
 70
     0
 10
0.0
 20
0.0
 30
0.0
  3
_D_3
  1

  0
SOLID
  5
40D
  8
0
  6
CONTINUOUS
 62
     7
 10
84.7767838249
 20
116.4718552153
 30
0.0
 11
88.7767838249
 21
115.7218552153
 31
0.0
 12
88.7767838249
 22
117.2218552153
 32
0.0
 13
88.7767838249
 23
117.2218552153
 33
0.0
  0
SOLID
  5
40E
  8
0
  6
CONTINUOUS
 62
     7
 10
132.7767838249
 20
116.4718552153
 30
0.0
 11
128.7767838249
 21
117.2218552153
 31
0.0
 12
128.7767838249
 22
115.7218552153
 32
0.0
 13
128.7767838249
 23
115.7218552153
 33
0.0
  0
LINE
  5
40F
  8
0
  6
CONTINUOUS
 62
     7
 10
84.7767838249
 20
121.3438304171
 30
0.0
 11
84.7767838249
 21
115.4718552153
 31
0.0
  0
LINE
  5
410
  8
0
  6
CONTINUOUS
 62
     7
 10
132.7767838249
 20
119.1040825297
 30
0.0
 11
132.7767838249
 21
115.4718552153
 31
0.0
  0
LINE
  5
411
  8
0
  6
CONTINUOUS
 62
     7
 10
84.7767838249
 20
116.4718552153
 30
0.0
 11
132.7767838249
 21
116.4718552153
 31
0.0
  0
TEXT
  5
412
  8
0
  6
CONTINUOUS
 62
     7
 10
106.9739464032
 20
117.4999891872
 30
0.0
 40
2.9104166667
  1
48
 41
0.7
 11
106.9739464032
 21
116.4718552153
 31
0.0
 73
     1
  0
ENDBLK
  5
40C
  8
0
  0
BLOCK
  8
0
  2
_D_4
 70
     0
 10
0.0
 20
0.0
 30
0.0
  3
_D_4
  1

  0
SOLID
  5
417
  8
0
  6
CONTINUOUS
 62
     7
 10
159.7769849031
 20
103.9237959445
 30
0.0
 11
163.7769849031
 21
103.1737959445
 31
0.0
 12
163.7769849031
 22
104.6737959445
 32
0.0
 13
163.7769849031
 23
104.6737959445
 33
0.0
  0
SOLID
  5
418
  8
0
  6
CONTINUOUS
 62
     7
 10
209.7769849031
 20
103.9237959445
 30
0.0
 11
205.7769849031
 21
104.6737959445
 31
0.0
 12
205.7769849031
 22
103.1737959445
 32
0.0
 13
205.7769849031
 23
103.1737959445
 33
0.0
  0
LINE
  5
419
  8
0
  6
CONTINUOUS
 62
     7
 10
159.7769849031
 20
116.3462520949
 30
0.0
 11
159.7769849031
 21
102.9237959445
 31
0.0
  0
LINE
  5
41A
  8
0
  6
CONTINUOUS
 62
     7
 10
209.7769849031
 20
124.7667784335
 30
0.0
 11
209.7769849031
 21
102.9237959445
 31
0.0
  0
LINE
  5
41B
  8
0
  6
CONTINUOUS
 62
     7
 10
159.7769849031
 20
103.9237959445
 30
0.0
 11
209.7769849031
 21
103.9237959445
 31
0.0
  0
TEXT
  5
41C
  8
0
  6
CONTINUOUS
 62
     7
 10
190.6412227266
 20
104.9519299164
 30
6.0090621718
 40
2.9104166667
  1
50
 41
0.7
 11
190.6412227266
 21
103.9237959445
 31
6.0090621718
 73
     1
  0
ENDBLK
  5
416
  8
0
  0
BLOCK
  8
0
  2
_D_5
 70
     0
 10
0.0
 20
0.0
 30
0.0
  3
_D_5
  1

  0
SOLID
  5
421
  8
0
  6
CONTINUOUS
 62
     7
 10
228.4237168688
 20
146.8462520949
 30
0.0
 11
227.6737168688
 21
142.8462520949
 31
0.0
 12
229.1737168688
 22
142.8462520949
 32
0.0
 13
229.1737168688
 23
142.8462520949
 33
0.0
  0
SOLID
  5
422
  8
0
  6
CONTINUOUS
 62
     7
 10
228.4237168688
 20
116.8462520949
 30
0.0
 11
229.1737168688
 21
120.8462520949
 31
0.0
 12
227.6737168688
 22
120.8462520949
 32
0.0
 13
227.6737168688
 23
120.8462520949
 33
0.0
  0
LINE
  5
423
  8
0
  6
CONTINUOUS
 62
     7
 10
160.2769849031
 20
146.8462520949
 30
0.0
 11
229.4237168688
 21
146.8462520949
 31
0.0
  0
LINE
  5
424
  8
0
  6
CONTINUOUS
 62
     7
 10
160.2769849031
 20
116.8462520949
 30
0.0
 11
229.4237168688
 21
116.8462520949
 31
0.0
  0
LINE
  5
425
  8
0
  6
CONTINUOUS
 62
     7
 10
228.4237168688
 20
146.8462520949
 30
0.0
 11
228.4237168688
 21
116.8462520949
 31
0.0
  0
TEXT
  5
426
  8
0
  6
CONTINUOUS
 62
     7
 10
227.3955826641
 20
128.8487635697
 30
6.0090621718
 40
2.9104166667
  1
%%c
 50
90.0
 41
0.7
 11
228.423716636
 21
128.8487635697
 31
6.0090621718
 73
     1
  0
TEXT
  5
427
  8
0
  6
CONTINUOUS
 62
     7
 10
227.3955826641
 20
133.2418759497
 30
6.0090621718
 40
2.9104166667
  1
30
 50
90.0
 41
0.7
 11
228.423716636
 21
133.2418759497
 31
6.0090621718
 73
     1
  0
ENDBLK
  5
420
  8
0
  0
BLOCK
  8
0
  2
_D_6
 70
     0
 10
0.0
 20
0.0
 30
0.0
  3
_D_6
  1

  0
SOLID
  5
42C
  8
0
  6
CONTINUOUS
 62
     7
 10
220.6421516737
 20
121.8462520949
 30
0.0
 11
221.3921516737
 21
125.8462520949
 31
0.0
 12
219.8921516737
 22
125.8462520949
 32
0.0
 13
219.8921516737
 23
125.8462520949
 33
0.0
  0
SOLID
  5
42D
  8
0
  6
CONTINUOUS
 62
     7
 10
220.6421516737
 20
141.8462520949
 30
0.0
 11
219.8921516737
 21
137.8462520949
 31
0.0
 12
221.3921516737
 22
137.8462520949
 32
0.0
 13
221.3921516737
 23
137.8462520949
 33
0.0
  0
LINE
  5
42E
  8
0
  6
CONTINUOUS
 62
     7
 10
208.5269849031
 20
121.8462520949
 30
0.0
 11
221.6421516737
 21
121.8462520949
 31
0.0
  0
LINE
  5
42F
  8
0
  6
CONTINUOUS
 62
     7
 10
208.5269849031
 20
141.8462520949
 30
0.0
 11
221.6421516737
 21
141.8462520949
 31
0.0
  0
LINE
  5
430
  8
0
  6
CONTINUOUS
 62
     7
 10
220.6421516737
 20
121.8462520949
 30
0.0
 11
220.6421516737
 21
141.8462520949
 31
0.0
  0
TEXT
  5
431
  8
0
  6
CONTINUOUS
 62
     7
 10
219.6140174689
 20
126.590496316
 30
6.0090621718
 40
2.9104166667
  1
%%c
 50
90.0
 41
0.7
 11
220.6421514408
 21
126.590496316
 31
6.0090621718
 73
     1
  0
TEXT
  5
432
  8
0
  6
CONTINUOUS
 62
     7
 10
219.6140174689
 20
130.9836086961
 30
6.0090621718
 40
2.9104166667
  1
20
 50
90.0
 41
0.7
 11
220.6421514408
 21
130.9836086961
 31
6.0090621718
 73
     1
  0
TEXT
  5
433
  8
0
  6
CONTINUOUS
 62
     7
 10
219.6140174689
 20
135.2845583255
 30
6.0090621718
 40
2.9104166667
  1
h6
 50
90.0
 41
0.7
 11
220.6421514408
 21
135.2845583255
 31
6.0090621718
 73
     1
  0
ENDBLK
  5
42B
  8
0
  0
ENDSEC
  0
SECTION
  2
ENTITIES
  0
INSERT
  5
78
  8
0
  6
CONTINUOUS
 62
     7
  2
SW_NOTE_0
 10
118.6481662592
 20
78.2724940332
 30
0.0
  0
INSERT
  5
7E
  8
0
  6
CONTINUOUS
 62
     7
  2
SW_NOTE_1
 10
64.5197092648
 20
129.0909535452
 30
0.0
  0
LINE
  5
7F
  8
0
  6
CONTINUOUS
 62
     7
 10
159.2769850104
 20
116.8462524302
 30
0.0
 11
159.7769860236
 21
117.3462525121
 31
0.0
  0
LINE
  5
80
  8
0
  6
CONTINUOUS
 62
     7
 10
159.7769860236
 20
146.3462516777
 30
0.0
 11
159.2769850104
 21
146.8462517596
 31
0.0
  0
LINE
  5
81
  8
0
  6
CONTINUOUS
 62
     7
 10
153.7769813149
 20
116.8462524302
 30
0.0
 11
159.2769850104
 21
116.8462524302
 31
0.0
  0
LINE
  5
82
  8
0
  6
CONTINUOUS
 62
     7
 10
159.2769850104
 20
146.8462517596
 30
0.0
 11
153.7769813149
 21
146.8462517596
 31
0.0
  0
LINE
  5
83
  8
0
  6
CONTINUOUS
 62
     7
 10
153.7769813149
 20
146.8462517596
 30
0.0
 11
140.7625306456
 21
140.3491871543
 31
0.0
  0
LINE
  5
84
  8
0
  6
CONTINUOUS
 62
     7
 10
140.7625306456
 20
123.3433170355
 30
0.0
 11
153.7769813149
 21
116.8462524302
 31
0.0
  0
LINE
  5
85
  8
0
  6
CONTINUOUS
 62
     7
 10
161.5065190999
 20
141.8462518714
 30
0.0
 11
161.0360596387
 21
141.7462520412
 31
0.0
  0
LINE
  5
86
  8
0
  6
CONTINUOUS
 62
     7
 10
161.0360596387
 20
121.9462521485
 30
0.0
 11
161.5065190999
 21
121.8462523184
 31
0.0
  0
LINE
  5
87
  8
0
  6
CONTINUOUS
 62
     7
 10
161.5065190999
 20
121.8462523184
 30
0.0
 11
207.5269822089
 21
121.8462523184
 31
0.0
  0
LINE
  5
88
  8
0
  6
CONTINUOUS
 62
     7
 10
207.5269822089
 20
141.8462518714
 30
0.0
 11
161.5065190999
 21
141.8462518714
 31
0.0
  0
LINE
  5
89
  8
0
  6
CONTINUOUS
 62
     7
 10
161.0360596387
 20
141.7462520412
 30
0.0
 11
159.7769860236
 21
141.7462520412
 31
0.0
  0
LINE
  5
8A
  8
0
  6
CONTINUOUS
 62
     7
 10
159.7769860236
 20
121.9462521485
 30
0.0
 11
161.0360596387
 21
121.9462521485
 31
0.0
  0
ARC
  5
8B
  8
0
  6
CONTINUOUS
 62
     7
 10
136.2959849031
 20
114.3962520949
 30
0.0
 40
10.00000000000001
 50
63.4707513836
 51
90.0
  0
LINE
  5
8C
  8
0
  6
CONTINUOUS
 62
     7
 10
207.5269822089
 20
121.8462523184
 30
0.0
 11
208.7769884674
 21
121.9462521485
 31
0.0
  0
LINE
  5
8D
  8
0
  6
CONTINUOUS
 62
     7
 10
208.7769884674
 20
141.7462520412
 30
0.0
 11
207.5269822089
 21
141.8462518714
 31
0.0
  0
LINE
  5
8E
  8
0
  6
CONTINUOUS
 62
     7
 10
208.7769884674
 20
121.9462521485
 30
0.0
 11
209.7769830434
 21
122.9462523124
 31
0.0
  0
LINE
  5
8F
  8
0
  6
CONTINUOUS
 62
     7
 10
209.7769830434
 20
140.7462518773
 30
0.0
 11
208.7769884674
 21
141.7462520412
 31
0.0
  0
LINE
  5
90
  8
0
  6
CONTINUOUS
 62
     7
 10
125.004563859
 20
124.3962521776
 30
0.0
 11
136.2959858088
 21
124.3962521776
 31
0.0
  0
LINE
  5
91
  8
0
  6
CONTINUOUS
 62
     7
 10
84.8269848793
 20
130.1112520387
 30
0.0
 11
84.8764487018
 21
129.545880679
 31
0.0
  0
ARC
  5
92
  8
0
  6
CONTINUOUS
 62
     7
 10
136.2959849031
 20
149.2962520949
 30
0.0
 40
9.999999999999972
 50
270.0
 51
296.5292486164
  0
LINE
  5
93
  8
0
  6
CONTINUOUS
 62
     7
 10
136.2959858088
 20
139.2962520122
 30
0.0
 11
131.0738142638
 21
139.2962520122
 31
0.0
  0
LINE
  5
94
  8
0
  6
CONTINUOUS
 62
     7
 10
159.2769850104
 20
116.8462524302
 30
0.0
 11
159.2769850104
 21
146.8462517596
 31
0.0
  0
LINE
  5
95
  8
0
  6
CONTINUOUS
 62
     7
 10
159.7769860236
 20
146.3462516777
 30
0.0
 11
159.7769860236
 21
117.3462525121
 31
0.0
  0
LINE
  5
96
  8
0
  6
CONTINUOUS
 62
     7
 10
153.7769813149
 20
116.8462524302
 30
0.0
 11
153.7769813149
 21
146.8462517596
 31
0.0
  0
ARC
  5
97
  8
0
  6
CONTINUOUS
 62
     7
 10
138.0569300437
 20
130.5299897902
 30
0.0
 40
8.7236345661336
 50
350.9636187235
 51
71.9319690255
  0
LINE
  5
98
  8
0
  6
CONTINUOUS
 62
     7
 10
144.0421421139
 20
128.424925927
 30
0.0
 11
140.7625306456
 21
129.6947390883
 31
0.0
  0
POLYLINE
  5
99
  8
0
  6
CONTINUOUS
 62
     7
 66
     1
 10
0.0
 20
0.0
 30
0.0
 70
   128
  0
VERTEX
  5
435
  8
0
  6
CONTINUOUS
 62
     7
 10
146.6722939222
 20
129.1598418839
 30
0.0
  0
VERTEX
  5
436
  8
0
  6
CONTINUOUS
 62
     7
 10
146.5658102243
 20
128.8341923728
 30
0.0
  0
VERTEX
  5
437
  8
0
  6
CONTINUOUS
 62
     7
 10
146.3742185442
 20
128.5820747371
 30
0.0
  0
VERTEX
  5
438
  8
0
  6
CONTINUOUS
 62
     7
 10
145.9790397494
 20
128.3312118258
 30
0.0
  0
VERTEX
  5
439
  8
0
  6
CONTINUOUS
 62
     7
 10
145.6433575659
 20
128.2330613694
 30
0.0
  0
VERTEX
  5
43A
  8
0
  6
CONTINUOUS
 62
     7
 10
145.1978724508
 20
128.1940010022
 30
0.0
  0
VERTEX
  5
43B
  8
0
  6
CONTINUOUS
 62
     7
 10
144.7415243892
 20
128.2332525234
 30
0.0
  0
VERTEX
  5
43C
  8
0
  6
CONTINUOUS
 62
     7
 10
144.3919394223
 20
128.3097492642
 30
0.0
  0
VERTEX
  5
43D
  8
0
  6
CONTINUOUS
 62
     7
 10
144.0421421139
 20
128.424925927
 30
0.0
  0
SEQEND
  5
7B2
  8
0
  6
CONTINUOUS
 62
     7
  0
LINE
  5
9A
  8
0
  6
CONTINUOUS
 62
     7
 10
146.6722939222
 20
129.1598418839
 30
0.0
 11
139.9705860822
 21
132.9069306021
 31
0.0
  0
LINE
  5
9B
  8
0
  6
CONTINUOUS
 62
     7
 10
139.7475678532
 20
139.0612998157
 30
0.0
 11
139.9705860822
 21
132.9069306021
 31
0.0
  0
LINE
  5
9C
  8
0
  6
CONTINUOUS
 62
     7
 10
139.7475715785
 20
139.0612988844
 30
0.0
 11
140.7625306456
 21
138.823452603
 31
0.0
  0
LINE
  5
9D
  8
0
  6
CONTINUOUS
 62
     7
 10
144.0421421139
 20
128.424925927
 30
0.0
 11
139.226984611
 21
131.1171970092
 31
0.0
  0
LINE
  5
9E
  8
0
  6
CONTINUOUS
 62
     7
 10
139.226984611
 20
132.2639372893
 30
0.0
 11
139.226984611
 21
131.1171970092
 31
0.0
  0
LINE
  5
9F
  8
0
  6
CONTINUOUS
 62
     7
 10
139.9705860822
 20
132.9069306021
 30
0.0
 11
139.226984611
 21
132.263935805
 31
0.0
  0
LINE
  5
A0
  8
0
  6
CONTINUOUS
 62
     7
 10
161.5065190999
 20
141.8462518714
 30
0.0
 11
161.5065190999
 21
121.8462523184
 31
0.0
  0
LINE
  5
A1
  8
0
  6
CONTINUOUS
 62
     7
 10
161.0360596387
 20
141.7462520412
 30
0.0
 11
161.0360596387
 21
121.9462521485
 31
0.0
  0
LINE
  5
A2
  8
0
  6
CONTINUOUS
 62
     7
 10
207.5269822089
 20
137.846252147
 30
0.0
 11
207.5269822089
 21
141.8462518714
 31
0.0
  0
LINE
  5
A3
  8
0
  6
CONTINUOUS
 62
     7
 10
207.5269822089
 20
121.8462523184
 30
0.0
 11
207.5269822089
 21
125.8462520427
 31
0.0
  0
LINE
  5
A4
  8
0
  6
CONTINUOUS
 62
     7
 10
207.5269822089
 20
137.846252147
 30
0.0
 11
165.7769832818
 21
137.846252147
 31
0.0
  0
ARC
  5
A5
  8
0
  6
CONTINUOUS
 62
     7
 10
173.7769967459
 20
131.8462520949
 30
0.0
 40
10.00001080252434
 50
143.130148401
 51
216.869851599
  0
LINE
  5
A6
  8
0
  6
CONTINUOUS
 62
     7
 10
165.7769832818
 20
125.8462520427
 30
0.0
 11
207.5269822089
 21
125.8462520427
 31
0.0
  0
LINE
  5
A7
  8
0
  6
CONTINUOUS
 62
     7
 10
165.7769832818
 20
125.8462520427
 30
0.0
 11
165.7769832818
 21
137.846252147
 31
0.0
  0
LINE
  5
A8
  8
0
  6
CONTINUOUS
 62
     7
 10
140.7625306456
 20
129.6947390883
 30
0.0
 11
139.226984611
 21
130.2632834641
 31
0.0
  0
LINE
  5
A9
  8
0
  6
CONTINUOUS
 62
     7
 10
139.226984611
 20
131.1171970092
 30
0.0
 11
139.226984611
 21
130.2632834641
 31
0.0
  0
POLYLINE
  5
AA
  8
0
  6
CONTINUOUS
 62
     7
 66
     1
 10
0.0
 20
0.0
 30
0.0
 70
   128
  0
VERTEX
  5
43E
  8
0
  6
CONTINUOUS
 62
     7
 10
136.2959858088
 20
131.1269179796
 30
0.0
  0
VERTEX
  5
43F
  8
0
  6
CONTINUOUS
 62
     7
 10
137.7660188882
 20
130.7216852083
 30
0.0
  0
VERTEX
  5
440
  8
0
  6
CONTINUOUS
 62
     7
 10
139.226984611
 20
130.2632834641
 30
0.0
  0
SEQEND
  5
7B3
  8
0
  6
CONTINUOUS
 62
     7
  0
POLYLINE
  5
AB
  8
0
  6
CONTINUOUS
 62
     7
 66
     1
 10
0.0
 20
0.0
 30
0.0
 70
   128
  0
VERTEX
  5
441
  8
0
  6
CONTINUOUS
 62
     7
 10
93.3269852831
 20
139.2313695624
 30
0.0
  0
VERTEX
  5
442
  8
0
  6
CONTINUOUS
 62
     7
 10
100.5313567875
 20
138.7379921153
 30
0.0
  0
VERTEX
  5
443
  8
0
  6
CONTINUOUS
 62
     7
 10
107.7673010586
 20
137.7856034897
 30
0.0
  0
VERTEX
  5
444
  8
0
  6
CONTINUOUS
 62
     7
 10
114.826826757
 20
136.475364875
 30
0.0
  0
VERTEX
  5
445
  8
0
  6
CONTINUOUS
 62
     7
 10
121.9156649022
 20
134.8642634339
 30
0.0
  0
VERTEX
  5
446
  8
0
  6
CONTINUOUS
 62
     7
 10
129.0904659836
 20
133.0391101883
 30
0.0
  0
VERTEX
  5
447
  8
0
  6
CONTINUOUS
 62
     7
 10
136.2959858088
 20
131.1269179796
 30
0.0
  0
SEQEND
  5
7B4
  8
0
  6
CONTINUOUS
 62
     7
  0
POLYLINE
  5
AC
  8
0
  6
CONTINUOUS
 62
     7
 66
     1
 10
0.0
 20
0.0
 30
0.0
 70
   128
  0
VERTEX
  5
448
  8
0
  6
CONTINUOUS
 62
     7
 10
208.2769874542
 20
125.9467943683
 30
0.0
  0
VERTEX
  5
449
  8
0
  6
CONTINUOUS
 62
     7
 10
207.7239606588
 20
125.8725525922
 30
0.0
  0
VERTEX
  5
44A
  8
0
  6
CONTINUOUS
 62
     7
 10
207.5269822089
 20
125.8462520427
 30
0.0
  0
SEQEND
  5
7B5
  8
0
  6
CONTINUOUS
 62
     7
  0
ARC
  5
AD
  8
0
  6
CONTINUOUS
 62
     7
 10
215.500761582
 20
131.8617027924
 30
0.0
 40
9.336436917591989
 50
219.3110070416
 51
223.9319126741
  0
LINE
  5
AE
  8
0
  6
CONTINUOUS
 62
     7
 10
208.7769884674
 20
138.3084498457
 30
0.0
 11
208.7769884674
 21
141.7462520412
 31
0.0
  0
LINE
  5
AF
  8
0
  6
CONTINUOUS
 62
     7
 10
208.7769884674
 20
121.9462521485
 30
0.0
 11
208.7769884674
 21
125.3840543441
 31
0.0
  0
ARC
  5
B0
  8
0
  6
CONTINUOUS
 62
     7
 10
215.500761582
 20
131.8308013974
 30
0.0
 40
9.336436917591959
 50
136.0680873259
 51
140.6889929584
  0
POLYLINE
  5
B1
  8
0
  6
CONTINUOUS
 62
     7
 66
     1
 10
0.0
 20
0.0
 30
0.0
 70
   128
  0
VERTEX
  5
44B
  8
0
  6
CONTINUOUS
 62
     7
 10
207.5269822089
 20
137.846252147
 30
0.0
  0
VERTEX
  5
44C
  8
0
  6
CONTINUOUS
 62
     7
 10
207.7239606588
 20
137.8199515975
 30
0.0
  0
VERTEX
  5
44D
  8
0
  6
CONTINUOUS
 62
     7
 10
208.2769874542
 20
137.7457098215
 30
0.0
  0
SEQEND
  5
7B6
  8
0
  6
CONTINUOUS
 62
     7
  0
LINE
  5
B2
  8
0
  6
CONTINUOUS
 62
     7
 10
208.7769884674
 20
138.3084498457
 30
0.0
 11
209.7769830434
 21
137.9257256276
 31
0.0
  0
LINE
  5
B3
  8
0
  6
CONTINUOUS
 62
     7
 10
209.7769830434
 20
125.7667785621
 30
0.0
 11
209.7769830434
 21
137.9257256276
 31
0.0
  0
LINE
  5
B4
  8
0
  6
CONTINUOUS
 62
     7
 10
209.7769830434
 20
125.7667785621
 30
0.0
 11
208.7769884674
 21
125.3840543441
 31
0.0
  0
LINE
  5
B5
  8
0
  6
CONTINUOUS
 62
     7
 10
208.2769874542
 20
125.9467943683
 30
0.0
 11
208.2769874542
 21
137.7457098215
 31
0.0
  0
LINE
  5
B6
  8
0
  6
CONTINUOUS
 62
     7
 10
209.7769830434
 20
137.9257256276
 30
0.0
 11
209.7769830434
 21
140.7462518773
 31
0.0
  0
LINE
  5
B7
  8
0
  6
CONTINUOUS
 62
     7
 10
209.7769830434
 20
122.9462523124
 30
0.0
 11
209.7769830434
 21
125.7667785621
 31
0.0
  0
LINE
  5
B8
  8
0
  6
CONTINUOUS
 62
     7
 10
85.8394705865
 20
139.2313695624
 30
0.0
 11
93.3269852831
 21
139.2313695624
 31
0.0
  0
POLYLINE
  5
B9
  8
0
  6
CONTINUOUS
 62
     7
 66
     1
 10
0.0
 20
0.0
 30
0.0
 70
   128
  0
VERTEX
  5
44E
  8
0
  6
CONTINUOUS
 62
     7
 10
125.004563859
 20
124.4646443165
 30
0.0
  0
VERTEX
  5
44F
  8
0
  6
CONTINUOUS
 62
     7
 10
122.5097034185
 20
124.4372625015
 30
0.0
  0
VERTEX
  5
450
  8
0
  6
CONTINUOUS
 62
     7
 10
115.7938860415
 20
124.9465124793
 30
0.0
  0
VERTEX
  5
451
  8
0
  6
CONTINUOUS
 62
     7
 10
110.2437567024
 20
125.7800531685
 30
0.0
  0
VERTEX
  5
452
  8
0
  6
CONTINUOUS
 62
     7
 10
104.6664718597
 20
126.9449966139
 30
0.0
  0
VERTEX
  5
453
  8
0
  6
CONTINUOUS
 62
     7
 10
99.2223074718
 20
128.3379376046
 30
0.0
  0
VERTEX
  5
454
  8
0
  6
CONTINUOUS
 62
     7
 10
93.7528297363
 20
129.9179648859
 30
0.0
  0
SEQEND
  5
7B7
  8
0
  6
CONTINUOUS
 62
     7
  0
LINE
  5
BA
  8
0
  6
CONTINUOUS
 62
     7
 10
93.7528297363
 20
129.9179648859
 30
0.0
 11
92.8820147237
 21
130.0462521258
 31
0.0
  0
LINE
  5
BB
  8
0
  6
CONTINUOUS
 62
     7
 10
92.8820147237
 20
130.0462521258
 30
0.0
 11
85.3269849031
 21
130.0462521258
 31
0.0
  0
LINE
  5
BC
  8
0
  6
CONTINUOUS
 62
     7
 10
85.3269849031
 20
130.0462521258
 30
0.0
 11
85.3269849031
 21
137.0100893191
 31
0.0
  0
ARC
  5
BD
  8
0
  6
CONTINUOUS
 62
     7
 10
59.7228754513
 20
144.0871356874
 30
0.0
 40
26.56416770989438
 50
344.5490544765
 51
349.4674646519
  0
CIRCLE
  5
BE
  8
0
  6
CONTINUOUS
 62
     7
 10
87.0809045005
 20
133.200621558
 30
0.0
 40
0.8041856809893343
  0
LINE
  5
BF
  8
0
  6
CONTINUOUS
 62
     7
 10
85.3269849031
 20
130.0462521258
 30
0.0
 11
84.8493473604
 21
130.0462521258
 31
0.0
  0
ARC
  5
C0
  8
0
  6
CONTINUOUS
 62
     7
 10
93.8363258452
 20
130.1832752424
 30
0.0
 40
8.988023009522138
 50
180.8735124964
 51
187.2676322225
  0
LINE
  5
C1
  8
0
  6
CONTINUOUS
 62
     7
 10
84.9205120176
 20
129.0462521947
 30
0.0
 11
84.9298870889
 21
128.9389470703
 31
0.0
  0
LINE
  5
C2
  8
0
  6
CONTINUOUS
 62
     7
 10
84.9298870889
 20
128.9389470703
 30
0.0
 11
84.9465104693
 21
128.8568249083
 31
0.0
  0
LINE
  5
C3
  8
0
  6
CONTINUOUS
 62
     7
 10
84.8269848793
 20
130.1112520387
 30
0.0
 11
84.8269848793
 21
131.5765063273
 31
0.0
  0
LINE
  5
C4
  8
0
  6
CONTINUOUS
 62
     7
 10
84.8269848793
 20
131.5765063273
 30
0.0
 11
84.8359641677
 21
131.5667630634
 31
0.0
  0
POLYLINE
  5
C5
  8
0
  6
CONTINUOUS
 62
     7
 66
     1
 10
0.0
 20
0.0
 30
0.0
 70
   128
  0
VERTEX
  5
455
  8
0
  6
CONTINUOUS
 62
     7
 10
84.8359641677
 20
131.5667630634
 30
0.0
  0
VERTEX
  5
456
  8
0
  6
CONTINUOUS
 62
     7
 10
84.8774178012
 20
133.0883199926
 30
0.0
  0
VERTEX
  5
457
  8
0
  6
CONTINUOUS
 62
     7
 10
85.0982584088
 20
136.1439025141
 30
0.0
  0
SEQEND
  5
7B8
  8
0
  6
CONTINUOUS
 62
     7
  0
LINE
  5
C6
  8
0
  6
CONTINUOUS
 62
     7
 10
85.0982584088
 20
136.1439025141
 30
0.0
 11
85.0766461808
 21
136.2176898047
 31
0.0
  0
LINE
  5
C7
  8
0
  6
CONTINUOUS
 62
     7
 10
85.0766461808
 20
136.2176898047
 30
0.0
 11
85.0793840073
 21
136.4074877574
 31
0.0
  0
LINE
  5
C8
  8
0
  6
CONTINUOUS
 62
     7
 10
85.0793840073
 20
136.4074877574
 30
0.0
 11
85.0946074352
 21
136.5812669619
 31
0.0
  0
POLYLINE
  5
C9
  8
0
  6
CONTINUOUS
 62
     7
 66
     1
 10
0.0
 20
0.0
 30
0.0
 70
   128
  0
VERTEX
  5
458
  8
0
  6
CONTINUOUS
 62
     7
 10
85.0946074352
 20
136.5812669619
 30
0.0
  0
VERTEX
  5
459
  8
0
  6
CONTINUOUS
 62
     7
 10
85.0954995403
 20
136.5766774043
 30
0.0
  0
VERTEX
  5
45A
  8
0
  6
CONTINUOUS
 62
     7
 10
85.1768255525
 20
136.6704732291
 30
0.0
  0
VERTEX
  5
45B
  8
0
  6
CONTINUOUS
 62
     7
 10
85.3269849031
 20
137.0100893191
 30
0.0
  0
SEQEND
  5
7B9
  8
0
  6
CONTINUOUS
 62
     7
  0
POLYLINE
  5
CA
  8
0
  6
CONTINUOUS
 62
     7
 66
     1
 10
0.0
 20
0.0
 30
0.0
 70
   128
  0
VERTEX
  5
45C
  8
0
  6
CONTINUOUS
 62
     7
 10
85.2831771008
 20
130.5945483846
 30
0.0
  0
VERTEX
  5
45D
  8
0
  6
CONTINUOUS
 62
     7
 10
85.2627944841
 20
130.4030018737
 30
0.0
  0
VERTEX
  5
45E
  8
0
  6
CONTINUOUS
 62
     7
 10
85.2369815184
 20
130.3138419398
 30
0.0
  0
VERTEX
  5
45F
  8
0
  6
CONTINUOUS
 62
     7
 10
85.2080249097
 20
130.3369484022
 30
0.0
  0
VERTEX
  5
460
  8
0
  6
CONTINUOUS
 62
     7
 10
85.1789282897
 20
130.4703144933
 30
0.0
  0
VERTEX
  5
461
  8
0
  6
CONTINUOUS
 62
     7
 10
85.1533089444
 20
130.6991307874
 30
0.0
  0
VERTEX
  5
462
  8
0
  6
CONTINUOUS
 62
     7
 10
85.1349245786
 20
130.9969115764
 30
0.0
  0
VERTEX
  5
463
  8
0
  6
CONTINUOUS
 62
     7
 10
85.1268059196
 20
131.328919867
 30
0.0
  0
VERTEX
  5
464
  8
0
  6
CONTINUOUS
 62
     7
 10
85.1303011441
 20
131.6573874292
 30
0.0
  0
VERTEX
  5
465
  8
0
  6
CONTINUOUS
 62
     7
 10
85.1446846791
 20
131.9464062117
 30
0.0
  0
VERTEX
  5
466
  8
0
  6
CONTINUOUS
 62
     7
 10
85.1675419544
 20
132.1646895895
 30
0.0
  0
VERTEX
  5
467
  8
0
  6
CONTINUOUS
 62
     7
 10
85.1955010439
 20
132.287590176
 30
0.0
  0
VERTEX
  5
468
  8
0
  6
CONTINUOUS
 62
     7
 10
85.2249342643
 20
132.300164777
 30
0.0
  0
VERTEX
  5
469
  8
0
  6
CONTINUOUS
 62
     7
 10
85.2525012015
 20
132.200144516
 30
0.0
  0
VERTEX
  5
46A
  8
0
  6
CONTINUOUS
 62
     7
 10
85.2754754233
 20
131.9988574624
 30
0.0
  0
VERTEX
  5
46B
  8
0
  6
CONTINUOUS
 62
     7
 10
85.2918674973
 20
131.719671751
 30
0.0
  0
VERTEX
  5
46C
  8
0
  6
CONTINUOUS
 62
     7
 10
85.3004189157
 20
131.3946965902
 30
0.0
  0
VERTEX
  5
46D
  8
0
  6
CONTINUOUS
 62
     7
 10
85.3005444787
 20
131.0606913403
 30
0.0
  0
VERTEX
  5
46E
  8
0
  6
CONTINUOUS
 62
     7
 10
85.2922751073
 20
130.7548967534
 30
0.0
  0
VERTEX
  5
46F
  8
0
  6
CONTINUOUS
 62
     7
 10
85.2831771008
 20
130.5945483846
 30
0.0
  0
SEQEND
  5
7BA
  8
0
  6
CONTINUOUS
 62
     7
  0
LINE
  5
CB
  8
0
  6
CONTINUOUS
 62
     7
 10
85.0946074352
 20
136.5812669619
 30
0.0
 11
85.8394705865
 21
139.2313695624
 31
0.0
  0
LINE
  5
CC
  8
0
  6
CONTINUOUS
 62
     7
 10
138.4437125234
 20
139.0562338866
 30
0.0
 11
136.2959858088
 21
139.0541225783
 31
0.0
  0
POLYLINE
  5
CD
  8
0
  6
CONTINUOUS
 62
     7
 66
     1
 10
0.0
 20
0.0
 30
0.0
 70
   128
  0
VERTEX
  5
470
  8
0
  6
CONTINUOUS
 62
     7
 10
139.7475678532
 20
139.0612998157
 30
0.0
  0
VERTEX
  5
471
  8
0
  6
CONTINUOUS
 62
     7
 10
139.1592551081
 20
139.1043772101
 30
0.0
  0
VERTEX
  5
472
  8
0
  6
CONTINUOUS
 62
     7
 10
138.433594635
 20
139.0552583262
 30
0.0
  0
SEQEND
  5
7BB
  8
0
  6
CONTINUOUS
 62
     7
  0
ARC
  5
CE
  8
0
  6
CONTINUOUS
 62
     7
 10
89.8948428931
 20
124.5706857509
 30
0.0
 40
0.1765592133592172
 50
226.7560760921
 51
258.3523232879
  0
LINE
  5
CF
  8
0
  6
CONTINUOUS
 62
     7
 10
89.8591968289
 20
124.3977623171
 30
0.0
 11
93.3269852831
 21
124.3977623171
 31
0.0
  0
ARC
  5
D0
  8
0
  6
CONTINUOUS
 62
     7
 10
93.2934324111
 20
220.4733428078
 30
0.0
 40
96.07558634958066
 50
270.020009641
 51
279.966106394
  0
ARC
  5
D1
  8
0
  6
CONTINUOUS
 62
     7
 10
131.0094148476
 20
78.4679018188
 30
0.0
 40
60.81642852422726
 50
85.0131736292
 51
106.7076558028
  0
LINE
  5
D2
  8
0
  6
CONTINUOUS
 62
     7
 10
138.0695220141
 20
133.4226831905
 30
0.0
 11
138.433594635
 21
139.0552583262
 31
0.0
  0
LINE
  5
D3
  8
0
  6
CONTINUOUS
 62
     7
 10
139.226984611
 20
132.2639372602
 30
0.0
 11
138.0789209215
 21
133.4136072192
 31
0.0
  0
LINE
  5
D4
  8
0
  6
CONTINUOUS
 62
     7
 10
84.8269848793
 20
131.6394491669
 30
0.0
 11
84.8269848793
 21
131.5765063273
 31
0.0
  0
LINE
  5
D5
  8
0
  6
CONTINUOUS
 62
     7
 10
93.3269852831
 20
129.87989044
 30
0.0
 11
93.3269852831
 21
129.0462521947
 31
0.0
  0
LINE
  5
D6
  8
0
  6
CONTINUOUS
 62
     7
 10
93.3269852831
 20
129.0462521947
 30
0.0
 11
90.4879289737
 21
129.0462521947
 31
0.0
  0
ARC
  5
D7
  8
0
  6
CONTINUOUS
 62
     7
 10
89.5508884717
 20
128.6970313087
 30
0.0
 40
1.000000064812424
 50
20.4396670515
 51
154.0590810881
  0
LINE
  5
D8
  8
0
  6
CONTINUOUS
 62
     7
 10
93.3269852831
 20
129.0462521947
 30
0.0
 11
93.3269852831
 21
124.3977623171
 31
0.0
  0
LINE
  5
D9
  8
0
  6
CONTINUOUS
 62
     7
 10
89.8469392268
 20
124.6316495463
 30
0.0
 11
89.8591968289
 21
124.3977623171
 31
0.0
  0
ARC
  5
DA
  8
0
  6
CONTINUOUS
 62
     7
 10
89.5508884448
 20
128.6970314649
 30
0.0
 40
1.000000000000013
 50
280.0292067235
 51
20.4396527794
  0
LINE
  5
DB
  8
0
  6
CONTINUOUS
 62
     7
 10
84.9298870889
 20
128.9389470703
 30
0.0
 11
85.0556993391
 21
128.9455406013
 31
0.0
  0
LINE
  5
DC
  8
0
  6
CONTINUOUS
 62
     7
 10
89.7738811618
 20
124.4420723169
 30
0.0
 11
89.7734806931
 21
124.4497208036
 31
0.0
  0
LINE
  5
DD
  8
0
  6
CONTINUOUS
 62
     7
 10
86.5337302966
 20
126.3252652361
 30
0.0
 11
86.8417498714
 21
126.2949749007
 31
0.0
  0
POLYLINE
  5
DE
  8
0
  6
CONTINUOUS
 62
     7
 66
     1
 10
0.0
 20
0.0
 30
0.0
 70
   128
  0
VERTEX
  5
473
  8
0
  6
CONTINUOUS
 62
     7
 10
86.8417498714
 20
126.2949749007
 30
0.0
  0
VERTEX
  5
474
  8
0
  6
CONTINUOUS
 62
     7
 10
86.8415618606
 20
126.2930628955
 30
0.0
  0
VERTEX
  5
475
  8
0
  6
CONTINUOUS
 62
     7
 10
86.8410049297
 20
126.2873995229
 30
0.0
  0
VERTEX
  5
476
  8
0
  6
CONTINUOUS
 62
     7
 10
86.8401006155
 20
126.2782031781
 30
0.0
  0
VERTEX
  5
477
  8
0
  6
CONTINUOUS
 62
     7
 10
86.8388834933
 20
126.2658263668
 30
0.0
  0
VERTEX
  5
478
  8
0
  6
CONTINUOUS
 62
     7
 10
86.8374004785
 20
126.2507454603
 30
0.0
  0
VERTEX
  5
479
  8
0
  6
CONTINUOUS
 62
     7
 10
86.8357084983
 20
126.2335397414
 30
0.0
  0
VERTEX
  5
47A
  8
0
  6
CONTINUOUS
 62
     7
 10
86.8338726286
 20
126.2148704491
 30
0.0
  0
VERTEX
  5
47B
  8
0
  6
CONTINUOUS
 62
     7
 10
86.8319633009
 20
126.1954551674
 30
0.0
  0
SEQEND
  5
7BC
  8
0
  6
CONTINUOUS
 62
     7
  0
LINE
  5
DF
  8
0
  6
CONTINUOUS
 62
     7
 10
86.8319633009
 20
126.1954551674
 30
0.0
 11
86.5239437262
 21
126.2257450371
 31
0.0
  0
POLYLINE
  5
E0
  8
0
  6
CONTINUOUS
 62
     7
 66
     1
 10
0.0
 20
0.0
 30
0.0
 70
   128
  0
VERTEX
  5
47C
  8
0
  6
CONTINUOUS
 62
     7
 10
86.5337302966
 20
126.3252652361
 30
0.0
  0
VERTEX
  5
47D
  8
0
  6
CONTINUOUS
 62
     7
 10
86.5335422859
 20
126.3233527652
 30
0.0
  0
VERTEX
  5
47E
  8
0
  6
CONTINUOUS
 62
     7
 10
86.532985355
 20
126.3176893926
 30
0.0
  0
VERTEX
  5
47F
  8
0
  6
CONTINUOUS
 62
     7
 10
86.5320809244
 20
126.3084930479
 30
0.0
  0
VERTEX
  5
480
  8
0
  6
CONTINUOUS
 62
     7
 10
86.5308639186
 20
126.2961162365
 30
0.0
  0
VERTEX
  5
481
  8
0
  6
CONTINUOUS
 62
     7
 10
86.5293809038
 20
126.2810353301
 30
0.0
  0
VERTEX
  5
482
  8
0
  6
CONTINUOUS
 62
     7
 10
86.5276889235
 20
126.2638296112
 30
0.0
  0
VERTEX
  5
483
  8
0
  6
CONTINUOUS
 62
     7
 10
86.5258529375
 20
126.2451603188
 30
0.0
  0
VERTEX
  5
484
  8
0
  6
CONTINUOUS
 62
     7
 10
86.5239437262
 20
126.2257450371
 30
0.0
  0
SEQEND
  5
7BD
  8
0
  6
CONTINUOUS
 62
     7
  0
ARC
  5
E1
  8
0
  6
CONTINUOUS
 62
     7
 10
86.541070244
 20
126.3999050986
 30
0.0
 40
0.0750000000000133
 50
130.9861878664
 51
264.3837096094
  0
ARC
  5
E2
  8
0
  6
CONTINUOUS
 62
     7
 10
86.541070244
 20
126.3999050986
 30
0.0
 40
0.1749999999999728
 50
130.9861878663
 51
264.3837096094
  0
POLYLINE
  5
E3
  8
0
  6
CONTINUOUS
 62
     7
 66
     1
 10
0.0
 20
0.0
 30
0.0
 70
   128
  0
VERTEX
  5
485
  8
0
  6
CONTINUOUS
 62
     7
 10
86.4918794541
 20
126.4565202519
 30
0.0
  0
VERTEX
  5
486
  8
0
  6
CONTINUOUS
 62
     7
 10
86.4906192583
 20
126.4579707868
 30
0.0
  0
VERTEX
  5
487
  8
0
  6
CONTINUOUS
 62
     7
 10
86.4868868666
 20
126.4622660465
 30
0.0
  0
VERTEX
  5
488
  8
0
  6
CONTINUOUS
 62
     7
 10
86.4808259357
 20
126.4692421182
 30
0.0
  0
VERTEX
  5
489
  8
0
  6
CONTINUOUS
 62
     7
 10
86.4726692962
 20
126.4786298498
 30
0.0
  0
VERTEX
  5
48A
  8
0
  6
CONTINUOUS
 62
     7
 10
86.4627303381
 20
126.4900688193
 30
0.0
  0
VERTEX
  5
48B
  8
0
  6
CONTINUOUS
 62
     7
 10
86.4513911365
 20
126.5031194425
 30
0.0
  0
VERTEX
  5
48C
  8
0
  6
CONTINUOUS
 62
     7
 10
86.4390873176
 20
126.5172802023
 30
0.0
  0
VERTEX
  5
48D
  8
0
  6
CONTINUOUS
 62
     7
 10
86.4262917603
 20
126.5320067405
 30
0.0
  0
SEQEND
  5
7BE
  8
0
  6
CONTINUOUS
 62
     7
  0
LINE
  5
E4
  8
0
  6
CONTINUOUS
 62
     7
 10
87.8801172657
 20
125.929678522
 30
0.0
 11
87.5874985068
 21
126.0305137485
 31
0.0
  0
POLYLINE
  5
E5
  8
0
  6
CONTINUOUS
 62
     7
 66
     1
 10
0.0
 20
0.0
 30
0.0
 70
   128
  0
VERTEX
  5
48E
  8
0
  6
CONTINUOUS
 62
     7
 10
87.5874985068
 20
126.0305137485
 30
0.0
  0
VERTEX
  5
48F
  8
0
  6
CONTINUOUS
 62
     7
 10
87.5938545505
 20
126.048958592
 30
0.0
  0
VERTEX
  5
490
  8
0
  6
CONTINUOUS
 62
     7
 10
87.5999661221
 20
126.0666942335
 30
0.0
  0
VERTEX
  5
491
  8
0
  6
CONTINUOUS
 62
     7
 10
87.605598761
 20
126.083039876
 30
0.0
  0
VERTEX
  5
492
  8
0
  6
CONTINUOUS
 62
     7
 10
87.610535702
 20
126.0973664112
 30
0.0
  0
VERTEX
  5
493
  8
0
  6
CONTINUOUS
 62
     7
 10
87.6145874208
 20
126.1091243587
 30
0.0
  0
VERTEX
  5
494
  8
0
  6
CONTINUOUS
 62
     7
 10
87.6175981539
 20
126.1178610957
 30
0.0
  0
VERTEX
  5
495
  8
0
  6
CONTINUOUS
 62
     7
 10
87.6194521843
 20
126.1232413463
 30
0.0
  0
VERTEX
  5
496
  8
0
  6
CONTINUOUS
 62
     7
 10
87.6200780331
 20
126.1250578909
 30
0.0
  0
SEQEND
  5
7BF
  8
0
  6
CONTINUOUS
 62
     7
  0
LINE
  5
E6
  8
0
  6
CONTINUOUS
 62
     7
 10
87.6200780331
 20
126.1250578909
 30
0.0
 11
87.912696792
 21
126.0242221988
 31
0.0
  0
POLYLINE
  5
E7
  8
0
  6
CONTINUOUS
 62
     7
 66
     1
 10
0.0
 20
0.0
 30
0.0
 70
   128
  0
VERTEX
  5
497
  8
0
  6
CONTINUOUS
 62
     7
 10
87.8801172657
 20
125.929678522
 30
0.0
  0
VERTEX
  5
498
  8
0
  6
CONTINUOUS
 62
     7
 10
87.8864733095
 20
125.9481228999
 30
0.0
  0
VERTEX
  5
499
  8
0
  6
CONTINUOUS
 62
     7
 10
87.892584881
 20
125.9658585414
 30
0.0
  0
VERTEX
  5
49A
  8
0
  6
CONTINUOUS
 62
     7
 10
87.89821752
 20
125.9822041839
 30
0.0
  0
VERTEX
  5
49B
  8
0
  6
CONTINUOUS
 62
     7
 10
87.9031544609
 20
125.9965311847
 30
0.0
  0
VERTEX
  5
49C
  8
0
  6
CONTINUOUS
 62
     7
 10
87.9072061798
 20
126.0082886665
 30
0.0
  0
VERTEX
  5
49D
  8
0
  6
CONTINUOUS
 62
     7
 10
87.9102169129
 20
126.0170254036
 30
0.0
  0
VERTEX
  5
49E
  8
0
  6
CONTINUOUS
 62
     7
 10
87.9120709433
 20
126.0224056541
 30
0.0
  0
VERTEX
  5
49F
  8
0
  6
CONTINUOUS
 62
     7
 10
87.912696792
 20
126.0242221988
 30
0.0
  0
SEQEND
  5
7C0
  8
0
  6
CONTINUOUS
 62
     7
  0
ARC
  5
E8
  8
0
  6
CONTINUOUS
 62
     7
 10
87.937131605
 20
126.0951303026
 30
0.0
 40
0.1750000000000274
 50
250.9861878664
 51
24.3837096094
  0
ARC
  5
E9
  8
0
  6
CONTINUOUS
 62
     7
 10
87.937131605
 20
126.0951303026
 30
0.0
 40
0.0750000000000368
 50
250.9861878664
 51
24.3837096094
  0
POLYLINE
  5
EA
  8
0
  6
CONTINUOUS
 62
     7
 66
     1
 10
0.0
 20
0.0
 30
0.0
 70
   128
  0
VERTEX
  5
4A0
  8
0
  6
CONTINUOUS
 62
     7
 10
88.0965217075
 20
126.1673781201
 30
0.0
  0
VERTEX
  5
4A1
  8
0
  6
CONTINUOUS
 62
     7
 10
88.0787530041
 20
126.1593240424
 30
0.0
  0
VERTEX
  5
4A2
  8
0
  6
CONTINUOUS
 62
     7
 10
88.0616669601
 20
126.1515791639
 30
0.0
  0
VERTEX
  5
4A3
  8
0
  6
CONTINUOUS
 62
     7
 10
88.0459203909
 20
126.1444419733
 30
0.0
  0
VERTEX
  5
4A4
  8
0
  6
CONTINUOUS
 62
     7
 10
88.0321184231
 20
126.138185814
 30
0.0
  0
VERTEX
  5
4A5
  8
0
  6
CONTINUOUS
 62
     7
 10
88.0207914452
 20
126.1330514326
 30
0.0
  0
VERTEX
  5
4A6
  8
0
  6
CONTINUOUS
 62
     7
 10
88.0123748502
 20
126.1292362697
 30
0.0
  0
VERTEX
  5
4A7
  8
0
  6
CONTINUOUS
 62
     7
 10
88.0071918073
 20
126.1268870085
 30
0.0
  0
VERTEX
  5
4A8
  8
0
  6
CONTINUOUS
 62
     7
 10
88.0054416193
 20
126.1260935216
 30
0.0
  0
SEQEND
  5
7C1
  8
0
  6
CONTINUOUS
 62
     7
  0
LINE
  5
EB
  8
0
  6
CONTINUOUS
 62
     7
 10
87.0340855618
 20
127.1759939491
 30
0.0
 11
86.7414668028
 21
127.2768296412
 31
0.0
  0
POLYLINE
  5
EC
  8
0
  6
CONTINUOUS
 62
     7
 66
     1
 10
0.0
 20
0.0
 30
0.0
 70
   128
  0
VERTEX
  5
4A9
  8
0
  6
CONTINUOUS
 62
     7
 10
86.7414668028
 20
127.2768296412
 30
0.0
  0
VERTEX
  5
4AA
  8
0
  6
CONTINUOUS
 62
     7
 10
86.742092768
 20
127.2786461859
 30
0.0
  0
VERTEX
  5
4AB
  8
0
  6
CONTINUOUS
 62
     7
 10
86.743946682
 20
127.2840264364
 30
0.0
  0
VERTEX
  5
4AC
  8
0
  6
CONTINUOUS
 62
     7
 10
86.746957415
 20
127.2927631735
 30
0.0
  0
VERTEX
  5
4AD
  8
0
  6
CONTINUOUS
 62
     7
 10
86.7510091339
 20
127.3045206554
 30
0.0
  0
VERTEX
  5
4AE
  8
0
  6
CONTINUOUS
 62
     7
 10
86.7559460748
 20
127.3188476562
 30
0.0
  0
VERTEX
  5
4AF
  8
0
  6
CONTINUOUS
 62
     7
 10
86.7615787138
 20
127.3351932987
 30
0.0
  0
VERTEX
  5
4B0
  8
0
  6
CONTINUOUS
 62
     7
 10
86.7676904018
 20
127.3529289401
 30
0.0
  0
VERTEX
  5
4B1
  8
0
  6
CONTINUOUS
 62
     7
 10
86.7740463291
 20
127.3713733181
 30
0.0
  0
SEQEND
  5
7C2
  8
0
  6
CONTINUOUS
 62
     7
  0
LINE
  5
ED
  8
0
  6
CONTINUOUS
 62
     7
 10
86.7740463291
 20
127.3713733181
 30
0.0
 11
87.0666650881
 21
127.2705380916
 31
0.0
  0
POLYLINE
  5
EE
  8
0
  6
CONTINUOUS
 62
     7
 66
     1
 10
0.0
 20
0.0
 30
0.0
 70
   128
  0
VERTEX
  5
4B2
  8
0
  6
CONTINUOUS
 62
     7
 10
87.0340855618
 20
127.1759939491
 30
0.0
  0
VERTEX
  5
4B3
  8
0
  6
CONTINUOUS
 62
     7
 10
87.0347115269
 20
127.1778104938
 30
0.0
  0
VERTEX
  5
4B4
  8
0
  6
CONTINUOUS
 62
     7
 10
87.0365654409
 20
127.1831907443
 30
0.0
  0
VERTEX
  5
4B5
  8
0
  6
CONTINUOUS
 62
     7
 10
87.039576174
 20
127.1919274814
 30
0.0
  0
VERTEX
  5
4B6
  8
0
  6
CONTINUOUS
 62
     7
 10
87.0436278929
 20
127.2036849632
 30
0.0
  0
VERTEX
  5
4B7
  8
0
  6
CONTINUOUS
 62
     7
 10
87.0485648338
 20
127.218011964
 30
0.0
  0
VERTEX
  5
4B8
  8
0
  6
CONTINUOUS
 62
     7
 10
87.0541974727
 20
127.2343576066
 30
0.0
  0
VERTEX
  5
4B9
  8
0
  6
CONTINUOUS
 62
     7
 10
87.0603091607
 20
127.252093248
 30
0.0
  0
VERTEX
  5
4BA
  8
0
  6
CONTINUOUS
 62
     7
 10
87.0666650881
 20
127.2705380916
 30
0.0
  0
SEQEND
  5
7C3
  8
0
  6
CONTINUOUS
 62
     7
  0
ARC
  5
EF
  8
0
  6
CONTINUOUS
 62
     7
 10
86.7170320545
 20
127.2059215012
 30
0.0
 40
0.0750000000000297
 50
70.9861878664
 51
204.3837096094
  0
POLYLINE
  5
F0
  8
0
  6
CONTINUOUS
 62
     7
 66
     1
 10
0.0
 20
0.0
 30
0.0
 70
   128
  0
VERTEX
  5
4BB
  8
0
  6
CONTINUOUS
 62
     7
 10
86.6487219755
 20
127.1749583184
 30
0.0
  0
VERTEX
  5
4BC
  8
0
  6
CONTINUOUS
 62
     7
 10
86.646971904
 20
127.1741648316
 30
0.0
  0
VERTEX
  5
4BD
  8
0
  6
CONTINUOUS
 62
     7
 10
86.641788861
 20
127.1718155704
 30
0.0
  0
VERTEX
  5
4BE
  8
0
  6
CONTINUOUS
 62
     7
 10
86.6333721497
 20
127.1680004074
 30
0.0
  0
VERTEX
  5
4BF
  8
0
  6
CONTINUOUS
 62
     7
 10
86.6220451717
 20
127.1628660261
 30
0.0
  0
VERTEX
  5
4C0
  8
0
  6
CONTINUOUS
 62
     7
 10
86.6082433204
 20
127.1566098667
 30
0.0
  0
VERTEX
  5
4C1
  8
0
  6
CONTINUOUS
 62
     7
 10
86.5924967511
 20
127.1494726761
 30
0.0
  0
VERTEX
  5
4C2
  8
0
  6
CONTINUOUS
 62
     7
 10
86.5754107072
 20
127.1417277976
 30
0.0
  0
VERTEX
  5
4C3
  8
0
  6
CONTINUOUS
 62
     7
 10
86.5576418873
 20
127.13367372
 30
0.0
  0
SEQEND
  5
7C4
  8
0
  6
CONTINUOUS
 62
     7
  0
ARC
  5
F1
  8
0
  6
CONTINUOUS
 62
     7
 10
86.7170320545
 20
127.2059215012
 30
0.0
 40
0.175000000000048
 50
70.9861878664
 51
204.3837096094
  0
LINE
  5
F2
  8
0
  6
CONTINUOUS
 62
     7
 10
87.4420734181
 20
127.5002190023
 30
0.0
 11
87.2618317662
 21
127.2486110329
 31
0.0
  0
POLYLINE
  5
F3
  8
0
  6
CONTINUOUS
 62
     7
 66
     1
 10
0.0
 20
0.0
 30
0.0
 70
   128
  0
VERTEX
  5
4C4
  8
0
  6
CONTINUOUS
 62
     7
 10
87.2618317662
 20
127.2486110329
 30
0.0
  0
VERTEX
  5
4C5
  8
0
  6
CONTINUOUS
 62
     7
 10
87.2602697054
 20
127.249730017
 30
0.0
  0
VERTEX
  5
4C6
  8
0
  6
CONTINUOUS
 62
     7
 10
87.2556437098
 20
127.2530441283
 30
0.0
  0
VERTEX
  5
4C7
  8
0
  6
CONTINUOUS
 62
     7
 10
87.2481313127
 20
127.2584253102
 30
0.0
  0
VERTEX
  5
4C8
  8
0
  6
CONTINUOUS
 62
     7
 10
87.2380214569
 20
127.2656677402
 30
0.0
  0
VERTEX
  5
4C9
  8
0
  6
CONTINUOUS
 62
     7
 10
87.2257025039
 20
127.2744924872
 30
0.0
  0
VERTEX
  5
4CA
  8
0
  6
CONTINUOUS
 62
     7
 10
87.211647915
 20
127.2845605499
 30
0.0
  0
VERTEX
  5
4CB
  8
0
  6
CONTINUOUS
 62
     7
 10
87.196397857
 20
127.2954854294
 30
0.0
  0
VERTEX
  5
4CC
  8
0
  6
CONTINUOUS
 62
     7
 10
87.1805382485
 20
127.3068466335
 30
0.0
  0
SEQEND
  5
7C5
  8
0
  6
CONTINUOUS
 62
     7
  0
LINE
  5
F4
  8
0
  6
CONTINUOUS
 62
     7
 10
87.1805382485
 20
127.3068466335
 30
0.0
 11
87.3607799003
 21
127.5584541372
 31
0.0
  0
POLYLINE
  5
F5
  8
0
  6
CONTINUOUS
 62
     7
 66
     1
 10
0.0
 20
0.0
 30
0.0
 70
   128
  0
VERTEX
  5
4CD
  8
0
  6
CONTINUOUS
 62
     7
 10
87.4420734181
 20
127.5002190023
 30
0.0
  0
VERTEX
  5
4CE
  8
0
  6
CONTINUOUS
 62
     7
 10
87.4405113573
 20
127.5013379864
 30
0.0
  0
VERTEX
  5
4CF
  8
0
  6
CONTINUOUS
 62
     7
 10
87.435885478
 20
127.5046516321
 30
0.0
  0
VERTEX
  5
4D0
  8
0
  6
CONTINUOUS
 62
     7
 10
87.4283729645
 20
127.5100332796
 30
0.0
  0
VERTEX
  5
4D1
  8
0
  6
CONTINUOUS
 62
     7
 10
87.4182632251
 20
127.5172757096
 30
0.0
  0
VERTEX
  5
4D2
  8
0
  6
CONTINUOUS
 62
     7
 10
87.4059441558
 20
127.5261004566
 30
0.0
  0
VERTEX
  5
4D3
  8
0
  6
CONTINUOUS
 62
     7
 10
87.3918895668
 20
127.5361685193
 30
0.0
  0
VERTEX
  5
4D4
  8
0
  6
CONTINUOUS
 62
     7
 10
87.3766396253
 20
127.5470929331
 30
0.0
  0
VERTEX
  5
4D5
  8
0
  6
CONTINUOUS
 62
     7
 10
87.3607799003
 20
127.5584541372
 30
0.0
  0
SEQEND
  5
7C6
  8
0
  6
CONTINUOUS
 62
     7
  0
ARC
  5
F6
  8
0
  6
CONTINUOUS
 62
     7
 10
87.0992447358
 20
127.3650818889
 30
0.0
 40
0.200000000000026
 50
250.9861878664
 51
324.3837096094
  0
ARC
  5
F7
  8
0
  6
CONTINUOUS
 62
     7
 10
87.0992447358
 20
127.3650818889
 30
0.0
 40
0.1000000000000245
 50
250.9861878664
 51
324.3837096094
  0
ARC
  5
F8
  8
0
  6
CONTINUOUS
 62
     7
 10
87.1511200193
 20
125.8445094993
 30
0.0
 40
0.1750000000000169
 50
190.9861878664
 51
324.3837096094
  0
POLYLINE
  5
F9
  8
0
  6
CONTINUOUS
 62
     7
 66
     1
 10
0.0
 20
0.0
 30
0.0
 70
   128
  0
VERTEX
  5
4D6
  8
0
  6
CONTINUOUS
 62
     7
 10
86.9793271704
 20
125.8111593425
 30
0.0
  0
VERTEX
  5
4D7
  8
0
  6
CONTINUOUS
 62
     7
 10
86.998478655
 20
125.8148771822
 30
0.0
  0
VERTEX
  5
4D8
  8
0
  6
CONTINUOUS
 62
     7
 10
87.0168942783
 20
125.8184520639
 30
0.0
  0
VERTEX
  5
4D9
  8
0
  6
CONTINUOUS
 62
     7
 10
87.0338660025
 20
125.8217470831
 30
0.0
  0
VERTEX
  5
4DA
  8
0
  6
CONTINUOUS
 62
     7
 10
87.0487420179
 20
125.8246346488
 30
0.0
  0
VERTEX
  5
4DB
  8
0
  6
CONTINUOUS
 62
     7
 10
87.0609503763
 20
125.8270048647
 30
0.0
  0
VERTEX
  5
4DC
  8
0
  6
CONTINUOUS
 62
     7
 10
87.0700220403
 20
125.8287659957
 30
0.0
  0
VERTEX
  5
4DD
  8
0
  6
CONTINUOUS
 62
     7
 10
87.0756082295
 20
125.8298505209
 30
0.0
  0
VERTEX
  5
4DE
  8
0
  6
CONTINUOUS
 62
     7
 10
87.077494507
 20
125.8302165306
 30
0.0
  0
SEQEND
  5
7C7
  8
0
  6
CONTINUOUS
 62
     7
  0
ARC
  5
FA
  8
0
  6
CONTINUOUS
 62
     7
 10
87.1511200193
 20
125.8445094993
 30
0.0
 40
0.0750000000000128
 50
190.9861878664
 51
324.3837096094
  0
POLYLINE
  5
FB
  8
0
  6
CONTINUOUS
 62
     7
 66
     1
 10
0.0
 20
0.0
 30
0.0
 70
   128
  0
VERTEX
  5
4DF
  8
0
  6
CONTINUOUS
 62
     7
 10
87.2933835781
 20
125.7425977028
 30
0.0
  0
VERTEX
  5
4E0
  8
0
  6
CONTINUOUS
 62
     7
 10
87.2775240859
 20
125.7539589069
 30
0.0
  0
VERTEX
  5
4E1
  8
0
  6
CONTINUOUS
 62
     7
 10
87.262274028
 20
125.7648833207
 30
0.0
  0
VERTEX
  5
4E2
  8
0
  6
CONTINUOUS
 62
     7
 10
87.2482194391
 20
125.7749513834
 30
0.0
  0
VERTEX
  5
4E3
  8
0
  6
CONTINUOUS
 62
     7
 10
87.2359004861
 20
125.7837761305
 30
0.0
  0
VERTEX
  5
4E4
  8
0
  6
CONTINUOUS
 62
     7
 10
87.2257906303
 20
125.7910185605
 30
0.0
  0
VERTEX
  5
4E5
  8
0
  6
CONTINUOUS
 62
     7
 10
87.2182782332
 20
125.796400208
 30
0.0
  0
VERTEX
  5
4E6
  8
0
  6
CONTINUOUS
 62
     7
 10
87.2136522375
 20
125.7997138537
 30
0.0
  0
VERTEX
  5
4E7
  8
0
  6
CONTINUOUS
 62
     7
 10
87.2120901768
 20
125.8008328378
 30
0.0
  0
SEQEND
  5
7C8
  8
0
  6
CONTINUOUS
 62
     7
  0
ARC
  5
FC
  8
0
  6
CONTINUOUS
 62
     7
 10
87.5030436402
 20
127.4565423045
 30
0.0
 40
0.0749999999999989
 50
10.9861878664
 51
144.3837096094
  0
ARC
  5
FD
  8
0
  6
CONTINUOUS
 62
     7
 10
87.5030436402
 20
127.4565423045
 30
0.0
 40
0.1750000000000169
 50
10.9861878664
 51
144.3837096094
  0
POLYLINE
  5
FE
  8
0
  6
CONTINUOUS
 62
     7
 66
     1
 10
0.0
 20
0.0
 30
0.0
 70
   128
  0
VERTEX
  5
4E8
  8
0
  6
CONTINUOUS
 62
     7
 10
87.5766690879
 20
127.4708353094
 30
0.0
  0
VERTEX
  5
4E9
  8
0
  6
CONTINUOUS
 62
     7
 10
87.5785554817
 20
127.4712013192
 30
0.0
  0
VERTEX
  5
4EA
  8
0
  6
CONTINUOUS
 62
     7
 10
87.5841415545
 20
127.4722858443
 30
0.0
  0
VERTEX
  5
4EB
  8
0
  6
CONTINUOUS
 62
     7
 10
87.5932133349
 20
127.4740469753
 30
0.0
  0
VERTEX
  5
4EC
  8
0
  6
CONTINUOUS
 62
     7
 10
87.6054215769
 20
127.4764171913
 30
0.0
  0
VERTEX
  5
4ED
  8
0
  6
CONTINUOUS
 62
     7
 10
87.6202975924
 20
127.4793047569
 30
0.0
  0
VERTEX
  5
4EE
  8
0
  6
CONTINUOUS
 62
     7
 10
87.6372695493
 20
127.4825997762
 30
0.0
  0
VERTEX
  5
4EF
  8
0
  6
CONTINUOUS
 62
     7
 10
87.6556850562
 20
127.4861746579
 30
0.0
  0
VERTEX
  5
4F0
  8
0
  6
CONTINUOUS
 62
     7
 10
87.6748365408
 20
127.4898924976
 30
0.0
  0
SEQEND
  5
7C9
  8
0
  6
CONTINUOUS
 62
     7
  0
LINE
  5
FF
  8
0
  6
CONTINUOUS
 62
     7
 10
87.4736254627
 20
125.9942052066
 30
0.0
 11
87.2933835781
 21
125.7425977028
 31
0.0
  0
LINE
  5
100
  8
0
  6
CONTINUOUS
 62
     7
 10
87.2120901768
 20
125.8008328378
 30
0.0
 11
87.392331945
 21
126.0524408072
 31
0.0
  0
POLYLINE
  5
101
  8
0
  6
CONTINUOUS
 62
     7
 66
     1
 10
0.0
 20
0.0
 30
0.0
 70
   128
  0
VERTEX
  5
4F1
  8
0
  6
CONTINUOUS
 62
     7
 10
87.4736254627
 20
125.9942052066
 30
0.0
  0
VERTEX
  5
4F2
  8
0
  6
CONTINUOUS
 62
     7
 10
87.4577657378
 20
126.0055664107
 30
0.0
  0
VERTEX
  5
4F3
  8
0
  6
CONTINUOUS
 62
     7
 10
87.4425157963
 20
126.0164908245
 30
0.0
  0
VERTEX
  5
4F4
  8
0
  6
CONTINUOUS
 62
     7
 10
87.4284612073
 20
126.0265593528
 30
0.0
  0
VERTEX
  5
4F5
  8
0
  6
CONTINUOUS
 62
     7
 10
87.416142138
 20
126.0353840999
 30
0.0
  0
VERTEX
  5
4F6
  8
0
  6
CONTINUOUS
 62
     7
 10
87.4060323986
 20
126.0426265299
 30
0.0
  0
VERTEX
  5
4F7
  8
0
  6
CONTINUOUS
 62
     7
 10
87.398519885
 20
126.0480077117
 30
0.0
  0
VERTEX
  5
4F8
  8
0
  6
CONTINUOUS
 62
     7
 10
87.3938940058
 20
126.0513218231
 30
0.0
  0
VERTEX
  5
4F9
  8
0
  6
CONTINUOUS
 62
     7
 10
87.392331945
 20
126.0524408072
 30
0.0
  0
SEQEND
  5
7CA
  8
0
  6
CONTINUOUS
 62
     7
  0
LINE
  5
102
  8
0
  6
CONTINUOUS
 62
     7
 10
88.2278719509
 20
126.7690446339
 30
0.0
 11
87.9942364118
 21
126.5660475119
 31
0.0
  0
POLYLINE
  5
103
  8
0
  6
CONTINUOUS
 62
     7
 66
     1
 10
0.0
 20
0.0
 30
0.0
 70
   128
  0
VERTEX
  5
4FA
  8
0
  6
CONTINUOUS
 62
     7
 10
87.9942364118
 20
126.5660475119
 30
0.0
  0
VERTEX
  5
4FB
  8
0
  6
CONTINUOUS
 62
     7
 10
87.9814407381
 20
126.5807740501
 30
0.0
  0
VERTEX
  5
4FC
  8
0
  6
CONTINUOUS
 62
     7
 10
87.9691370355
 20
126.5949348099
 30
0.0
  0
VERTEX
  5
4FD
  8
0
  6
CONTINUOUS
 62
     7
 10
87.9577977175
 20
126.6079854331
 30
0.0
  0
VERTEX
  5
4FE
  8
0
  6
CONTINUOUS
 62
     7
 10
87.9478588758
 20
126.6194244026
 30
0.0
  0
VERTEX
  5
4FF
  8
0
  6
CONTINUOUS
 62
     7
 10
87.9397021199
 20
126.6288121342
 30
0.0
  0
VERTEX
  5
500
  8
0
  6
CONTINUOUS
 62
     7
 10
87.9336410726
 20
126.6357882059
 30
0.0
  0
VERTEX
  5
501
  8
0
  6
CONTINUOUS
 62
     7
 10
87.9299087974
 20
126.6400839313
 30
0.0
  0
VERTEX
  5
502
  8
0
  6
CONTINUOUS
 62
     7
 10
87.9286484851
 20
126.6415340006
 30
0.0
  0
SEQEND
  5
7CB
  8
0
  6
CONTINUOUS
 62
     7
  0
LINE
  5
104
  8
0
  6
CONTINUOUS
 62
     7
 10
87.9286484851
 20
126.6415340006
 30
0.0
 11
88.1622842571
 21
126.8445315882
 31
0.0
  0
POLYLINE
  5
105
  8
0
  6
CONTINUOUS
 62
     7
 66
     1
 10
0.0
 20
0.0
 30
0.0
 70
   128
  0
VERTEX
  5
503
  8
0
  6
CONTINUOUS
 62
     7
 10
88.2278719509
 20
126.7690446339
 30
0.0
  0
VERTEX
  5
504
  8
0
  6
CONTINUOUS
 62
     7
 10
88.2150762773
 20
126.7837716378
 30
0.0
  0
VERTEX
  5
505
  8
0
  6
CONTINUOUS
 62
     7
 10
88.2027725747
 20
126.7979323975
 30
0.0
  0
VERTEX
  5
506
  8
0
  6
CONTINUOUS
 62
     7
 10
88.1914332567
 20
126.8109830207
 30
0.0
  0
VERTEX
  5
507
  8
0
  6
CONTINUOUS
 62
     7
 10
88.181494415
 20
126.8224219903
 30
0.0
  0
VERTEX
  5
508
  8
0
  6
CONTINUOUS
 62
     7
 10
88.1733376591
 20
126.8318097218
 30
0.0
  0
VERTEX
  5
509
  8
0
  6
CONTINUOUS
 62
     7
 10
88.1672768446
 20
126.8387853279
 30
0.0
  0
VERTEX
  5
50A
  8
0
  6
CONTINUOUS
 62
     7
 10
88.1635443366
 20
126.8430810533
 30
0.0
  0
VERTEX
  5
50B
  8
0
  6
CONTINUOUS
 62
     7
 10
88.1622842571
 20
126.8445315882
 30
0.0
  0
SEQEND
  5
7CC
  8
0
  6
CONTINUOUS
 62
     7
  0
LINE
  5
106
  8
0
  6
CONTINUOUS
 62
     7
 10
86.7255151097
 20
126.6595178395
 30
0.0
 11
86.4918794541
 21
126.4565202519
 31
0.0
  0
LINE
  5
107
  8
0
  6
CONTINUOUS
 62
     7
 10
86.4262917603
 20
126.5320067405
 30
0.0
 11
86.6599272995
 21
126.7350043281
 31
0.0
  0
POLYLINE
  5
108
  8
0
  6
CONTINUOUS
 62
     7
 66
     1
 10
0.0
 20
0.0
 30
0.0
 70
   128
  0
VERTEX
  5
50C
  8
0
  6
CONTINUOUS
 62
     7
 10
86.7255151097
 20
126.6595178395
 30
0.0
  0
VERTEX
  5
50D
  8
0
  6
CONTINUOUS
 62
     7
 10
86.7242547974
 20
126.6609679087
 30
0.0
  0
VERTEX
  5
50E
  8
0
  6
CONTINUOUS
 62
     7
 10
86.7205225222
 20
126.6652636341
 30
0.0
  0
VERTEX
  5
50F
  8
0
  6
CONTINUOUS
 62
     7
 10
86.7144615913
 20
126.6722392402
 30
0.0
  0
VERTEX
  5
510
  8
0
  6
CONTINUOUS
 62
     7
 10
86.7063048354
 20
126.6816274374
 30
0.0
  0
VERTEX
  5
511
  8
0
  6
CONTINUOUS
 62
     7
 10
86.6963658773
 20
126.6930664069
 30
0.0
  0
VERTEX
  5
512
  8
0
  6
CONTINUOUS
 62
     7
 10
86.6850266757
 20
126.7061170302
 30
0.0
  0
VERTEX
  5
513
  8
0
  6
CONTINUOUS
 62
     7
 10
86.6727228567
 20
126.7202777899
 30
0.0
  0
VERTEX
  5
514
  8
0
  6
CONTINUOUS
 62
     7
 10
86.6599272995
 20
126.7350043281
 30
0.0
  0
SEQEND
  5
7CD
  8
0
  6
CONTINUOUS
 62
     7
  0
ARC
  5
109
  8
0
  6
CONTINUOUS
 62
     7
 10
88.1130934155
 20
126.9011467052
 30
0.0
 40
0.1750000000000101
 50
310.9861878664
 51
84.3837096094
  0
ARC
  5
10A
  8
0
  6
CONTINUOUS
 62
     7
 10
88.1130934155
 20
126.9011467052
 30
0.0
 40
0.074999999999989
 50
310.9861878664
 51
84.3837096095
  0
POLYLINE
  5
10B
  8
0
  6
CONTINUOUS
 62
     7
 66
     1
 10
0.0
 20
0.0
 30
0.0
 70
   128
  0
VERTEX
  5
515
  8
0
  6
CONTINUOUS
 62
     7
 10
88.130219985
 20
127.0753068029
 30
0.0
  0
VERTEX
  5
516
  8
0
  6
CONTINUOUS
 62
     7
 10
88.1283107738
 20
127.0558910555
 30
0.0
  0
VERTEX
  5
517
  8
0
  6
CONTINUOUS
 62
     7
 10
88.1264746713
 20
127.0372222289
 30
0.0
  0
VERTEX
  5
518
  8
0
  6
CONTINUOUS
 62
     7
 10
88.124782691
 20
127.02001651
 30
0.0
  0
VERTEX
  5
519
  8
0
  6
CONTINUOUS
 62
     7
 10
88.1232997926
 20
127.0049356035
 30
0.0
  0
VERTEX
  5
51A
  8
0
  6
CONTINUOUS
 62
     7
 10
88.1220827869
 20
126.9925587922
 30
0.0
  0
VERTEX
  5
51B
  8
0
  6
CONTINUOUS
 62
     7
 10
88.1211782398
 20
126.9833619817
 30
0.0
  0
VERTEX
  5
51C
  8
0
  6
CONTINUOUS
 62
     7
 10
88.1206213089
 20
126.9776990748
 30
0.0
  0
VERTEX
  5
51D
  8
0
  6
CONTINUOUS
 62
     7
 10
88.1204334146
 20
126.9757866039
 30
0.0
  0
SEQEND
  5
7CE
  8
0
  6
CONTINUOUS
 62
     7
  0
ARC
  5
10C
  8
0
  6
CONTINUOUS
 62
     7
 10
87.5549189237
 20
125.9359699148
 30
0.0
 40
0.1000000000000014
 50
70.9861878664
 51
144.3837096094
  0
LINE
  5
10D
  8
0
  6
CONTINUOUS
 62
     7
 10
87.9687440174
 20
126.4492759592
 30
0.0
 11
88.0965217075
 21
126.1673781201
 31
0.0
  0
ARC
  5
10E
  8
0
  6
CONTINUOUS
 62
     7
 10
88.0598240139
 20
126.4905606196
 30
0.0
 40
0.100000000000009
 50
130.9861878664
 51
204.3837096094
  0
LINE
  5
10F
  8
0
  6
CONTINUOUS
 62
     7
 10
87.8222004103
 20
127.1055966727
 30
0.0
 11
88.130219985
 21
127.0753068029
 31
0.0
  0
ARC
  5
110
  8
0
  6
CONTINUOUS
 62
     7
 10
87.83198692
 20
127.2051166067
 30
0.0
 40
0.1000000000000628
 50
190.9861878664
 51
264.3837096094
  0
LINE
  5
111
  8
0
  6
CONTINUOUS
 62
     7
 10
87.6748365408
 20
127.4898924976
 30
0.0
 11
87.7338195278
 21
127.1860592178
 31
0.0
  0
LINE
  5
112
  8
0
  6
CONTINUOUS
 62
     7
 10
86.6854198102
 20
126.8517758808
 30
0.0
 11
86.5576418873
 21
127.13367372
 31
0.0
  0
ARC
  5
113
  8
0
  6
CONTINUOUS
 62
     7
 10
86.5943396456
 20
126.8104911842
 30
0.0
 40
0.0999999999999918
 50
310.9861878664
 51
24.3837096094
  0
ARC
  5
114
  8
0
  6
CONTINUOUS
 62
     7
 10
86.8221767395
 20
126.0959351971
 30
0.0
 40
0.0999999999999931
 50
10.9861878664
 51
84.3837096094
  0
LINE
  5
115
  8
0
  6
CONTINUOUS
 62
     7
 10
86.9793271704
 20
125.8111593425
 30
0.0
 11
86.920344067
 21
126.1149926222
 31
0.0
  0
CIRCLE
  5
116
  8
0
  6
CONTINUOUS
 62
     7
 10
87.3270818298
 20
126.6505259019
 30
0.0
 40
1.125000000000042
  0
POLYLINE
  5
117
  8
0
  6
CONTINUOUS
 62
     7
 66
     1
 10
0.0
 20
0.0
 30
0.0
 70
   128
  0
VERTEX
  5
51E
  8
0
  6
CONTINUOUS
 62
     7
 10
86.920344067
 20
126.1149926222
 30
0.0
  0
VERTEX
  5
51F
  8
0
  6
CONTINUOUS
 62
     7
 10
86.9394955516
 20
126.1187104619
 30
0.0
  0
VERTEX
  5
520
  8
0
  6
CONTINUOUS
 62
     7
 10
86.9579110586
 20
126.1222853436
 30
0.0
  0
VERTEX
  5
521
  8
0
  6
CONTINUOUS
 62
     7
 10
86.9748828991
 20
126.1255798972
 30
0.0
  0
VERTEX
  5
522
  8
0
  6
CONTINUOUS
 62
     7
 10
86.9897587982
 20
126.1284679285
 30
0.0
  0
VERTEX
  5
523
  8
0
  6
CONTINUOUS
 62
     7
 10
87.0019671565
 20
126.1308381445
 30
0.0
  0
VERTEX
  5
524
  8
0
  6
CONTINUOUS
 62
     7
 10
87.0110388205
 20
126.1325988098
 30
0.0
  0
VERTEX
  5
525
  8
0
  6
CONTINUOUS
 62
     7
 10
87.0166251261
 20
126.133683335
 30
0.0
  0
VERTEX
  5
526
  8
0
  6
CONTINUOUS
 62
     7
 10
87.0185114036
 20
126.1340498104
 30
0.0
  0
SEQEND
  5
7CF
  8
0
  6
CONTINUOUS
 62
     7
  0
LINE
  5
118
  8
0
  6
CONTINUOUS
 62
     7
 10
87.0185114036
 20
126.1340498104
 30
0.0
 11
87.077494507
 21
125.8302165306
 31
0.0
  0
LINE
  5
119
  8
0
  6
CONTINUOUS
 62
     7
 10
88.0054416193
 20
126.1260935216
 30
0.0
 11
87.8776636964
 21
126.4079913608
 31
0.0
  0
POLYLINE
  5
11A
  8
0
  6
CONTINUOUS
 62
     7
 66
     1
 10
0.0
 20
0.0
 30
0.0
 70
   128
  0
VERTEX
  5
527
  8
0
  6
CONTINUOUS
 62
     7
 10
87.9687440174
 20
126.4492759592
 30
0.0
  0
VERTEX
  5
528
  8
0
  6
CONTINUOUS
 62
     7
 10
87.9509750812
 20
126.4412218816
 30
0.0
  0
VERTEX
  5
529
  8
0
  6
CONTINUOUS
 62
     7
 10
87.9338890372
 20
126.4334770031
 30
0.0
  0
VERTEX
  5
52A
  8
0
  6
CONTINUOUS
 62
     7
 10
87.918142468
 20
126.4263398125
 30
0.0
  0
VERTEX
  5
52B
  8
0
  6
CONTINUOUS
 62
     7
 10
87.9043405002
 20
126.4200836531
 30
0.0
  0
VERTEX
  5
52C
  8
0
  6
CONTINUOUS
 62
     7
 10
87.8930135223
 20
126.4149492718
 30
0.0
  0
VERTEX
  5
52D
  8
0
  6
CONTINUOUS
 62
     7
 10
87.8845969273
 20
126.4111341088
 30
0.0
  0
VERTEX
  5
52E
  8
0
  6
CONTINUOUS
 62
     7
 10
87.8794138844
 20
126.4087848476
 30
0.0
  0
VERTEX
  5
52F
  8
0
  6
CONTINUOUS
 62
     7
 10
87.8776636964
 20
126.4079913608
 30
0.0
  0
SEQEND
  5
7D0
  8
0
  6
CONTINUOUS
 62
     7
  0
ARC
  5
11B
  8
0
  6
CONTINUOUS
 62
     7
 10
86.5943396456
 20
126.8104911842
 30
0.0
 40
0.2000000000000151
 50
310.9861878664
 51
24.3837096094
  0
POLYLINE
  5
11C
  8
0
  6
CONTINUOUS
 62
     7
 66
     1
 10
0.0
 20
0.0
 30
0.0
 70
   128
  0
VERTEX
  5
530
  8
0
  6
CONTINUOUS
 62
     7
 10
86.7764998984
 20
126.8930604792
 30
0.0
  0
VERTEX
  5
531
  8
0
  6
CONTINUOUS
 62
     7
 10
86.7747498269
 20
126.8922669924
 30
0.0
  0
VERTEX
  5
532
  8
0
  6
CONTINUOUS
 62
     7
 10
86.7695667839
 20
126.8899177312
 30
0.0
  0
VERTEX
  5
533
  8
0
  6
CONTINUOUS
 62
     7
 10
86.7611500726
 20
126.8861025683
 30
0.0
  0
VERTEX
  5
534
  8
0
  6
CONTINUOUS
 62
     7
 10
86.7498230946
 20
126.8809681869
 30
0.0
  0
VERTEX
  5
535
  8
0
  6
CONTINUOUS
 62
     7
 10
86.7360211268
 20
126.8747120275
 30
0.0
  0
VERTEX
  5
536
  8
0
  6
CONTINUOUS
 62
     7
 10
86.7202745576
 20
126.867574837
 30
0.0
  0
VERTEX
  5
537
  8
0
  6
CONTINUOUS
 62
     7
 10
86.7031886301
 20
126.8598299585
 30
0.0
  0
VERTEX
  5
538
  8
0
  6
CONTINUOUS
 62
     7
 10
86.6854198102
 20
126.8517758808
 30
0.0
  0
SEQEND
  5
7D1
  8
0
  6
CONTINUOUS
 62
     7
  0
ARC
  5
11D
  8
0
  6
CONTINUOUS
 62
     7
 10
86.8221767395
 20
126.0959351971
 30
0.0
 40
0.2000000000000361
 50
10.9861878664
 51
84.3837096094
  0
LINE
  5
11E
  8
0
  6
CONTINUOUS
 62
     7
 10
86.6487219755
 20
127.1749583184
 30
0.0
 11
86.7764998984
 21
126.8930604792
 31
0.0
  0
LINE
  5
11F
  8
0
  6
CONTINUOUS
 62
     7
 10
88.1204334146
 20
126.9757866039
 30
0.0
 11
87.8124138399
 21
127.0060764737
 31
0.0
  0
POLYLINE
  5
120
  8
0
  6
CONTINUOUS
 62
     7
 66
     1
 10
0.0
 20
0.0
 30
0.0
 70
   128
  0
VERTEX
  5
539
  8
0
  6
CONTINUOUS
 62
     7
 10
87.8222004103
 20
127.1055966727
 30
0.0
  0
VERTEX
  5
53A
  8
0
  6
CONTINUOUS
 62
     7
 10
87.8202909662
 20
127.086181391
 30
0.0
  0
VERTEX
  5
53B
  8
0
  6
CONTINUOUS
 62
     7
 10
87.8184550966
 20
127.0675120986
 30
0.0
  0
VERTEX
  5
53C
  8
0
  6
CONTINUOUS
 62
     7
 10
87.8167631163
 20
127.0503063797
 30
0.0
  0
VERTEX
  5
53D
  8
0
  6
CONTINUOUS
 62
     7
 10
87.8152802179
 20
127.0352254733
 30
0.0
  0
VERTEX
  5
53E
  8
0
  6
CONTINUOUS
 62
     7
 10
87.8140629793
 20
127.0228486619
 30
0.0
  0
VERTEX
  5
53F
  8
0
  6
CONTINUOUS
 62
     7
 10
87.8131586651
 20
127.0136523172
 30
0.0
  0
VERTEX
  5
540
  8
0
  6
CONTINUOUS
 62
     7
 10
87.8126017342
 20
127.0079889446
 30
0.0
  0
VERTEX
  5
541
  8
0
  6
CONTINUOUS
 62
     7
 10
87.8124138399
 20
127.0060764737
 30
0.0
  0
SEQEND
  5
7D2
  8
0
  6
CONTINUOUS
 62
     7
  0
ARC
  5
121
  8
0
  6
CONTINUOUS
 62
     7
 10
88.0598240139
 20
126.4905606196
 30
0.0
 40
0.2000000000000058
 50
130.9861878664
 51
204.3837096094
  0
LINE
  5
122
  8
0
  6
CONTINUOUS
 62
     7
 10
87.6356523077
 20
127.1670020296
 30
0.0
 11
87.5766690879
 21
127.4708353094
 31
0.0
  0
POLYLINE
  5
123
  8
0
  6
CONTINUOUS
 62
     7
 66
     1
 10
0.0
 20
0.0
 30
0.0
 70
   128
  0
VERTEX
  5
542
  8
0
  6
CONTINUOUS
 62
     7
 10
87.6356523077
 20
127.1670020296
 30
0.0
  0
VERTEX
  5
543
  8
0
  6
CONTINUOUS
 62
     7
 10
87.6375384687
 20
127.1673685051
 30
0.0
  0
VERTEX
  5
544
  8
0
  6
CONTINUOUS
 62
     7
 10
87.6431247743
 20
127.1684525646
 30
0.0
  0
VERTEX
  5
545
  8
0
  6
CONTINUOUS
 62
     7
 10
87.6521965547
 20
127.1702136955
 30
0.0
  0
VERTEX
  5
546
  8
0
  6
CONTINUOUS
 62
     7
 10
87.6644047967
 20
127.1725839115
 30
0.0
  0
VERTEX
  5
547
  8
0
  6
CONTINUOUS
 62
     7
 10
87.6792808122
 20
127.1754719428
 30
0.0
  0
VERTEX
  5
548
  8
0
  6
CONTINUOUS
 62
     7
 10
87.6962525363
 20
127.1787664964
 30
0.0
  0
VERTEX
  5
549
  8
0
  6
CONTINUOUS
 62
     7
 10
87.7146680432
 20
127.1823413781
 30
0.0
  0
VERTEX
  5
54A
  8
0
  6
CONTINUOUS
 62
     7
 10
87.7338195278
 20
127.1860592178
 30
0.0
  0
SEQEND
  5
7D3
  8
0
  6
CONTINUOUS
 62
     7
  0
CIRCLE
  5
124
  8
0
  6
CONTINUOUS
 62
     7
 10
87.3270818298
 20
126.6505259019
 30
0.0
 40
1.225000000000034
  0
ARC
  5
125
  8
0
  6
CONTINUOUS
 62
     7
 10
87.83198692
 20
127.2051166067
 30
0.0
 40
0.2000000000000167
 50
190.9861878664
 51
264.3837096094
  0
ARC
  5
126
  8
0
  6
CONTINUOUS
 62
     7
 10
87.5549189237
 20
125.9359699148
 30
0.0
 40
0.2000000000000275
 50
70.9861878664
 51
144.3837096094
  0
LINE
  5
127
  8
0
  6
CONTINUOUS
 62
     7
 10
87.9371316696
 20
126.0951303057
 30
0.0
 11
88.0054416193
 21
126.1260935216
 31
0.0
  0
LINE
  5
128
  8
0
  6
CONTINUOUS
 62
     7
 10
87.6879421121
 20
126.3219948969
 30
0.0
 11
87.9371316696
 21
126.0951303057
 31
0.0
  0
LINE
  5
129
  8
0
  6
CONTINUOUS
 62
     7
 10
87.6879421121
 20
126.3219948969
 30
0.0
 11
87.8776636964
 21
126.4079913608
 31
0.0
  0
LINE
  5
12A
  8
0
  6
CONTINUOUS
 62
     7
 10
87.3270818556
 20
126.65052592
 30
0.0
 11
87.79202812
 21
126.7987747788
 31
0.0
  0
LINE
  5
12B
  8
0
  6
CONTINUOUS
 62
     7
 10
87.79202812
 20
126.7987747788
 30
0.0
 11
87.9286484851
 21
126.6415340006
 31
0.0
  0
LINE
  5
12C
  8
0
  6
CONTINUOUS
 62
     7
 10
87.3270818556
 20
126.65052592
 30
0.0
 11
87.6879421121
 21
126.3219948969
 31
0.0
  0
LINE
  5
12D
  8
0
  6
CONTINUOUS
 62
     7
 10
86.5410702827
 20
126.3999051526
 30
0.0
 11
86.5337302966
 21
126.3252652361
 31
0.0
  0
LINE
  5
12E
  8
0
  6
CONTINUOUS
 62
     7
 10
86.8621355912
 20
126.5022770613
 30
0.0
 11
86.5410702827
 21
126.3999051526
 31
0.0
  0
LINE
  5
12F
  8
0
  6
CONTINUOUS
 62
     7
 10
86.8621355912
 20
126.5022770613
 30
0.0
 11
86.8417498714
 21
126.2949749007
 31
0.0
  0
LINE
  5
130
  8
0
  6
CONTINUOUS
 62
     7
 10
86.5410702827
 20
126.3999051526
 30
0.0
 11
86.4918794541
 21
126.4565202519
 31
0.0
  0
LINE
  5
131
  8
0
  6
CONTINUOUS
 62
     7
 10
87.4311678635
 20
127.1273053362
 30
0.0
 11
87.6356523077
 21
127.1670020296
 31
0.0
  0
LINE
  5
132
  8
0
  6
CONTINUOUS
 62
     7
 10
87.79202812
 20
126.7987747788
 30
0.0
 11
87.8124138399
 21
127.0060764737
 31
0.0
  0
POLYLINE
  5
133
  8
0
  6
CONTINUOUS
 62
     7
 66
     1
 10
0.0
 20
0.0
 30
0.0
 70
   128
  0
VERTEX
  5
54B
  8
0
  6
CONTINUOUS
 62
     7
 10
87.4311678635
 20
127.1273053362
 30
0.0
  0
VERTEX
  5
54C
  8
0
  6
CONTINUOUS
 62
     7
 10
87.3532021942
 20
126.7701738625
 30
0.0
  0
VERTEX
  5
54D
  8
0
  6
CONTINUOUS
 62
     7
 10
87.3270818556
 20
126.65052592
 30
0.0
  0
SEQEND
  5
7D4
  8
0
  6
CONTINUOUS
 62
     7
  0
LINE
  5
134
  8
0
  6
CONTINUOUS
 62
     7
 10
86.9662215991
 20
126.9790569431
 30
0.0
 11
87.0340855618
 21
127.1759939491
 31
0.0
  0
LINE
  5
135
  8
0
  6
CONTINUOUS
 62
     7
 10
86.9662215991
 20
126.9790569431
 30
0.0
 11
86.7170320416
 21
127.2059215344
 31
0.0
  0
LINE
  5
136
  8
0
  6
CONTINUOUS
 62
     7
 10
86.7170320416
 20
127.2059215344
 30
0.0
 11
86.7414668028
 21
127.2768296412
 31
0.0
  0
LINE
  5
137
  8
0
  6
CONTINUOUS
 62
     7
 10
87.4311678635
 20
127.1273053362
 30
0.0
 11
87.5030436146
 21
127.4565423019
 31
0.0
  0
LINE
  5
138
  8
0
  6
CONTINUOUS
 62
     7
 10
87.5030436146
 20
127.4565423019
 30
0.0
 11
87.5766690879
 21
127.4708353094
 31
0.0
  0
LINE
  5
139
  8
0
  6
CONTINUOUS
 62
     7
 10
86.7170320416
 20
127.2059215344
 30
0.0
 11
86.6487219755
 21
127.1749583184
 31
0.0
  0
LINE
  5
13A
  8
0
  6
CONTINUOUS
 62
     7
 10
87.3270818556
 20
126.65052592
 30
0.0
 11
87.2229958477
 21
126.1737460382
 31
0.0
  0
LINE
  5
13B
  8
0
  6
CONTINUOUS
 62
     7
 10
87.2229958477
 20
126.1737460382
 30
0.0
 11
87.0185114036
 21
126.1340498104
 31
0.0
  0
LINE
  5
13C
  8
0
  6
CONTINUOUS
 62
     7
 10
87.3270818556
 20
126.65052592
 30
0.0
 11
86.8621355912
 21
126.5022770613
 31
0.0
  0
LINE
  5
13D
  8
0
  6
CONTINUOUS
 62
     7
 10
87.9371316696
 20
126.0951303057
 30
0.0
 11
87.912696792
 21
126.0242221988
 31
0.0
  0
LINE
  5
13E
  8
0
  6
CONTINUOUS
 62
     7
 10
87.1511199803
 20
125.8445095382
 30
0.0
 11
87.2120901768
 21
125.8008328378
 31
0.0
  0
LINE
  5
13F
  8
0
  6
CONTINUOUS
 62
     7
 10
87.1511199803
 20
125.8445095382
 30
0.0
 11
87.077494507
 21
125.8302165306
 31
0.0
  0
LINE
  5
140
  8
0
  6
CONTINUOUS
 62
     7
 10
87.2229958477
 20
126.1737460382
 30
0.0
 11
87.1511199803
 21
125.8445095382
 31
0.0
  0
LINE
  5
141
  8
0
  6
CONTINUOUS
 62
     7
 10
87.2229958477
 20
126.1737460382
 30
0.0
 11
87.392331945
 21
126.0524408072
 31
0.0
  0
LINE
  5
142
  8
0
  6
CONTINUOUS
 62
     7
 10
88.1130934285
 20
126.9011466875
 30
0.0
 11
88.1204334146
 21
126.9757866039
 31
0.0
  0
LINE
  5
143
  8
0
  6
CONTINUOUS
 62
     7
 10
87.79202812
 20
126.7987747788
 30
0.0
 11
88.1130934285
 21
126.9011466875
 31
0.0
  0
LINE
  5
144
  8
0
  6
CONTINUOUS
 62
     7
 10
88.1130934285
 20
126.9011466875
 30
0.0
 11
88.1622842571
 21
126.8445315882
 31
0.0
  0
LINE
  5
145
  8
0
  6
CONTINUOUS
 62
     7
 10
87.6879421121
 20
126.3219948969
 30
0.0
 11
87.6200780331
 21
126.1250578909
 31
0.0
  0
LINE
  5
146
  8
0
  6
CONTINUOUS
 62
     7
 10
86.8621355912
 20
126.5022770613
 30
0.0
 11
86.7255151097
 21
126.6595178395
 31
0.0
  0
LINE
  5
147
  8
0
  6
CONTINUOUS
 62
     7
 10
86.9662215991
 20
126.9790569431
 30
0.0
 11
86.7764998984
 21
126.8930604792
 31
0.0
  0
LINE
  5
148
  8
0
  6
CONTINUOUS
 62
     7
 10
87.3270818556
 20
126.65052592
 30
0.0
 11
86.9662215991
 21
126.9790569431
 31
0.0
  0
LINE
  5
149
  8
0
  6
CONTINUOUS
 62
     7
 10
87.4311678635
 20
127.1273053362
 30
0.0
 11
87.2618317662
 21
127.2486110329
 31
0.0
  0
LINE
  5
14A
  8
0
  6
CONTINUOUS
 62
     7
 10
87.5030436146
 20
127.4565423019
 30
0.0
 11
87.4420734181
 21
127.5002190023
 31
0.0
  0
ARC
  5
14B
  8
0
  6
CONTINUOUS
 62
     7
 10
87.0779428753
 20
133.4950342547
 30
0.0
 40
0.8004878142430977
 50
191.151830244
 51
347.5268811781
  0
POLYLINE
  5
14C
  8
0
  6
CONTINUOUS
 62
     7
 66
     1
 10
0.0
 20
0.0
 30
0.0
 70
   128
  0
VERTEX
  5
54E
  8
0
  6
CONTINUOUS
 62
     7
 10
84.9748336186
 20
135.9458488523
 30
0.0
  0
VERTEX
  5
54F
  8
0
  6
CONTINUOUS
 62
     7
 10
84.9624852417
 20
136.0281866155
 30
0.0
  0
VERTEX
  5
550
  8
0
  6
CONTINUOUS
 62
     7
 10
84.9195097981
 20
136.0800440534
 30
0.0
  0
SEQEND
  5
7D5
  8
0
  6
CONTINUOUS
 62
     7
  0
ARC
  5
14D
  8
0
  6
CONTINUOUS
 62
     7
 10
85.0635074729
 20
135.8207144158
 30
0.0
 40
0.1533677920624455
 50
125.3224813527
 51
168.0002778637
  0
POLYLINE
  5
14E
  8
0
  6
CONTINUOUS
 62
     7
 66
     1
 10
0.0
 20
0.0
 30
0.0
 70
   128
  0
VERTEX
  5
551
  8
0
  6
CONTINUOUS
 62
     7
 10
85.0511786411
 20
134.4202714618
 30
0.0
  0
VERTEX
  5
552
  8
0
  6
CONTINUOUS
 62
     7
 10
84.8872720671
 20
134.4422753546
 30
0.0
  0
VERTEX
  5
553
  8
0
  6
CONTINUOUS
 62
     7
 10
84.7885750409
 20
134.4302380103
 30
0.0
  0
SEQEND
  5
7D6
  8
0
  6
CONTINUOUS
 62
     7
  0
LINE
  5
14F
  8
0
  6
CONTINUOUS
 62
     7
 10
84.7885750409
 20
134.4302380103
 30
0.0
 11
84.9134909804
 21
135.8526006452
 31
0.0
  0
LINE
  5
150
  8
0
  6
CONTINUOUS
 62
     7
 10
84.7885750409
 20
134.4302380103
 30
0.0
 11
84.7896893683
 21
134.4040112681
 31
0.0
  0
POLYLINE
  5
151
  8
0
  6
CONTINUOUS
 62
     7
 66
     1
 10
0.0
 20
0.0
 30
0.0
 70
   128
  0
VERTEX
  5
554
  8
0
  6
CONTINUOUS
 62
     7
 10
84.7896893683
 20
134.4040112681
 30
0.0
  0
VERTEX
  5
555
  8
0
  6
CONTINUOUS
 62
     7
 10
84.8918141273
 20
134.3879059068
 30
0.0
  0
VERTEX
  5
556
  8
0
  6
CONTINUOUS
 62
     7
 10
85.06658845
 20
134.3388070463
 30
0.0
  0
SEQEND
  5
7D7
  8
0
  6
CONTINUOUS
 62
     7
  0
ARC
  5
152
  8
0
  6
CONTINUOUS
 62
     7
 10
84.8836276559
 20
134.3710726445
 30
0.0
 40
0.099545742262904
 50
160.6772371597
 51
174.614442545
  0
LINE
  5
153
  8
0
  6
CONTINUOUS
 62
     7
 10
84.784521343
 20
134.380415745
 30
0.0
 11
84.7108760208
 21
133.54184929
 31
0.0
  0
LINE
  5
154
  8
0
  6
CONTINUOUS
 62
     7
 10
84.7115624056
 20
133.5144143895
 30
0.0
 11
84.7059664375
 21
133.4896108247
 31
0.0
  0
POLYLINE
  5
155
  8
0
  6
CONTINUOUS
 62
     7
 66
     1
 10
0.0
 20
0.0
 30
0.0
 70
   128
  0
VERTEX
  5
557
  8
0
  6
CONTINUOUS
 62
     7
 10
84.9789733475
 20
133.3411761671
 30
0.0
  0
VERTEX
  5
558
  8
0
  6
CONTINUOUS
 62
     7
 10
84.8087899212
 20
133.4431984806
 30
0.0
  0
VERTEX
  5
559
  8
0
  6
CONTINUOUS
 62
     7
 10
84.7115624056
 20
133.5144143895
 30
0.0
  0
SEQEND
  5
7D8
  8
0
  6
CONTINUOUS
 62
     7
  0
POLYLINE
  5
156
  8
0
  6
CONTINUOUS
 62
     7
 66
     1
 10
0.0
 20
0.0
 30
0.0
 70
   128
  0
VERTEX
  5
55A
  8
0
  6
CONTINUOUS
 62
     7
 10
84.7059664375
 20
133.4896108247
 30
0.0
  0
VERTEX
  5
55B
  8
0
  6
CONTINUOUS
 62
     7
 10
84.7948040173
 20
133.3901779372
 30
0.0
  0
VERTEX
  5
55C
  8
0
  6
CONTINUOUS
 62
     7
 10
84.9495978036
 20
133.2636155066
 30
0.0
  0
SEQEND
  5
7D9
  8
0
  6
CONTINUOUS
 62
     7
  0
ARC
  5
157
  8
0
  6
CONTINUOUS
 62
     7
 10
84.8522596565
 20
133.5316604841
 30
0.0
 40
0.141750288174122
 50
175.8781076738
 51
186.9882228561
  0
LINE
  5
158
  8
0
  6
CONTINUOUS
 62
     7
 10
84.5810504688
 20
132.0672479424
 30
0.0
 11
84.7059664375
 21
133.4896108247
 31
0.0
  0
LINE
  5
159
  8
0
  6
CONTINUOUS
 62
     7
 10
84.8752475867
 20
132.4170226226
 30
0.0
 11
84.5810504688
 21
132.0672479424
 31
0.0
  0
ARC
  5
15A
  8
0
  6
CONTINUOUS
 62
     7
 10
84.7422207847
 20
132.0697616716
 30
0.0
 40
0.1611899176306415
 50
180.8935541048
 51
223.2074286523
  0
ARC
  5
15B
  8
0
  6
CONTINUOUS
 62
     7
 10
84.7858727785
 20
131.8616346403
 30
0.0
 40
0.2359279277941522
 50
175.0864211082
 51
265.1288334388
  0
POLYLINE
  5
15C
  8
0
  6
CONTINUOUS
 62
     7
 66
     1
 10
0.0
 20
0.0
 30
0.0
 70
   128
  0
VERTEX
  5
55D
  8
0
  6
CONTINUOUS
 62
     7
 10
84.624732699
 20
131.9594043462
 30
0.0
  0
VERTEX
  5
55E
  8
0
  6
CONTINUOUS
 62
     7
 10
84.6002500912
 20
131.90357445
 30
0.0
  0
VERTEX
  5
55F
  8
0
  6
CONTINUOUS
 62
     7
 10
84.55081188
 20
131.8818425871
 30
0.0
  0
SEQEND
  5
7DA
  8
0
  6
CONTINUOUS
 62
     7
  0
ARC
  5
15D
  8
0
  6
CONTINUOUS
 62
     7
 10
85.0293599573
 20
135.8376352102
 30
0.0
 40
0.1211747248908843
 50
116.7424727534
 51
171.4621621206
  0
ARC
  5
15E
  8
0
  6
CONTINUOUS
 62
     7
 10
84.9196488595
 20
135.8664939021
 30
0.0
 40
0.0151967780411307
 50
234.1898274297
 51
246.0957425474
  0
ARC
  5
15F
  8
0
  6
CONTINUOUS
 62
     7
 10
84.9126314664
 20
135.8569996793
 30
0.0
 40
0.0033941705021916
 50
203.889742863
 51
236.4818047973
  0
POLYLINE
  5
160
  8
0
  6
CONTINUOUS
 62
     7
 66
     1
 10
0.0
 20
0.0
 30
0.0
 70
   128
  0
VERTEX
  5
560
  8
0
  6
CONTINUOUS
 62
     7
 10
84.8703607044
 20
135.9827413335
 30
0.0
  0
VERTEX
  5
561
  8
0
  6
CONTINUOUS
 62
     7
 10
84.901533206
 20
135.9353793896
 30
0.0
  0
VERTEX
  5
562
  8
0
  6
CONTINUOUS
 62
     7
 10
84.9095280864
 20
135.8556251153
 30
0.0
  0
SEQEND
  5
7DB
  8
0
  6
CONTINUOUS
 62
     7
  0
POLYLINE
  5
161
  8
0
  6
CONTINUOUS
 62
     7
 66
     1
 10
0.0
 20
0.0
 30
0.0
 70
   128
  0
VERTEX
  5
563
  8
0
  6
CONTINUOUS
 62
     7
 10
84.9195097981
 20
136.0800440534
 30
0.0
  0
VERTEX
  5
564
  8
0
  6
CONTINUOUS
 62
     7
 10
84.8872925853
 20
136.0349862016
 30
0.0
  0
VERTEX
  5
565
  8
0
  6
CONTINUOUS
 62
     7
 10
84.8703616939
 20
135.9827413335
 30
0.0
  0
SEQEND
  5
7DC
  8
0
  6
CONTINUOUS
 62
     7
  0
ARC
  5
162
  8
0
  6
CONTINUOUS
 62
     7
 10
84.7908260334
 20
134.4372960336
 30
0.0
 40
0.0074082832084044
 50
212.9881325865
 51
252.3111260423
  0
LINE
  5
163
  8
0
  6
CONTINUOUS
 62
     7
 10
84.9095280864
 20
135.8556251153
 30
0.0
 11
84.7846120887
 21
134.4332624804
 31
0.0
  0
POLYLINE
  5
164
  8
0
  6
CONTINUOUS
 62
     7
 66
     1
 10
0.0
 20
0.0
 30
0.0
 70
   128
  0
VERTEX
  5
566
  8
0
  6
CONTINUOUS
 62
     7
 10
84.7846120887
 20
134.4332624804
 30
0.0
  0
VERTEX
  5
567
  8
0
  6
CONTINUOUS
 62
     7
 10
84.7818385519
 20
134.4079554192
 30
0.0
  0
VERTEX
  5
568
  8
0
  6
CONTINUOUS
 62
     7
 10
84.779454075
 20
134.383575024
 30
0.0
  0
SEQEND
  5
7DD
  8
0
  6
CONTINUOUS
 62
     7
  0
LINE
  5
165
  8
0
  6
CONTINUOUS
 62
     7
 10
84.779454075
 20
134.383575024
 30
0.0
 11
84.7058088111
 21
133.5450086854
 31
0.0
  0
POLYLINE
  5
166
  8
0
  6
CONTINUOUS
 62
     7
 66
     1
 10
0.0
 20
0.0
 30
0.0
 70
   128
  0
VERTEX
  5
569
  8
0
  6
CONTINUOUS
 62
     7
 10
84.7058088111
 20
133.5450086854
 30
0.0
  0
VERTEX
  5
56A
  8
0
  6
CONTINUOUS
 62
     7
 10
84.7038512293
 20
133.5199509858
 30
0.0
  0
VERTEX
  5
56B
  8
0
  6
CONTINUOUS
 62
     7
 10
84.7020035435
 20
133.4926352947
 30
0.0
  0
SEQEND
  5
7DE
  8
0
  6
CONTINUOUS
 62
     7
  0
LINE
  5
167
  8
0
  6
CONTINUOUS
 62
     7
 10
84.7020035435
 20
133.4926352947
 30
0.0
 11
84.5770875749
 21
132.0702724124
 31
0.0
  0
POLYLINE
  5
168
  8
0
  6
CONTINUOUS
 62
     7
 66
     1
 10
0.0
 20
0.0
 30
0.0
 70
   128
  0
VERTEX
  5
56C
  8
0
  6
CONTINUOUS
 62
     7
 10
84.5770875749
 20
132.0702724124
 30
0.0
  0
VERTEX
  5
56D
  8
0
  6
CONTINUOUS
 62
     7
 10
84.5568651857
 20
132.0106904395
 30
0.0
  0
VERTEX
  5
56E
  8
0
  6
CONTINUOUS
 62
     7
 10
84.5193239802
 20
131.9856255368
 30
0.0
  0
SEQEND
  5
7DF
  8
0
  6
CONTINUOUS
 62
     7
  0
LINE
  5
169
  8
0
  6
CONTINUOUS
 62
     7
 10
84.5193239802
 20
131.9856255368
 30
0.0
 11
84.5199878386
 21
132.0238868875
 31
0.0
  0
LINE
  5
16A
  8
0
  6
CONTINUOUS
 62
     7
 10
84.5199878386
 20
132.0238868875
 30
0.0
 11
84.8644273356
 21
135.9458670131
 31
0.0
  0
LINE
  5
16B
  8
0
  6
CONTINUOUS
 62
     7
 10
84.8644273356
 20
135.9458670131
 30
0.0
 11
84.8703607044
 21
135.9827413335
 31
0.0
  0
LINE
  5
16C
  8
0
  6
CONTINUOUS
 62
     7
 10
84.7896893683
 20
134.4040112681
 30
0.0
 11
84.7846120887
 21
134.4332624804
 31
0.0
  0
ARC
  5
16D
  8
0
  6
CONTINUOUS
 62
     7
 10
84.7881017112
 20
134.3918018269
 30
0.0
 40
0.011935740340964
 50
223.5713908832
 51
252.5441772919
  0
POLYLINE
  5
16E
  8
0
  6
CONTINUOUS
 62
     7
 66
     1
 10
0.0
 20
0.0
 30
0.0
 70
   128
  0
VERTEX
  5
56F
  8
0
  6
CONTINUOUS
 62
     7
 10
84.858813585
 20
136.0094595812
 30
0.0
  0
VERTEX
  5
570
  8
0
  6
CONTINUOUS
 62
     7
 10
84.8815029894
 20
136.0490184388
 30
0.0
  0
VERTEX
  5
571
  8
0
  6
CONTINUOUS
 62
     7
 10
84.9195097981
 20
136.0800440534
 30
0.0
  0
SEQEND
  5
7E0
  8
0
  6
CONTINUOUS
 62
     7
  0
LINE
  5
16F
  8
0
  6
CONTINUOUS
 62
     7
 10
84.8622815683
 20
135.9964108206
 30
0.0
 11
84.8703616939
 21
135.9827413335
 31
0.0
  0
LINE
  5
170
  8
0
  6
CONTINUOUS
 62
     7
 10
84.858813585
 20
136.0094595812
 30
0.0
 11
84.8622815683
 21
135.9964108206
 31
0.0
  0
ARC
  5
171
  8
0
  6
CONTINUOUS
 62
     7
 10
84.714457654
 20
133.553236938
 30
0.0
 40
0.0119376138203577
 50
223.5724404904
 51
252.5406409954
  0
ARC
  5
172
  8
0
  6
CONTINUOUS
 62
     7
 10
85.2068129305
 20
136.0096796124
 30
0.0
 40
0.343445823155189
 50
105.9298386641
 51
165.8780020421
  0
LINE
  5
173
  8
0
  6
CONTINUOUS
 62
     7
 10
84.7020035435
 20
133.4926352947
 30
0.0
 11
84.7115624056
 21
133.5144143895
 31
0.0
  0
ARC
  5
174
  8
0
  6
CONTINUOUS
 62
     7
 10
84.7082172564
 20
133.496668501
 30
0.0
 40
0.0074078998737671
 50
212.9868574041
 51
252.3115894834
  0
ARC
  5
175
  8
0
  6
CONTINUOUS
 62
     7
 10
84.5871892405
 20
132.0811079129
 30
0.0
 40
0.0151586048217586
 50
234.174781987
 51
246.11078799
  0
ARC
  5
176
  8
0
  6
CONTINUOUS
 62
     7
 10
84.5801882453
 20
132.071644688
 30
0.0
 40
0.0033907665196868
 50
203.8729267049
 51
236.4986209549
  0
LINE
  5
177
  8
0
  6
CONTINUOUS
 62
     7
 10
84.8644273356
 20
135.9458670131
 30
0.0
 11
84.8486679315
 21
135.9516873135
 31
0.0
  0
LINE
  5
178
  8
0
  6
CONTINUOUS
 62
     7
 10
84.8486679315
 20
135.9516873135
 30
0.0
 11
84.8588134977
 21
136.0094591155
 31
0.0
  0
LINE
  5
179
  8
0
  6
CONTINUOUS
 62
     7
 10
84.8486679315
 20
135.9516873135
 30
0.0
 11
84.8092258384
 21
135.981335502
 31
0.0
  0
ARC
  5
17A
  8
0
  6
CONTINUOUS
 62
     7
 10
85.2792814613
 20
135.9398622947
 30
0.0
 40
0.4718817948211778
 50
129.8632511258
 51
174.9582243564
  0
POLYLINE
  5
17B
  8
0
  6
CONTINUOUS
 62
     7
 66
     1
 10
0.0
 20
0.0
 30
0.0
 70
   128
  0
VERTEX
  5
572
  8
0
  6
CONTINUOUS
 62
     7
 10
85.0787747477
 20
136.3652513474
 30
0.0
  0
VERTEX
  5
573
  8
0
  6
CONTINUOUS
 62
     7
 10
85.068082728
 20
136.3619740232
 30
0.0
  0
VERTEX
  5
574
  8
0
  6
CONTINUOUS
 62
     7
 10
84.9768253101
 20
136.3020676299
 30
0.0
  0
SEQEND
  5
7E1
  8
0
  6
CONTINUOUS
 62
     7
  0
ARC
  5
17C
  8
0
  6
CONTINUOUS
 62
     7
 10
84.7145510188
 20
132.0636751102
 30
0.0
 40
0.1376216654596775
 50
177.2523040164
 51
229.2585531058
  0
LINE
  5
17D
  8
0
  6
CONTINUOUS
 62
     7
 10
84.5042284054
 20
132.0297070861
 30
0.0
 11
84.5199878386
 21
132.0238868875
 31
0.0
  0
LINE
  5
17E
  8
0
  6
CONTINUOUS
 62
     7
 10
84.5042284054
 20
132.029707057
 30
0.0
 11
84.8486679315
 21
135.9516873135
 31
0.0
  0
LINE
  5
17F
  8
0
  6
CONTINUOUS
 62
     7
 10
84.4762472261
 20
132.1898554388
 30
0.0
 11
84.4647863123
 21
132.0593555802
 31
0.0
  0
LINE
  5
180
  8
0
  6
CONTINUOUS
 62
     7
 10
84.4983340648
 20
132.4413478369
 30
0.0
 11
84.4762472261
 21
132.1898554388
 31
0.0
  0
LINE
  5
181
  8
0
  6
CONTINUOUS
 62
     7
 10
84.8092258384
 20
135.981335502
 30
0.0
 11
84.4983340066
 21
132.4413478951
 31
0.0
  0
LINE
  5
182
  8
0
  6
CONTINUOUS
 62
     7
 10
84.4647863123
 20
132.0593555802
 30
0.0
 11
84.5042284054
 21
132.0297070424
 31
0.0
  0
POLYLINE
  5
183
  8
0
  6
CONTINUOUS
 62
     7
 66
     1
 10
0.0
 20
0.0
 30
0.0
 70
   128
  0
VERTEX
  5
575
  8
0
  6
CONTINUOUS
 62
     7
 10
84.5193206042
 20
131.9856256823
 30
0.0
  0
VERTEX
  5
576
  8
0
  6
CONTINUOUS
 62
     7
 10
84.5268455741
 20
131.9307422391
 30
0.0
  0
VERTEX
  5
577
  8
0
  6
CONTINUOUS
 62
     7
 10
84.55081188
 20
131.8818425871
 30
0.0
  0
SEQEND
  5
7E2
  8
0
  6
CONTINUOUS
 62
     7
  0
POLYLINE
  5
184
  8
0
  6
CONTINUOUS
 62
     7
 66
     1
 10
0.0
 20
0.0
 30
0.0
 70
   128
  0
VERTEX
  5
578
  8
0
  6
CONTINUOUS
 62
     7
 10
84.55081188
 20
131.8818425871
 30
0.0
  0
VERTEX
  5
579
  8
0
  6
CONTINUOUS
 62
     7
 10
84.5190986001
 20
131.9224966073
 30
0.0
  0
VERTEX
  5
57A
  8
0
  6
CONTINUOUS
 62
     7
 10
84.5040456334
 20
131.9698507514
 30
0.0
  0
SEQEND
  5
7E3
  8
0
  6
CONTINUOUS
 62
     7
  0
LINE
  5
185
  8
0
  6
CONTINUOUS
 62
     7
 10
84.5093471871
 20
131.9777064864
 30
0.0
 11
84.5040456334
 21
131.9698507514
 31
0.0
  0
LINE
  5
186
  8
0
  6
CONTINUOUS
 62
     7
 10
84.5193206042
 20
131.9856256823
 30
0.0
 11
84.5093471871
 21
131.9777064864
 31
0.0
  0
LINE
  5
187
  8
0
  6
CONTINUOUS
 62
     7
 10
84.5040409185
 20
131.9698507659
 30
0.0
 11
84.5042284054
 21
132.0297070861
 31
0.0
  0
ARC
  5
188
  8
0
  6
CONTINUOUS
 62
     7
 10
84.8806151303
 20
131.9525477717
 30
0.0
 40
0.3794389250196678
 50
188.2428167212
 51
253.1127032718
  0
ARC
  5
189
  8
0
  6
CONTINUOUS
 62
     7
 10
84.9041090028
 20
131.9748503508
 30
0.0
 40
0.4204717901298343
 50
218.2559515702
 51
259.4308064748
  0
ARC
  5
18A
  8
0
  6
CONTINUOUS
 62
     7
 10
84.9342368528
 20
132.0182396783
 30
0.0
 40
0.4712476310014724
 50
174.9946306592
 51
220.1307527501
  0
ARC
  5
18B
  8
0
  6
CONTINUOUS
 62
     7
 10
87.3270818298
 20
126.6505259019
 30
0.0
 40
1.600000000000021
 50
248.1737642681
 51
297.8262357319
  0
ARC
  5
18C
  8
0
  6
CONTINUOUS
 62
     7
 10
88.1090027621
 20
125.153570712
 30
0.0
 40
0.0891485648882794
 50
113.1544606954
 51
174.1906445041
  0
ARC
  5
18D
  8
0
  6
CONTINUOUS
 62
     7
 10
87.991307441
 20
125.1662270988
 30
0.0
 40
0.0292312330209197
 50
290.881623441
 51
352.8607751972
  0
ARC
  5
18E
  8
0
  6
CONTINUOUS
 62
     7
 10
87.3270818298
 20
126.6505259019
 30
0.0
 40
1.655328000001854
 50
282.006984372
 51
294.0516193426
  0
POLYLINE
  5
18F
  8
0
  6
CONTINUOUS
 62
     7
 66
     1
 10
0.0
 20
0.0
 30
0.0
 70
   128
  0
VERTEX
  5
57B
  8
0
  6
CONTINUOUS
 62
     7
 10
87.6714411715
 20
125.0314127765
 30
0.0
  0
VERTEX
  5
57C
  8
0
  6
CONTINUOUS
 62
     7
 10
87.5487918092
 20
125.0113115757
 30
0.0
  0
VERTEX
  5
57D
  8
0
  6
CONTINUOUS
 62
     7
 10
87.1538522479
 20
125.0042870752
 30
0.0
  0
SEQEND
  5
7E4
  8
0
  6
CONTINUOUS
 62
     7
  0
ARC
  5
190
  8
0
  6
CONTINUOUS
 62
     7
 10
87.3270818298
 20
126.6505259019
 30
0.0
 40
1.655328000000012
 50
251.948380658
 51
263.9930156262
  0
ARC
  5
191
  8
0
  6
CONTINUOUS
 62
     7
 10
86.8207778763
 20
125.1040852016
 30
0.0
 40
0.0282008216793834
 50
191.8738509105
 51
256.3843396079
  0
ARC
  5
192
  8
0
  6
CONTINUOUS
 62
     7
 10
86.7047402574
 20
125.0789650883
 30
0.0
 40
0.0905253540065517
 50
12.3213322318
 51
72.3331444063
  0
POLYLINE
  5
193
  8
0
  6
CONTINUOUS
 62
     7
 66
     1
 10
0.0
 20
0.0
 30
0.0
 70
   128
  0
VERTEX
  5
57E
  8
0
  6
CONTINUOUS
 62
     7
 10
88.052242907
 20
125.0934304781
 30
0.0
  0
VERTEX
  5
57F
  8
0
  6
CONTINUOUS
 62
     7
 10
88.0550908914
 20
125.0965932495
 30
0.0
  0
VERTEX
  5
580
  8
0
  6
CONTINUOUS
 62
     7
 10
88.0579055811
 20
125.0997192337
 30
0.0
  0
VERTEX
  5
581
  8
0
  6
CONTINUOUS
 62
     7
 10
88.0606543797
 20
125.1027721091
 30
0.0
  0
VERTEX
  5
582
  8
0
  6
CONTINUOUS
 62
     7
 10
88.0633053894
 20
125.1057164855
 30
0.0
  0
VERTEX
  5
583
  8
0
  6
CONTINUOUS
 62
     7
 10
88.0658276437
 20
125.1085179038
 30
0.0
  0
VERTEX
  5
584
  8
0
  6
CONTINUOUS
 62
     7
 10
88.0681920389
 20
125.1111437678
 30
0.0
  0
VERTEX
  5
585
  8
0
  6
CONTINUOUS
 62
     7
 10
88.0703708681
 20
125.1135633438
 30
0.0
  0
VERTEX
  5
586
  8
0
  6
CONTINUOUS
 62
     7
 10
88.0723387527
 20
125.1157491579
 30
0.0
  0
SEQEND
  5
7E5
  8
0
  6
CONTINUOUS
 62
     7
  0
LINE
  5
194
  8
0
  6
CONTINUOUS
 62
     7
 10
88.0017265736
 20
125.1389158069
 30
0.0
 11
88.052242907
 21
125.0934304781
 31
0.0
  0
LINE
  5
195
  8
0
  6
CONTINUOUS
 62
     7
 10
88.0723387527
 20
125.1157491579
 30
0.0
 11
88.0203120469
 21
125.1625942177
 31
0.0
  0
ARC
  5
196
  8
0
  6
CONTINUOUS
 62
     7
 10
87.3270818298
 20
126.6505259019
 30
0.0
 40
1.600000000000005
 50
158.1737642682
 51
207.8262357319
  0
ARC
  5
197
  8
0
  6
CONTINUOUS
 62
     7
 10
85.830126481
 20
125.8686043824
 30
0.0
 40
0.08914896621669
 50
23.1547915482
 51
84.1906383401
  0
ARC
  5
198
  8
0
  6
CONTINUOUS
 62
     7
 10
85.8427943255
 20
125.9863143739
 30
0.0
 40
0.0292468138073588
 50
200.8989287736
 51
262.8420754199
  0
ARC
  5
199
  8
0
  6
CONTINUOUS
 62
     7
 10
87.3270818298
 20
126.6505259019
 30
0.0
 40
1.655328000001855
 50
192.0063086257
 51
204.0516193426
  0
POLYLINE
  5
19A
  8
0
  6
CONTINUOUS
 62
     7
 66
     1
 10
0.0
 20
0.0
 30
0.0
 70
   128
  0
VERTEX
  5
587
  8
0
  6
CONTINUOUS
 62
     7
 10
85.7079646084
 20
126.3061856962
 30
0.0
  0
VERTEX
  5
588
  8
0
  6
CONTINUOUS
 62
     7
 10
85.6878673367
 20
126.4288171306
 30
0.0
  0
VERTEX
  5
589
  8
0
  6
CONTINUOUS
 62
     7
 10
85.6808409444
 20
126.8237360864
 30
0.0
  0
SEQEND
  5
7E6
  8
0
  6
CONTINUOUS
 62
     7
  0
ARC
  5
19B
  8
0
  6
CONTINUOUS
 62
     7
 10
87.3270818298
 20
126.6505259019
 30
0.0
 40
1.65532800002415
 50
161.948380658
 51
173.9936913725
  0
ARC
  5
19C
  8
0
  6
CONTINUOUS
 62
     7
 10
85.7806389445
 20
127.1568317588
 30
0.0
 40
0.0281982811500782
 50
101.8699604716
 51
166.3869766888
  0
ARC
  5
19D
  8
0
  6
CONTINUOUS
 62
     7
 10
85.7555268967
 20
127.2728603387
 30
0.0
 40
0.0905173576992761
 50
282.3187648397
 51
342.3363017025
  0
POLYLINE
  5
19E
  8
0
  6
CONTINUOUS
 62
     7
 66
     1
 10
0.0
 20
0.0
 30
0.0
 70
   128
  0
VERTEX
  5
58A
  8
0
  6
CONTINUOUS
 62
     7
 10
85.792304948
 20
125.905269023
 30
0.0
  0
VERTEX
  5
58B
  8
0
  6
CONTINUOUS
 62
     7
 10
85.7901193085
 20
125.9072369076
 30
0.0
  0
VERTEX
  5
58C
  8
0
  6
CONTINUOUS
 62
     7
 10
85.7876994996
 20
125.9094157367
 30
0.0
  0
VERTEX
  5
58D
  8
0
  6
CONTINUOUS
 62
     7
 10
85.7850736647
 20
125.9117798991
 30
0.0
  0
VERTEX
  5
58E
  8
0
  6
CONTINUOUS
 62
     7
 10
85.7822723628
 20
125.9143023863
 30
0.0
  0
VERTEX
  5
58F
  8
0
  6
CONTINUOUS
 62
     7
 10
85.779328132
 20
125.916953396
 30
0.0
  0
VERTEX
  5
590
  8
0
  6
CONTINUOUS
 62
     7
 10
85.7762752275
 20
125.9197021946
 30
0.0
  0
VERTEX
  5
591
  8
0
  6
CONTINUOUS
 62
     7
 10
85.7731492142
 20
125.922517117
 30
0.0
  0
VERTEX
  5
592
  8
0
  6
CONTINUOUS
 62
     7
 10
85.7699863845
 20
125.9253646358
 30
0.0
  0
SEQEND
  5
7E7
  8
0
  6
CONTINUOUS
 62
     7
  0
LINE
  5
19F
  8
0
  6
CONTINUOUS
 62
     7
 10
85.8154716261
 20
125.9758814349
 30
0.0
 11
85.7699863845
 21
125.9253646358
 31
0.0
  0
LINE
  5
1A0
  8
0
  6
CONTINUOUS
 62
     7
 10
85.792304948
 20
125.905269023
 30
0.0
 11
85.8391500369
 21
125.9572954959
 31
0.0
  0
ARC
  5
1A1
  8
0
  6
CONTINUOUS
 62
     7
 10
87.3270818298
 20
126.6505259019
 30
0.0
 40
1.599999999999996
 50
338.1737642682
 51
27.8262357319
  0
ARC
  5
1A2
  8
0
  6
CONTINUOUS
 62
     7
 10
88.8240378002
 20
127.4324474432
 30
0.0
 40
0.0891494846154522
 50
203.1546389795
 51
264.1902288152
  0
ARC
  5
1A3
  8
0
  6
CONTINUOUS
 62
     7
 10
88.8113763979
 20
127.3147458211
 30
0.0
 40
0.0292371742409562
 50
20.8886160896
 51
82.8537825486
  0
ARC
  5
1A4
  8
0
  6
CONTINUOUS
 62
     7
 10
87.3270818298
 20
126.6505259019
 30
0.0
 40
1.655328000001835
 50
12.0063086257
 51
24.0516193426
  0
POLYLINE
  5
1A5
  8
0
  6
CONTINUOUS
 62
     7
 66
     1
 10
0.0
 20
0.0
 30
0.0
 70
   128
  0
VERTEX
  5
593
  8
0
  6
CONTINUOUS
 62
     7
 10
88.9461989573
 20
126.9948661438
 30
0.0
  0
VERTEX
  5
594
  8
0
  6
CONTINUOUS
 62
     7
 10
88.9662964328
 20
126.8722347095
 30
0.0
  0
VERTEX
  5
595
  8
0
  6
CONTINUOUS
 62
     7
 10
88.9733227959
 20
126.4773157536
 30
0.0
  0
SEQEND
  5
7E8
  8
0
  6
CONTINUOUS
 62
     7
  0
ARC
  5
1A6
  8
0
  6
CONTINUOUS
 62
     7
 10
87.3270818298
 20
126.6505259019
 30
0.0
 40
1.655328000024122
 50
341.948380658
 51
353.9936913725
  0
ARC
  5
1A7
  8
0
  6
CONTINUOUS
 62
     7
 10
88.8735230563
 20
126.1442212014
 30
0.0
 40
0.0282001789437249
 50
281.8726408184
 51
346.3855687524
  0
ARC
  5
1A8
  8
0
  6
CONTINUOUS
 62
     7
 10
88.8986345055
 20
126.0281933703
 30
0.0
 40
0.0905145904381859
 50
102.3176701601
 51
162.3369854704
  0
POLYLINE
  5
1A9
  8
0
  6
CONTINUOUS
 62
     7
 66
     1
 10
0.0
 20
0.0
 30
0.0
 70
   128
  0
VERTEX
  5
596
  8
0
  6
CONTINUOUS
 62
     7
 10
88.8618586177
 20
127.3957828171
 30
0.0
  0
VERTEX
  5
597
  8
0
  6
CONTINUOUS
 62
     7
 10
88.8640444318
 20
127.3938149325
 30
0.0
  0
VERTEX
  5
598
  8
0
  6
CONTINUOUS
 62
     7
 10
88.8664642407
 20
127.3916361033
 30
0.0
  0
VERTEX
  5
599
  8
0
  6
CONTINUOUS
 62
     7
 10
88.8690898719
 20
127.389271941
 30
0.0
  0
VERTEX
  5
59A
  8
0
  6
CONTINUOUS
 62
     7
 10
88.8718912902
 20
127.3867494538
 30
0.0
  0
VERTEX
  5
59B
  8
0
  6
CONTINUOUS
 62
     7
 10
88.8748354337
 20
127.3840984441
 30
0.0
  0
VERTEX
  5
59C
  8
0
  6
CONTINUOUS
 62
     7
 10
88.8778883091
 20
127.3813496455
 30
0.0
  0
VERTEX
  5
59D
  8
0
  6
CONTINUOUS
 62
     7
 10
88.8810145261
 20
127.378534723
 30
0.0
  0
VERTEX
  5
59E
  8
0
  6
CONTINUOUS
 62
     7
 10
88.8841772976
 20
127.3756872042
 30
0.0
  0
SEQEND
  5
7E9
  8
0
  6
CONTINUOUS
 62
     7
  0
LINE
  5
1AA
  8
0
  6
CONTINUOUS
 62
     7
 10
88.8386919687
 20
127.3251704051
 30
0.0
 11
88.8841772976
 21
127.3756872042
 31
0.0
  0
LINE
  5
1AB
  8
0
  6
CONTINUOUS
 62
     7
 10
88.8618586177
 20
127.3957828171
 30
0.0
 11
88.8150135579
 21
127.3437558784
 31
0.0
  0
ARC
  5
1AC
  8
0
  6
CONTINUOUS
 62
     7
 10
87.3270818298
 20
126.6505259019
 30
0.0
 40
1.600000000000011
 50
68.1737642681
 51
117.8262357319
  0
ARC
  5
1AD
  8
0
  6
CONTINUOUS
 62
     7
 10
86.5451599776
 20
128.1474818425
 30
0.0
 40
0.089149603819559
 50
293.1548542919
 51
354.1902509077
  0
ARC
  5
1AE
  8
0
  6
CONTINUOUS
 62
     7
 10
86.6628720968
 20
128.1348123188
 30
0.0
 40
0.0292484826074709
 50
110.9019164547
 51
172.8404821835
  0
ARC
  5
1AF
  8
0
  6
CONTINUOUS
 62
     7
 10
87.3270818298
 20
126.6505259019
 30
0.0
 40
1.655328000001855
 50
102.006984372
 51
114.0516193426
  0
POLYLINE
  5
1B0
  8
0
  6
CONTINUOUS
 62
     7
 66
     1
 10
0.0
 20
0.0
 30
0.0
 70
   128
  0
VERTEX
  5
59F
  8
0
  6
CONTINUOUS
 62
     7
 10
86.9827224233
 20
128.2696390636
 30
0.0
  0
VERTEX
  5
5A0
  8
0
  6
CONTINUOUS
 62
     7
 10
87.105371902
 20
128.2897402643
 30
0.0
  0
VERTEX
  5
5A1
  8
0
  6
CONTINUOUS
 62
     7
 10
87.500311347
 20
128.2967647649
 30
0.0
  0
SEQEND
  5
7EA
  8
0
  6
CONTINUOUS
 62
     7
  0
ARC
  5
1B1
  8
0
  6
CONTINUOUS
 62
     7
 10
87.3270818298
 20
126.6505259019
 30
0.0
 40
1.655327999999994
 50
71.948380658
 51
83.9930156262
  0
ARC
  5
1B2
  8
0
  6
CONTINUOUS
 62
     7
 10
87.8333867092
 20
128.196967549
 30
0.0
 40
0.0281997308636017
 50
11.8719428984
 51
76.3856304707
  0
ARC
  5
1B3
  8
0
  6
CONTINUOUS
 62
     7
 10
87.9494177718
 20
128.2220819438
 30
0.0
 40
0.0905188266836225
 50
192.3192704987
 51
252.3356029896
  0
POLYLINE
  5
1B4
  8
0
  6
CONTINUOUS
 62
     7
 66
     1
 10
0.0
 20
0.0
 30
0.0
 70
   128
  0
VERTEX
  5
5A2
  8
0
  6
CONTINUOUS
 62
     7
 10
86.5818249586
 20
128.1853026822
 30
0.0
  0
VERTEX
  5
5A3
  8
0
  6
CONTINUOUS
 62
     7
 10
86.5837928432
 20
128.1874884962
 30
0.0
  0
VERTEX
  5
5A4
  8
0
  6
CONTINUOUS
 62
     7
 10
86.5859716723
 20
128.1899083051
 30
0.0
  0
VERTEX
  5
5A5
  8
0
  6
CONTINUOUS
 62
     7
 10
86.5883359511
 20
128.1925341691
 30
0.0
  0
VERTEX
  5
5A6
  8
0
  6
CONTINUOUS
 62
     7
 10
86.5908583219
 20
128.1953353546
 30
0.0
  0
VERTEX
  5
5A7
  8
0
  6
CONTINUOUS
 62
     7
 10
86.5935093316
 20
128.1982794981
 30
0.0
  0
VERTEX
  5
5A8
  8
0
  6
CONTINUOUS
 62
     7
 10
86.5962581302
 20
128.2013326063
 30
0.0
  0
VERTEX
  5
5A9
  8
0
  6
CONTINUOUS
 62
     7
 10
86.5990728198
 20
128.2044585905
 30
0.0
  0
VERTEX
  5
5AA
  8
0
  6
CONTINUOUS
 62
     7
 10
86.6019206878
 20
128.207621362
 30
0.0
  0
SEQEND
  5
7EB
  8
0
  6
CONTINUOUS
 62
     7
  0
LINE
  5
1B5
  8
0
  6
CONTINUOUS
 62
     7
 10
86.6524371377
 20
128.1621360331
 30
0.0
 11
86.6019206878
 21
128.207621362
 31
0.0
  0
LINE
  5
1B6
  8
0
  6
CONTINUOUS
 62
     7
 10
86.5818249586
 20
128.1853026822
 30
0.0
 11
86.6338516644
 21
128.1384576223
 31
0.0
  0
ARC
  5
1B7
  8
0
  6
CONTINUOUS
 62
     7
 10
88.1448993941
 20
125.1953483484
 30
0.0
 40
0.1377406145928985
 50
227.7251174749
 51
318.2749159822
  0
LINE
  5
1B8
  8
0
  6
CONTINUOUS
 62
     7
 10
88.2477016712
 20
125.1036740951
 30
0.0
 11
88.9616908098
 21
125.896639388
 31
0.0
  0
ARC
  5
1B9
  8
0
  6
CONTINUOUS
 62
     7
 10
88.8597732659
 20
125.989295879
 30
0.0
 40
0.137740375644359
 50
317.7250249461
 51
48.2748795174
  0
LINE
  5
1BA
  8
0
  6
CONTINUOUS
 62
     7
 10
88.9514474256
 20
126.0920979194
 30
0.0
 11
88.9009308594
 21
126.1375832482
 31
0.0
  0
LINE
  5
1BB
  8
0
  6
CONTINUOUS
 62
     7
 10
88.9733227959
 20
126.4773157536
 30
0.0
 11
89.0430467261
 21
125.1469028293
 31
0.0
  0
ARC
  5
1BC
  8
0
  6
CONTINUOUS
 62
     7
 10
88.9992103174
 20
125.1449386946
 30
0.0
 40
0.0438803892196584
 50
273.2047351522
 51
2.5654796426
  0
LINE
  5
1BD
  8
0
  6
CONTINUOUS
 62
     7
 10
89.0016634075
 20
125.1011269278
 30
0.0
 11
87.6714411715
 21
125.0314127765
 31
0.0
  0
LINE
  5
1BE
  8
0
  6
CONTINUOUS
 62
     7
 10
88.9393723628
 20
125.9167350008
 30
0.0
 11
88.2253832242
 21
125.1237697079
 31
0.0
  0
POLYLINE
  5
1BF
  8
0
  6
CONTINUOUS
 62
     7
 66
     1
 10
0.0
 20
0.0
 30
0.0
 70
   128
  0
VERTEX
  5
5AB
  8
0
  6
CONTINUOUS
 62
     7
 10
88.9393723628
 20
125.9167350008
 30
0.0
  0
VERTEX
  5
5AC
  8
0
  6
CONTINUOUS
 62
     7
 10
88.9415579441
 20
125.9147671162
 30
0.0
  0
VERTEX
  5
5AD
  8
0
  6
CONTINUOUS
 62
     7
 10
88.9439777529
 20
125.9125882871
 30
0.0
  0
VERTEX
  5
5AE
  8
0
  6
CONTINUOUS
 62
     7
 10
88.9466036169
 20
125.9102241247
 30
0.0
  0
VERTEX
  5
5AF
  8
0
  6
CONTINUOUS
 62
     7
 10
88.9494048024
 20
125.9077016375
 30
0.0
  0
VERTEX
  5
5B0
  8
0
  6
CONTINUOUS
 62
     7
 10
88.9523491787
 20
125.9050506278
 30
0.0
  0
VERTEX
  5
5B1
  8
0
  6
CONTINUOUS
 62
     7
 10
88.9554020541
 20
125.9023018292
 30
0.0
  0
VERTEX
  5
5B2
  8
0
  6
CONTINUOUS
 62
     7
 10
88.9585280383
 20
125.8994869068
 30
0.0
  0
VERTEX
  5
5B3
  8
0
  6
CONTINUOUS
 62
     7
 10
88.9616908098
 20
125.896639388
 30
0.0
  0
SEQEND
  5
7EC
  8
0
  6
CONTINUOUS
 62
     7
  0
POLYLINE
  5
1C0
  8
0
  6
CONTINUOUS
 62
     7
 66
     1
 10
0.0
 20
0.0
 30
0.0
 70
   128
  0
VERTEX
  5
5B4
  8
0
  6
CONTINUOUS
 62
     7
 10
88.2253832242
 20
125.1237697079
 30
0.0
  0
VERTEX
  5
5B5
  8
0
  6
CONTINUOUS
 62
     7
 10
88.2275688054
 20
125.1218018233
 30
0.0
  0
VERTEX
  5
5B6
  8
0
  6
CONTINUOUS
 62
     7
 10
88.2299886143
 20
125.1196229941
 30
0.0
  0
VERTEX
  5
5B7
  8
0
  6
CONTINUOUS
 62
     7
 10
88.2326144783
 20
125.1172588318
 30
0.0
  0
VERTEX
  5
5B8
  8
0
  6
CONTINUOUS
 62
     7
 10
88.2354158966
 20
125.1147363446
 30
0.0
  0
VERTEX
  5
5B9
  8
0
  6
CONTINUOUS
 62
     7
 10
88.2383600401
 20
125.1120853349
 30
0.0
  0
VERTEX
  5
5BA
  8
0
  6
CONTINUOUS
 62
     7
 10
88.2414129155
 20
125.1093365363
 30
0.0
  0
VERTEX
  5
5BB
  8
0
  6
CONTINUOUS
 62
     7
 10
88.2445388997
 20
125.1065216138
 30
0.0
  0
VERTEX
  5
5BC
  8
0
  6
CONTINUOUS
 62
     7
 10
88.2477016712
 20
125.1036740951
 30
0.0
  0
SEQEND
  5
7ED
  8
0
  6
CONTINUOUS
 62
     7
  0
ARC
  5
1C1
  8
0
  6
CONTINUOUS
 62
     7
 10
86.5092642175
 20
128.1057031706
 30
0.0
 40
0.1377408407984954
 50
47.7252124764
 51
138.2748209807
  0
LINE
  5
1C2
  8
0
  6
CONTINUOUS
 62
     7
 10
86.4064619236
 20
128.197377745
 30
0.0
 11
85.692472785
 21
127.4044124521
 31
0.0
  0
ARC
  5
1C3
  8
0
  6
CONTINUOUS
 62
     7
 10
85.7943904864
 20
127.3117560512
 30
0.0
 40
0.1377404315118334
 50
137.7250967562
 51
228.2749098032
  0
LINE
  5
1C4
  8
0
  6
CONTINUOUS
 62
     7
 10
85.7027163438
 20
127.2089539207
 30
0.0
 11
85.7532328228
 21
127.1634685918
 31
0.0
  0
LINE
  5
1C5
  8
0
  6
CONTINUOUS
 62
     7
 10
85.6808409444
 20
126.8237360864
 30
0.0
 11
85.611116956
 21
128.1541490107
 31
0.0
  0
ARC
  5
1C6
  8
0
  6
CONTINUOUS
 62
     7
 10
85.6549542345
 20
128.1561125867
 30
0.0
 40
0.0438812331040801
 50
93.2059250694
 51
182.5646999438
  0
LINE
  5
1C7
  8
0
  6
CONTINUOUS
 62
     7
 10
85.6525001873
 20
128.1999251451
 30
0.0
 11
86.9827224233
 21
128.2696390636
 31
0.0
  0
CIRCLE
  5
1C8
  8
0
  6
CONTINUOUS
 62
     7
 10
85.8586276546
 20
127.9727279801
 30
0.0
 40
0.1778400000000932
  0
ARC
  5
1C9
  8
0
  6
CONTINUOUS
 62
     7
 10
88.782259433
 20
127.4683435692
 30
0.0
 40
0.1377405281128574
 50
317.7251534423
 51
48.274887149
  0
LINE
  5
1CA
  8
0
  6
CONTINUOUS
 62
     7
 10
88.8739336806
 20
127.5711457356
 30
0.0
 11
88.0809683877
 21
128.2851348742
 31
0.0
  0
ARC
  5
1CB
  8
0
  6
CONTINUOUS
 62
     7
 10
87.9883117917
 20
128.1832169965
 30
0.0
 40
0.137740693208891
 50
47.7250860296
 51
138.2748112999
  0
LINE
  5
1CC
  8
0
  6
CONTINUOUS
 62
     7
 10
87.8855096234
 20
128.27489149
 30
0.0
 11
87.8400245274
 21
128.2243749238
 31
0.0
  0
LINE
  5
1CD
  8
0
  6
CONTINUOUS
 62
     7
 10
87.500311347
 20
128.2967647649
 30
0.0
 11
88.8305335829
 21
128.3664786834
 31
0.0
  0
ARC
  5
1CE
  8
0
  6
CONTINUOUS
 62
     7
 10
88.8326730142
 20
128.3226500281
 30
0.0
 40
0.0438808407542751
 50
3.434828461
 51
92.7945908362
  0
LINE
  5
1CF
  8
0
  6
CONTINUOUS
 62
     7
 10
88.8764750271
 20
128.3252790681
 30
0.0
 11
88.9461989573
 21
126.9948661438
 31
0.0
  0
LINE
  5
1D0
  8
0
  6
CONTINUOUS
 62
     7
 10
85.7147913484
 20
127.3843168392
 30
0.0
 11
86.428780487
 21
128.1772821321
 31
0.0
  0
POLYLINE
  5
1D1
  8
0
  6
CONTINUOUS
 62
     7
 66
     1
 10
0.0
 20
0.0
 30
0.0
 70
   128
  0
VERTEX
  5
5BD
  8
0
  6
CONTINUOUS
 62
     7
 10
85.7147913484
 20
127.3843168392
 30
0.0
  0
VERTEX
  5
5BE
  8
0
  6
CONTINUOUS
 62
     7
 10
85.712605709
 20
127.3862847238
 30
0.0
  0
VERTEX
  5
5BF
  8
0
  6
CONTINUOUS
 62
     7
 10
85.7101859001
 20
127.388463553
 30
0.0
  0
VERTEX
  5
5C0
  8
0
  6
CONTINUOUS
 62
     7
 10
85.7075600652
 20
127.3908277153
 30
0.0
  0
VERTEX
  5
5C1
  8
0
  6
CONTINUOUS
 62
     7
 10
85.7047587342
 20
127.3933502025
 30
0.0
  0
VERTEX
  5
5C2
  8
0
  6
CONTINUOUS
 62
     7
 10
85.7018145034
 20
127.3960012122
 30
0.0
  0
VERTEX
  5
5C3
  8
0
  6
CONTINUOUS
 62
     7
 10
85.698761628
 20
127.3987500108
 30
0.0
  0
VERTEX
  5
5C4
  8
0
  6
CONTINUOUS
 62
     7
 10
85.6956355856
 20
127.4015649333
 30
0.0
  0
VERTEX
  5
5C5
  8
0
  6
CONTINUOUS
 62
     7
 10
85.692472785
 20
127.4044124521
 30
0.0
  0
SEQEND
  5
7EE
  8
0
  6
CONTINUOUS
 62
     7
  0
POLYLINE
  5
1D2
  8
0
  6
CONTINUOUS
 62
     7
 66
     1
 10
0.0
 20
0.0
 30
0.0
 70
   128
  0
VERTEX
  5
5C6
  8
0
  6
CONTINUOUS
 62
     7
 10
86.428780487
 20
128.1772821321
 30
0.0
  0
VERTEX
  5
5C7
  8
0
  6
CONTINUOUS
 62
     7
 10
86.4265947894
 20
128.1792500167
 30
0.0
  0
VERTEX
  5
5C8
  8
0
  6
CONTINUOUS
 62
     7
 10
86.4241749805
 20
128.1814288459
 30
0.0
  0
VERTEX
  5
5C9
  8
0
  6
CONTINUOUS
 62
     7
 10
86.4215492329
 20
128.1837932411
 30
0.0
  0
VERTEX
  5
5CA
  8
0
  6
CONTINUOUS
 62
     7
 10
86.4187478146
 20
128.1863154955
 30
0.0
  0
VERTEX
  5
5CB
  8
0
  6
CONTINUOUS
 62
     7
 10
86.4158036711
 20
128.1889665052
 30
0.0
  0
VERTEX
  5
5CC
  8
0
  6
CONTINUOUS
 62
     7
 10
86.4127507957
 20
128.1917153037
 30
0.0
  0
VERTEX
  5
5CD
  8
0
  6
CONTINUOUS
 62
     7
 10
86.4096246951
 20
128.1945299934
 30
0.0
  0
VERTEX
  5
5CE
  8
0
  6
CONTINUOUS
 62
     7
 10
86.4064619236
 20
128.197377745
 30
0.0
  0
SEQEND
  5
7EF
  8
0
  6
CONTINUOUS
 62
     7
  0
LINE
  5
1D3
  8
0
  6
CONTINUOUS
 62
     7
 10
88.0608727748
 20
128.2628164272
 30
0.0
 11
88.8538380677
 21
127.5488270558
 31
0.0
  0
POLYLINE
  5
1D4
  8
0
  6
CONTINUOUS
 62
     7
 66
     1
 10
0.0
 20
0.0
 30
0.0
 70
   128
  0
VERTEX
  5
5CF
  8
0
  6
CONTINUOUS
 62
     7
 10
88.0608727748
 20
128.2628164272
 30
0.0
  0
VERTEX
  5
5D0
  8
0
  6
CONTINUOUS
 62
     7
 10
88.0628406594
 20
128.2650020085
 30
0.0
  0
VERTEX
  5
5D1
  8
0
  6
CONTINUOUS
 62
     7
 10
88.0650194886
 20
128.2674218173
 30
0.0
  0
VERTEX
  5
5D2
  8
0
  6
CONTINUOUS
 62
     7
 10
88.0673838838
 20
128.2700476813
 30
0.0
  0
VERTEX
  5
5D3
  8
0
  6
CONTINUOUS
 62
     7
 10
88.0699061381
 20
128.2728490996
 30
0.0
  0
VERTEX
  5
5D4
  8
0
  6
CONTINUOUS
 62
     7
 10
88.0725571478
 20
128.2757932431
 30
0.0
  0
VERTEX
  5
5D5
  8
0
  6
CONTINUOUS
 62
     7
 10
88.0753059464
 20
128.2788461185
 30
0.0
  0
VERTEX
  5
5D6
  8
0
  6
CONTINUOUS
 62
     7
 10
88.0781206361
 20
128.2819721028
 30
0.0
  0
VERTEX
  5
5D7
  8
0
  6
CONTINUOUS
 62
     7
 10
88.0809683877
 20
128.2851348742
 30
0.0
  0
SEQEND
  5
7F0
  8
0
  6
CONTINUOUS
 62
     7
  0
POLYLINE
  5
1D5
  8
0
  6
CONTINUOUS
 62
     7
 66
     1
 10
0.0
 20
0.0
 30
0.0
 70
   128
  0
VERTEX
  5
5D8
  8
0
  6
CONTINUOUS
 62
     7
 10
88.8538380677
 20
127.5488270558
 30
0.0
  0
VERTEX
  5
5D9
  8
0
  6
CONTINUOUS
 62
     7
 10
88.8558059523
 20
127.5510128699
 30
0.0
  0
VERTEX
  5
5DA
  8
0
  6
CONTINUOUS
 62
     7
 10
88.8579847815
 20
127.5534329116
 30
0.0
  0
VERTEX
  5
5DB
  8
0
  6
CONTINUOUS
 62
     7
 10
88.8603489439
 20
127.5560587756
 30
0.0
  0
VERTEX
  5
5DC
  8
0
  6
CONTINUOUS
 62
     7
 10
88.862871431
 20
127.5588597282
 30
0.0
  0
VERTEX
  5
5DD
  8
0
  6
CONTINUOUS
 62
     7
 10
88.8655224408
 20
127.5618041045
 30
0.0
  0
VERTEX
  5
5DE
  8
0
  6
CONTINUOUS
 62
     7
 10
88.8682712393
 20
127.5648569799
 30
0.0
  0
VERTEX
  5
5DF
  8
0
  6
CONTINUOUS
 62
     7
 10
88.871085929
 20
127.5679829641
 30
0.0
  0
VERTEX
  5
5E0
  8
0
  6
CONTINUOUS
 62
     7
 10
88.8739336806
 20
127.5711457356
 30
0.0
  0
SEQEND
  5
7F1
  8
0
  6
CONTINUOUS
 62
     7
  0
POLYLINE
  5
1D6
  8
0
  6
CONTINUOUS
 62
     7
 66
     1
 10
0.0
 20
0.0
 30
0.0
 70
   128
  0
VERTEX
  5
5E1
  8
0
  6
CONTINUOUS
 62
     7
 10
88.93135158
 20
126.0697792395
 30
0.0
  0
VERTEX
  5
5E2
  8
0
  6
CONTINUOUS
 62
     7
 10
88.9333194646
 20
126.0719650536
 30
0.0
  0
VERTEX
  5
5E3
  8
0
  6
CONTINUOUS
 62
     7
 10
88.9354982937
 20
126.0743850953
 30
0.0
  0
VERTEX
  5
5E4
  8
0
  6
CONTINUOUS
 62
     7
 10
88.9378626889
 20
126.0770109593
 30
0.0
  0
VERTEX
  5
5E5
  8
0
  6
CONTINUOUS
 62
     7
 10
88.9403849433
 20
126.079811912
 30
0.0
  0
VERTEX
  5
5E6
  8
0
  6
CONTINUOUS
 62
     7
 10
88.943035953
 20
126.0827562883
 30
0.0
  0
VERTEX
  5
5E7
  8
0
  6
CONTINUOUS
 62
     7
 10
88.9457847516
 20
126.0858091637
 30
0.0
  0
VERTEX
  5
5E8
  8
0
  6
CONTINUOUS
 62
     7
 10
88.9485994412
 20
126.0889351479
 30
0.0
  0
VERTEX
  5
5E9
  8
0
  6
CONTINUOUS
 62
     7
 10
88.9514474256
 20
126.0920979194
 30
0.0
  0
SEQEND
  5
7F2
  8
0
  6
CONTINUOUS
 62
     7
  0
LINE
  5
1D7
  8
0
  6
CONTINUOUS
 62
     7
 10
88.8793248741
 20
126.1166242994
 30
0.0
 11
88.93135158
 21
126.0697792395
 31
0.0
  0
POLYLINE
  5
1D8
  8
0
  6
CONTINUOUS
 62
     7
 66
     1
 10
0.0
 20
0.0
 30
0.0
 70
   128
  0
VERTEX
  5
5EA
  8
0
  6
CONTINUOUS
 62
     7
 10
85.7228120731
 20
127.2312721349
 30
0.0
  0
VERTEX
  5
5EB
  8
0
  6
CONTINUOUS
 62
     7
 10
85.7208441012
 20
127.2290867864
 30
0.0
  0
VERTEX
  5
5EC
  8
0
  6
CONTINUOUS
 62
     7
 10
85.7186653011
 20
127.2266667447
 30
0.0
  0
VERTEX
  5
5ED
  8
0
  6
CONTINUOUS
 62
     7
 10
85.7163009932
 20
127.2240408807
 30
0.0
  0
VERTEX
  5
5EE
  8
0
  6
CONTINUOUS
 62
     7
 10
85.7137786807
 20
127.2212399281
 30
0.0
  0
VERTEX
  5
5EF
  8
0
  6
CONTINUOUS
 62
     7
 10
85.7111276709
 20
127.2182955518
 30
0.0
  0
VERTEX
  5
5F0
  8
0
  6
CONTINUOUS
 62
     7
 10
85.7083788433
 20
127.2152426764
 30
0.0
  0
VERTEX
  5
5F1
  8
0
  6
CONTINUOUS
 62
     7
 10
85.7055641536
 20
127.2121166921
 30
0.0
  0
VERTEX
  5
5F2
  8
0
  6
CONTINUOUS
 62
     7
 10
85.7027163438
 20
127.2089539207
 30
0.0
  0
SEQEND
  5
7F3
  8
0
  6
CONTINUOUS
 62
     7
  0
LINE
  5
1D9
  8
0
  6
CONTINUOUS
 62
     7
 10
85.774838808
 20
127.184427075
 30
0.0
 11
85.7228120731
 21
127.2312721349
 31
0.0
  0
POLYLINE
  5
1DA
  8
0
  6
CONTINUOUS
 62
     7
 66
     1
 10
0.0
 20
0.0
 30
0.0
 70
   128
  0
VERTEX
  5
5F3
  8
0
  6
CONTINUOUS
 62
     7
 10
87.9078283033
 20
128.2547956444
 30
0.0
  0
VERTEX
  5
5F4
  8
0
  6
CONTINUOUS
 62
     7
 10
87.905642722
 20
128.256763529
 30
0.0
  0
VERTEX
  5
5F5
  8
0
  6
CONTINUOUS
 62
     7
 10
87.9032229132
 20
128.2589423581
 30
0.0
  0
VERTEX
  5
5F6
  8
0
  6
CONTINUOUS
 62
     7
 10
87.9005970492
 20
128.2613067533
 30
0.0
  0
VERTEX
  5
5F7
  8
0
  6
CONTINUOUS
 62
     7
 10
87.8977956308
 20
128.2638290077
 30
0.0
  0
VERTEX
  5
5F8
  8
0
  6
CONTINUOUS
 62
     7
 10
87.8948514874
 20
128.2664800174
 30
0.0
  0
VERTEX
  5
5F9
  8
0
  6
CONTINUOUS
 62
     7
 10
87.891798612
 20
128.269228816
 30
0.0
  0
VERTEX
  5
5FA
  8
0
  6
CONTINUOUS
 62
     7
 10
87.8886726277
 20
128.2720435056
 30
0.0
  0
VERTEX
  5
5FB
  8
0
  6
CONTINUOUS
 62
     7
 10
87.8855096234
 20
128.27489149
 30
0.0
  0
SEQEND
  5
7F4
  8
0
  6
CONTINUOUS
 62
     7
  0
LINE
  5
1DB
  8
0
  6
CONTINUOUS
 62
     7
 10
87.8609832434
 20
128.2027689385
 30
0.0
 11
87.9078283033
 21
128.2547956444
 31
0.0
  0
ARC
  5
1DC
  8
0
  6
CONTINUOUS
 62
     7
 10
85.871904086
 20
125.832708235
 30
0.0
 40
0.1377404315118334
 50
137.7250967562
 51
228.2749098032
  0
LINE
  5
1DD
  8
0
  6
CONTINUOUS
 62
     7
 10
85.7802299433
 20
125.7299061044
 30
0.0
 11
86.5731952072
 21
125.0159169658
 31
0.0
  0
ARC
  5
1DE
  8
0
  6
CONTINUOUS
 62
     7
 10
86.6658516939
 20
125.1178348431
 30
0.0
 40
0.1377406194724727
 50
227.7251195242
 51
318.2749139329
  0
LINE
  5
1DF
  8
0
  6
CONTINUOUS
 62
     7
 10
86.7686539714
 20
125.0261605828
 30
0.0
 11
86.8141391838
 21
125.0766769163
 31
0.0
  0
LINE
  5
1E0
  8
0
  6
CONTINUOUS
 62
     7
 10
87.1538522479
 20
125.0042870752
 30
0.0
 11
85.8236300119
 21
124.9345729239
 31
0.0
  0
ARC
  5
1E1
  8
0
  6
CONTINUOUS
 62
     7
 10
85.8214907536
 20
124.9784017262
 30
0.0
 40
0.0438809792102237
 50
183.4347054212
 51
272.7943559116
  0
LINE
  5
1E2
  8
0
  6
CONTINUOUS
 62
     7
 10
85.7776885969
 20
124.9757727719
 30
0.0
 11
85.7079646084
 21
126.3061856962
 31
0.0
  0
LINE
  5
1E3
  8
0
  6
CONTINUOUS
 62
     7
 10
86.5932909364
 20
125.0382356457
 30
0.0
 11
85.8003256726
 21
125.7522243186
 31
0.0
  0
POLYLINE
  5
1E4
  8
0
  6
CONTINUOUS
 62
     7
 66
     1
 10
0.0
 20
0.0
 30
0.0
 70
   128
  0
VERTEX
  5
5FC
  8
0
  6
CONTINUOUS
 62
     7
 10
86.5932909364
 20
125.0382356457
 30
0.0
  0
VERTEX
  5
5FD
  8
0
  6
CONTINUOUS
 62
     7
 10
86.5913229354
 20
125.0360498316
 30
0.0
  0
VERTEX
  5
5FE
  8
0
  6
CONTINUOUS
 62
     7
 10
86.5891442227
 20
125.0336297899
 30
0.0
  0
VERTEX
  5
5FF
  8
0
  6
CONTINUOUS
 62
     7
 10
86.5867798275
 20
125.0310039259
 30
0.0
  0
VERTEX
  5
600
  8
0
  6
CONTINUOUS
 62
     7
 10
86.5842575731
 20
125.0282029732
 30
0.0
  0
VERTEX
  5
601
  8
0
  6
CONTINUOUS
 62
     7
 10
86.5816065634
 20
125.0252585969
 30
0.0
  0
VERTEX
  5
602
  8
0
  6
CONTINUOUS
 62
     7
 10
86.5788577648
 20
125.0222057215
 30
0.0
  0
VERTEX
  5
603
  8
0
  6
CONTINUOUS
 62
     7
 10
86.5760429588
 20
125.0190797373
 30
0.0
  0
VERTEX
  5
604
  8
0
  6
CONTINUOUS
 62
     7
 10
86.5731952072
 20
125.0159169658
 30
0.0
  0
SEQEND
  5
7F5
  8
0
  6
CONTINUOUS
 62
     7
  0
POLYLINE
  5
1E5
  8
0
  6
CONTINUOUS
 62
     7
 66
     1
 10
0.0
 20
0.0
 30
0.0
 70
   128
  0
VERTEX
  5
605
  8
0
  6
CONTINUOUS
 62
     7
 10
85.8003256726
 20
125.7522243186
 30
0.0
  0
VERTEX
  5
606
  8
0
  6
CONTINUOUS
 62
     7
 10
85.7983577298
 20
125.7500389702
 30
0.0
  0
VERTEX
  5
607
  8
0
  6
CONTINUOUS
 62
     7
 10
85.7961789297
 20
125.7476189285
 30
0.0
  0
VERTEX
  5
608
  8
0
  6
CONTINUOUS
 62
     7
 10
85.7938145928
 20
125.7449930645
 30
0.0
  0
VERTEX
  5
609
  8
0
  6
CONTINUOUS
 62
     7
 10
85.7912922802
 20
125.7421921118
 30
0.0
  0
VERTEX
  5
60A
  8
0
  6
CONTINUOUS
 62
     7
 10
85.7886412705
 20
125.7392477355
 30
0.0
  0
VERTEX
  5
60B
  8
0
  6
CONTINUOUS
 62
     7
 10
85.7858924428
 20
125.7361948601
 30
0.0
  0
VERTEX
  5
60C
  8
0
  6
CONTINUOUS
 62
     7
 10
85.7830777531
 20
125.7330688759
 30
0.0
  0
VERTEX
  5
60D
  8
0
  6
CONTINUOUS
 62
     7
 10
85.7802299433
 20
125.7299061044
 30
0.0
  0
SEQEND
  5
7F6
  8
0
  6
CONTINUOUS
 62
     7
  0
POLYLINE
  5
1E6
  8
0
  6
CONTINUOUS
 62
     7
 66
     1
 10
0.0
 20
0.0
 30
0.0
 70
   128
  0
VERTEX
  5
60E
  8
0
  6
CONTINUOUS
 62
     7
 10
86.7463354079
 20
125.0462561957
 30
0.0
  0
VERTEX
  5
60F
  8
0
  6
CONTINUOUS
 62
     7
 10
86.7485209892
 20
125.0442883111
 30
0.0
  0
VERTEX
  5
610
  8
0
  6
CONTINUOUS
 62
     7
 10
86.7509407981
 20
125.0421094819
 30
0.0
  0
VERTEX
  5
611
  8
0
  6
CONTINUOUS
 62
     7
 10
86.7535666621
 20
125.0397448539
 30
0.0
  0
VERTEX
  5
612
  8
0
  6
CONTINUOUS
 62
     7
 10
86.756367964
 20
125.0372228324
 30
0.0
  0
VERTEX
  5
613
  8
0
  6
CONTINUOUS
 62
     7
 10
86.7593122239
 20
125.0345718227
 30
0.0
  0
VERTEX
  5
614
  8
0
  6
CONTINUOUS
 62
     7
 10
86.7623650993
 20
125.0318230241
 30
0.0
  0
VERTEX
  5
615
  8
0
  6
CONTINUOUS
 62
     7
 10
86.7654910835
 20
125.0290081016
 30
0.0
  0
VERTEX
  5
616
  8
0
  6
CONTINUOUS
 62
     7
 10
86.7686539714
 20
125.0261605828
 30
0.0
  0
SEQEND
  5
7F7
  8
0
  6
CONTINUOUS
 62
     7
  0
LINE
  5
1E7
  8
0
  6
CONTINUOUS
 62
     7
 10
86.7931804678
 20
125.0982826687
 30
0.0
 11
86.7463354079
 21
125.0462561957
 31
0.0
  0
POLYLINE
  5
1E8
  8
0
  6
CONTINUOUS
 62
     7
 66
     1
 10
0.0
 20
0.0
 30
0.0
 70
   128
  0
VERTEX
  5
617
  8
0
  6
CONTINUOUS
 62
     7
 10
85.7322864758
 20
124.9736987165
 30
0.0
  0
VERTEX
  5
618
  8
0
  6
CONTINUOUS
 62
     7
 10
85.7538796554
 20
124.9746775366
 30
0.0
  0
VERTEX
  5
619
  8
0
  6
CONTINUOUS
 62
     7
 10
85.7776885969
 20
124.9757727719
 30
0.0
  0
SEQEND
  5
7F8
  8
0
  6
CONTINUOUS
 62
     7
  0
LINE
  5
1E9
  8
0
  6
CONTINUOUS
 62
     7
 10
85.5657467619
 20
128.1514658704
 30
0.0
 11
85.7322864758
 21
124.9736987165
 31
0.0
  0
POLYLINE
  5
1EA
  8
0
  6
CONTINUOUS
 62
     7
 66
     1
 10
0.0
 20
0.0
 30
0.0
 70
   128
  0
VERTEX
  5
61A
  8
0
  6
CONTINUOUS
 62
     7
 10
85.5657467619
 20
128.1514658704
 30
0.0
  0
VERTEX
  5
61B
  8
0
  6
CONTINUOUS
 62
     7
 10
85.5873239634
 20
128.1527494657
 30
0.0
  0
VERTEX
  5
61C
  8
0
  6
CONTINUOUS
 62
     7
 10
85.611116956
 20
128.1541490107
 30
0.0
  0
SEQEND
  5
7F9
  8
0
  6
CONTINUOUS
 62
     7
  0
POLYLINE
  5
1EB
  8
0
  6
CONTINUOUS
 62
     7
 66
     1
 10
0.0
 20
0.0
 30
0.0
 70
   128
  0
VERTEX
  5
61D
  8
0
  6
CONTINUOUS
 62
     7
 10
88.9218772354
 20
128.3273531235
 30
0.0
  0
VERTEX
  5
61E
  8
0
  6
CONTINUOUS
 62
     7
 10
88.9002840558
 20
128.3263743035
 30
0.0
  0
VERTEX
  5
61F
  8
0
  6
CONTINUOUS
 62
     7
 10
88.8764750271
 20
128.3252790681
 30
0.0
  0
SEQEND
  5
7FA
  8
0
  6
CONTINUOUS
 62
     7
  0
LINE
  5
1EC
  8
0
  6
CONTINUOUS
 62
     7
 10
89.0884168039
 20
125.1495859697
 30
0.0
 11
88.9218772354
 21
128.3273531235
 31
0.0
  0
POLYLINE
  5
1ED
  8
0
  6
CONTINUOUS
 62
     7
 66
     1
 10
0.0
 20
0.0
 30
0.0
 70
   128
  0
VERTEX
  5
620
  8
0
  6
CONTINUOUS
 62
     7
 10
89.0884168039
 20
125.1495859697
 30
0.0
  0
VERTEX
  5
621
  8
0
  6
CONTINUOUS
 62
     7
 10
89.0668396896
 20
125.1483026072
 30
0.0
  0
VERTEX
  5
622
  8
0
  6
CONTINUOUS
 62
     7
 10
89.0430467261
 20
125.1469028293
 30
0.0
  0
SEQEND
  5
7FB
  8
0
  6
CONTINUOUS
 62
     7
  0
POLYLINE
  5
1EE
  8
0
  6
CONTINUOUS
 62
     7
 66
     1
 10
0.0
 20
0.0
 30
0.0
 70
   128
  0
VERTEX
  5
623
  8
0
  6
CONTINUOUS
 62
     7
 10
89.0016634075
 20
125.1011269278
 30
0.0
  0
VERTEX
  5
624
  8
0
  6
CONTINUOUS
 62
     7
 10
89.002824534
 20
125.0773395523
 30
0.0
  0
VERTEX
  5
625
  8
0
  6
CONTINUOUS
 62
     7
 10
89.0038697107
 20
125.0557622052
 30
0.0
  0
SEQEND
  5
7FC
  8
0
  6
CONTINUOUS
 62
     7
  0
LINE
  5
1EF
  8
0
  6
CONTINUOUS
 62
     7
 10
85.8261777612
 20
124.8892268277
 30
0.0
 11
89.0038697107
 21
125.0557622052
 31
0.0
  0
POLYLINE
  5
1F0
  8
0
  6
CONTINUOUS
 62
     7
 66
     1
 10
0.0
 20
0.0
 30
0.0
 70
   128
  0
VERTEX
  5
626
  8
0
  6
CONTINUOUS
 62
     7
 10
85.8261777612
 20
124.8892268277
 30
0.0
  0
VERTEX
  5
627
  8
0
  6
CONTINUOUS
 62
     7
 10
85.8249618032
 20
124.9107948615
 30
0.0
  0
VERTEX
  5
628
  8
0
  6
CONTINUOUS
 62
     7
 10
85.8236300119
 20
124.9345729239
 30
0.0
  0
SEQEND
  5
7FD
  8
0
  6
CONTINUOUS
 62
     7
  0
POLYLINE
  5
1F1
  8
0
  6
CONTINUOUS
 62
     7
 66
     1
 10
0.0
 20
0.0
 30
0.0
 70
   128
  0
VERTEX
  5
629
  8
0
  6
CONTINUOUS
 62
     7
 10
85.6502939423
 20
128.245289402
 30
0.0
  0
VERTEX
  5
62A
  8
0
  6
CONTINUOUS
 62
     7
 10
85.6513391482
 20
128.2237125206
 30
0.0
  0
VERTEX
  5
62B
  8
0
  6
CONTINUOUS
 62
     7
 10
85.6525001873
 20
128.1999251451
 30
0.0
  0
SEQEND
  5
7FE
  8
0
  6
CONTINUOUS
 62
     7
  0
LINE
  5
1F2
  8
0
  6
CONTINUOUS
 62
     7
 10
88.82798595
 20
128.4118252452
 30
0.0
 11
85.6502939423
 21
128.245289402
 31
0.0
  0
POLYLINE
  5
1F3
  8
0
  6
CONTINUOUS
 62
     7
 66
     1
 10
0.0
 20
0.0
 30
0.0
 70
   128
  0
VERTEX
  5
62C
  8
0
  6
CONTINUOUS
 62
     7
 10
88.82798595
 20
128.4118252452
 30
0.0
  0
VERTEX
  5
62D
  8
0
  6
CONTINUOUS
 62
     7
 10
88.8292017917
 20
128.3902572113
 30
0.0
  0
VERTEX
  5
62E
  8
0
  6
CONTINUOUS
 62
     7
 10
88.8305335829
 20
128.3664786834
 30
0.0
  0
SEQEND
  5
7FF
  8
0
  6
CONTINUOUS
 62
     7
  0
ARC
  5
1F4
  8
0
  6
CONTINUOUS
 62
     7
 10
88.858839731
 20
125.9892468667
 30
0.0
 40
0.1083672827829946
 50
317.9999999997
 51
47.9999999998
  0
ARC
  5
1F5
  8
0
  6
CONTINUOUS
 62
     7
 10
86.6658027945
 20
125.1187680007
 30
0.0
 40
0.1083672827829851
 50
227.9999999997
 51
317.9999999997
  0
ARC
  5
1F6
  8
0
  6
CONTINUOUS
 62
     7
 10
85.7953239285
 20
127.3118049371
 30
0.0
 40
0.1083672827829946
 50
137.9999999997
 51
227.9999999997
  0
ARC
  5
1F7
  8
0
  6
CONTINUOUS
 62
     7
 10
87.988360865
 20
128.1822838031
 30
0.0
 40
0.1083672827829946
 50
47.9999999997
 51
137.9999999998
  0
ARC
  5
1F8
  8
0
  6
CONTINUOUS
 62
     7
 10
85.8728375399
 20
125.8327571229
 30
0.0
 40
0.1083672827828676
 50
138.0000000002
 51
228.0000000003
  0
ARC
  5
1F9
  8
0
  6
CONTINUOUS
 62
     7
 10
86.5093130508
 20
128.1047701917
 30
0.0
 40
0.1083672827828581
 50
48.0000000002
 51
138.0000000003
  0
ARC
  5
1FA
  8
0
  6
CONTINUOUS
 62
     7
 10
88.1448506088
 20
125.1962816121
 30
0.0
 40
0.1083672827828972
 50
228.0000000002
 51
318.0000000003
  0
ARC
  5
1FB
  8
0
  6
CONTINUOUS
 62
     7
 10
88.7813261196
 20
127.4682946809
 30
0.0
 40
0.108367282782857
 50
318.0000000002
 51
48.0000000003
  0
ARC
  5
1FC
  8
0
  6
CONTINUOUS
 62
     7
 10
85.8412481313
 20
125.0003941708
 30
0.0
 40
0.1121842055974799
 50
193.7662220873
 51
262.2797480266
  0
ARC
  5
1FD
  8
0
  6
CONTINUOUS
 62
     7
 10
88.8129149064
 20
128.3006569477
 30
0.0
 40
0.1121850032517428
 50
13.7665016802
 51
82.2794860951
  0
ARC
  5
1FE
  8
0
  6
CONTINUOUS
 62
     7
 10
88.977261193
 20
125.164746367
 30
0.0
 40
0.1121849332075311
 50
283.7204216195
 51
352.2334260357
  0
ARC
  5
1FF
  8
0
  6
CONTINUOUS
 62
     7
 10
85.6769033858
 20
128.13630503
 30
0.0
 40
0.1121858094039504
 50
103.7207990476
 51
172.2332586831
  0
CIRCLE
  5
200
  8
0
  6
CONTINUOUS
 62
     7
 10
85.8586276546
 20
127.9727279801
 30
0.0
 40
0.0409387041693682
  0
LINE
  5
201
  8
0
  6
CONTINUOUS
 62
     7
 10
86.5802151675
 20
128.0655136443
 30
0.0
 11
86.5215377707
 21
128.1183471083
 31
0.0
  0
LINE
  5
202
  8
0
  6
CONTINUOUS
 62
     7
 10
88.0739485437
 20
125.2355381958
 30
0.0
 11
88.1326258241
 21
125.1827047318
 31
0.0
  0
LINE
  5
203
  8
0
  6
CONTINUOUS
 62
     7
 10
85.9120941313
 20
125.9036592319
 30
0.0
 11
85.8592606673
 21
125.8449817187
 31
0.0
  0
POLYLINE
  5
204
  8
0
  6
CONTINUOUS
 62
     7
 66
     1
 10
0.0
 20
0.0
 30
0.0
 70
   128
  0
VERTEX
  5
62F
  8
0
  6
CONTINUOUS
 62
     7
 10
85.792304948
 20
125.905269023
 30
0.0
  0
VERTEX
  5
630
  8
0
  6
CONTINUOUS
 62
     7
 10
85.7988618663
 20
125.8993649035
 30
0.0
  0
VERTEX
  5
631
  8
0
  6
CONTINUOUS
 62
     7
 10
85.8061212639
 20
125.8928288817
 30
0.0
  0
VERTEX
  5
632
  8
0
  6
CONTINUOUS
 62
     7
 10
85.8139987977
 20
125.8857359289
 30
0.0
  0
VERTEX
  5
633
  8
0
  6
CONTINUOUS
 62
     7
 10
85.8224027615
 20
125.878168933
 30
0.0
  0
VERTEX
  5
634
  8
0
  6
CONTINUOUS
 62
     7
 10
85.8312354248
 20
125.8702159039
 30
0.0
  0
VERTEX
  5
635
  8
0
  6
CONTINUOUS
 62
     7
 10
85.8403941093
 20
125.8619695082
 30
0.0
  0
VERTEX
  5
636
  8
0
  6
CONTINUOUS
 62
     7
 10
85.8497721783
 20
125.8535252064
 30
0.0
  0
VERTEX
  5
637
  8
0
  6
CONTINUOUS
 62
     7
 10
85.8592606673
 20
125.8449817187
 30
0.0
  0
SEQEND
  5
800
  8
0
  6
CONTINUOUS
 62
     7
  0
LINE
  5
205
  8
0
  6
CONTINUOUS
 62
     7
 10
88.7420695799
 20
127.3973926082
 30
0.0
 11
88.7949030439
 21
127.4560701213
 31
0.0
  0
POLYLINE
  5
206
  8
0
  6
CONTINUOUS
 62
     7
 66
     1
 10
0.0
 20
0.0
 30
0.0
 70
   128
  0
VERTEX
  5
638
  8
0
  6
CONTINUOUS
 62
     7
 10
88.8618586177
 20
127.3957828171
 30
0.0
  0
VERTEX
  5
639
  8
0
  6
CONTINUOUS
 62
     7
 10
88.855301874
 20
127.4016864709
 30
0.0
  0
VERTEX
  5
63A
  8
0
  6
CONTINUOUS
 62
     7
 10
88.8480424473
 20
127.4082229584
 30
0.0
  0
VERTEX
  5
63B
  8
0
  6
CONTINUOUS
 62
     7
 10
88.8401648554
 20
127.4153159111
 30
0.0
  0
VERTEX
  5
63C
  8
0
  6
CONTINUOUS
 62
     7
 10
88.8317608333
 20
127.422882907
 30
0.0
  0
VERTEX
  5
63D
  8
0
  6
CONTINUOUS
 62
     7
 10
88.82292817
 20
127.4308359361
 30
0.0
  0
VERTEX
  5
63E
  8
0
  6
CONTINUOUS
 62
     7
 10
88.8137695438
 20
127.4390823319
 30
0.0
  0
VERTEX
  5
63F
  8
0
  6
CONTINUOUS
 62
     7
 10
88.8043913583
 20
127.4475266337
 30
0.0
  0
VERTEX
  5
640
  8
0
  6
CONTINUOUS
 62
     7
 10
88.7949030439
 20
127.4560701213
 30
0.0
  0
SEQEND
  5
801
  8
0
  6
CONTINUOUS
 62
     7
  0
POLYLINE
  5
207
  8
0
  6
CONTINUOUS
 62
     7
 66
     1
 10
0.0
 20
0.0
 30
0.0
 70
   128
  0
VERTEX
  5
641
  8
0
  6
CONTINUOUS
 62
     7
 10
86.7463354079
 20
125.0462561957
 30
0.0
  0
VERTEX
  5
642
  8
0
  6
CONTINUOUS
 62
     7
 10
86.7397784314
 20
125.0521598495
 30
0.0
  0
VERTEX
  5
643
  8
0
  6
CONTINUOUS
 62
     7
 10
86.7325190047
 20
125.058696337
 30
0.0
  0
VERTEX
  5
644
  8
0
  6
CONTINUOUS
 62
     7
 10
86.7246415291
 20
125.0657892897
 30
0.0
  0
VERTEX
  5
645
  8
0
  6
CONTINUOUS
 62
     7
 10
86.7162376235
 20
125.0733562856
 30
0.0
  0
VERTEX
  5
646
  8
0
  6
CONTINUOUS
 62
     7
 10
86.7074048438
 20
125.0813093147
 30
0.0
  0
VERTEX
  5
647
  8
0
  6
CONTINUOUS
 62
     7
 10
86.6982462176
 20
125.0895557105
 30
0.0
  0
VERTEX
  5
648
  8
0
  6
CONTINUOUS
 62
     7
 10
86.6888681485
 20
125.0980000123
 30
0.0
  0
VERTEX
  5
649
  8
0
  6
CONTINUOUS
 62
     7
 10
86.6793797177
 20
125.1065434999
 30
0.0
  0
SEQEND
  5
802
  8
0
  6
CONTINUOUS
 62
     7
  0
POLYLINE
  5
208
  8
0
  6
CONTINUOUS
 62
     7
 66
     1
 10
0.0
 20
0.0
 30
0.0
 70
   128
  0
VERTEX
  5
64A
  8
0
  6
CONTINUOUS
 62
     7
 10
87.9078283033
 20
128.2547956444
 30
0.0
  0
VERTEX
  5
64B
  8
0
  6
CONTINUOUS
 62
     7
 10
87.9143852799
 20
128.2488917577
 30
0.0
  0
VERTEX
  5
64C
  8
0
  6
CONTINUOUS
 62
     7
 10
87.9216447065
 20
128.2423555031
 30
0.0
  0
VERTEX
  5
64D
  8
0
  6
CONTINUOUS
 62
     7
 10
87.9295220657
 20
128.2352625503
 30
0.0
  0
VERTEX
  5
64E
  8
0
  6
CONTINUOUS
 62
     7
 10
87.9379260878
 20
128.2276955544
 30
0.0
  0
VERTEX
  5
64F
  8
0
  6
CONTINUOUS
 62
     7
 10
87.9467587511
 20
128.2197425253
 30
0.0
  0
VERTEX
  5
650
  8
0
  6
CONTINUOUS
 62
     7
 10
87.9559173773
 20
128.2114958967
 30
0.0
  0
VERTEX
  5
651
  8
0
  6
CONTINUOUS
 62
     7
 10
87.9652955628
 20
128.2030518278
 30
0.0
  0
VERTEX
  5
652
  8
0
  6
CONTINUOUS
 62
     7
 10
87.9747838771
 20
128.194508573
 30
0.0
  0
SEQEND
  5
803
  8
0
  6
CONTINUOUS
 62
     7
  0
POLYLINE
  5
209
  8
0
  6
CONTINUOUS
 62
     7
 66
     1
 10
0.0
 20
0.0
 30
0.0
 70
   128
  0
VERTEX
  5
653
  8
0
  6
CONTINUOUS
 62
     7
 10
85.7228120731
 20
127.2312721349
 30
0.0
  0
VERTEX
  5
654
  8
0
  6
CONTINUOUS
 62
     7
 10
85.7287159306
 20
127.2378291114
 30
0.0
  0
VERTEX
  5
655
  8
0
  6
CONTINUOUS
 62
     7
 10
85.7352523308
 20
127.2450887709
 30
0.0
  0
VERTEX
  5
656
  8
0
  6
CONTINUOUS
 62
     7
 10
85.7423452835
 20
127.2529663629
 30
0.0
  0
VERTEX
  5
657
  8
0
  6
CONTINUOUS
 62
     7
 10
85.7499122503
 20
127.2613701522
 30
0.0
  0
VERTEX
  5
658
  8
0
  6
CONTINUOUS
 62
     7
 10
85.7578652212
 20
127.2702028155
 30
0.0
  0
VERTEX
  5
659
  8
0
  6
CONTINUOUS
 62
     7
 10
85.7661117334
 20
127.2793614417
 30
0.0
  0
VERTEX
  5
65A
  8
0
  6
CONTINUOUS
 62
     7
 10
85.7745558023
 20
127.2887393943
 30
0.0
  0
VERTEX
  5
65B
  8
0
  6
CONTINUOUS
 62
     7
 10
85.7830992609
 20
127.2982281744
 30
0.0
  0
SEQEND
  5
804
  8
0
  6
CONTINUOUS
 62
     7
  0
LINE
  5
20A
  8
0
  6
CONTINUOUS
 62
     7
 10
85.7830992609
 20
127.2982281744
 30
0.0
 11
85.8417767158
 21
127.2453947104
 31
0.0
  0
POLYLINE
  5
20B
  8
0
  6
CONTINUOUS
 62
     7
 66
     1
 10
0.0
 20
0.0
 30
0.0
 70
   128
  0
VERTEX
  5
65C
  8
0
  6
CONTINUOUS
 62
     7
 10
88.93135158
 20
126.0697792395
 30
0.0
  0
VERTEX
  5
65D
  8
0
  6
CONTINUOUS
 62
     7
 10
88.9254476933
 20
126.0632227286
 30
0.0
  0
VERTEX
  5
65E
  8
0
  6
CONTINUOUS
 62
     7
 10
88.9189114387
 20
126.0559630691
 30
0.0
  0
VERTEX
  5
65F
  8
0
  6
CONTINUOUS
 62
     7
 10
88.9118184859
 20
126.0480854771
 30
0.0
  0
VERTEX
  5
660
  8
0
  6
CONTINUOUS
 62
     7
 10
88.90425149
 20
126.0396816879
 30
0.0
  0
VERTEX
  5
661
  8
0
  6
CONTINUOUS
 62
     7
 10
88.8962984609
 20
126.0308490246
 30
0.0
  0
VERTEX
  5
662
  8
0
  6
CONTINUOUS
 62
     7
 10
88.8880518323
 20
126.0216903984
 30
0.0
  0
VERTEX
  5
663
  8
0
  6
CONTINUOUS
 62
     7
 10
88.8796077634
 20
126.0123119801
 30
0.0
  0
VERTEX
  5
664
  8
0
  6
CONTINUOUS
 62
     7
 10
88.8710645086
 20
126.0028236657
 30
0.0
  0
SEQEND
  5
805
  8
0
  6
CONTINUOUS
 62
     7
  0
LINE
  5
20C
  8
0
  6
CONTINUOUS
 62
     7
 10
88.8710645086
 20
126.0028236657
 30
0.0
 11
88.8123869954
 21
126.0556571297
 31
0.0
  0
LINE
  5
20D
  8
0
  6
CONTINUOUS
 62
     7
 10
85.4413663546
 20
128.205715876
 30
0.0
 11
85.4418235685
 21
128.2370080817
 31
0.0
  0
POLYLINE
  5
20E
  8
0
  6
CONTINUOUS
 62
     7
 66
     1
 10
0.0
 20
0.0
 30
0.0
 70
   128
  0
VERTEX
  5
665
  8
0
  6
CONTINUOUS
 62
     7
 10
85.4418235685
 20
128.2370080817
 30
0.0
  0
VERTEX
  5
666
  8
0
  6
CONTINUOUS
 62
     7
 10
85.4536756378
 20
128.279267542
 30
0.0
  0
VERTEX
  5
667
  8
0
  6
CONTINUOUS
 62
     7
 10
85.4775912885
 20
128.3158147353
 30
0.0
  0
SEQEND
  5
806
  8
0
  6
CONTINUOUS
 62
     7
  0
ARC
  5
20F
  8
0
  6
CONTINUOUS
 62
     7
 10
85.5847109296
 20
128.2189064596
 30
0.0
 40
0.1444501000676594
 50
90.5595083508
 51
137.8651979354
  0
LINE
  5
210
  8
0
  6
CONTINUOUS
 62
     7
 10
85.5833003588
 20
128.3633496723
 30
0.0
 11
85.6502939423
 21
128.245289402
 31
0.0
  0
LINE
  5
211
  8
0
  6
CONTINUOUS
 62
     7
 10
85.5657466891
 20
128.1514658704
 30
0.0
 11
85.4413663546
 21
128.205715876
 31
0.0
  0
LINE
  5
212
  8
0
  6
CONTINUOUS
 62
     7
 10
89.212797262
 20
125.095335964
 30
0.0
 11
89.2123399826
 21
125.0640435255
 31
0.0
  0
POLYLINE
  5
213
  8
0
  6
CONTINUOUS
 62
     7
 66
     1
 10
0.0
 20
0.0
 30
0.0
 70
   128
  0
VERTEX
  5
668
  8
0
  6
CONTINUOUS
 62
     7
 10
89.2123399826
 20
125.0640435255
 30
0.0
  0
VERTEX
  5
669
  8
0
  6
CONTINUOUS
 62
     7
 10
89.2004879715
 20
125.0217842981
 30
0.0
  0
VERTEX
  5
66A
  8
0
  6
CONTINUOUS
 62
     7
 10
89.1765723063
 20
124.9852373376
 30
0.0
  0
SEQEND
  5
807
  8
0
  6
CONTINUOUS
 62
     7
  0
ARC
  5
214
  8
0
  6
CONTINUOUS
 62
     7
 10
89.0694538907
 20
125.0821421804
 30
0.0
 40
0.1444468882674276
 50
270.5590346573
 51
317.8658815713
  0
LINE
  5
215
  8
0
  6
CONTINUOUS
 62
     7
 10
89.070863236
 20
124.9377021677
 30
0.0
 11
89.0038697107
 21
125.0557622052
 31
0.0
  0
LINE
  5
216
  8
0
  6
CONTINUOUS
 62
     7
 10
89.0884170367
 20
125.1495859697
 30
0.0
 11
89.212797262
 21
125.095335964
 31
0.0
  0
LINE
  5
217
  8
0
  6
CONTINUOUS
 62
     7
 10
85.6142581324
 20
124.9067445397
 30
0.0
 11
85.7322864176
 21
124.9736987165
 31
0.0
  0
LINE
  5
218
  8
0
  6
CONTINUOUS
 62
     7
 10
85.7718918123
 20
124.7648105136
 30
0.0
 11
85.826177703
 21
124.8892268277
 31
0.0
  0
LINE
  5
219
  8
0
  6
CONTINUOUS
 62
     7
 10
85.7405996649
 20
124.765267793
 30
0.0
 11
85.7718918123
 21
124.7648105136
 31
0.0
  0
POLYLINE
  5
21A
  8
0
  6
CONTINUOUS
 62
     7
 66
     1
 10
0.0
 20
0.0
 30
0.0
 70
   128
  0
VERTEX
  5
66B
  8
0
  6
CONTINUOUS
 62
     7
 10
85.6617930694
 20
124.8010352365
 30
0.0
  0
VERTEX
  5
66C
  8
0
  6
CONTINUOUS
 62
     7
 10
85.6983400881
 20
124.7771198041
 30
0.0
  0
VERTEX
  5
66D
  8
0
  6
CONTINUOUS
 62
     7
 10
85.7405996649
 20
124.765267793
 30
0.0
  0
SEQEND
  5
808
  8
0
  6
CONTINUOUS
 62
     7
  0
ARC
  5
21B
  8
0
  6
CONTINUOUS
 62
     7
 10
85.7586996036
 20
124.9081540914
 30
0.0
 40
0.144448348640521
 50
180.5591108968
 51
227.8655009832
  0
LINE
  5
21C
  8
0
  6
CONTINUOUS
 62
     7
 10
88.9218772354
 20
128.3273531235
 30
0.0
 11
89.0399056079
 21
128.3943073004
 31
0.0
  0
LINE
  5
21D
  8
0
  6
CONTINUOUS
 62
     7
 10
88.8822718116
 20
128.5362413264
 30
0.0
 11
88.82798595
 21
128.4118252452
 31
0.0
  0
LINE
  5
21E
  8
0
  6
CONTINUOUS
 62
     7
 10
88.9135640173
 20
128.5357842799
 30
0.0
 11
88.8822718116
 21
128.5362413264
 31
0.0
  0
POLYLINE
  5
21F
  8
0
  6
CONTINUOUS
 62
     7
 66
     1
 10
0.0
 20
0.0
 30
0.0
 70
   128
  0
VERTEX
  5
66E
  8
0
  6
CONTINUOUS
 62
     7
 10
88.9923706709
 20
128.5000163707
 30
0.0
  0
VERTEX
  5
66F
  8
0
  6
CONTINUOUS
 62
     7
 10
88.9558234776
 20
128.5239320359
 30
0.0
  0
VERTEX
  5
670
  8
0
  6
CONTINUOUS
 62
     7
 10
88.9135640173
 20
128.5357842799
 30
0.0
  0
SEQEND
  5
809
  8
0
  6
CONTINUOUS
 62
     7
  0
ARC
  5
220
  8
0
  6
CONTINUOUS
 62
     7
 10
88.8954646169
 20
128.3928977286
 30
0.0
 40
0.1444478687093656
 50
0.5591206973
 51
47.8655855889
  0
LINE
  5
221
  8
0
  6
CONTINUOUS
 62
     7
 10
88.8822718116
 20
128.5362413264
 30
0.0
 11
88.8216895109
 21
128.5330664478
 31
0.0
  0
LINE
  5
222
  8
0
  6
CONTINUOUS
 62
     7
 10
88.8216895109
 20
128.5330664478
 30
0.0
 11
85.5833003588
 21
128.3633496723
 31
0.0
  0
LINE
  5
223
  8
0
  6
CONTINUOUS
 62
     7
 10
85.8324742585
 20
124.7679853923
 30
0.0
 11
89.070863236
 21
124.9377021677
 31
0.0
  0
LINE
  5
224
  8
0
  6
CONTINUOUS
 62
     7
 10
85.7718918123
 20
124.7648105136
 30
0.0
 11
85.8324742585
 21
124.7679853923
 31
0.0
  0
LINE
  5
225
  8
0
  6
CONTINUOUS
 62
     7
 10
85.4445413497
 20
128.1451335754
 30
0.0
 11
85.6142581324
 21
124.9067445397
 31
0.0
  0
LINE
  5
226
  8
0
  6
CONTINUOUS
 62
     7
 10
85.4413663546
 20
128.205715876
 30
0.0
 11
85.4445413497
 21
128.1451335754
 31
0.0
  0
LINE
  5
227
  8
0
  6
CONTINUOUS
 62
     7
 10
89.0399056079
 20
128.3943073004
 30
0.0
 11
89.2096223833
 21
125.1559184975
 31
0.0
  0
LINE
  5
228
  8
0
  6
CONTINUOUS
 62
     7
 10
89.2096223833
 20
125.1559184975
 30
0.0
 11
89.212797262
 21
125.095335964
 31
0.0
  0
POLYLINE
  5
229
  8
0
  6
CONTINUOUS
 62
     7
 66
     1
 10
0.0
 20
0.0
 30
0.0
 70
   128
  0
VERTEX
  5
671
  8
0
  6
CONTINUOUS
 62
     7
 10
86.5932909364
 20
125.0382356457
 30
0.0
  0
VERTEX
  5
672
  8
0
  6
CONTINUOUS
 62
     7
 10
86.5991948231
 20
125.0447921566
 30
0.0
  0
VERTEX
  5
673
  8
0
  6
CONTINUOUS
 62
     7
 10
86.6057311941
 20
125.0520518161
 30
0.0
  0
VERTEX
  5
674
  8
0
  6
CONTINUOUS
 62
     7
 10
86.6128241469
 20
125.0599294081
 30
0.0
  0
VERTEX
  5
675
  8
0
  6
CONTINUOUS
 62
     7
 10
86.6203911428
 20
125.0683331973
 30
0.0
  0
VERTEX
  5
676
  8
0
  6
CONTINUOUS
 62
     7
 10
86.6283440555
 20
125.0771658606
 30
0.0
  0
VERTEX
  5
677
  8
0
  6
CONTINUOUS
 62
     7
 10
86.6365905676
 20
125.0863244868
 30
0.0
  0
VERTEX
  5
678
  8
0
  6
CONTINUOUS
 62
     7
 10
86.6450346366
 20
125.0957024395
 30
0.0
  0
VERTEX
  5
679
  8
0
  6
CONTINUOUS
 62
     7
 10
86.6535781242
 20
125.1051912195
 30
0.0
  0
SEQEND
  5
80A
  8
0
  6
CONTINUOUS
 62
     7
  0
ARC
  5
22A
  8
0
  6
CONTINUOUS
 62
     7
 10
86.6658027945
 20
125.1187680007
 30
0.0
 40
0.0182694831207768
 50
227.9999999982
 51
317.9999999989
  0
POLYLINE
  5
22B
  8
0
  6
CONTINUOUS
 62
     7
 66
     1
 10
0.0
 20
0.0
 30
0.0
 70
   128
  0
VERTEX
  5
67A
  8
0
  6
CONTINUOUS
 62
     7
 10
88.2253832242
 20
125.1237697079
 30
0.0
  0
VERTEX
  5
67B
  8
0
  6
CONTINUOUS
 62
     7
 10
88.2188262476
 20
125.1296738274
 30
0.0
  0
VERTEX
  5
67C
  8
0
  6
CONTINUOUS
 62
     7
 10
88.211566821
 20
125.1362098492
 30
0.0
  0
VERTEX
  5
67D
  8
0
  6
CONTINUOUS
 62
     7
 10
88.2036894618
 20
125.1433028019
 30
0.0
  0
VERTEX
  5
67E
  8
0
  6
CONTINUOUS
 62
     7
 10
88.1952854397
 20
125.1508697978
 30
0.0
  0
VERTEX
  5
67F
  8
0
  6
CONTINUOUS
 62
     7
 10
88.1864527764
 20
125.158822827
 30
0.0
  0
VERTEX
  5
680
  8
0
  6
CONTINUOUS
 62
     7
 10
88.1772941502
 20
125.1670692227
 30
0.0
  0
VERTEX
  5
681
  8
0
  6
CONTINUOUS
 62
     7
 10
88.1679159647
 20
125.1755135245
 30
0.0
  0
VERTEX
  5
682
  8
0
  6
CONTINUOUS
 62
     7
 10
88.1584274175
 20
125.1840570121
 30
0.0
  0
SEQEND
  5
80B
  8
0
  6
CONTINUOUS
 62
     7
  0
LINE
  5
22C
  8
0
  6
CONTINUOUS
 62
     7
 10
86.297641421
 20
125.4256779439
 30
0.0
 11
86.6535781242
 21
125.1051912195
 31
0.0
  0
POLYLINE
  5
22D
  8
0
  6
CONTINUOUS
 62
     7
 66
     1
 10
0.0
 20
0.0
 30
0.0
 70
   128
  0
VERTEX
  5
683
  8
0
  6
CONTINUOUS
 62
     7
 10
85.8003256726
 20
125.7522243186
 30
0.0
  0
VERTEX
  5
684
  8
0
  6
CONTINUOUS
 62
     7
 10
85.8062295301
 20
125.7587812952
 30
0.0
  0
VERTEX
  5
685
  8
0
  6
CONTINUOUS
 62
     7
 10
85.8127659594
 20
125.7660409547
 30
0.0
  0
VERTEX
  5
686
  8
0
  6
CONTINUOUS
 62
     7
 10
85.8198589121
 20
125.7739185467
 30
0.0
  0
VERTEX
  5
687
  8
0
  6
CONTINUOUS
 62
     7
 10
85.8274258499
 20
125.7823223359
 30
0.0
  0
VERTEX
  5
688
  8
0
  6
CONTINUOUS
 62
     7
 10
85.8353788208
 20
125.7911549992
 30
0.0
  0
VERTEX
  5
689
  8
0
  6
CONTINUOUS
 62
     7
 10
85.8436253329
 20
125.8003136254
 30
0.0
  0
VERTEX
  5
68A
  8
0
  6
CONTINUOUS
 62
     7
 10
85.8520694019
 20
125.8096915781
 30
0.0
  0
VERTEX
  5
68B
  8
0
  6
CONTINUOUS
 62
     7
 10
85.8606128895
 20
125.8191803581
 30
0.0
  0
SEQEND
  5
80C
  8
0
  6
CONTINUOUS
 62
     7
  0
LINE
  5
22E
  8
0
  6
CONTINUOUS
 62
     7
 10
85.8606128895
 20
125.8191803581
 30
0.0
 11
86.2165495346
 21
125.4986936338
 31
0.0
  0
LINE
  5
22F
  8
0
  6
CONTINUOUS
 62
     7
 10
86.2169929605
 20
125.4991532414
 30
0.0
 11
86.2980524835
 21
125.4261668883
 31
0.0
  0
LINE
  5
230
  8
0
  6
CONTINUOUS
 62
     7
 10
88.5519298317
 20
125.6210857182
 30
0.0
 11
88.8724165561
 21
125.9770223051
 31
0.0
  0
POLYLINE
  5
231
  8
0
  6
CONTINUOUS
 62
     7
 66
     1
 10
0.0
 20
0.0
 30
0.0
 70
   128
  0
VERTEX
  5
68C
  8
0
  6
CONTINUOUS
 62
     7
 10
88.9393723628
 20
125.9167350008
 30
0.0
  0
VERTEX
  5
68D
  8
0
  6
CONTINUOUS
 62
     7
 10
88.9328153862
 20
125.9226386546
 30
0.0
  0
VERTEX
  5
68E
  8
0
  6
CONTINUOUS
 62
     7
 10
88.9255559596
 20
125.9291751421
 30
0.0
  0
VERTEX
  5
68F
  8
0
  6
CONTINUOUS
 62
     7
 10
88.9176783676
 20
125.9362680949
 30
0.0
  0
VERTEX
  5
690
  8
0
  6
CONTINUOUS
 62
     7
 10
88.9092745783
 20
125.9438350908
 30
0.0
  0
VERTEX
  5
691
  8
0
  6
CONTINUOUS
 62
     7
 10
88.900441915
 20
125.9517881199
 30
0.0
  0
VERTEX
  5
692
  8
0
  6
CONTINUOUS
 62
     7
 10
88.891283056
 20
125.9600345156
 30
0.0
  0
VERTEX
  5
693
  8
0
  6
CONTINUOUS
 62
     7
 10
88.8819051033
 20
125.9684788174
 30
0.0
  0
VERTEX
  5
694
  8
0
  6
CONTINUOUS
 62
     7
 10
88.8724165561
 20
125.9770223051
 30
0.0
  0
SEQEND
  5
80D
  8
0
  6
CONTINUOUS
 62
     7
  0
LINE
  5
232
  8
0
  6
CONTINUOUS
 62
     7
 10
88.1584274175
 20
125.1840570121
 30
0.0
 11
88.4789143747
 21
125.539993599
 31
0.0
  0
LINE
  5
233
  8
0
  6
CONTINUOUS
 62
     7
 10
88.4784545342
 20
125.5404369085
 30
0.0
 11
88.5514406546
 21
125.6214964315
 31
0.0
  0
ARC
  5
234
  8
0
  6
CONTINUOUS
 62
     7
 10
85.8728375399
 20
125.8327571229
 30
0.0
 40
0.0182694831207533
 50
138.0000000004
 51
228.000000001
  0
ARC
  5
235
  8
0
  6
CONTINUOUS
 62
     7
 10
88.858839731
 20
125.9892468667
 30
0.0
 40
0.0182694831207768
 50
317.9999999982
 51
47.9999999989
  0
POLYLINE
  5
236
  8
0
  6
CONTINUOUS
 62
     7
 66
     1
 10
0.0
 20
0.0
 30
0.0
 70
   128
  0
VERTEX
  5
695
  8
0
  6
CONTINUOUS
 62
     7
 10
85.7147913484
 20
127.3843168392
 30
0.0
  0
VERTEX
  5
696
  8
0
  6
CONTINUOUS
 62
     7
 10
85.7213482377
 20
127.3784127197
 30
0.0
  0
VERTEX
  5
697
  8
0
  6
CONTINUOUS
 62
     7
 10
85.7286076643
 20
127.3718766979
 30
0.0
  0
VERTEX
  5
698
  8
0
  6
CONTINUOUS
 62
     7
 10
85.736485169
 20
127.3647837452
 30
0.0
  0
VERTEX
  5
699
  8
0
  6
CONTINUOUS
 62
     7
 10
85.744889162
 20
127.3572167493
 30
0.0
  0
VERTEX
  5
69A
  8
0
  6
CONTINUOUS
 62
     7
 10
85.7537218253
 20
127.3492637201
 30
0.0
  0
VERTEX
  5
69B
  8
0
  6
CONTINUOUS
 62
     7
 10
85.7628804806
 20
127.3410173244
 30
0.0
  0
VERTEX
  5
69C
  8
0
  6
CONTINUOUS
 62
     7
 10
85.7722585788
 20
127.3325730226
 30
0.0
  0
VERTEX
  5
69D
  8
0
  6
CONTINUOUS
 62
     7
 10
85.7817470678
 20
127.324029535
 30
0.0
  0
SEQEND
  5
80E
  8
0
  6
CONTINUOUS
 62
     7
  0
ARC
  5
237
  8
0
  6
CONTINUOUS
 62
     7
 10
85.7953239285
 20
127.3118049371
 30
0.0
 40
0.0182694831207768
 50
137.9999999982
 51
227.9999999989
  0
LINE
  5
238
  8
0
  6
CONTINUOUS
 62
     7
 10
86.1022338795
 20
127.6799661218
 30
0.0
 11
85.7817470678
 21
127.324029535
 31
0.0
  0
POLYLINE
  5
239
  8
0
  6
CONTINUOUS
 62
     7
 66
     1
 10
0.0
 20
0.0
 30
0.0
 70
   128
  0
VERTEX
  5
69E
  8
0
  6
CONTINUOUS
 62
     7
 10
86.428780487
 20
128.1772821321
 30
0.0
  0
VERTEX
  5
69F
  8
0
  6
CONTINUOUS
 62
     7
 10
86.4353373472
 20
128.1713782455
 30
0.0
  0
VERTEX
  5
6A0
  8
0
  6
CONTINUOUS
 62
     7
 10
86.4425967738
 20
128.164841758
 30
0.0
  0
VERTEX
  5
6A1
  8
0
  6
CONTINUOUS
 62
     7
 10
86.4504742494
 20
128.1577488053
 30
0.0
  0
VERTEX
  5
6A2
  8
0
  6
CONTINUOUS
 62
     7
 10
86.4588782715
 20
128.1501818094
 30
0.0
  0
VERTEX
  5
6A3
  8
0
  6
CONTINUOUS
 62
     7
 10
86.4677109348
 20
128.1422287802
 30
0.0
  0
VERTEX
  5
6A4
  8
0
  6
CONTINUOUS
 62
     7
 10
86.476869561
 20
128.1339823845
 30
0.0
  0
VERTEX
  5
6A5
  8
0
  6
CONTINUOUS
 62
     7
 10
86.4862477465
 20
128.1255383156
 30
0.0
  0
VERTEX
  5
6A6
  8
0
  6
CONTINUOUS
 62
     7
 10
86.4957361773
 20
128.1169948279
 30
0.0
  0
SEQEND
  5
80F
  8
0
  6
CONTINUOUS
 62
     7
  0
LINE
  5
23A
  8
0
  6
CONTINUOUS
 62
     7
 10
86.4957361773
 20
128.1169948279
 30
0.0
 11
86.1752493365
 21
127.7610582411
 31
0.0
  0
LINE
  5
23B
  8
0
  6
CONTINUOUS
 62
     7
 10
86.1757092352
 20
127.7606149315
 30
0.0
 11
86.1027229403
 21
127.6795554086
 31
0.0
  0
LINE
  5
23C
  8
0
  6
CONTINUOUS
 62
     7
 10
88.3565222903
 20
127.8753738961
 30
0.0
 11
88.0005854706
 21
128.1958606205
 31
0.0
  0
POLYLINE
  5
23D
  8
0
  6
CONTINUOUS
 62
     7
 66
     1
 10
0.0
 20
0.0
 30
0.0
 70
   128
  0
VERTEX
  5
6A7
  8
0
  6
CONTINUOUS
 62
     7
 10
88.0608727748
 20
128.2628164272
 30
0.0
  0
VERTEX
  5
6A8
  8
0
  6
CONTINUOUS
 62
     7
 10
88.0549688882
 20
128.2562594506
 30
0.0
  0
VERTEX
  5
6A9
  8
0
  6
CONTINUOUS
 62
     7
 10
88.0484324007
 20
128.249000024
 30
0.0
  0
VERTEX
  5
6AA
  8
0
  6
CONTINUOUS
 62
     7
 10
88.041339448
 20
128.2411226648
 30
0.0
  0
VERTEX
  5
6AB
  8
0
  6
CONTINUOUS
 62
     7
 10
88.033772452
 20
128.2327186427
 30
0.0
  0
VERTEX
  5
6AC
  8
0
  6
CONTINUOUS
 62
     7
 10
88.0258196557
 20
128.2238859794
 30
0.0
  0
VERTEX
  5
6AD
  8
0
  6
CONTINUOUS
 62
     7
 10
88.0175730272
 20
128.2147273532
 30
0.0
  0
VERTEX
  5
6AE
  8
0
  6
CONTINUOUS
 62
     7
 10
88.0091289582
 20
128.2053491677
 30
0.0
  0
VERTEX
  5
6AF
  8
0
  6
CONTINUOUS
 62
     7
 10
88.0005854706
 20
128.1958606205
 30
0.0
  0
SEQEND
  5
810
  8
0
  6
CONTINUOUS
 62
     7
  0
POLYLINE
  5
23E
  8
0
  6
CONTINUOUS
 62
     7
 66
     1
 10
0.0
 20
0.0
 30
0.0
 70
   128
  0
VERTEX
  5
6B0
  8
0
  6
CONTINUOUS
 62
     7
 10
88.8538380677
 20
127.5488270558
 30
0.0
  0
VERTEX
  5
6B1
  8
0
  6
CONTINUOUS
 62
     7
 10
88.8479341811
 20
127.5422705448
 30
0.0
  0
VERTEX
  5
6B2
  8
0
  6
CONTINUOUS
 62
     7
 10
88.8413976936
 20
127.5350108854
 30
0.0
  0
VERTEX
  5
6B3
  8
0
  6
CONTINUOUS
 62
     7
 10
88.8343047409
 20
127.5271332934
 30
0.0
  0
VERTEX
  5
6B4
  8
0
  6
CONTINUOUS
 62
     7
 10
88.826737745
 20
127.5187295041
 30
0.0
  0
VERTEX
  5
6B5
  8
0
  6
CONTINUOUS
 62
     7
 10
88.8187847158
 20
127.5098968408
 30
0.0
  0
VERTEX
  5
6B6
  8
0
  6
CONTINUOUS
 62
     7
 10
88.8105383201
 20
127.5007382146
 30
0.0
  0
VERTEX
  5
6B7
  8
0
  6
CONTINUOUS
 62
     7
 10
88.8020942511
 20
127.4913597963
 30
0.0
  0
VERTEX
  5
6B8
  8
0
  6
CONTINUOUS
 62
     7
 10
88.7935507635
 20
127.4818714819
 30
0.0
  0
SEQEND
  5
811
  8
0
  6
CONTINUOUS
 62
     7
  0
LINE
  5
23F
  8
0
  6
CONTINUOUS
 62
     7
 10
88.7935507635
 20
127.4818714819
 30
0.0
 11
88.4376141767
 21
127.8023582063
 31
0.0
  0
LINE
  5
240
  8
0
  6
CONTINUOUS
 62
     7
 10
88.4371706343
 20
127.8018985986
 30
0.0
 11
88.3561111113
 21
127.8748849518
 31
0.0
  0
ARC
  5
241
  8
0
  6
CONTINUOUS
 62
     7
 10
88.7813261196
 20
127.4682946809
 30
0.0
 40
0.0182694831207533
 50
318.0000000003
 51
48.000000001
  0
ARC
  5
242
  8
0
  6
CONTINUOUS
 62
     7
 10
87.988360865
 20
128.1822838031
 30
0.0
 40
0.0182694831207768
 50
47.9999999982
 51
137.9999999989
  0
CIRCLE
  5
243
  8
0
  6
CONTINUOUS
 62
     7
 10
87.3270818298
 20
126.6505259019
 30
0.0
 40
1.477314948768371
  0
ARC
  5
244
  8
0
  6
CONTINUOUS
 62
     7
 10
87.3270818298
 20
126.6505259019
 30
0.0
 40
1.598722349105497
 50
229.9541631385
 51
316.0458368615
  0
ARC
  5
245
  8
0
  6
CONTINUOUS
 62
     7
 10
87.3270818298
 20
126.6505259019
 30
0.0
 40
1.598722349105488
 50
139.9541631385
 51
226.0458368615
  0
ARC
  5
246
  8
0
  6
CONTINUOUS
 62
     7
 10
87.3270818298
 20
126.6505259019
 30
0.0
 40
1.598722349105488
 50
49.9541631385
 51
136.0458368615
  0
ARC
  5
247
  8
0
  6
CONTINUOUS
 62
     7
 10
87.3270818298
 20
126.6505259019
 30
0.0
 40
1.598722349105466
 50
319.9541631385
 51
46.0458368615
  0
ARC
  5
248
  8
0
  6
CONTINUOUS
 62
     7
 10
89.4037930394
 20
124.7806441048
 30
0.0
 40
0.4742342631069023
 50
272.999195108
 51
318.0002377506
  0
LINE
  5
249
  8
0
  6
CONTINUOUS
 62
     7
 10
89.4286030962
 20
124.3070594146
 30
0.0
 11
89.2542567162
 21
124.6899820044
 31
0.0
  0
LINE
  5
24A
  8
0
  6
CONTINUOUS
 62
     7
 10
89.2542567162
 20
124.6899820044
 30
0.0
 11
89.3558812386
 21
124.7137847468
 31
0.0
  0
LINE
  5
24B
  8
0
  6
CONTINUOUS
 62
     7
 10
89.3558817042
 20
124.7137852124
 30
0.0
 11
89.4017409591
 21
124.7380340583
 31
0.0
  0
LINE
  5
24C
  8
0
  6
CONTINUOUS
 62
     7
 10
89.4017409591
 20
124.7380340583
 30
0.0
 11
89.7562190948
 21
124.4633209071
 31
0.0
  0
ARC
  5
24D
  8
0
  6
CONTINUOUS
 62
     7
 10
85.2503713431
 20
128.5204062762
 30
0.0
 40
0.4742357815396037
 50
92.9993274533
 51
138.000165728
  0
LINE
  5
24E
  8
0
  6
CONTINUOUS
 62
     7
 10
85.2255604695
 20
128.9939926583
 30
0.0
 11
85.3999069586
 21
128.6110700685
 31
0.0
  0
LINE
  5
24F
  8
0
  6
CONTINUOUS
 62
     7
 10
85.3999070168
 20
128.6110700685
 30
0.0
 11
85.2982823162
 21
128.5872668605
 31
0.0
  0
LINE
  5
250
  8
0
  6
CONTINUOUS
 62
     7
 10
85.2982819197
 20
128.5872666276
 30
0.0
 11
85.2524227739
 21
128.5630175489
 31
0.0
  0
LINE
  5
251
  8
0
  6
CONTINUOUS
 62
     7
 10
85.2524226284
 20
128.5630175489
 30
0.0
 11
84.8979445873
 21
128.8377309329
 31
0.0
  0
ARC
  5
252
  8
0
  6
CONTINUOUS
 62
     7
 10
89.1969602679
 20
128.727234901
 30
0.0
 40
0.4742380214049061
 50
2.9994659928
 51
48.000131201
  0
LINE
  5
253
  8
0
  6
CONTINUOUS
 62
     7
 10
89.6705485939
 20
128.7520471606
 30
0.0
 11
89.2876260041
 21
128.5777007806
 31
0.0
  0
LINE
  5
254
  8
0
  6
CONTINUOUS
 62
     7
 10
89.2876260041
 20
128.5777007806
 30
0.0
 11
89.2638227961
 21
128.679325303
 31
0.0
  0
LINE
  5
255
  8
0
  6
CONTINUOUS
 62
     7
 10
89.2638227961
 20
128.6793257687
 30
0.0
 11
89.2395734845
 21
128.7251850236
 31
0.0
  0
LINE
  5
256
  8
0
  6
CONTINUOUS
 62
     7
 10
89.2395734845
 20
128.7251850236
 30
0.0
 11
89.5142866357
 21
129.0796631593
 31
0.0
  0
ARC
  5
257
  8
0
  6
CONTINUOUS
 62
     7
 10
85.4572017331
 20
124.5738153655
 30
0.0
 40
0.4742360559058442
 50
182.998950036
 51
228.000152848
  0
LINE
  5
258
  8
0
  6
CONTINUOUS
 62
     7
 10
84.9836151465
 20
124.5490044466
 30
0.0
 11
85.3665377326
 21
124.7233508266
 31
0.0
  0
LINE
  5
259
  8
0
  6
CONTINUOUS
 62
     7
 10
85.3665377217
 20
124.7233512922
 30
0.0
 11
85.3903407915
 21
124.6217263042
 31
0.0
  0
LINE
  5
25A
  8
0
  6
CONTINUOUS
 62
     7
 10
85.3903410243
 20
124.6217258386
 30
0.0
 11
85.4145900666
 21
124.5758670493
 31
0.0
  0
LINE
  5
25B
  8
0
  6
CONTINUOUS
 62
     7
 10
85.4145901903
 20
124.5758665837
 30
0.0
 11
85.1398768282
 21
124.221388448
 31
0.0
  0
LINE
  5
25C
  8
0
  6
CONTINUOUS
 62
     7
 10
89.4286030962
 20
124.3070594146
 30
0.0
 11
89.1982369649
 21
124.6465819068
 31
0.0
  0
LINE
  5
25D
  8
0
  6
CONTINUOUS
 62
     7
 10
89.1982348694
 20
124.6465847007
 30
0.0
 11
89.2542562506
 21
124.6899815387
 31
0.0
  0
LINE
  5
25E
  8
0
  6
CONTINUOUS
 62
     7
 10
85.2255604695
 20
128.9939926583
 30
0.0
 11
85.4559266882
 21
128.6544701661
 31
0.0
  0
LINE
  5
25F
  8
0
  6
CONTINUOUS
 62
     7
 10
85.4559289
 20
128.6544671393
 30
0.0
 11
85.3999075916
 21
128.6110705341
 31
0.0
  0
LINE
  5
260
  8
0
  6
CONTINUOUS
 62
     7
 10
89.3310261017
 20
128.5216810293
 30
0.0
 11
89.6705485939
 21
128.7520471606
 31
0.0
  0
LINE
  5
261
  8
0
  6
CONTINUOUS
 62
     7
 10
89.3310233077
 20
128.5216789338
 30
0.0
 11
89.2876264697
 21
128.5777000821
 31
0.0
  0
LINE
  5
262
  8
0
  6
CONTINUOUS
 62
     7
 10
84.9836151465
 20
124.5490044466
 30
0.0
 11
85.3231376641
 21
124.7793708108
 31
0.0
  0
LINE
  5
263
  8
0
  6
CONTINUOUS
 62
     7
 10
85.3231405454
 20
124.7793731391
 30
0.0
 11
85.3665372779
 21
124.7233517579
 31
0.0
  0
LINE
  5
264
  8
0
  6
CONTINUOUS
 62
     7
 10
89.8572345322
 20
125.1898582204
 30
0.0
 11
89.465869969
 21
125.1856267563
 31
0.0
  0
LINE
  5
265
  8
0
  6
CONTINUOUS
 62
     7
 10
89.8572345322
 20
125.1898582204
 30
0.0
 11
89.4646857923
 21
125.152963411
 31
0.0
  0
LINE
  5
266
  8
0
  6
CONTINUOUS
 62
     7
 10
89.4646857923
 20
125.152963411
 30
0.0
 11
89.465869969
 21
125.1856267563
 31
0.0
  0
LINE
  5
267
  8
0
  6
CONTINUOUS
 62
     7
 10
85.8621829248
 20
124.5117375738
 30
0.0
 11
85.866414156
 21
124.1203730106
 31
0.0
  0
LINE
  5
268
  8
0
  6
CONTINUOUS
 62
     7
 10
85.866414156
 20
124.1203730106
 30
0.0
 11
85.829519463
 21
124.5129222161
 31
0.0
  0
LINE
  5
269
  8
0
  6
CONTINUOUS
 62
     7
 10
85.8295194048
 20
124.5129217505
 30
0.0
 11
85.8621829248
 21
124.5117375738
 31
0.0
  0
LINE
  5
26A
  8
0
  6
CONTINUOUS
 62
     7
 10
88.7919807865
 20
128.7893140334
 30
0.0
 11
88.7877495552
 21
129.1806788295
 31
0.0
  0
LINE
  5
26B
  8
0
  6
CONTINUOUS
 62
     7
 10
88.7877495552
 20
129.1806788295
 30
0.0
 11
88.8246441318
 21
128.7881296239
 31
0.0
  0
LINE
  5
26C
  8
0
  6
CONTINUOUS
 62
     7
 10
88.8246441318
 20
128.7881298567
 30
0.0
 11
88.7919807865
 21
128.7893140334
 31
0.0
  0
LINE
  5
26D
  8
0
  6
CONTINUOUS
 62
     7
 10
85.1882936695
 20
128.1154248509
 30
0.0
 11
84.796928888
 21
128.1111936196
 31
0.0
  0
LINE
  5
26E
  8
0
  6
CONTINUOUS
 62
     7
 10
84.796928888
 20
128.1111936196
 30
0.0
 11
85.1894780353
 21
128.1480881962
 31
0.0
  0
LINE
  5
26F
  8
0
  6
CONTINUOUS
 62
     7
 10
85.1894778461
 20
128.1480881962
 30
0.0
 11
85.1882936986
 21
128.1154248509
 31
0.0
  0
LINE
  5
270
  8
0
  6
CONTINUOUS
 62
     7
 10
89.1917980334
 20
128.7720042392
 30
0.0
 11
89.5142866357
 21
129.0796631593
 31
0.0
  0
POLYLINE
  5
271
  8
0
  6
CONTINUOUS
 62
     7
 66
     1
 10
0.0
 20
0.0
 30
0.0
 70
   128
  0
VERTEX
  5
6B9
  8
0
  6
CONTINUOUS
 62
     7
 10
89.0220528527
 20
128.8142429776
 30
0.0
  0
VERTEX
  5
6BA
  8
0
  6
CONTINUOUS
 62
     7
 10
89.1282594821
 20
128.8006966579
 30
0.0
  0
VERTEX
  5
6BB
  8
0
  6
CONTINUOUS
 62
     7
 10
89.1917984991
 20
128.7720035407
 30
0.0
  0
SEQEND
  5
812
  8
0
  6
CONTINUOUS
 62
     7
  0
LINE
  5
272
  8
0
  6
CONTINUOUS
 62
     7
 10
89.1721382795
 20
129.2008238024
 30
0.0
 11
89.0220528527
 21
128.8142429776
 31
0.0
  0
ARC
  5
273
  8
0
  6
CONTINUOUS
 62
     7
 10
89.1969606788
 20
128.7272396836
 30
0.0
 40
0.474234192273932
 50
47.9997814542
 51
93.0003507675
  0
LINE
  5
274
  8
0
  6
CONTINUOUS
 62
     7
 10
89.448559942
 20
124.7858095094
 30
0.0
 11
89.7562190948
 21
124.4633209071
 31
0.0
  0
POLYLINE
  5
275
  8
0
  6
CONTINUOUS
 62
     7
 66
     1
 10
0.0
 20
0.0
 30
0.0
 70
   128
  0
VERTEX
  5
6BC
  8
0
  6
CONTINUOUS
 62
     7
 10
89.4907986803
 20
124.9555546901
 30
0.0
  0
VERTEX
  5
6BD
  8
0
  6
CONTINUOUS
 62
     7
 10
89.4772525935
 20
124.8493480607
 30
0.0
  0
VERTEX
  5
6BE
  8
0
  6
CONTINUOUS
 62
     7
 10
89.4485594763
 20
124.7858090437
 30
0.0
  0
SEQEND
  5
813
  8
0
  6
CONTINUOUS
 62
     7
  0
LINE
  5
276
  8
0
  6
CONTINUOUS
 62
     7
 10
89.8773799709
 20
124.8054697289
 30
0.0
 11
89.4907986803
 21
124.9555546901
 31
0.0
  0
ARC
  5
277
  8
0
  6
CONTINUOUS
 62
     7
 10
89.4037927244
 20
124.7806482452
 30
0.0
 40
0.4742372677046648
 50
317.9998914717
 51
3.0002205335
  0
LINE
  5
278
  8
0
  6
CONTINUOUS
 62
     7
 10
85.2056036092
 20
128.5152420978
 30
0.0
 11
84.8979445873
 21
128.8377309329
 31
0.0
  0
POLYLINE
  5
279
  8
0
  6
CONTINUOUS
 62
     7
 66
     1
 10
0.0
 20
0.0
 30
0.0
 70
   128
  0
VERTEX
  5
6BF
  8
0
  6
CONTINUOUS
 62
     7
 10
85.1633648417
 20
128.3454969171
 30
0.0
  0
VERTEX
  5
6C0
  8
0
  6
CONTINUOUS
 62
     7
 10
85.1769110013
 20
128.4517035465
 30
0.0
  0
VERTEX
  5
6C1
  8
0
  6
CONTINUOUS
 62
     7
 10
85.2056041622
 20
128.5152425635
 30
0.0
  0
SEQEND
  5
814
  8
0
  6
CONTINUOUS
 62
     7
  0
LINE
  5
27A
  8
0
  6
CONTINUOUS
 62
     7
 10
84.7767837986
 20
128.4955823439
 30
0.0
 11
85.1633648417
 21
128.3454969171
 31
0.0
  0
ARC
  5
27B
  8
0
  6
CONTINUOUS
 62
     7
 10
85.2503709215
 20
128.5204037754
 30
0.0
 40
0.4742371415331232
 50
137.9999071031
 51
183.0002150103
  0
LINE
  5
27C
  8
0
  6
CONTINUOUS
 62
     7
 10
85.4623656051
 20
124.5290476009
 30
0.0
 11
85.1398768282
 21
124.221388448
 31
0.0
  0
POLYLINE
  5
27D
  8
0
  6
CONTINUOUS
 62
     7
 66
     1
 10
0.0
 20
0.0
 30
0.0
 70
   128
  0
VERTEX
  5
6C2
  8
0
  6
CONTINUOUS
 62
     7
 10
85.6321107422
 20
124.4868088625
 30
0.0
  0
VERTEX
  5
6C3
  8
0
  6
CONTINUOUS
 62
     7
 10
85.5259042146
 20
124.5003549493
 30
0.0
  0
VERTEX
  5
6C4
  8
0
  6
CONTINUOUS
 62
     7
 10
85.4623650957
 20
124.5290480665
 30
0.0
  0
SEQEND
  5
815
  8
0
  6
CONTINUOUS
 62
     7
  0
LINE
  5
27E
  8
0
  6
CONTINUOUS
 62
     7
 10
85.4820255045
 20
124.1002280376
 30
0.0
 11
85.6321107422
 21
124.4868088625
 31
0.0
  0
ARC
  5
27F
  8
0
  6
CONTINUOUS
 62
     7
 10
85.4572036092
 20
124.5738151336
 30
0.0
 40
0.4742371389238028
 50
227.9999656519
 51
273.0002711316
  0
LINE
  5
280
  8
0
  6
CONTINUOUS
 62
     7
 10
85.8621793741
 20
124.5165348164
 30
0.0
 11
85.8621829248
 21
124.5117375738
 31
0.0
  0
POLYLINE
  5
281
  8
0
  6
CONTINUOUS
 62
     7
 66
     1
 10
0.0
 20
0.0
 30
0.0
 70
   128
  0
VERTEX
  5
6C5
  8
0
  6
CONTINUOUS
 62
     7
 10
85.8618130733
 20
124.5314238704
 30
0.0
  0
VERTEX
  5
6C6
  8
0
  6
CONTINUOUS
 62
     7
 10
85.8620148792
 20
124.5230862051
 30
0.0
  0
VERTEX
  5
6C7
  8
0
  6
CONTINUOUS
 62
     7
 10
85.8621793741
 20
124.5165348164
 30
0.0
  0
SEQEND
  5
816
  8
0
  6
CONTINUOUS
 62
     7
  0
LINE
  5
282
  8
0
  6
CONTINUOUS
 62
     7
 10
85.8618330385
 20
124.532957293
 30
0.0
 11
85.8618130733
 21
124.5314238704
 31
0.0
  0
LINE
  5
283
  8
0
  6
CONTINUOUS
 62
     7
 10
89.1518771241
 20
124.7053804918
 30
0.0
 11
85.8618330385
 21
124.532957293
 31
0.0
  0
LINE
  5
284
  8
0
  6
CONTINUOUS
 62
     7
 10
89.1802570841
 20
124.6738957352
 30
0.0
 11
89.1518771241
 21
124.7053804918
 31
0.0
  0
LINE
  5
285
  8
0
  6
CONTINUOUS
 62
     7
 10
89.1871546919
 20
124.6627557202
 30
0.0
 11
89.1802570841
 21
124.6738957352
 31
0.0
  0
LINE
  5
286
  8
0
  6
CONTINUOUS
 62
     7
 10
89.1982369649
 20
124.6465819068
 30
0.0
 11
89.1871546919
 21
124.6627557202
 31
0.0
  0
LINE
  5
287
  8
0
  6
CONTINUOUS
 62
     7
 10
85.866414156
 20
124.1203730106
 30
0.0
 11
89.4286030962
 21
124.3070594146
 31
0.0
  0
LINE
  5
288
  8
0
  6
CONTINUOUS
 62
     7
 10
85.1930908539
 20
128.1154283433
 30
0.0
 11
85.1882936695
 21
128.1154248509
 31
0.0
  0
LINE
  5
289
  8
0
  6
CONTINUOUS
 62
     7
 10
85.2079797332
 20
128.1157945859
 30
0.0
 11
85.1930908539
 21
128.1154283433
 31
0.0
  0
LINE
  5
28A
  8
0
  6
CONTINUOUS
 62
     7
 10
85.2095132359
 20
128.1157745625
 30
0.0
 11
85.2079797332
 21
128.1157945859
 31
0.0
  0
LINE
  5
28B
  8
0
  6
CONTINUOUS
 62
     7
 10
85.3819376789
 20
124.8257315829
 30
0.0
 11
85.2095132359
 21
128.1157745625
 31
0.0
  0
LINE
  5
28C
  8
0
  6
CONTINUOUS
 62
     7
 10
85.3504516217
 20
124.7973509244
 30
0.0
 11
85.3819376789
 21
124.8257315829
 31
0.0
  0
LINE
  5
28D
  8
0
  6
CONTINUOUS
 62
     7
 10
85.3393118286
 20
124.7904530837
 30
0.0
 11
85.3504516217
 21
124.7973509244
 31
0.0
  0
LINE
  5
28E
  8
0
  6
CONTINUOUS
 62
     7
 10
85.3231376641
 20
124.7793708108
 30
0.0
 11
85.3393118286
 21
124.7904530837
 31
0.0
  0
LINE
  5
28F
  8
0
  6
CONTINUOUS
 62
     7
 10
84.796928888
 20
128.1111936196
 30
0.0
 11
84.9836153211
 21
124.5490044466
 31
0.0
  0
LINE
  5
290
  8
0
  6
CONTINUOUS
 62
     7
 10
89.3148518226
 20
128.5105987563
 30
0.0
 11
89.3310261017
 21
128.5216810293
 31
0.0
  0
LINE
  5
291
  8
0
  6
CONTINUOUS
 62
     7
 10
89.465869969
 20
125.1856267563
 30
0.0
 11
89.4610727264
 21
125.1856234967
 31
0.0
  0
POLYLINE
  5
292
  8
0
  6
CONTINUOUS
 62
     7
 66
     1
 10
0.0
 20
0.0
 30
0.0
 70
   128
  0
VERTEX
  5
6C8
  8
0
  6
CONTINUOUS
 62
     7
 10
89.4461841381
 20
125.1852570213
 30
0.0
  0
VERTEX
  5
6C9
  8
0
  6
CONTINUOUS
 62
     7
 10
89.4545213378
 20
125.1854591183
 30
0.0
  0
VERTEX
  5
6CA
  8
0
  6
CONTINUOUS
 62
     7
 10
89.4610727264
 20
125.1856234967
 30
0.0
  0
SEQEND
  5
817
  8
0
  6
CONTINUOUS
 62
     7
  0
LINE
  5
293
  8
0
  6
CONTINUOUS
 62
     7
 10
89.4446502498
 20
125.1852770447
 30
0.0
 11
89.4461841381
 21
125.1852570213
 31
0.0
  0
LINE
  5
294
  8
0
  6
CONTINUOUS
 62
     7
 10
89.2722265853
 20
128.4753207228
 30
0.0
 11
89.4446502498
 21
125.1852770447
 31
0.0
  0
LINE
  5
295
  8
0
  6
CONTINUOUS
 62
     7
 10
89.2722265853
 20
128.4753207228
 30
0.0
 11
89.3037118076
 21
128.5037011485
 31
0.0
  0
LINE
  5
296
  8
0
  6
CONTINUOUS
 62
     7
 10
89.3037118076
 20
128.5037011485
 30
0.0
 11
89.3148518226
 21
128.5105987563
 31
0.0
  0
LINE
  5
297
  8
0
  6
CONTINUOUS
 62
     7
 10
89.6705481282
 20
128.752053447
 30
0.0
 11
89.8572349979
 21
125.1898582204
 31
0.0
  0
POLYLINE
  5
298
  8
0
  6
CONTINUOUS
 62
     7
 66
     1
 10
0.0
 20
0.0
 30
0.0
 70
   128
  0
VERTEX
  5
6CB
  8
0
  6
CONTINUOUS
 62
     7
 10
89.1917980334
 20
128.7720040064
 30
0.0
  0
VERTEX
  5
6CC
  8
0
  6
CONTINUOUS
 62
     7
 10
89.2157912313
 20
128.7483670394
 30
0.0
  0
VERTEX
  5
6CD
  8
0
  6
CONTINUOUS
 62
     7
 10
89.2395734845
 20
128.7251850236
 30
0.0
  0
SEQEND
  5
818
  8
0
  6
CONTINUOUS
 62
     7
  0
POLYLINE
  5
299
  8
0
  6
CONTINUOUS
 62
     7
 66
     1
 10
0.0
 20
0.0
 30
0.0
 70
   128
  0
VERTEX
  5
6CE
  8
0
  6
CONTINUOUS
 62
     7
 10
89.448559942
 20
124.7858095094
 30
0.0
  0
VERTEX
  5
6CF
  8
0
  6
CONTINUOUS
 62
     7
 10
89.424922975
 20
124.7618167772
 30
0.0
  0
VERTEX
  5
6D0
  8
0
  6
CONTINUOUS
 62
     7
 10
89.4017409591
 20
124.7380340583
 30
0.0
  0
SEQEND
  5
819
  8
0
  6
CONTINUOUS
 62
     7
  0
POLYLINE
  5
29A
  8
0
  6
CONTINUOUS
 62
     7
 66
     1
 10
0.0
 20
0.0
 30
0.0
 70
   128
  0
VERTEX
  5
6D1
  8
0
  6
CONTINUOUS
 62
     7
 10
85.2056036456
 20
128.5152420978
 30
0.0
  0
VERTEX
  5
6D2
  8
0
  6
CONTINUOUS
 62
     7
 10
85.2292407289
 20
128.5392352957
 30
0.0
  0
VERTEX
  5
6D3
  8
0
  6
CONTINUOUS
 62
     7
 10
85.2524226284
 20
128.5630175489
 30
0.0
  0
SEQEND
  5
81A
  8
0
  6
CONTINUOUS
 62
     7
  0
POLYLINE
  5
29B
  8
0
  6
CONTINUOUS
 62
     7
 66
     1
 10
0.0
 20
0.0
 30
0.0
 70
   128
  0
VERTEX
  5
6D4
  8
0
  6
CONTINUOUS
 62
     7
 10
85.4623656342
 20
124.5290476009
 30
0.0
  0
VERTEX
  5
6D5
  8
0
  6
CONTINUOUS
 62
     7
 10
85.4383725091
 20
124.5526850335
 30
0.0
  0
VERTEX
  5
6D6
  8
0
  6
CONTINUOUS
 62
     7
 10
85.4145901903
 20
124.5758665837
 30
0.0
  0
SEQEND
  5
81B
  8
0
  6
CONTINUOUS
 62
     7
  0
LINE
  5
29C
  8
0
  6
CONTINUOUS
 62
     7
 10
85.4739066708
 20
128.6271561048
 30
0.0
 11
85.5022864416
 21
128.5956711154
 31
0.0
  0
LINE
  5
29D
  8
0
  6
CONTINUOUS
 62
     7
 10
85.4670088738
 20
128.638295887
 30
0.0
 11
85.4739066708
 21
128.6271561048
 31
0.0
  0
LINE
  5
29E
  8
0
  6
CONTINUOUS
 62
     7
 10
85.4559266882
 20
128.6544701661
 30
0.0
 11
85.4670088738
 21
128.638295887
 31
0.0
  0
LINE
  5
29F
  8
0
  6
CONTINUOUS
 62
     7
 10
88.7877495552
 20
129.1806788295
 30
0.0
 11
85.2255604841
 21
128.9939924254
 31
0.0
  0
LINE
  5
2A0
  8
0
  6
CONTINUOUS
 62
     7
 10
88.7919842789
 20
128.7845167908
 30
0.0
 11
88.7919807865
 21
128.7893140334
 31
0.0
  0
POLYLINE
  5
2A1
  8
0
  6
CONTINUOUS
 62
     7
 66
     1
 10
0.0
 20
0.0
 30
0.0
 70
   128
  0
VERTEX
  5
6D7
  8
0
  6
CONTINUOUS
 62
     7
 10
88.7923505215
 20
128.7696279696
 30
0.0
  0
VERTEX
  5
6D8
  8
0
  6
CONTINUOUS
 62
     7
 10
88.7921486574
 20
128.7779654022
 30
0.0
  0
VERTEX
  5
6D9
  8
0
  6
CONTINUOUS
 62
     7
 10
88.7919842789
 20
128.7845167908
 30
0.0
  0
SEQEND
  5
81C
  8
0
  6
CONTINUOUS
 62
     7
  0
LINE
  5
2A2
  8
0
  6
CONTINUOUS
 62
     7
 10
88.7923304981
 20
128.768094547
 30
0.0
 11
88.7923505215
 21
128.7696279696
 31
0.0
  0
LINE
  5
2A3
  8
0
  6
CONTINUOUS
 62
     7
 10
85.5022864416
 20
128.5956711154
 30
0.0
 11
88.7923304981
 21
128.768094547
 31
0.0
  0
LINE
  5
2A4
  8
0
  6
CONTINUOUS
 62
     7
 10
85.6133440393
 20
124.1071100458
 30
0.0
 11
85.7066059252
 21
124.4948708563
 31
0.0
  0
LINE
  5
2A5
  8
0
  6
CONTINUOUS
 62
     7
 10
85.7095903193
 20
124.4953253418
 30
0.0
 11
85.7066059252
 21
124.4948708563
 31
0.0
  0
LINE
  5
2A6
  8
0
  6
CONTINUOUS
 62
     7
 10
85.829519463
 20
124.5129222161
 30
0.0
 11
85.7095903193
 21
124.4953253418
 31
0.0
  0
LINE
  5
2A7
  8
0
  6
CONTINUOUS
 62
     7
 10
85.6133440393
 20
124.1071100458
 30
0.0
 11
85.8664142142
 21
124.1203730106
 31
0.0
  0
LINE
  5
2A8
  8
0
  6
CONTINUOUS
 62
     7
 10
84.7836659814
 20
128.3642637654
 30
0.0
 11
85.1714267483
 21
128.2710018213
 31
0.0
  0
LINE
  5
2A9
  8
0
  6
CONTINUOUS
 62
     7
 10
85.1718814665
 20
128.2680173981
 30
0.0
 11
85.1714267337
 21
128.2710018213
 31
0.0
  0
LINE
  5
2AA
  8
0
  6
CONTINUOUS
 62
     7
 10
85.1894780353
 20
128.1480881962
 30
0.0
 11
85.1718814665
 21
128.2680173981
 31
0.0
  0
LINE
  5
2AB
  8
0
  6
CONTINUOUS
 62
     7
 10
84.7836659814
 20
128.3642637654
 30
0.0
 11
84.7969288297
 21
128.1111936196
 31
0.0
  0
LINE
  5
2AC
  8
0
  6
CONTINUOUS
 62
     7
 10
89.870497497
 20
124.9367880746
 30
0.0
 11
89.4827366865
 21
125.0300497859
 31
0.0
  0
LINE
  5
2AD
  8
0
  6
CONTINUOUS
 62
     7
 10
89.4822822011
 20
125.0330342091
 30
0.0
 11
89.4827371521
 21
125.0300497859
 31
0.0
  0
LINE
  5
2AE
  8
0
  6
CONTINUOUS
 62
     7
 10
89.4646857923
 20
125.152963411
 30
0.0
 11
89.4822822011
 21
125.0330342091
 31
0.0
  0
LINE
  5
2AF
  8
0
  6
CONTINUOUS
 62
     7
 10
89.8572345322
 20
125.1898582204
 30
0.0
 11
89.870497497
 21
124.9367880746
 31
0.0
  0
LINE
  5
2B0
  8
0
  6
CONTINUOUS
 62
     7
 10
89.040819701
 20
129.1939417943
 30
0.0
 11
88.9475577569
 21
128.8061809837
 31
0.0
  0
LINE
  5
2B1
  8
0
  6
CONTINUOUS
 62
     7
 10
88.9445733337
 20
128.8057262655
 30
0.0
 11
88.9475577569
 21
128.8061809837
 31
0.0
  0
LINE
  5
2B2
  8
0
  6
CONTINUOUS
 62
     7
 10
88.8246441318
 20
128.7881296239
 30
0.0
 11
88.9445733337
 21
128.8057262655
 31
0.0
  0
LINE
  5
2B3
  8
0
  6
CONTINUOUS
 62
     7
 10
88.7877495552
 20
129.1806788295
 30
0.0
 11
89.040819701
 21
129.1939417943
 31
0.0
  0
LINE
  5
2B4
  8
0
  6
CONTINUOUS
 62
     7
 10
85.6393365539
 20
124.4872917532
 30
0.0
 11
85.6321107422
 21
124.4868088625
 31
0.0
  0
LINE
  5
2B5
  8
0
  6
CONTINUOUS
 62
     7
 10
85.6569423049
 20
124.4888456649
 30
0.0
 11
85.6393365539
 21
124.4872917532
 31
0.0
  0
LINE
  5
2B6
  8
0
  6
CONTINUOUS
 62
     7
 10
85.7066059252
 20
124.4948708563
 30
0.0
 11
85.6569423049
 21
124.4888456649
 31
0.0
  0
LINE
  5
2B7
  8
0
  6
CONTINUOUS
 62
     7
 10
85.4820255045
 20
124.1002280376
 30
0.0
 11
85.6133440393
 21
124.1071100458
 31
0.0
  0
LINE
  5
2B8
  8
0
  6
CONTINUOUS
 62
     7
 10
85.1638475433
 20
128.3382712509
 30
0.0
 11
85.1633648417
 21
128.3454969171
 31
0.0
  0
LINE
  5
2B9
  8
0
  6
CONTINUOUS
 62
     7
 10
85.1654014987
 20
128.3206655289
 30
0.0
 11
85.1638475433
 21
128.3382712509
 31
0.0
  0
LINE
  5
2BA
  8
0
  6
CONTINUOUS
 62
     7
 10
85.1714267483
 20
128.2710018213
 30
0.0
 11
85.1654014987
 21
128.3206655289
 31
0.0
  0
LINE
  5
2BB
  8
0
  6
CONTINUOUS
 62
     7
 10
84.7767837986
 20
128.4955823439
 30
0.0
 11
84.7836659814
 21
128.3642637654
 31
0.0
  0
LINE
  5
2BC
  8
0
  6
CONTINUOUS
 62
     7
 10
89.0148271865
 20
128.8137600868
 30
0.0
 11
89.0220528527
 21
128.8142429776
 31
0.0
  0
LINE
  5
2BD
  8
0
  6
CONTINUOUS
 62
     7
 10
88.9972212317
 20
128.8122061751
 30
0.0
 11
89.0148271865
 21
128.8137600868
 31
0.0
  0
LINE
  5
2BE
  8
0
  6
CONTINUOUS
 62
     7
 10
88.9475577569
 20
128.8061809837
 30
0.0
 11
88.9972212317
 21
128.8122061751
 31
0.0
  0
LINE
  5
2BF
  8
0
  6
CONTINUOUS
 62
     7
 10
89.040819701
 20
129.1939417943
 30
0.0
 11
89.1721382795
 21
129.2008238024
 31
0.0
  0
LINE
  5
2C0
  8
0
  6
CONTINUOUS
 62
     7
 10
89.4903162552
 20
124.962780822
 30
0.0
 11
89.4907986803
 21
124.9555546901
 31
0.0
  0
LINE
  5
2C1
  8
0
  6
CONTINUOUS
 62
     7
 10
89.4887623435
 20
124.980386544
 30
0.0
 11
89.4903162552
 21
124.962780822
 31
0.0
  0
LINE
  5
2C2
  8
0
  6
CONTINUOUS
 62
     7
 10
89.4827366865
 20
125.0300497859
 30
0.0
 11
89.4887623435
 21
124.980386544
 31
0.0
  0
LINE
  5
2C3
  8
0
  6
CONTINUOUS
 62
     7
 10
89.870497497
 20
124.9367880746
 30
0.0
 11
89.8773799709
 21
124.8054697289
 31
0.0
  0
LINE
  5
2C4
  8
0
  6
CONTINUOUS
 62
     7
 10
85.2524227739
 20
128.5630175489
 30
0.0
 11
85.295093133
 21
128.526296664
 31
0.0
  0
POLYLINE
  5
2C5
  8
0
  6
CONTINUOUS
 62
     7
 66
     1
 10
0.0
 20
0.0
 30
0.0
 70
   128
  0
VERTEX
  5
6DA
  8
0
  6
CONTINUOUS
 62
     7
 10
85.2509048418
 20
128.4723635408
 30
0.0
  0
VERTEX
  5
6DB
  8
0
  6
CONTINUOUS
 62
     7
 10
85.2736896231
 20
128.4990636277
 30
0.0
  0
VERTEX
  5
6DC
  8
0
  6
CONTINUOUS
 62
     7
 10
85.2950927874
 20
128.526296664
 30
0.0
  0
SEQEND
  5
81D
  8
0
  6
CONTINUOUS
 62
     7
  0
LINE
  5
2C6
  8
0
  6
CONTINUOUS
 62
     7
 10
85.250905373
 20
128.4723630752
 30
0.0
 11
85.2056041331
 21
128.5152425635
 31
0.0
  0
LINE
  5
2C7
  8
0
  6
CONTINUOUS
 62
     7
 10
89.4017409591
 20
124.7380340583
 30
0.0
 11
89.3590705527
 21
124.7747551761
 31
0.0
  0
POLYLINE
  5
2C8
  8
0
  6
CONTINUOUS
 62
     7
 66
     1
 10
0.0
 20
0.0
 30
0.0
 70
   128
  0
VERTEX
  5
6DD
  8
0
  6
CONTINUOUS
 62
     7
 10
89.4032590149
 20
124.8286880664
 30
0.0
  0
VERTEX
  5
6DE
  8
0
  6
CONTINUOUS
 62
     7
 10
89.3804742082
 20
124.8019884452
 30
0.0
  0
VERTEX
  5
6DF
  8
0
  6
CONTINUOUS
 62
     7
 10
89.3590710184
 20
124.7747551761
 30
0.0
  0
SEQEND
  5
81E
  8
0
  6
CONTINUOUS
 62
     7
  0
LINE
  5
2C9
  8
0
  6
CONTINUOUS
 62
     7
 10
89.4032580836
 20
124.8286889977
 30
0.0
 11
89.4485594763
 21
124.7858090437
 31
0.0
  0
LINE
  5
2CA
  8
0
  6
CONTINUOUS
 62
     7
 10
85.4145900666
 20
124.5758670493
 30
0.0
 11
85.4513110826
 21
124.6185369901
 31
0.0
  0
POLYLINE
  5
2CB
  8
0
  6
CONTINUOUS
 62
     7
 66
     1
 10
0.0
 20
0.0
 30
0.0
 70
   128
  0
VERTEX
  5
6E0
  8
0
  6
CONTINUOUS
 62
     7
 10
85.5052441912
 20
124.5743489935
 30
0.0
  0
VERTEX
  5
6E1
  8
0
  6
CONTINUOUS
 62
     7
 10
85.4785441479
 20
124.5971338003
 30
0.0
  0
VERTEX
  5
6E2
  8
0
  6
CONTINUOUS
 62
     7
 10
85.4513111844
 20
124.6185369901
 30
0.0
  0
SEQEND
  5
81F
  8
0
  6
CONTINUOUS
 62
     7
  0
LINE
  5
2CC
  8
0
  6
CONTINUOUS
 62
     7
 10
85.5052447441
 20
124.5743494592
 30
0.0
 11
85.4623651394
 21
124.5290480665
 31
0.0
  0
LINE
  5
2CD
  8
0
  6
CONTINUOUS
 62
     7
 10
89.2395734845
 20
128.7251850236
 30
0.0
 11
89.2028525996
 21
128.6825146172
 31
0.0
  0
POLYLINE
  5
2CE
  8
0
  6
CONTINUOUS
 62
     7
 66
     1
 10
0.0
 20
0.0
 30
0.0
 70
   128
  0
VERTEX
  5
6E3
  8
0
  6
CONTINUOUS
 62
     7
 10
89.1489194764
 20
128.7267028465
 30
0.0
  0
VERTEX
  5
6E4
  8
0
  6
CONTINUOUS
 62
     7
 10
89.1756195633
 20
128.7039180397
 30
0.0
  0
VERTEX
  5
6E5
  8
0
  6
CONTINUOUS
 62
     7
 10
89.2028523667
 20
128.68251485
 30
0.0
  0
SEQEND
  5
820
  8
0
  6
CONTINUOUS
 62
     7
  0
LINE
  5
2CF
  8
0
  6
CONTINUOUS
 62
     7
 10
89.1489190108
 20
128.7267023809
 30
0.0
 11
89.1917984991
 21
128.7720035407
 31
0.0
  0
POLYLINE
  5
2D0
  8
0
  6
CONTINUOUS
 62
     7
 66
     1
 10
0.0
 20
0.0
 30
0.0
 70
   128
  0
VERTEX
  5
6E6
  8
0
  6
CONTINUOUS
 62
     7
 10
89.014345227
 20
128.7782361842
 30
0.0
  0
VERTEX
  5
6E7
  8
0
  6
CONTINUOUS
 62
     7
 10
89.0866887348
 20
128.7630817033
 30
0.0
  0
VERTEX
  5
6E8
  8
0
  6
CONTINUOUS
 62
     7
 10
89.1489171481
 20
128.7267000526
 30
0.0
  0
SEQEND
  5
821
  8
0
  6
CONTINUOUS
 62
     7
  0
LINE
  5
2D1
  8
0
  6
CONTINUOUS
 62
     7
 10
89.0220528527
 20
128.8142429776
 30
0.0
 11
89.0143449942
 21
128.7782361842
 31
0.0
  0
POLYLINE
  5
2D2
  8
0
  6
CONTINUOUS
 62
     7
 66
     1
 10
0.0
 20
0.0
 30
0.0
 70
   128
  0
VERTEX
  5
6E9
  8
0
  6
CONTINUOUS
 62
     7
 10
89.4547923526
 20
124.9632627814
 30
0.0
  0
VERTEX
  5
6EA
  8
0
  6
CONTINUOUS
 62
     7
 10
89.439637406
 20
124.8909190408
 30
0.0
  0
VERTEX
  5
6EB
  8
0
  6
CONTINUOUS
 62
     7
 10
89.403256221
 20
124.8286903947
 30
0.0
  0
SEQEND
  5
822
  8
0
  6
CONTINUOUS
 62
     7
  0
LINE
  5
2D3
  8
0
  6
CONTINUOUS
 62
     7
 10
89.4907986803
 20
124.9555546901
 30
0.0
 11
89.4547923526
 21
124.9632627814
 31
0.0
  0
POLYLINE
  5
2D4
  8
0
  6
CONTINUOUS
 62
     7
 66
     1
 10
0.0
 20
0.0
 30
0.0
 70
   128
  0
VERTEX
  5
6EC
  8
0
  6
CONTINUOUS
 62
     7
 10
85.1993715332
 20
128.3377892914
 30
0.0
  0
VERTEX
  5
6ED
  8
0
  6
CONTINUOUS
 62
     7
 10
85.2145260651
 20
128.4101327992
 30
0.0
  0
VERTEX
  5
6EE
  8
0
  6
CONTINUOUS
 62
     7
 10
85.2509076358
 20
128.4723612125
 30
0.0
  0
SEQEND
  5
823
  8
0
  6
CONTINUOUS
 62
     7
  0
LINE
  5
2D5
  8
0
  6
CONTINUOUS
 62
     7
 10
85.1633648417
 20
128.3454969171
 30
0.0
 11
85.199371475
 21
128.3377890586
 31
0.0
  0
POLYLINE
  5
2D6
  8
0
  6
CONTINUOUS
 62
     7
 66
     1
 10
0.0
 20
0.0
 30
0.0
 70
   128
  0
VERTEX
  5
6EF
  8
0
  6
CONTINUOUS
 62
     7
 10
85.6398185133
 20
124.5228156558
 30
0.0
  0
VERTEX
  5
6F0
  8
0
  6
CONTINUOUS
 62
     7
 10
85.5674748745
 20
124.5379701368
 30
0.0
  0
VERTEX
  5
6F1
  8
0
  6
CONTINUOUS
 62
     7
 10
85.5052464612
 20
124.5743517875
 30
0.0
  0
SEQEND
  5
824
  8
0
  6
CONTINUOUS
 62
     7
  0
LINE
  5
2D7
  8
0
  6
CONTINUOUS
 62
     7
 10
85.6321107422
 20
124.4868088625
 30
0.0
 11
85.6398187752
 21
124.5228156558
 31
0.0
  0
LINE
  5
2D8
  8
0
  6
CONTINUOUS
 62
     7
 10
85.4040522754
 20
128.3636963572
 30
0.0
 11
85.4209075769
 21
128.3871470596
 31
0.0
  0
LINE
  5
2D9
  8
0
  6
CONTINUOUS
 62
     7
 10
85.4040518388
 20
128.36369659
 30
0.0
 11
85.2509048418
 21
128.4723635408
 31
0.0
  0
LINE
  5
2DA
  8
0
  6
CONTINUOUS
 62
     7
 10
85.4209077443
 20
128.3871470596
 30
0.0
 11
85.2950927874
 21
128.526296664
 31
0.0
  0
LINE
  5
2DB
  8
0
  6
CONTINUOUS
 62
     7
 10
89.2501113994
 20
124.9373552501
 30
0.0
 11
89.2332558578
 21
124.9139045476
 31
0.0
  0
LINE
  5
2DC
  8
0
  6
CONTINUOUS
 62
     7
 10
89.2501118651
 20
124.9373552501
 30
0.0
 11
89.4032590149
 21
124.8286880664
 31
0.0
  0
LINE
  5
2DD
  8
0
  6
CONTINUOUS
 62
     7
 10
89.2332558578
 20
124.9139050133
 30
0.0
 11
89.3590710184
 21
124.7747551761
 31
0.0
  0
LINE
  5
2DE
  8
0
  6
CONTINUOUS
 62
     7
 10
85.6139114185
 20
124.7274961434
 30
0.0
 11
85.5904605996
 21
124.744351685
 31
0.0
  0
LINE
  5
2DF
  8
0
  6
CONTINUOUS
 62
     7
 10
85.6139110983
 20
124.7274961434
 30
0.0
 11
85.5052441912
 21
124.5743489935
 31
0.0
  0
LINE
  5
2E0
  8
0
  6
CONTINUOUS
 62
     7
 10
85.590460716
 20
124.744351685
 30
0.0
 11
85.4513111844
 21
124.6185369901
 31
0.0
  0
LINE
  5
2E1
  8
0
  6
CONTINUOUS
 62
     7
 10
89.0402522928
 20
128.5735554639
 30
0.0
 11
89.0637029952
 21
128.5567001551
 31
0.0
  0
LINE
  5
2E2
  8
0
  6
CONTINUOUS
 62
     7
 10
89.0402525256
 20
128.5735559295
 30
0.0
 11
89.1489194764
 21
128.7267028465
 31
0.0
  0
LINE
  5
2E3
  8
0
  6
CONTINUOUS
 62
     7
 10
89.0637029952
 20
128.5566999222
 30
0.0
 11
89.2028523667
 21
128.68251485
 31
0.0
  0
POLYLINE
  5
2E4
  8
0
  6
CONTINUOUS
 62
     7
 66
     1
 10
0.0
 20
0.0
 30
0.0
 70
   128
  0
VERTEX
  5
6F2
  8
0
  6
CONTINUOUS
 62
     7
 10
88.9426748326
 20
128.6082486267
 30
0.0
  0
VERTEX
  5
6F3
  8
0
  6
CONTINUOUS
 62
     7
 10
88.9942559006
 20
128.598287899
 30
0.0
  0
VERTEX
  5
6F4
  8
0
  6
CONTINUOUS
 62
     7
 10
89.0402504301
 20
128.5735568608
 30
0.0
  0
SEQEND
  5
825
  8
0
  6
CONTINUOUS
 62
     7
  0
LINE
  5
2E5
  8
0
  6
CONTINUOUS
 62
     7
 10
89.0082217811
 20
128.7784597016
 30
0.0
 11
88.9426748326
 21
128.6082486267
 31
0.0
  0
LINE
  5
2E6
  8
0
  6
CONTINUOUS
 62
     7
 10
89.014345227
 20
128.7782361842
 30
0.0
 11
89.0082217811
 21
128.7784597016
 31
0.0
  0
POLYLINE
  5
2E7
  8
0
  6
CONTINUOUS
 62
     7
 66
     1
 10
0.0
 20
0.0
 30
0.0
 70
   128
  0
VERTEX
  5
6F5
  8
0
  6
CONTINUOUS
 62
     7
 10
85.7114887622
 20
124.6928034461
 30
0.0
  0
VERTEX
  5
6F6
  8
0
  6
CONTINUOUS
 62
     7
 10
85.6599076651
 20
124.7027639411
 30
0.0
  0
VERTEX
  5
6F7
  8
0
  6
CONTINUOUS
 62
     7
 10
85.6139132229
 20
124.7274947464
 30
0.0
  0
SEQEND
  5
826
  8
0
  6
CONTINUOUS
 62
     7
  0
LINE
  5
2E8
  8
0
  6
CONTINUOUS
 62
     7
 10
85.645941901
 20
124.5225921384
 30
0.0
 11
85.7114887622
 21
124.6928034461
 31
0.0
  0
LINE
  5
2E9
  8
0
  6
CONTINUOUS
 62
     7
 10
85.6398184842
 20
124.5228156558
 30
0.0
 11
85.645941901
 21
124.5225921384
 31
0.0
  0
POLYLINE
  5
2EA
  8
0
  6
CONTINUOUS
 62
     7
 66
     1
 10
0.0
 20
0.0
 30
0.0
 70
   128
  0
VERTEX
  5
6F8
  8
0
  6
CONTINUOUS
 62
     7
 10
89.2848045623
 20
125.0349327102
 30
0.0
  0
VERTEX
  5
6F9
  8
0
  6
CONTINUOUS
 62
     7
 10
89.2748440674
 20
124.983351875
 30
0.0
  0
VERTEX
  5
6FA
  8
0
  6
CONTINUOUS
 62
     7
 10
89.2501127964
 20
124.9373571127
 30
0.0
  0
SEQEND
  5
827
  8
0
  6
CONTINUOUS
 62
     7
  0
LINE
  5
2EB
  8
0
  6
CONTINUOUS
 62
     7
 10
89.45501587
 20
124.9693857617
 30
0.0
 11
89.2848045623
 21
125.0349327102
 31
0.0
  0
LINE
  5
2EC
  8
0
  6
CONTINUOUS
 62
     7
 10
89.4547923526
 20
124.9632627814
 30
0.0
 11
89.45501587
 21
124.9693857617
 31
0.0
  0
POLYLINE
  5
2ED
  8
0
  6
CONTINUOUS
 62
     7
 66
     1
 10
0.0
 20
0.0
 30
0.0
 70
   128
  0
VERTEX
  5
6FB
  8
0
  6
CONTINUOUS
 62
     7
 10
85.369359178
 20
128.2661188971
 30
0.0
  0
VERTEX
  5
6FC
  8
0
  6
CONTINUOUS
 62
     7
 10
85.3793197348
 20
128.317699965
 30
0.0
  0
VERTEX
  5
6FD
  8
0
  6
CONTINUOUS
 62
     7
 10
85.4040508639
 20
128.3636944945
 30
0.0
  0
SEQEND
  5
828
  8
0
  6
CONTINUOUS
 62
     7
  0
LINE
  5
2EE
  8
0
  6
CONTINUOUS
 62
     7
 10
85.1991480158
 20
128.3316658455
 30
0.0
 11
85.369359178
 21
128.2661188971
 31
0.0
  0
LINE
  5
2EF
  8
0
  6
CONTINUOUS
 62
     7
 10
85.1993715187
 20
128.3377892914
 30
0.0
 11
85.1991480158
 21
128.3316658455
 31
0.0
  0
LINE
  5
2F0
  8
0
  6
CONTINUOUS
 62
     7
 10
85.295093133
 20
128.526296664
 30
0.0
 11
85.3276943993
 21
128.5570319387
 31
0.0
  0
LINE
  5
2F1
  8
0
  6
CONTINUOUS
 62
     7
 10
85.3276943993
 20
128.5570319387
 30
0.0
 11
85.2982819197
 21
128.5872666276
 31
0.0
  0
LINE
  5
2F2
  8
0
  6
CONTINUOUS
 62
     7
 10
89.3590705527
 20
124.7747551761
 30
0.0
 11
89.3264691404
 21
124.7440196685
 31
0.0
  0
LINE
  5
2F3
  8
0
  6
CONTINUOUS
 62
     7
 10
89.3264691404
 20
124.7440196685
 30
0.0
 11
89.3558817042
 21
124.7137852124
 31
0.0
  0
LINE
  5
2F4
  8
0
  6
CONTINUOUS
 62
     7
 10
85.4513110826
 20
124.6185369901
 30
0.0
 11
85.4205757641
 21
124.6511384025
 31
0.0
  0
LINE
  5
2F5
  8
0
  6
CONTINUOUS
 62
     7
 10
85.4205757641
 20
124.6511384025
 30
0.0
 11
85.3903410243
 21
124.6217258386
 31
0.0
  0
LINE
  5
2F6
  8
0
  6
CONTINUOUS
 62
     7
 10
89.2028525996
 20
128.6825146172
 30
0.0
 11
89.2335878743
 21
128.6499134376
 31
0.0
  0
LINE
  5
2F7
  8
0
  6
CONTINUOUS
 62
     7
 10
89.2335878743
 20
128.6499134376
 30
0.0
 11
89.2638227961
 21
128.6793257687
 31
0.0
  0
LINE
  5
2F8
  8
0
  6
CONTINUOUS
 62
     7
 10
85.3276944239
 20
128.5570319387
 30
0.0
 11
85.414420173
 21
128.5890221707
 31
0.0
  0
POLYLINE
  5
2F9
  8
0
  6
CONTINUOUS
 62
     7
 66
     1
 10
0.0
 20
0.0
 30
0.0
 70
   128
  0
VERTEX
  5
6FE
  8
0
  6
CONTINUOUS
 62
     7
 10
85.4144196637
 20
128.5890221707
 30
0.0
  0
VERTEX
  5
6FF
  8
0
  6
CONTINUOUS
 62
     7
 10
85.4258179243
 20
128.5626869294
 30
0.0
  0
VERTEX
  5
700
  8
0
  6
CONTINUOUS
 62
     7
 10
85.4484930096
 20
128.5302992556
 30
0.0
  0
SEQEND
  5
829
  8
0
  6
CONTINUOUS
 62
     7
  0
LINE
  5
2FA
  8
0
  6
CONTINUOUS
 62
     7
 10
85.4484930533
 20
128.5302992556
 30
0.0
 11
85.5345774034
 21
128.4302412178
 31
0.0
  0
POLYLINE
  5
2FB
  8
0
  6
CONTINUOUS
 62
     7
 66
     1
 10
0.0
 20
0.0
 30
0.0
 70
   128
  0
VERTEX
  5
701
  8
0
  6
CONTINUOUS
 62
     7
 10
85.5345774034
 20
128.4302412178
 30
0.0
  0
VERTEX
  5
702
  8
0
  6
CONTINUOUS
 62
     7
 10
85.4741480871
 20
128.4165512416
 30
0.0
  0
VERTEX
  5
703
  8
0
  6
CONTINUOUS
 62
     7
 10
85.4225391886
 20
128.3839125763
 30
0.0
  0
SEQEND
  5
82A
  8
0
  6
CONTINUOUS
 62
     7
  0
LINE
  5
2FC
  8
0
  6
CONTINUOUS
 62
     7
 10
85.4225392031
 20
128.3839125763
 30
0.0
 11
85.4209078316
 21
128.3871470596
 31
0.0
  0
LINE
  5
2FD
  8
0
  6
CONTINUOUS
 62
     7
 10
85.4205757569
 20
124.6511384025
 30
0.0
 11
85.3885855686
 21
124.7378640919
 31
0.0
  0
POLYLINE
  5
2FE
  8
0
  6
CONTINUOUS
 62
     7
 66
     1
 10
0.0
 20
0.0
 30
0.0
 70
   128
  0
VERTEX
  5
704
  8
0
  6
CONTINUOUS
 62
     7
 10
85.3885855977
 20
124.7378636263
 30
0.0
  0
VERTEX
  5
705
  8
0
  6
CONTINUOUS
 62
     7
 10
85.4149208753
 20
124.7492620833
 30
0.0
  0
VERTEX
  5
706
  8
0
  6
CONTINUOUS
 62
     7
 10
85.4473083964
 20
124.771936994
 30
0.0
  0
SEQEND
  5
82B
  8
0
  6
CONTINUOUS
 62
     7
  0
LINE
  5
2FF
  8
0
  6
CONTINUOUS
 62
     7
 10
85.4473066211
 20
124.7719388566
 30
0.0
 11
85.5473674019
 21
124.8580210022
 31
0.0
  0
POLYLINE
  5
300
  8
0
  6
CONTINUOUS
 62
     7
 66
     1
 10
0.0
 20
0.0
 30
0.0
 70
   128
  0
VERTEX
  5
707
  8
0
  6
CONTINUOUS
 62
     7
 10
85.5473664124
 20
124.8580214679
 30
0.0
  0
VERTEX
  5
708
  8
0
  6
CONTINUOUS
 62
     7
 10
85.5610564031
 20
124.7975921369
 30
0.0
  0
VERTEX
  5
709
  8
0
  6
CONTINUOUS
 62
     7
 10
85.5936950829
 20
124.7459833621
 30
0.0
  0
SEQEND
  5
82C
  8
0
  6
CONTINUOUS
 62
     7
  0
LINE
  5
301
  8
0
  6
CONTINUOUS
 62
     7
 10
85.5936950829
 20
124.7459833621
 30
0.0
 11
85.590460716
 21
124.744351685
 31
0.0
  0
LINE
  5
302
  8
0
  6
CONTINUOUS
 62
     7
 10
89.3264691404
 20
124.7440196685
 30
0.0
 11
89.2397434509
 21
124.7120296694
 31
0.0
  0
POLYLINE
  5
303
  8
0
  6
CONTINUOUS
 62
     7
 66
     1
 10
0.0
 20
0.0
 30
0.0
 70
   128
  0
VERTEX
  5
70A
  8
0
  6
CONTINUOUS
 62
     7
 10
89.2397439165
 20
124.7120296694
 30
0.0
  0
VERTEX
  5
70B
  8
0
  6
CONTINUOUS
 62
     7
 10
89.2283456924
 20
124.7383651435
 30
0.0
  0
VERTEX
  5
70C
  8
0
  6
CONTINUOUS
 62
     7
 10
89.2056705488
 20
124.7707523517
 30
0.0
  0
SEQEND
  5
82D
  8
0
  6
CONTINUOUS
 62
     7
  0
LINE
  5
304
  8
0
  6
CONTINUOUS
 62
     7
 10
89.2056705488
 20
124.7707523517
 30
0.0
 11
89.1195863078
 21
124.8708103895
 31
0.0
  0
POLYLINE
  5
305
  8
0
  6
CONTINUOUS
 62
     7
 66
     1
 10
0.0
 20
0.0
 30
0.0
 70
   128
  0
VERTEX
  5
70D
  8
0
  6
CONTINUOUS
 62
     7
 10
89.1195863078
 20
124.8708103895
 30
0.0
  0
VERTEX
  5
70E
  8
0
  6
CONTINUOUS
 62
     7
 10
89.1800156387
 20
124.8845003656
 30
0.0
  0
VERTEX
  5
70F
  8
0
  6
CONTINUOUS
 62
     7
 10
89.2316244135
 20
124.9171390309
 30
0.0
  0
SEQEND
  5
82E
  8
0
  6
CONTINUOUS
 62
     7
  0
LINE
  5
306
  8
0
  6
CONTINUOUS
 62
     7
 10
89.2316244135
 20
124.9171390309
 30
0.0
 11
89.2332558578
 21
124.9139050133
 31
0.0
  0
LINE
  5
307
  8
0
  6
CONTINUOUS
 62
     7
 10
89.2335878743
 20
128.6499132048
 30
0.0
 11
89.2655778734
 21
128.5631875153
 31
0.0
  0
POLYLINE
  5
308
  8
0
  6
CONTINUOUS
 62
     7
 66
     1
 10
0.0
 20
0.0
 30
0.0
 70
   128
  0
VERTEX
  5
710
  8
0
  6
CONTINUOUS
 62
     7
 10
89.2655778734
 20
128.563187981
 30
0.0
  0
VERTEX
  5
711
  8
0
  6
CONTINUOUS
 62
     7
 10
89.239242865
 20
128.5517897568
 30
0.0
  0
VERTEX
  5
712
  8
0
  6
CONTINUOUS
 62
     7
 10
89.2068551911
 20
128.5291146132
 30
0.0
  0
SEQEND
  5
82F
  8
0
  6
CONTINUOUS
 62
     7
  0
LINE
  5
309
  8
0
  6
CONTINUOUS
 62
     7
 10
89.206855424
 20
128.5291146132
 30
0.0
 11
89.1067971534
 21
128.4430303722
 31
0.0
  0
POLYLINE
  5
30A
  8
0
  6
CONTINUOUS
 62
     7
 66
     1
 10
0.0
 20
0.0
 30
0.0
 70
   128
  0
VERTEX
  5
713
  8
0
  6
CONTINUOUS
 62
     7
 10
89.1067971534
 20
128.4430303722
 30
0.0
  0
VERTEX
  5
714
  8
0
  6
CONTINUOUS
 62
     7
 10
89.0931071772
 20
128.5034597031
 30
0.0
  0
VERTEX
  5
715
  8
0
  6
CONTINUOUS
 62
     7
 10
89.0604685119
 20
128.5550684779
 30
0.0
  0
SEQEND
  5
830
  8
0
  6
CONTINUOUS
 62
     7
  0
LINE
  5
30B
  8
0
  6
CONTINUOUS
 62
     7
 10
89.0604685119
 20
128.5550684779
 30
0.0
 11
89.0637029952
 21
128.5566999222
 31
0.0
  0
POLYLINE
  5
30C
  8
0
  6
CONTINUOUS
 62
     7
 66
     1
 10
0.0
 20
0.0
 30
0.0
 70
   128
  0
VERTEX
  5
716
  8
0
  6
CONTINUOUS
 62
     7
 10
85.4413663474
 20
128.205715876
 30
0.0
  0
VERTEX
  5
717
  8
0
  6
CONTINUOUS
 62
     7
 10
85.4362047394
 20
128.2069978415
 30
0.0
  0
VERTEX
  5
718
  8
0
  6
CONTINUOUS
 62
     7
 10
85.4321099396
 20
128.2080115862
 30
0.0
  0
SEQEND
  5
831
  8
0
  6
CONTINUOUS
 62
     7
  0
POLYLINE
  5
30D
  8
0
  6
CONTINUOUS
 62
     7
 66
     1
 10
0.0
 20
0.0
 30
0.0
 70
   128
  0
VERTEX
  5
719
  8
0
  6
CONTINUOUS
 62
     7
 10
85.4356050841
 20
128.1446651201
 30
0.0
  0
VERTEX
  5
71A
  8
0
  6
CONTINUOUS
 62
     7
 10
85.4367333086
 20
128.1447242591
 30
0.0
  0
VERTEX
  5
71B
  8
0
  6
CONTINUOUS
 62
     7
 10
85.4378583826
 20
128.1447831652
 30
0.0
  0
VERTEX
  5
71C
  8
0
  6
CONTINUOUS
 62
     7
 10
85.4389802771
 20
128.1448420714
 30
0.0
  0
VERTEX
  5
71D
  8
0
  6
CONTINUOUS
 62
     7
 10
85.4400989701
 20
128.1449007447
 30
0.0
  0
VERTEX
  5
71E
  8
0
  6
CONTINUOUS
 62
     7
 10
85.4412144399
 20
128.1449591852
 30
0.0
  0
VERTEX
  5
71F
  8
0
  6
CONTINUOUS
 62
     7
 10
85.4423266792
 20
128.1450173929
 30
0.0
  0
VERTEX
  5
720
  8
0
  6
CONTINUOUS
 62
     7
 10
85.4434356515
 20
128.1450756005
 30
0.0
  0
VERTEX
  5
721
  8
0
  6
CONTINUOUS
 62
     7
 10
85.4445413497
 20
128.1451335754
 30
0.0
  0
SEQEND
  5
832
  8
0
  6
CONTINUOUS
 62
     7
  0
LINE
  5
30E
  8
0
  6
CONTINUOUS
 62
     7
 10
85.4321099396
 20
128.2080115862
 30
0.0
 11
85.4356050841
 21
128.1446651201
 31
0.0
  0
LINE
  5
30F
  8
0
  6
CONTINUOUS
 62
     7
 10
85.6053723837
 20
124.9017601012
 30
0.0
 11
85.5745786102
 21
124.8844496086
 31
0.0
  0
POLYLINE
  5
310
  8
0
  6
CONTINUOUS
 62
     7
 66
     1
 10
0.0
 20
0.0
 30
0.0
 70
   128
  0
VERTEX
  5
722
  8
0
  6
CONTINUOUS
 62
     7
 10
85.5745786102
 20
124.8844496086
 30
0.0
  0
VERTEX
  5
723
  8
0
  6
CONTINUOUS
 62
     7
 10
85.4875451623
 20
124.8663004599
 30
0.0
  0
VERTEX
  5
724
  8
0
  6
CONTINUOUS
 62
     7
 10
85.3819376789
 20
124.8257315829
 30
0.0
  0
SEQEND
  5
833
  8
0
  6
CONTINUOUS
 62
     7
  0
POLYLINE
  5
311
  8
0
  6
CONTINUOUS
 62
     7
 66
     1
 10
0.0
 20
0.0
 30
0.0
 70
   128
  0
VERTEX
  5
725
  8
0
  6
CONTINUOUS
 62
     7
 10
85.2095132359
 20
128.1157745625
 30
0.0
  0
VERTEX
  5
726
  8
0
  6
CONTINUOUS
 62
     7
 10
85.3110933876
 20
128.121575538
 30
0.0
  0
VERTEX
  5
727
  8
0
  6
CONTINUOUS
 62
     7
 10
85.384930182
 20
128.135485772
 30
0.0
  0
SEQEND
  5
834
  8
0
  6
CONTINUOUS
 62
     7
  0
LINE
  5
312
  8
0
  6
CONTINUOUS
 62
     7
 10
85.384930182
 20
128.135485772
 30
0.0
 11
85.4356050841
 21
128.1446651201
 31
0.0
  0
LINE
  5
313
  8
0
  6
CONTINUOUS
 62
     7
 10
85.6142581324
 20
124.9067445397
 30
0.0
 11
85.6053723837
 21
124.9017601012
 31
0.0
  0
POLYLINE
  5
314
  8
0
  6
CONTINUOUS
 62
     7
 66
     1
 10
0.0
 20
0.0
 30
0.0
 70
   128
  0
VERTEX
  5
728
  8
0
  6
CONTINUOUS
 62
     7
 10
89.2220536771
 20
125.0930402539
 30
0.0
  0
VERTEX
  5
729
  8
0
  6
CONTINUOUS
 62
     7
 10
89.2168480495
 20
125.09432967
 30
0.0
  0
VERTEX
  5
72A
  8
0
  6
CONTINUOUS
 62
     7
 10
89.212797262
 20
125.095335964
 30
0.0
  0
SEQEND
  5
835
  8
0
  6
CONTINUOUS
 62
     7
  0
POLYLINE
  5
315
  8
0
  6
CONTINUOUS
 62
     7
 66
     1
 10
0.0
 20
0.0
 30
0.0
 70
   128
  0
VERTEX
  5
72B
  8
0
  6
CONTINUOUS
 62
     7
 10
89.2185586563
 20
125.1563864871
 30
0.0
  0
VERTEX
  5
72C
  8
0
  6
CONTINUOUS
 62
     7
 10
89.217430359
 20
125.1563273481
 30
0.0
  0
VERTEX
  5
72D
  8
0
  6
CONTINUOUS
 62
     7
 10
89.2163053213
 20
125.1562686748
 30
0.0
  0
VERTEX
  5
72E
  8
0
  6
CONTINUOUS
 62
     7
 10
89.2151833104
 20
125.1562095358
 30
0.0
  0
VERTEX
  5
72F
  8
0
  6
CONTINUOUS
 62
     7
 10
89.214064792
 20
125.1561513282
 30
0.0
  0
VERTEX
  5
730
  8
0
  6
CONTINUOUS
 62
     7
 10
89.2129493004
 20
125.1560926548
 30
0.0
  0
VERTEX
  5
731
  8
0
  6
CONTINUOUS
 62
     7
 10
89.2118370684
 20
125.1560344472
 30
0.0
  0
VERTEX
  5
732
  8
0
  6
CONTINUOUS
 62
     7
 10
89.2107280961
 20
125.1559762395
 30
0.0
  0
VERTEX
  5
733
  8
0
  6
CONTINUOUS
 62
     7
 10
89.2096223833
 20
125.1559184975
 30
0.0
  0
SEQEND
  5
836
  8
0
  6
CONTINUOUS
 62
     7
  0
LINE
  5
316
  8
0
  6
CONTINUOUS
 62
     7
 10
89.2220536771
 20
125.0930402539
 30
0.0
 11
89.2185586563
 21
125.1563864871
 31
0.0
  0
LINE
  5
317
  8
0
  6
CONTINUOUS
 62
     7
 10
89.0487913566
 20
128.399291506
 30
0.0
 11
89.079298923
 21
128.4164390172
 31
0.0
  0
POLYLINE
  5
318
  8
0
  6
CONTINUOUS
 62
     7
 66
     1
 10
0.0
 20
0.0
 30
0.0
 70
   128
  0
VERTEX
  5
734
  8
0
  6
CONTINUOUS
 62
     7
 10
89.079298923
 20
128.4164390172
 30
0.0
  0
VERTEX
  5
735
  8
0
  6
CONTINUOUS
 62
     7
 10
89.167572005
 20
128.4351590666
 30
0.0
  0
VERTEX
  5
736
  8
0
  6
CONTINUOUS
 62
     7
 10
89.2722265853
 20
128.4753207228
 30
0.0
  0
SEQEND
  5
837
  8
0
  6
CONTINUOUS
 62
     7
  0
POLYLINE
  5
319
  8
0
  6
CONTINUOUS
 62
     7
 66
     1
 10
0.0
 20
0.0
 30
0.0
 70
   128
  0
VERTEX
  5
737
  8
0
  6
CONTINUOUS
 62
     7
 10
89.4446502498
 20
125.1852770447
 30
0.0
  0
VERTEX
  5
738
  8
0
  6
CONTINUOUS
 62
     7
 10
89.3430704309
 20
125.179476302
 30
0.0
  0
VERTEX
  5
739
  8
0
  6
CONTINUOUS
 62
     7
 10
89.2692333145
 20
125.1655660681
 30
0.0
  0
SEQEND
  5
838
  8
0
  6
CONTINUOUS
 62
     7
  0
LINE
  5
31A
  8
0
  6
CONTINUOUS
 62
     7
 10
89.2692333145
 20
125.1655660681
 30
0.0
 11
89.2185586563
 21
125.1563864871
 31
0.0
  0
LINE
  5
31B
  8
0
  6
CONTINUOUS
 62
     7
 10
89.0487913566
 20
128.399291506
 30
0.0
 11
89.0399056079
 21
128.3943073004
 31
0.0
  0
LINE
  5
31C
  8
0
  6
CONTINUOUS
 62
     7
 10
89.0758474416
 20
124.928816419
 30
0.0
 11
89.0930021706
 21
124.8982960469
 31
0.0
  0
POLYLINE
  5
31D
  8
0
  6
CONTINUOUS
 62
     7
 66
     1
 10
0.0
 20
0.0
 30
0.0
 70
   128
  0
VERTEX
  5
73A
  8
0
  6
CONTINUOUS
 62
     7
 10
89.0930021706
 20
124.8982960469
 30
0.0
  0
VERTEX
  5
73B
  8
0
  6
CONTINUOUS
 62
     7
 10
89.1117806605
 20
124.8099191225
 30
0.0
  0
VERTEX
  5
73C
  8
0
  6
CONTINUOUS
 62
     7
 10
89.1518771241
 20
124.7053804918
 30
0.0
  0
SEQEND
  5
839
  8
0
  6
CONTINUOUS
 62
     7
  0
POLYLINE
  5
31E
  8
0
  6
CONTINUOUS
 62
     7
 66
     1
 10
0.0
 20
0.0
 30
0.0
 70
   128
  0
VERTEX
  5
73D
  8
0
  6
CONTINUOUS
 62
     7
 10
85.8618330385
 20
124.532957293
 30
0.0
  0
VERTEX
  5
73E
  8
0
  6
CONTINUOUS
 62
     7
 10
85.8560322376
 20
124.6345375776
 30
0.0
  0
VERTEX
  5
73F
  8
0
  6
CONTINUOUS
 62
     7
 10
85.8421218873
 20
124.7083742283
 30
0.0
  0
SEQEND
  5
83A
  8
0
  6
CONTINUOUS
 62
     7
  0
LINE
  5
31F
  8
0
  6
CONTINUOUS
 62
     7
 10
85.8421218873
 20
124.7083742283
 30
0.0
 11
85.8329425973
 21
124.7590493522
 31
0.0
  0
POLYLINE
  5
320
  8
0
  6
CONTINUOUS
 62
     7
 66
     1
 10
0.0
 20
0.0
 30
0.0
 70
   128
  0
VERTEX
  5
740
  8
0
  6
CONTINUOUS
 62
     7
 10
85.8329425973
 20
124.7590493522
 30
0.0
  0
VERTEX
  5
741
  8
0
  6
CONTINUOUS
 62
     7
 10
85.8328834583
 20
124.7601771838
 30
0.0
  0
VERTEX
  5
742
  8
0
  6
CONTINUOUS
 62
     7
 10
85.832824494
 20
124.7613022215
 30
0.0
  0
VERTEX
  5
743
  8
0
  6
CONTINUOUS
 62
     7
 10
85.8327657043
 20
124.7624244652
 30
0.0
  0
VERTEX
  5
744
  8
0
  6
CONTINUOUS
 62
     7
 10
85.8327070891
 20
124.7635429836
 30
0.0
  0
VERTEX
  5
745
  8
0
  6
CONTINUOUS
 62
     7
 10
85.8326485904
 20
124.7646587081
 30
0.0
  0
VERTEX
  5
746
  8
0
  6
CONTINUOUS
 62
     7
 10
85.8325903246
 20
124.7657707072
 30
0.0
  0
VERTEX
  5
747
  8
0
  6
CONTINUOUS
 62
     7
 10
85.8325321751
 20
124.7668799124
 30
0.0
  0
VERTEX
  5
748
  8
0
  6
CONTINUOUS
 62
     7
 10
85.8324742585
 20
124.7679853923
 30
0.0
  0
SEQEND
  5
83B
  8
0
  6
CONTINUOUS
 62
     7
  0
LINE
  5
321
  8
0
  6
CONTINUOUS
 62
     7
 10
89.0758474416
 20
124.928816419
 30
0.0
 11
89.070863236
 21
124.9377021677
 31
0.0
  0
POLYLINE
  5
322
  8
0
  6
CONTINUOUS
 62
     7
 66
     1
 10
0.0
 20
0.0
 30
0.0
 70
   128
  0
VERTEX
  5
749
  8
0
  6
CONTINUOUS
 62
     7
 10
88.7923304981
 20
128.768094547
 30
0.0
  0
VERTEX
  5
74A
  8
0
  6
CONTINUOUS
 62
     7
 10
88.7981314736
 20
128.6665142625
 30
0.0
  0
VERTEX
  5
74B
  8
0
  6
CONTINUOUS
 62
     7
 10
88.8120417076
 20
128.5926776118
 30
0.0
  0
SEQEND
  5
83C
  8
0
  6
CONTINUOUS
 62
     7
  0
LINE
  5
323
  8
0
  6
CONTINUOUS
 62
     7
 10
88.8120417076
 20
128.5926776118
 30
0.0
 11
88.8212210557
 21
128.5420027207
 31
0.0
  0
POLYLINE
  5
324
  8
0
  6
CONTINUOUS
 62
     7
 66
     1
 10
0.0
 20
0.0
 30
0.0
 70
   128
  0
VERTEX
  5
74C
  8
0
  6
CONTINUOUS
 62
     7
 10
88.8212210557
 20
128.5420027207
 30
0.0
  0
VERTEX
  5
74D
  8
0
  6
CONTINUOUS
 62
     7
 10
88.8212801947
 20
128.5408744234
 30
0.0
  0
VERTEX
  5
74E
  8
0
  6
CONTINUOUS
 62
     7
 10
88.8213391008
 20
128.5397493857
 30
0.0
  0
VERTEX
  5
74F
  8
0
  6
CONTINUOUS
 62
     7
 10
88.821398007
 20
128.5386273748
 30
0.0
  0
VERTEX
  5
750
  8
0
  6
CONTINUOUS
 62
     7
 10
88.8214566803
 20
128.5375088564
 30
0.0
  0
VERTEX
  5
751
  8
0
  6
CONTINUOUS
 62
     7
 10
88.8215151208
 20
128.5363933648
 30
0.0
  0
VERTEX
  5
752
  8
0
  6
CONTINUOUS
 62
     7
 10
88.8215733285
 20
128.5352811328
 30
0.0
  0
VERTEX
  5
753
  8
0
  6
CONTINUOUS
 62
     7
 10
88.8216315361
 20
128.5341721605
 30
0.0
  0
VERTEX
  5
754
  8
0
  6
CONTINUOUS
 62
     7
 10
88.8216895109
 20
128.5330664478
 30
0.0
  0
SEQEND
  5
83D
  8
0
  6
CONTINUOUS
 62
     7
  0
LINE
  5
325
  8
0
  6
CONTINUOUS
 62
     7
 10
85.5783161533
 20
128.372235421
 30
0.0
 11
85.5833003588
 21
128.3633496723
 31
0.0
  0
LINE
  5
326
  8
0
  6
CONTINUOUS
 62
     7
 10
85.5783161533
 20
128.372235421
 30
0.0
 11
85.5612195301
 21
128.4026538133
 31
0.0
  0
POLYLINE
  5
327
  8
0
  6
CONTINUOUS
 62
     7
 66
     1
 10
0.0
 20
0.0
 30
0.0
 70
   128
  0
VERTEX
  5
755
  8
0
  6
CONTINUOUS
 62
     7
 10
85.5612195301
 20
128.4026538133
 30
0.0
  0
VERTEX
  5
756
  8
0
  6
CONTINUOUS
 62
     7
 10
85.5424392794
 20
128.4910158365
 30
0.0
  0
VERTEX
  5
757
  8
0
  6
CONTINUOUS
 62
     7
 10
85.5022864416
 20
128.5956711154
 30
0.0
  0
SEQEND
  5
83E
  8
0
  6
CONTINUOUS
 62
     7
  0
POLYLINE
  5
328
  8
0
  6
CONTINUOUS
 62
     7
 66
     1
 10
0.0
 20
0.0
 30
0.0
 70
   128
  0
VERTEX
  5
758
  8
0
  6
CONTINUOUS
 62
     7
 10
85.7695962477
 20
124.7555540986
 30
0.0
  0
VERTEX
  5
759
  8
0
  6
CONTINUOUS
 62
     7
 10
85.7708854601
 20
124.7607597261
 30
0.0
  0
VERTEX
  5
75A
  8
0
  6
CONTINUOUS
 62
     7
 10
85.7718918123
 20
124.7648105136
 30
0.0
  0
SEQEND
  5
83F
  8
0
  6
CONTINUOUS
 62
     7
  0
LINE
  5
329
  8
0
  6
CONTINUOUS
 62
     7
 10
85.7695962477
 20
124.7555540986
 30
0.0
 11
85.8329425973
 21
124.7590493522
 31
0.0
  0
POLYLINE
  5
32A
  8
0
  6
CONTINUOUS
 62
     7
 66
     1
 10
0.0
 20
0.0
 30
0.0
 70
   128
  0
VERTEX
  5
75B
  8
0
  6
CONTINUOUS
 62
     7
 10
88.8845675217
 20
128.5454977415
 30
0.0
  0
VERTEX
  5
75C
  8
0
  6
CONTINUOUS
 62
     7
 10
88.8832781056
 20
128.540292114
 30
0.0
  0
VERTEX
  5
75D
  8
0
  6
CONTINUOUS
 62
     7
 10
88.8822718116
 20
128.5362413264
 30
0.0
  0
SEQEND
  5
840
  8
0
  6
CONTINUOUS
 62
     7
  0
LINE
  5
32B
  8
0
  6
CONTINUOUS
 62
     7
 10
88.8845675217
 20
128.5454977415
 30
0.0
 11
88.8212210557
 21
128.5420027207
 31
0.0
  0
POLYLINE
  5
32C
  8
0
  6
CONTINUOUS
 62
     7
 66
     1
 10
0.0
 20
0.0
 30
0.0
 70
   128
  0
VERTEX
  5
75E
  8
0
  6
CONTINUOUS
 62
     7
 10
88.9172960597
 20
128.5452406965
 30
0.0
  0
VERTEX
  5
75F
  8
0
  6
CONTINUOUS
 62
     7
 10
88.9615771885
 20
128.5332659836
 30
0.0
  0
VERTEX
  5
760
  8
0
  6
CONTINUOUS
 62
     7
 10
88.9998482598
 20
128.5083209741
 30
0.0
  0
SEQEND
  5
841
  8
0
  6
CONTINUOUS
 62
     7
  0
POLYLINE
  5
32D
  8
0
  6
CONTINUOUS
 62
     7
 66
     1
 10
0.0
 20
0.0
 30
0.0
 70
   128
  0
VERTEX
  5
761
  8
0
  6
CONTINUOUS
 62
     7
 10
88.9923706709
 20
128.5000163707
 30
0.0
  0
VERTEX
  5
762
  8
0
  6
CONTINUOUS
 62
     7
 10
88.9965441602
 20
128.504651796
 30
0.0
  0
VERTEX
  5
763
  8
0
  6
CONTINUOUS
 62
     7
 10
88.999848027
 20
128.5083209741
 30
0.0
  0
SEQEND
  5
842
  8
0
  6
CONTINUOUS
 62
     7
  0
LINE
  5
32E
  8
0
  6
CONTINUOUS
 62
     7
 10
88.9172960597
 20
128.5452406965
 30
0.0
 11
88.9135640173
 21
128.5357842799
 31
0.0
  0
POLYLINE
  5
32F
  8
0
  6
CONTINUOUS
 62
     7
 66
     1
 10
0.0
 20
0.0
 30
0.0
 70
   128
  0
VERTEX
  5
764
  8
0
  6
CONTINUOUS
 62
     7
 10
89.221796632
 20
125.060311716
 30
0.0
  0
VERTEX
  5
765
  8
0
  6
CONTINUOUS
 62
     7
 10
89.2098219192
 20
125.0160305872
 30
0.0
  0
VERTEX
  5
766
  8
0
  6
CONTINUOUS
 62
     7
 10
89.1848769097
 20
124.977759283
 30
0.0
  0
SEQEND
  5
843
  8
0
  6
CONTINUOUS
 62
     7
  0
POLYLINE
  5
330
  8
0
  6
CONTINUOUS
 62
     7
 66
     1
 10
0.0
 20
0.0
 30
0.0
 70
   128
  0
VERTEX
  5
767
  8
0
  6
CONTINUOUS
 62
     7
 10
89.1765723063
 20
124.9852373376
 30
0.0
  0
VERTEX
  5
768
  8
0
  6
CONTINUOUS
 62
     7
 10
89.1812077316
 20
124.9810636155
 30
0.0
  0
VERTEX
  5
769
  8
0
  6
CONTINUOUS
 62
     7
 10
89.1848769097
 20
124.9777597486
 30
0.0
  0
SEQEND
  5
844
  8
0
  6
CONTINUOUS
 62
     7
  0
LINE
  5
331
  8
0
  6
CONTINUOUS
 62
     7
 10
89.221796632
 20
125.060311716
 30
0.0
 11
89.2123399826
 21
125.0640435255
 31
0.0
  0
POLYLINE
  5
332
  8
0
  6
CONTINUOUS
 62
     7
 66
     1
 10
0.0
 20
0.0
 30
0.0
 70
   128
  0
VERTEX
  5
76A
  8
0
  6
CONTINUOUS
 62
     7
 10
85.4323669555
 20
128.2407401241
 30
0.0
  0
VERTEX
  5
76B
  8
0
  6
CONTINUOUS
 62
     7
 10
85.4443417702
 20
128.2850214857
 30
0.0
  0
VERTEX
  5
76C
  8
0
  6
CONTINUOUS
 62
     7
 10
85.4692867288
 20
128.3232923243
 30
0.0
  0
SEQEND
  5
845
  8
0
  6
CONTINUOUS
 62
     7
  0
POLYLINE
  5
333
  8
0
  6
CONTINUOUS
 62
     7
 66
     1
 10
0.0
 20
0.0
 30
0.0
 70
   128
  0
VERTEX
  5
76D
  8
0
  6
CONTINUOUS
 62
     7
 10
85.4775912885
 20
128.3158147353
 30
0.0
  0
VERTEX
  5
76E
  8
0
  6
CONTINUOUS
 62
     7
 10
85.4729560087
 20
128.3199882246
 30
0.0
  0
VERTEX
  5
76F
  8
0
  6
CONTINUOUS
 62
     7
 10
85.4692867579
 20
128.3232920914
 30
0.0
  0
SEQEND
  5
846
  8
0
  6
CONTINUOUS
 62
     7
  0
LINE
  5
334
  8
0
  6
CONTINUOUS
 62
     7
 10
85.4323669555
 20
128.2407401241
 30
0.0
 11
85.4418235685
 21
128.2370080817
 31
0.0
  0
POLYLINE
  5
335
  8
0
  6
CONTINUOUS
 62
     7
 66
     1
 10
0.0
 20
0.0
 30
0.0
 70
   128
  0
VERTEX
  5
770
  8
0
  6
CONTINUOUS
 62
     7
 10
85.7368675643
 20
124.7558111436
 30
0.0
  0
VERTEX
  5
771
  8
0
  6
CONTINUOUS
 62
     7
 10
85.6925863482
 20
124.7677856236
 30
0.0
  0
VERTEX
  5
772
  8
0
  6
CONTINUOUS
 62
     7
 10
85.6543154223
 20
124.7927306331
 30
0.0
  0
SEQEND
  5
847
  8
0
  6
CONTINUOUS
 62
     7
  0
POLYLINE
  5
336
  8
0
  6
CONTINUOUS
 62
     7
 66
     1
 10
0.0
 20
0.0
 30
0.0
 70
   128
  0
VERTEX
  5
773
  8
0
  6
CONTINUOUS
 62
     7
 10
85.6617930694
 20
124.8010352365
 30
0.0
  0
VERTEX
  5
774
  8
0
  6
CONTINUOUS
 62
     7
 10
85.6576194346
 20
124.796400044
 30
0.0
  0
VERTEX
  5
775
  8
0
  6
CONTINUOUS
 62
     7
 10
85.654315626
 20
124.7927306331
 30
0.0
  0
SEQEND
  5
848
  8
0
  6
CONTINUOUS
 62
     7
  0
LINE
  5
337
  8
0
  6
CONTINUOUS
 62
     7
 10
85.7368675643
 20
124.7558111436
 30
0.0
 11
85.7405996649
 21
124.765267793
 31
0.0
  0
ARC
  5
338
  8
0
  6
CONTINUOUS
 62
     7
 10
89.0745906561
 20
125.0775284893
 30
0.0
 40
0.1487173808585908
 50
270.4842027326
 51
317.8664220668
  0
ARC
  5
339
  8
0
  6
CONTINUOUS
 62
     7
 10
88.9000802431
 20
128.39803515
 30
0.0
 40
0.1487164204454919
 50
0.4840403748
 51
47.8665844245
  0
ARC
  5
33A
  8
0
  6
CONTINUOUS
 62
     7
 10
85.5795723774
 20
128.223524962
 30
0.0
 40
0.148715764869076
 50
90.4839916961
 51
137.8666959589
  0
ARC
  5
33B
  8
0
  6
CONTINUOUS
 62
     7
 10
85.7540830744
 20
124.9030165787
 30
0.0
 40
0.148715998667395
 50
180.4840885343
 51
227.8665663672
  0
LINE
  5
33C
  8
0
  6
CONTINUOUS
 62
     7
 10
85.7695962477
 20
124.7555540986
 30
0.0
 11
85.7368675643
 21
124.7558111436
 31
0.0
  0
LINE
  5
33D
  8
0
  6
CONTINUOUS
 62
     7
 10
88.8845675217
 20
128.5454977415
 30
0.0
 11
88.9172960597
 21
128.5452406965
 31
0.0
  0
LINE
  5
33E
  8
0
  6
CONTINUOUS
 62
     7
 10
89.2220536771
 20
125.0930402539
 30
0.0
 11
89.221796632
 21
125.060311716
 31
0.0
  0
LINE
  5
33F
  8
0
  6
CONTINUOUS
 62
     7
 10
85.4321099396
 20
128.2080115862
 30
0.0
 11
85.4323669555
 21
128.2407401241
 31
0.0
  0
LINE
  5
340
  8
0
  6
CONTINUOUS
 62
     7
 10
85.3767843146
 20
124.7317466996
 30
0.0
 11
85.3665377217
 21
124.7233512922
 31
0.0
  0
LINE
  5
341
  8
0
  6
CONTINUOUS
 62
     7
 10
85.4205757496
 20
124.6511384025
 30
0.0
 11
85.3767912376
 21
124.7317485622
 31
0.0
  0
LINE
  5
342
  8
0
  6
CONTINUOUS
 62
     7
 10
89.2773791274
 20
128.5693053733
 30
0.0
 11
89.2876260041
 21
128.5777007806
 31
0.0
  0
LINE
  5
343
  8
0
  6
CONTINUOUS
 62
     7
 10
89.2335878743
 20
128.6499132048
 30
0.0
 11
89.2773726082
 21
128.569303045
 31
0.0
  0
LINE
  5
344
  8
0
  6
CONTINUOUS
 62
     7
 10
89.2458613089
 20
124.7002284154
 30
0.0
 11
89.2542567162
 21
124.6899820044
 31
0.0
  0
LINE
  5
345
  8
0
  6
CONTINUOUS
 62
     7
 10
89.3264691404
 20
124.7440196685
 30
0.0
 11
89.2458589806
 21
124.7002354003
 31
0.0
  0
LINE
  5
346
  8
0
  6
CONTINUOUS
 62
     7
 10
85.408302446
 20
128.6008234247
 30
0.0
 11
85.3999070168
 21
128.6110700685
 31
0.0
  0
LINE
  5
347
  8
0
  6
CONTINUOUS
 62
     7
 10
85.3276944679
 20
128.5570319387
 30
0.0
 11
85.4083045706
 21
128.6008164398
 31
0.0
  0
ARC
  5
348
  8
0
  6
CONTINUOUS
 62
     7
 10
85.7883896444
 20
124.637179194
 30
0.0
 40
0.3268988003109993
 50
130.8511600444
 51
137.501859033
  0
POLYLINE
  5
349
  8
0
  6
CONTINUOUS
 62
     7
 66
     1
 10
0.0
 20
0.0
 30
0.0
 70
   128
  0
VERTEX
  5
776
  8
0
  6
CONTINUOUS
 62
     7
 10
85.6543155387
 20
124.7927310988
 30
0.0
  0
VERTEX
  5
777
  8
0
  6
CONTINUOUS
 62
     7
 10
85.6258229178
 20
124.76882172
 30
0.0
  0
VERTEX
  5
778
  8
0
  6
CONTINUOUS
 62
     7
 10
85.5936950829
 20
124.7459833621
 30
0.0
  0
SEQEND
  5
849
  8
0
  6
CONTINUOUS
 62
     7
  0
LINE
  5
34A
  8
0
  6
CONTINUOUS
 62
     7
 10
85.3705811351
 20
128.223652916
 30
0.0
 11
85.4321099396
 21
128.2080115862
 31
0.0
  0
LINE
  5
34B
  8
0
  6
CONTINUOUS
 62
     7
 10
85.3759159945
 20
128.1499396655
 30
0.0
 11
85.4356050841
 21
128.1446651201
 31
0.0
  0
LINE
  5
34C
  8
0
  6
CONTINUOUS
 62
     7
 10
85.3759159945
 20
128.1499396655
 30
0.0
 11
85.3705811351
 21
128.223652916
 31
0.0
  0
LINE
  5
34D
  8
0
  6
CONTINUOUS
 62
     7
 10
89.2835826671
 20
125.0773991569
 30
0.0
 11
89.2220536771
 21
125.0930402539
 31
0.0
  0
LINE
  5
34E
  8
0
  6
CONTINUOUS
 62
     7
 10
89.2782475857
 20
125.1511119417
 30
0.0
 11
89.2185586563
 21
125.1563864871
 31
0.0
  0
LINE
  5
34F
  8
0
  6
CONTINUOUS
 62
     7
 10
89.2782475857
 20
125.1511119417
 30
0.0
 11
89.2835826671
 21
125.0773991569
 31
0.0
  0
LINE
  5
350
  8
0
  6
CONTINUOUS
 62
     7
 10
85.7539548888
 20
124.6940253414
 30
0.0
 11
85.7695962477
 21
124.7555540986
 31
0.0
  0
LINE
  5
351
  8
0
  6
CONTINUOUS
 62
     7
 10
85.8276680519
 20
124.6993599571
 30
0.0
 11
85.8329425973
 21
124.7590493522
 31
0.0
  0
LINE
  5
352
  8
0
  6
CONTINUOUS
 62
     7
 10
85.8276680519
 20
124.6993599571
 30
0.0
 11
85.7539548888
 21
124.6940253414
 31
0.0
  0
LINE
  5
353
  8
0
  6
CONTINUOUS
 62
     7
 10
88.9002088516
 20
128.6070264987
 30
0.0
 11
88.8845675217
 21
128.5454977415
 31
0.0
  0
LINE
  5
354
  8
0
  6
CONTINUOUS
 62
     7
 10
88.8264956011
 20
128.6016916502
 30
0.0
 11
88.8212210557
 21
128.5420027207
 31
0.0
  0
LINE
  5
355
  8
0
  6
CONTINUOUS
 62
     7
 10
88.8264956011
 20
128.6016916502
 30
0.0
 11
88.9002088516
 21
128.6070264987
 31
0.0
  0
POLYLINE
  5
356
  8
0
  6
CONTINUOUS
 62
     7
 66
     1
 10
0.0
 20
0.0
 30
0.0
 70
   128
  0
VERTEX
  5
779
  8
0
  6
CONTINUOUS
 62
     7
 10
89.1067971534
 20
128.4430303722
 30
0.0
  0
VERTEX
  5
77A
  8
0
  6
CONTINUOUS
 62
     7
 10
89.0924023988
 20
128.4266023076
 30
0.0
  0
VERTEX
  5
77B
  8
0
  6
CONTINUOUS
 62
     7
 10
89.0793159197
 20
128.4164397157
 30
0.0
  0
SEQEND
  5
84A
  8
0
  6
CONTINUOUS
 62
     7
  0
POLYLINE
  5
357
  8
0
  6
CONTINUOUS
 62
     7
 66
     1
 10
0.0
 20
0.0
 30
0.0
 70
   128
  0
VERTEX
  5
77C
  8
0
  6
CONTINUOUS
 62
     7
 10
88.999848027
 20
128.5083207413
 30
0.0
  0
VERTEX
  5
77D
  8
0
  6
CONTINUOUS
 62
     7
 10
89.028340677
 20
128.5322301201
 30
0.0
  0
VERTEX
  5
77E
  8
0
  6
CONTINUOUS
 62
     7
 10
89.0604685119
 20
128.5550684779
 30
0.0
  0
SEQEND
  5
84B
  8
0
  6
CONTINUOUS
 62
     7
  0
POLYLINE
  5
358
  8
0
  6
CONTINUOUS
 62
     7
 66
     1
 10
0.0
 20
0.0
 30
0.0
 70
   128
  0
VERTEX
  5
77F
  8
0
  6
CONTINUOUS
 62
     7
 10
89.1195863078
 20
124.8708103895
 30
0.0
  0
VERTEX
  5
780
  8
0
  6
CONTINUOUS
 62
     7
 10
89.103220409
 20
124.8850894272
 30
0.0
  0
VERTEX
  5
781
  8
0
  6
CONTINUOUS
 62
     7
 10
89.093002869
 20
124.8982792831
 30
0.0
  0
SEQEND
  5
84C
  8
0
  6
CONTINUOUS
 62
     7
  0
POLYLINE
  5
359
  8
0
  6
CONTINUOUS
 62
     7
 66
     1
 10
0.0
 20
0.0
 30
0.0
 70
   128
  0
VERTEX
  5
782
  8
0
  6
CONTINUOUS
 62
     7
 10
89.1848766769
 20
124.9777597486
 30
0.0
  0
VERTEX
  5
783
  8
0
  6
CONTINUOUS
 62
     7
 10
89.2087860557
 20
124.9492668658
 30
0.0
  0
VERTEX
  5
784
  8
0
  6
CONTINUOUS
 62
     7
 10
89.2316244135
 20
124.9171390309
 30
0.0
  0
SEQEND
  5
84D
  8
0
  6
CONTINUOUS
 62
     7
  0
POLYLINE
  5
35A
  8
0
  6
CONTINUOUS
 62
     7
 66
     1
 10
0.0
 20
0.0
 30
0.0
 70
   128
  0
VERTEX
  5
785
  8
0
  6
CONTINUOUS
 62
     7
 10
85.5345774034
 20
128.4302412178
 30
0.0
  0
VERTEX
  5
786
  8
0
  6
CONTINUOUS
 62
     7
 10
85.5509503017
 20
128.4159542638
 30
0.0
  0
VERTEX
  5
787
  8
0
  6
CONTINUOUS
 62
     7
 10
85.5612187588
 20
128.4026712756
 30
0.0
  0
SEQEND
  5
84E
  8
0
  6
CONTINUOUS
 62
     7
  0
POLYLINE
  5
35B
  8
0
  6
CONTINUOUS
 62
     7
 66
     1
 10
0.0
 20
0.0
 30
0.0
 70
   128
  0
VERTEX
  5
788
  8
0
  6
CONTINUOUS
 62
     7
 10
85.4692868743
 20
128.3232920914
 30
0.0
  0
VERTEX
  5
789
  8
0
  6
CONTINUOUS
 62
     7
 10
85.4453776992
 20
128.3517847414
 30
0.0
  0
VERTEX
  5
78A
  8
0
  6
CONTINUOUS
 62
     7
 10
85.4225391886
 20
128.3839125763
 30
0.0
  0
SEQEND
  5
84F
  8
0
  6
CONTINUOUS
 62
     7
  0
LINE
  5
35C
  8
0
  6
CONTINUOUS
 62
     7
 10
85.3759159872
 20
128.1499396655
 30
0.0
 11
85.3849301748
 21
128.135485772
 31
0.0
  0
LINE
  5
35D
  8
0
  6
CONTINUOUS
 62
     7
 10
88.8264956011
 20
128.6016916502
 30
0.0
 11
88.8120417076
 21
128.5926776118
 31
0.0
  0
LINE
  5
35E
  8
0
  6
CONTINUOUS
 62
     7
 10
89.2782475857
 20
125.1511119417
 30
0.0
 11
89.2692333145
 21
125.1655660681
 31
0.0
  0
LINE
  5
35F
  8
0
  6
CONTINUOUS
 62
     7
 10
85.8276680519
 20
124.6993599571
 30
0.0
 11
85.8421218873
 21
124.7083742283
 31
0.0
  0
POLYLINE
  5
360
  8
0
  6
CONTINUOUS
 62
     7
 66
     1
 10
0.0
 20
0.0
 30
0.0
 70
   128
  0
VERTEX
  5
78B
  8
0
  6
CONTINUOUS
 62
     7
 10
85.7114887622
 20
124.6928034461
 30
0.0
  0
VERTEX
  5
78C
  8
0
  6
CONTINUOUS
 62
     7
 10
85.7244966319
 20
124.7250733077
 30
0.0
  0
VERTEX
  5
78D
  8
0
  6
CONTINUOUS
 62
     7
 10
85.7368675643
 20
124.7558111436
 30
0.0
  0
SEQEND
  5
850
  8
0
  6
CONTINUOUS
 62
     7
  0
LINE
  5
361
  8
0
  6
CONTINUOUS
 62
     7
 10
85.6139132229
 20
124.7274947464
 30
0.0
 11
85.6144964637
 21
124.7287059314
 31
0.0
  0
ARC
  5
362
  8
0
  6
CONTINUOUS
 62
     7
 10
86.0098936112
 20
124.5271920765
 30
0.0
 40
0.4437868159218463
 50
143.2483157035
 51
152.9943695608
  0
POLYLINE
  5
363
  8
0
  6
CONTINUOUS
 62
     7
 66
     1
 10
0.0
 20
0.0
 30
0.0
 70
   128
  0
VERTEX
  5
78E
  8
0
  6
CONTINUOUS
 62
     7
 10
89.2848045623
 20
125.0349327102
 30
0.0
  0
VERTEX
  5
78F
  8
0
  6
CONTINUOUS
 62
     7
 10
89.2525347008
 20
125.0479404926
 30
0.0
  0
VERTEX
  5
790
  8
0
  6
CONTINUOUS
 62
     7
 10
89.221796632
 20
125.060311716
 30
0.0
  0
SEQEND
  5
851
  8
0
  6
CONTINUOUS
 62
     7
  0
LINE
  5
364
  8
0
  6
CONTINUOUS
 62
     7
 10
89.2501127964
 20
124.9373571127
 30
0.0
 11
89.2489016114
 21
124.9379405863
 31
0.0
  0
ARC
  5
365
  8
0
  6
CONTINUOUS
 62
     7
 10
89.4504080404
 20
125.3333234614
 30
0.0
 40
0.4437707277790941
 50
233.2479986516
 51
242.9943870452
  0
POLYLINE
  5
366
  8
0
  6
CONTINUOUS
 62
     7
 66
     1
 10
0.0
 20
0.0
 30
0.0
 70
   128
  0
VERTEX
  5
791
  8
0
  6
CONTINUOUS
 62
     7
 10
85.369359178
 20
128.2661188971
 30
0.0
  0
VERTEX
  5
792
  8
0
  6
CONTINUOUS
 62
     7
 10
85.4016291196
 20
128.2531111147
 30
0.0
  0
VERTEX
  5
793
  8
0
  6
CONTINUOUS
 62
     7
 10
85.4323669555
 20
128.2407401241
 30
0.0
  0
SEQEND
  5
852
  8
0
  6
CONTINUOUS
 62
     7
  0
LINE
  5
367
  8
0
  6
CONTINUOUS
 62
     7
 10
85.4040508639
 20
128.3636944945
 30
0.0
 11
85.4052620634
 21
128.3631112538
 31
0.0
  0
ARC
  5
368
  8
0
  6
CONTINUOUS
 62
     7
 10
85.2037814445
 20
127.9677707031
 30
0.0
 40
0.4437212985156274
 50
53.2474116436
 51
62.9948747708
  0
POLYLINE
  5
369
  8
0
  6
CONTINUOUS
 62
     7
 66
     1
 10
0.0
 20
0.0
 30
0.0
 70
   128
  0
VERTEX
  5
794
  8
0
  6
CONTINUOUS
 62
     7
 10
88.9426748326
 20
128.6082486267
 30
0.0
  0
VERTEX
  5
795
  8
0
  6
CONTINUOUS
 62
     7
 10
88.9296670502
 20
128.5759785324
 30
0.0
  0
VERTEX
  5
796
  8
0
  6
CONTINUOUS
 62
     7
 10
88.9172960597
 20
128.5452406965
 30
0.0
  0
SEQEND
  5
853
  8
0
  6
CONTINUOUS
 62
     7
  0
LINE
  5
36A
  8
0
  6
CONTINUOUS
 62
     7
 10
89.0402504301
 20
128.5735568608
 30
0.0
 11
89.0396671894
 21
128.5723456758
 31
0.0
  0
ARC
  5
36B
  8
0
  6
CONTINUOUS
 62
     7
 10
88.6443189092
 20
128.7738305891
 30
0.0
 40
0.4437301352144198
 50
323.2475517721
 51
332.9948339248
  0
LINE
  5
36C
  8
0
  6
CONTINUOUS
 62
     7
 10
89.0396671894
 20
128.5723456758
 30
0.0
 11
89.0604694432
 21
128.5550696421
 31
0.0
  0
LINE
  5
36D
  8
0
  6
CONTINUOUS
 62
     7
 10
89.2489016114
 20
124.9379405863
 30
0.0
 11
89.2316255777
 21
124.9171380996
 31
0.0
  0
LINE
  5
36E
  8
0
  6
CONTINUOUS
 62
     7
 10
85.4052620634
 20
128.3631112538
 30
0.0
 11
85.4225381772
 21
128.3839135076
 31
0.0
  0
LINE
  5
36F
  8
0
  6
CONTINUOUS
 62
     7
 10
85.6144964637
 20
124.7287059314
 30
0.0
 11
85.5936942098
 21
124.7459824308
 31
0.0
  0
LINE
  5
370
  8
0
  6
CONTINUOUS
 62
     7
 10
85.7539548888
 20
124.6940253414
 30
0.0
 11
85.7114887622
 21
124.6928034461
 31
0.0
  0
LINE
  5
371
  8
0
  6
CONTINUOUS
 62
     7
 10
88.9002088516
 20
128.6070264987
 30
0.0
 11
88.9426748326
 21
128.6082486267
 31
0.0
  0
LINE
  5
372
  8
0
  6
CONTINUOUS
 62
     7
 10
89.2835826671
 20
125.0773991569
 30
0.0
 11
89.2848045623
 21
125.0349327102
 31
0.0
  0
LINE
  5
373
  8
0
  6
CONTINUOUS
 62
     7
 10
85.3705811351
 20
128.223652916
 30
0.0
 11
85.369359178
 21
128.2661188971
 31
0.0
  0
LINE
  5
374
  8
0
  6
CONTINUOUS
 62
     7
 10
85.3767843218
 20
124.7317462339
 30
0.0
 11
85.3885855686
 21
124.7378640919
 31
0.0
  0
LINE
  5
375
  8
0
  6
CONTINUOUS
 62
     7
 10
89.2773791274
 20
128.5693053733
 30
0.0
 11
89.2655778734
 21
128.5631875153
 31
0.0
  0
LINE
  5
376
  8
0
  6
CONTINUOUS
 62
     7
 10
89.2458613089
 20
124.7002284154
 30
0.0
 11
89.2397434509
 21
124.7120296694
 31
0.0
  0
LINE
  5
377
  8
0
  6
CONTINUOUS
 62
     7
 10
85.4083022932
 20
128.6008234247
 30
0.0
 11
85.414420173
 21
128.5890221707
 31
0.0
  0
POLYLINE
  5
378
  8
0
  6
CONTINUOUS
 62
     7
 66
     1
 10
0.0
 20
0.0
 30
0.0
 70
   128
  0
VERTEX
  5
797
  8
0
  6
CONTINUOUS
 62
     7
 10
89.2068533285
 20
128.5291125178
 30
0.0
  0
VERTEX
  5
798
  8
0
  6
CONTINUOUS
 62
     7
 10
89.2395776755
 20
128.5029041692
 30
0.0
  0
VERTEX
  5
799
  8
0
  6
CONTINUOUS
 62
     7
 10
89.2722265853
 20
128.4753207228
 30
0.0
  0
SEQEND
  5
854
  8
0
  6
CONTINUOUS
 62
     7
  0
POLYLINE
  5
379
  8
0
  6
CONTINUOUS
 62
     7
 66
     1
 10
0.0
 20
0.0
 30
0.0
 70
   128
  0
VERTEX
  5
79A
  8
0
  6
CONTINUOUS
 62
     7
 10
85.4484944502
 20
128.5302980914
 30
0.0
  0
VERTEX
  5
79B
  8
0
  6
CONTINUOUS
 62
     7
 10
85.4747029516
 20
128.5630224384
 30
0.0
  0
VERTEX
  5
79C
  8
0
  6
CONTINUOUS
 62
     7
 10
85.5022864416
 20
128.5956711154
 30
0.0
  0
SEQEND
  5
855
  8
0
  6
CONTINUOUS
 62
     7
  0
POLYLINE
  5
37A
  8
0
  6
CONTINUOUS
 62
     7
 66
     1
 10
0.0
 20
0.0
 30
0.0
 70
   128
  0
VERTEX
  5
79D
  8
0
  6
CONTINUOUS
 62
     7
 10
85.3819376316
 20
124.8257315829
 30
0.0
  0
VERTEX
  5
79E
  8
0
  6
CONTINUOUS
 62
     7
 10
85.4145865087
 20
124.7981481365
 30
0.0
  0
VERTEX
  5
79F
  8
0
  6
CONTINUOUS
 62
     7
 10
85.4473109212
 20
124.7719402536
 30
0.0
  0
SEQEND
  5
856
  8
0
  6
CONTINUOUS
 62
     7
  0
POLYLINE
  5
37B
  8
0
  6
CONTINUOUS
 62
     7
 66
     1
 10
0.0
 20
0.0
 30
0.0
 70
   128
  0
VERTEX
  5
7A0
  8
0
  6
CONTINUOUS
 62
     7
 10
89.2056691518
 20
124.7707537486
 30
0.0
  0
VERTEX
  5
7A1
  8
0
  6
CONTINUOUS
 62
     7
 10
89.1794608033
 20
124.7380294017
 30
0.0
  0
VERTEX
  5
7A2
  8
0
  6
CONTINUOUS
 62
     7
 10
89.1518771241
 20
124.7053804918
 30
0.0
  0
SEQEND
  5
857
  8
0
  6
CONTINUOUS
 62
     7
  0
LINE
  5
37C
  8
0
  6
CONTINUOUS
 62
     7
 10
85.6393365539
 20
124.4872917532
 30
0.0
 11
85.645941901
 21
124.5225921384
 31
0.0
  0
LINE
  5
37D
  8
0
  6
CONTINUOUS
 62
     7
 10
89.4903162552
 20
124.962780822
 30
0.0
 11
89.45501587
 21
124.9693857617
 31
0.0
  0
LINE
  5
37E
  8
0
  6
CONTINUOUS
 62
     7
 10
85.1638475433
 20
128.3382712509
 30
0.0
 11
85.1991480158
 21
128.3316658455
 31
0.0
  0
LINE
  5
37F
  8
0
  6
CONTINUOUS
 62
     7
 10
89.0148271865
 20
128.8137600868
 30
0.0
 11
89.0082217811
 21
128.7784597016
 31
0.0
  0
LINE
  5
380
  8
0
  6
CONTINUOUS
 62
     7
 10
85.662587604
 20
124.5220999344
 30
0.0
 11
85.645941901
 21
124.5225921384
 31
0.0
  0
LINE
  5
381
  8
0
  6
CONTINUOUS
 62
     7
 10
85.6625874876
 20
124.5220994688
 30
0.0
 11
85.6569423049
 21
124.4888456649
 31
0.0
  0
LINE
  5
382
  8
0
  6
CONTINUOUS
 62
     7
 10
89.4555076084
 20
124.9860317557
 30
0.0
 11
89.45501587
 21
124.9693857617
 31
0.0
  0
LINE
  5
383
  8
0
  6
CONTINUOUS
 62
     7
 10
89.4555085397
 20
124.9860317557
 30
0.0
 11
89.4887623435
 21
124.980386544
 31
0.0
  0
LINE
  5
384
  8
0
  6
CONTINUOUS
 62
     7
 10
85.1986559137
 20
128.3150200843
 30
0.0
 11
85.1991480158
 21
128.3316658455
 31
0.0
  0
LINE
  5
385
  8
0
  6
CONTINUOUS
 62
     7
 10
85.1986552007
 20
128.3150203171
 30
0.0
 11
85.1654014987
 21
128.3206655289
 31
0.0
  0
LINE
  5
386
  8
0
  6
CONTINUOUS
 62
     7
 10
88.9915760199
 20
128.7789519056
 30
0.0
 11
89.0082217811
 21
128.7784597016
 31
0.0
  0
LINE
  5
387
  8
0
  6
CONTINUOUS
 62
     7
 10
88.9915762527
 20
128.7789526041
 30
0.0
 11
88.9972212317
 21
128.8122061751
 31
0.0
  0
LINE
  5
388
  8
0
  6
CONTINUOUS
 62
     7
 10
85.7095449464
 20
124.5204640663
 30
0.0
 11
85.6625875167
 21
124.5220962092
 31
0.0
  0
LINE
  5
389
  8
0
  6
CONTINUOUS
 62
     7
 10
85.7066059252
 20
124.4948708563
 30
0.0
 11
85.7095449464
 21
124.5204640663
 31
0.0
  0
LINE
  5
38A
  8
0
  6
CONTINUOUS
 62
     7
 10
89.4571439421
 20
125.0329890399
 30
0.0
 11
89.4555113337
 21
124.9860317557
 31
0.0
  0
LINE
  5
38B
  8
0
  6
CONTINUOUS
 62
     7
 10
89.4827366865
 20
125.0300497859
 30
0.0
 11
89.4571439421
 21
125.0329890399
 31
0.0
  0
LINE
  5
38C
  8
0
  6
CONTINUOUS
 62
     7
 10
85.1970197982
 20
128.2680628001
 30
0.0
 11
85.1986523194
 21
128.3150203171
 31
0.0
  0
LINE
  5
38D
  8
0
  6
CONTINUOUS
 62
     7
 10
85.1714267483
 20
128.2710018213
 30
0.0
 11
85.1970197982
 21
128.2680628001
 31
0.0
  0
LINE
  5
38E
  8
0
  6
CONTINUOUS
 62
     7
 10
88.9446187357
 20
128.7805880065
 30
0.0
 11
88.9915762527
 21
128.7789553981
 31
0.0
  0
LINE
  5
38F
  8
0
  6
CONTINUOUS
 62
     7
 10
88.9475577569
 20
128.8061809837
 30
0.0
 11
88.9446187357
 21
128.7805880065
 31
0.0
  0
LINE
  5
390
  8
0
  6
CONTINUOUS
 62
     7
 10
85.7136398554
 20
124.5244617685
 30
0.0
 11
85.7539548888
 21
124.6940253414
 31
0.0
  0
LINE
  5
391
  8
0
  6
CONTINUOUS
 62
     7
 10
85.662587604
 20
124.5220999344
 30
0.0
 11
85.7136398554
 21
124.5244617685
 31
0.0
  0
LINE
  5
392
  8
0
  6
CONTINUOUS
 62
     7
 10
89.4531457743
 20
125.0370840653
 30
0.0
 11
89.2835826671
 21
125.0773991569
 31
0.0
  0
LINE
  5
393
  8
0
  6
CONTINUOUS
 62
     7
 10
89.4555076084
 20
124.9860317557
 30
0.0
 11
89.4531457743
 21
125.0370840653
 31
0.0
  0
LINE
  5
394
  8
0
  6
CONTINUOUS
 62
     7
 10
85.2010177332
 20
128.2639677747
 30
0.0
 11
85.3705811351
 21
128.223652916
 31
0.0
  0
LINE
  5
395
  8
0
  6
CONTINUOUS
 62
     7
 10
85.1986559137
 20
128.3150200843
 30
0.0
 11
85.2010177332
 21
128.2639677747
 31
0.0
  0
LINE
  5
396
  8
0
  6
CONTINUOUS
 62
     7
 10
88.9405237103
 20
128.7765900716
 30
0.0
 11
88.9002088516
 21
128.6070264987
 31
0.0
  0
LINE
  5
397
  8
0
  6
CONTINUOUS
 62
     7
 10
88.9915760199
 20
128.7789519056
 30
0.0
 11
88.9405237103
 21
128.7765900716
 31
0.0
  0
LINE
  5
398
  8
0
  6
CONTINUOUS
 62
     7
 10
85.7126759947
 20
124.5204114466
 30
0.0
 11
85.7136379636
 21
124.5244622342
 31
0.0
  0
LINE
  5
399
  8
0
  6
CONTINUOUS
 62
     7
 10
85.7095449464
 20
124.5204640663
 30
0.0
 11
85.7126759947
 21
124.5204114466
 31
0.0
  0
LINE
  5
39A
  8
0
  6
CONTINUOUS
 62
     7
 10
89.4571960962
 20
125.0361201464
 30
0.0
 11
89.4531453086
 21
125.0370822027
 31
0.0
  0
LINE
  5
39B
  8
0
  6
CONTINUOUS
 62
     7
 10
89.4571439421
 20
125.0329890399
 30
0.0
 11
89.4571960962
 21
125.0361201464
 31
0.0
  0
LINE
  5
39C
  8
0
  6
CONTINUOUS
 62
     7
 10
85.1969673822
 20
128.2649316936
 30
0.0
 11
85.201018228
 21
128.2639698702
 31
0.0
  0
LINE
  5
39D
  8
0
  6
CONTINUOUS
 62
     7
 10
85.1969673822
 20
128.2649316936
 30
0.0
 11
85.1970197982
 21
128.2680628001
 31
0.0
  0
LINE
  5
39E
  8
0
  6
CONTINUOUS
 62
     7
 10
88.9414876292
 20
128.7806403934
 30
0.0
 11
88.9405258058
 21
128.7765896059
 31
0.0
  0
LINE
  5
39F
  8
0
  6
CONTINUOUS
 62
     7
 10
88.9446187357
 20
128.7805880065
 30
0.0
 11
88.9414876292
 21
128.7806403934
 31
0.0
  0
LINE
  5
3A0
  8
0
  6
CONTINUOUS
 62
     7
 10
85.7095903193
 20
124.4953253418
 30
0.0
 11
85.7126759947
 21
124.5204114466
 31
0.0
  0
LINE
  5
3A1
  8
0
  6
CONTINUOUS
 62
     7
 10
89.4822822011
 20
125.0330342091
 30
0.0
 11
89.4571960962
 21
125.0361201464
 31
0.0
  0
LINE
  5
3A2
  8
0
  6
CONTINUOUS
 62
     7
 10
85.1718814665
 20
128.2680173981
 30
0.0
 11
85.1969673822
 21
128.2649316936
 31
0.0
  0
LINE
  5
3A3
  8
0
  6
CONTINUOUS
 62
     7
 10
88.9445733337
 20
128.8057262655
 30
0.0
 11
88.9414876292
 21
128.7806403934
 31
0.0
  0
LINE
  5
3A4
  8
0
  6
CONTINUOUS
 62
     7
 10
85.8293228375
 20
124.5161483175
 30
0.0
 11
85.7126759947
 21
124.5204114466
 31
0.0
  0
LINE
  5
3A5
  8
0
  6
CONTINUOUS
 62
     7
 10
85.829519463
 20
124.5129222161
 30
0.0
 11
85.8293228375
 21
124.5161483175
 31
0.0
  0
LINE
  5
3A6
  8
0
  6
CONTINUOUS
 62
     7
 10
89.4614596909
 20
125.1527669019
 30
0.0
 11
89.4571960962
 21
125.0361201464
 31
0.0
  0
LINE
  5
3A7
  8
0
  6
CONTINUOUS
 62
     7
 10
89.4646857923
 20
125.152963411
 30
0.0
 11
89.4614596909
 21
125.1527669019
 31
0.0
  0
LINE
  5
3A8
  8
0
  6
CONTINUOUS
 62
     7
 10
85.192704064
 20
128.1482849381
 30
0.0
 11
85.1969673822
 21
128.2649316936
 31
0.0
  0
LINE
  5
3A9
  8
0
  6
CONTINUOUS
 62
     7
 10
85.1894780353
 20
128.1480881962
 30
0.0
 11
85.192704064
 21
128.1482849381
 31
0.0
  0
LINE
  5
3AA
  8
0
  6
CONTINUOUS
 62
     7
 10
88.8248408737
 20
128.7849037553
 30
0.0
 11
88.9414876292
 21
128.7806403934
 31
0.0
  0
LINE
  5
3AB
  8
0
  6
CONTINUOUS
 62
     7
 10
88.8246441318
 20
128.7881296239
 30
0.0
 11
88.8248408737
 21
128.7849037553
 31
0.0
  0
LINE
  5
3AC
  8
0
  6
CONTINUOUS
 62
     7
 10
85.2076543888
 20
128.1494726072
 30
0.0
 11
85.2010177332
 21
128.2639677747
 31
0.0
  0
LINE
  5
3AD
  8
0
  6
CONTINUOUS
 62
     7
 10
85.192704064
 20
128.1482849381
 30
0.0
 11
85.2076543888
 21
128.1494726072
 31
0.0
  0
LINE
  5
3AE
  8
0
  6
CONTINUOUS
 62
     7
 10
85.7136398554
 20
124.5244617685
 30
0.0
 11
85.828135052
 21
124.5310983732
 31
0.0
  0
LINE
  5
3AF
  8
0
  6
CONTINUOUS
 62
     7
 10
85.8293228375
 20
124.5161483175
 30
0.0
 11
85.828135052
 21
124.5310983732
 31
0.0
  0
LINE
  5
3B0
  8
0
  6
CONTINUOUS
 62
     7
 10
89.4531457743
 20
125.0370840653
 30
0.0
 11
89.4465091696
 21
125.151579
 31
0.0
  0
LINE
  5
3B1
  8
0
  6
CONTINUOUS
 62
     7
 10
89.4614596909
 20
125.1527669019
 30
0.0
 11
89.4465091696
 21
125.151579
 31
0.0
  0
LINE
  5
3B2
  8
0
  6
CONTINUOUS
 62
     7
 10
88.9405237103
 20
128.7765900716
 30
0.0
 11
88.8260285428
 21
128.7699532341
 31
0.0
  0
LINE
  5
3B3
  8
0
  6
CONTINUOUS
 62
     7
 10
88.8248408737
 20
128.7849037553
 30
0.0
 11
88.8260285428
 21
128.7699532341
 31
0.0
  0
POLYLINE
  5
3B4
  8
0
  6
CONTINUOUS
 62
     7
 66
     1
 10
0.0
 20
0.0
 30
0.0
 70
   128
  0
VERTEX
  5
7A3
  8
0
  6
CONTINUOUS
 62
     7
 10
85.2115972157
 20
128.1498726103
 30
0.0
  0
VERTEX
  5
7A4
  8
0
  6
CONTINUOUS
 62
     7
 10
85.3118588157
 20
128.153780207
 30
0.0
  0
VERTEX
  5
7A5
  8
0
  6
CONTINUOUS
 62
     7
 10
85.3759159945
 20
128.1499396655
 30
0.0
  0
SEQEND
  5
858
  8
0
  6
CONTINUOUS
 62
     7
  0
LINE
  5
3B5
  8
0
  6
CONTINUOUS
 62
     7
 10
85.2076543888
 20
128.1494726072
 30
0.0
 11
85.2115972157
 21
128.1498726103
 31
0.0
  0
POLYLINE
  5
3B6
  8
0
  6
CONTINUOUS
 62
     7
 66
     1
 10
0.0
 20
0.0
 30
0.0
 70
   128
  0
VERTEX
  5
7A6
  8
0
  6
CONTINUOUS
 62
     7
 10
85.8277351654
 20
124.5350411273
 30
0.0
  0
VERTEX
  5
7A7
  8
0
  6
CONTINUOUS
 62
     7
 10
85.8238274523
 20
124.6353026591
 30
0.0
  0
VERTEX
  5
7A8
  8
0
  6
CONTINUOUS
 62
     7
 10
85.8276680519
 20
124.6993599571
 30
0.0
  0
SEQEND
  5
859
  8
0
  6
CONTINUOUS
 62
     7
  0
LINE
  5
3B7
  8
0
  6
CONTINUOUS
 62
     7
 10
85.828135052
 20
124.5310983732
 30
0.0
 11
85.8277351654
 21
124.5350411273
 31
0.0
  0
POLYLINE
  5
3B8
  8
0
  6
CONTINUOUS
 62
     7
 66
     1
 10
0.0
 20
0.0
 30
0.0
 70
   128
  0
VERTEX
  5
7A9
  8
0
  6
CONTINUOUS
 62
     7
 10
89.4425664155
 20
125.1511789969
 30
0.0
  0
VERTEX
  5
7AA
  8
0
  6
CONTINUOUS
 62
     7
 10
89.3423048838
 20
125.1472716331
 30
0.0
  0
VERTEX
  5
7AB
  8
0
  6
CONTINUOUS
 62
     7
 10
89.2782475857
 20
125.1511119417
 30
0.0
  0
SEQEND
  5
85A
  8
0
  6
CONTINUOUS
 62
     7
  0
LINE
  5
3B9
  8
0
  6
CONTINUOUS
 62
     7
 10
89.4465091696
 20
125.151579
 30
0.0
 11
89.4425664155
 21
125.1511789969
 31
0.0
  0
POLYLINE
  5
3BA
  8
0
  6
CONTINUOUS
 62
     7
 66
     1
 10
0.0
 20
0.0
 30
0.0
 70
   128
  0
VERTEX
  5
7AC
  8
0
  6
CONTINUOUS
 62
     7
 10
88.8264285459
 20
128.7660104799
 30
0.0
  0
VERTEX
  5
7AD
  8
0
  6
CONTINUOUS
 62
     7
 10
88.8303361426
 20
128.6657489482
 30
0.0
  0
VERTEX
  5
7AE
  8
0
  6
CONTINUOUS
 62
     7
 10
88.8264956011
 20
128.6016916502
 30
0.0
  0
SEQEND
  5
85B
  8
0
  6
CONTINUOUS
 62
     7
  0
LINE
  5
3BB
  8
0
  6
CONTINUOUS
 62
     7
 10
88.8260285428
 20
128.7699532341
 30
0.0
 11
88.8264285459
 21
128.7660104799
 31
0.0
  0
LINE
  5
3BC
  8
0
  6
CONTINUOUS
 62
     7
 10
85.8618330385
 20
124.532957293
 30
0.0
 11
85.8277351654
 21
124.5350411273
 31
0.0
  0
LINE
  5
3BD
  8
0
  6
CONTINUOUS
 62
     7
 10
89.4446502498
 20
125.1852770447
 30
0.0
 11
89.4425664155
 21
125.1511794626
 31
0.0
  0
LINE
  5
3BE
  8
0
  6
CONTINUOUS
 62
     7
 10
85.211601654
 20
128.1498723774
 30
0.0
 11
85.2095135124
 21
128.1157747953
 31
0.0
  0
LINE
  5
3BF
  8
0
  6
CONTINUOUS
 62
     7
 10
88.7923304981
 20
128.768094547
 30
0.0
 11
88.8264285459
 21
128.7660104799
 31
0.0
  0
LINE
  5
3C0
  8
0
  6
CONTINUOUS
 62
     7
 10
85.3885855977
 20
124.7378636263
 30
0.0
 11
85.3504516217
 21
124.7973509244
 31
0.0
  0
LINE
  5
3C1
  8
0
  6
CONTINUOUS
 62
     7
 10
89.2655778734
 20
128.563187981
 30
0.0
 11
89.3037118076
 21
128.5037011485
 31
0.0
  0
LINE
  5
3C2
  8
0
  6
CONTINUOUS
 62
     7
 10
89.2397439165
 20
124.7120296694
 30
0.0
 11
89.1802570841
 21
124.6738957352
 31
0.0
  0
LINE
  5
3C3
  8
0
  6
CONTINUOUS
 62
     7
 10
85.4144196637
 20
128.5890221707
 30
0.0
 11
85.4739066708
 21
128.6271561048
 31
0.0
  0
LINE
  5
3C4
  8
0
  6
CONTINUOUS
 62
     7
 10
85.3393082234
 20
124.7904507554
 30
0.0
 11
85.3767843218
 21
124.7317462339
 31
0.0
  0
LINE
  5
3C5
  8
0
  6
CONTINUOUS
 62
     7
 10
89.1871546919
 20
124.6627557202
 30
0.0
 11
89.2458589806
 21
124.7002326063
 31
0.0
  0
LINE
  5
3C6
  8
0
  6
CONTINUOUS
 62
     7
 10
85.4670088738
 20
128.638295887
 30
0.0
 11
85.4083048544
 21
128.6008192337
 31
0.0
  0
LINE
  5
3C7
  8
0
  6
CONTINUOUS
 62
     7
 10
89.3148518226
 20
128.5105987563
 30
0.0
 11
89.2773754022
 21
128.5693028122
 31
0.0
  0
ARC
  5
3C8
  8
0
  6
CONTINUOUS
 62
     7
 10
86.3185588866
 20
128.1451084967
 30
0.0
 40
1.12585931813878
 50
179.8383484289
 51
181.5106190696
  0
ARC
  5
3C9
  8
0
  6
CONTINUOUS
 62
     7
 10
85.8325159831
 20
125.6414685206
 30
0.0
 40
1.125324733394289
 50
269.8374211438
 51
271.5104831051
  0
ARC
  5
3CA
  8
0
  6
CONTINUOUS
 62
     7
 10
88.3354037182
 20
125.1559354914
 30
0.0
 40
1.126060430749183
 50
359.8387768194
 51
1.5107488699
  0
ARC
  5
3CB
  8
0
  6
CONTINUOUS
 62
     7
 10
88.8216721954
 20
127.6588553217
 30
0.0
 40
1.126052891934583
 50
89.8387712221
 51
91.5107544672
  0
ARC
  5
3CC
  8
0
  6
CONTINUOUS
 62
     7
 10
86.3329522886
 20
128.143502896
 30
0.0
 40
1.125313734402377
 50
179.6960484405
 51
181.4109218037
  0
ARC
  5
3CD
  8
0
  6
CONTINUOUS
 62
     7
 10
85.8340892432
 20
125.6574739887
 30
0.0
 40
1.126391352761114
 50
269.6971286968
 51
271.4103613938
  0
ARC
  5
3CE
  8
0
  6
CONTINUOUS
 62
     7
 10
88.3208453191
 20
125.1575556303
 30
0.0
 40
1.125679716720993
 50
359.6957950854
 51
1.4101107115
  0
ARC
  5
3CF
  8
0
  6
CONTINUOUS
 62
     7
 10
88.8200454495
 20
127.6457641093
 30
0.0
 40
1.124205046032854
 50
89.6950666448
 51
91.411631299
  0
CIRCLE
  5
3D0
  8
0
  6
CONTINUOUS
 62
     7
 10
87.3270818298
 20
126.6505259019
 30
0.0
 40
1.411033253000393
  0
CIRCLE
  5
3D1
  8
0
  6
CONTINUOUS
 62
     7
 10
87.3270818298
 20
126.6505259019
 30
0.0
 40
1.341257361918338
  0
LINE
  5
3D2
  8
0
  6
CONTINUOUS
 62
     7
 10
140.7625306456
 20
138.823452603
 30
0.0
 11
140.7625306456
 21
140.3491871543
 31
0.0
  0
LINE
  5
3D3
  8
0
  6
CONTINUOUS
 62
     7
 10
140.7625306456
 20
123.3433170355
 30
0.0
 11
140.7625306456
 21
129.6947390883
 31
0.0
  0
LINE
  5
3D4
  8
0
  6
CONTINUOUS
 62
     7
 10
136.2959858088
 20
124.3962521776
 30
0.0
 11
136.2959858088
 21
131.1269179796
 31
0.0
  0
LINE
  5
3D5
  8
0
  6
CONTINUOUS
 62
     7
 10
133.6352046637
 20
131.8396933657
 30
0.0
 11
139.226984611
 21
131.1171970092
 31
0.0
  0
LINE
  5
3D6
  8
0
  6
CONTINUOUS
 62
     7
 10
136.2959858088
 20
139.0541225783
 30
0.0
 11
136.2959858088
 21
139.2962520122
 31
0.0
  0
POLYLINE
  5
3D7
  8
0
  6
CONTINUOUS
 62
     7
 66
     1
 10
0.0
 20
0.0
 30
0.0
 70
   128
  0
VERTEX
  5
7AF
  8
0
  6
CONTINUOUS
 62
     7
 10
126.3456534652
 20
133.7373465876
 30
0.0
  0
VERTEX
  5
7B0
  8
0
  6
CONTINUOUS
 62
     7
 10
131.5073262958
 20
133.7674697506
 30
0.0
  0
VERTEX
  5
7B1
  8
0
  6
CONTINUOUS
 62
     7
 10
138.0695704429
 20
133.4226792324
 30
0.0
  0
SEQEND
  5
85C
  8
0
  6
CONTINUOUS
 62
     7
  0
LINE
  5
3D8
  8
0
  6
CONTINUOUS
 62
     7
 10
86.2227346224
 20
129.0462521947
 30
0.0
 11
84.9205120176
 21
129.0462521947
 31
0.0
  0
LINE
  5
3D9
  8
0
  6
CONTINUOUS
 62
     7
 10
93.3269852831
 20
129.0462521947
 30
0.0
 11
96.9250643684
 21
129.0015671048
 31
0.0
  0
LINE
  5
3DA
  8
0
  6
CONTINUOUS
 62
     7
 10
85.0657854753
 20
135.6946022361
 30
0.0
 11
84.9748336186
 21
135.9458488523
 31
0.0
  0
ARC
  5
3DB
  8
0
  6
CONTINUOUS
 62
     7
 10
85.1242595383
 20
136.0996889586
 30
0.0
 40
0.2056900056876904
 50
103.0442601374
 51
185.4805210045
  0
LINE
  5
3DC
  8
0
  6
CONTINUOUS
 62
     7
 10
84.9134909804
 20
135.8526006452
 30
0.0
 11
85.0499586668
 21
135.4756205919
 31
0.0
  0
LINE
  5
3DD
  8
0
  6
CONTINUOUS
 62
     7
 10
84.9653955956
 20
134.305593755
 30
0.0
 11
84.784521343
 21
134.380415745
 31
0.0
  0
LINE
  5
3DE
  8
0
  6
CONTINUOUS
 62
     7
 10
84.7108760208
 20
133.54184929
 30
0.0
 11
84.9044101778
 21
133.4617904731
 31
0.0
  0
LINE
  5
3DF
  8
0
  6
CONTINUOUS
 62
     7
 10
84.8540905281
 20
132.2320907721
 30
0.0
 11
84.624732699
 21
131.9594043462
 31
0.0
  0
LINE
  5
3E0
  8
0
  6
CONTINUOUS
 62
     7
 10
84.8737465858
 20
136.0934760533
 30
0.0
 11
84.858813585
 21
136.0094595812
 31
0.0
  0
LINE
  5
3E1
  8
0
  6
CONTINUOUS
 62
     7
 10
84.5040409768
 20
131.9698504603
 30
0.0
 11
84.5050960488
 21
131.8981481645
 31
0.0
  0
LINE
  5
3E2
  8
0
  6
CONTINUOUS
 62
     7
 10
84.7767838249
 20
128.4955822283
 30
0.0
 11
84.7767838249
 21
122.3438304171
 31
0.0
  0
LINE
  5
3E3
  8
0
  6
CONTINUOUS
 62
     7
 10
85.4820255034
 20
124.100227897
 30
0.0
 11
83.1257408085
 21
124.100227897
 31
0.0
  0
LINE
  5
3E4
  8
0
  6
CONTINUOUS
 62
     7
 10
84.7767838249
 20
139.600227897
 30
0.0
 11
79.5134970291
 21
139.600227897
 31
0.0
  0
LINE
  5
3E5
  8
0
  6
CONTINUOUS
 62
     7
 10
132.7767838249
 20
124.3962520949
 30
0.0
 11
132.7767838249
 21
120.1040825297
 31
0.0
  0
DIMENSION
  5
3E6
  8
0
  6
CONTINUOUS
 62
     7
  2
_D
 10
76.7215996039
 20
124.100227897
 30
0.0
 11
76.7215996039
 21
131.1961023907
 31
0.0
 70
   160
  1
%%c<>
  3
SLDDIMSTYLE0
 13
79.5134970291
 23
139.600227897
 33
0.0
 14
83.1257408085
 24
124.100227897
 34
0.0
 50
90.0
  0
DIMENSION
  5
3F4
  8
0
  6
CONTINUOUS
 62
     7
  2
_D_1
 10
159.7769849031
 20
103.9237959445
 30
0.0
 11
118.5359591621
 21
103.9237959445
 31
0.0
 70
   160
  1
<>
  3
SLDDIMSTYLE1
 13
84.7767838249
 23
122.3438304171
 33
0.0
 14
159.7769849031
 24
117.3462520949
 34
0.0
  0
DIMENSION
  5
3FF
  8
0
  6
CONTINUOUS
 62
     7
  2
_D_2
 10
209.7769849031
 20
91.0301242279
 30
0.0
 11
149.219633627
 21
91.0301242279
 31
0.0
 70
   160
  1
<>
  3
SLDDIMSTYLE1
 13
84.7767838249
 23
122.3438304171
 33
0.0
 14
209.7769849031
 24
125.7667784335
 34
0.0
  0
DIMENSION
  5
409
  8
0
  6
CONTINUOUS
 62
     7
  2
_D_3
 10
132.7767838249
 20
116.4718552153
 30
0.0
 11
109.1244209851
 21
116.4718552153
 31
0.0
 70
   160
  1
<>
  3
SLDDIMSTYLE1
 13
84.7767838249
 23
122.3438304171
 33
0.0
 14
132.7767838249
 24
120.1040825297
 34
0.0
  0
DIMENSION
  5
413
  8
0
  6
CONTINUOUS
 62
     7
  2
_D_4
 10
209.7769849031
 20
103.9237959445
 30
0.0
 11
192.7916973085
 21
103.9237959445
 31
0.0
 70
   160
  1
<>
  3
SLDDIMSTYLE1
 13
159.7769849031
 23
117.3462520949
 33
0.0
 14
209.7769849031
 24
125.7667784335
 34
0.0
  0
DIMENSION
  5
41D
  8
0
  6
CONTINUOUS
 62
     7
  2
_D_5
 10
228.4237168688
 20
116.8462520949
 30
0.0
 11
228.4237168688
 21
133.1957945744
 31
0.0
 70
   160
  1
%%c<>
  3
SLDDIMSTYLE1
 13
159.2769849031
 23
146.8462520949
 33
0.0
 14
159.2769849031
 24
116.8462520949
 34
0.0
 50
90.0
  0
DIMENSION
  5
428
  8
0
  6
CONTINUOUS
 62
     7
  2
_D_6
 10
220.6421516737
 20
141.8462520949
 30
0.0
 11
220.6421516737
 21
133.1957945744
 31
0.0
 70
   160
  1
%%c<>h6
  3
SLDDIMSTYLE1
 13
207.5269849031
 23
121.8462520949
 33
0.0
 14
207.5269849031
 24
141.8462520949
 34
0.0
 50
90.0
  0
LINE
  5
434
  8
0
  6
CENTERX2
 62
     7
 10
83.2857042487
 20
131.8462520949
 30
0.0
 11
209.5269849031
 21
131.8462520949
 31
0.0
  0
ENDSEC
  0
EOF
