  0
SECTION
  2
HEADER
  9
$ACADVER
  1
AC1009
  9
$DWGCODEPAGE
  3
ansi_1252
  9
$INSBASE
 10
0.0
 20
0.0
 30
0.0
  9
$EXTMIN
 10
0.0
 20
0.0
 30
0.0
  9
$EXTMAX
 10
210.0
 20
297.0
 30
0.0
  9
$LIMMIN
 10
0.0
 20
0.0
  9
$LIMMAX
 10
210.0
 20
297.0
  9
$ORTHOMODE
 70
     0
  9
$REGENMODE
 70
     1
  9
$FILLMODE
 70
     1
  9
$QTEXTMODE
 70
     0
  9
$MIRRTEXT
 70
     1
  9
$DRAGMODE
 70
     2
  9
$LTSCALE
 40
1.0
  9
$OSMODE
 70
    37
  9
$ATTMODE
 70
     1
  9
$TEXTSIZE
 40
3.0
  9
$TRACEWID
 40
1.0
  9
$TEXTSTYLE
  7
STANDARD
  9
$CLAYER
  8
0
  9
$CELTYPE
  6
BYLAYER
  9
$CECOLOR
 62
   256
  9
$DIMSCALE
 40
1.0
  9
$DIMASZ
 40
3.0
  9
$DIMEXO
 40
1.0
  9
$DIMDLI
 40
3.75
  9
$DIMRND
 40
0.0
  9
$DIMDLE
 40
0.0
  9
$DIMEXE
 40
1.0
  9
$DIMTP
 40
0.0
  9
$DIMTM
 40
0.0
  9
$DIMTXT
 40
3.0
  9
$DIMCEN
 40
2.5
  9
$DIMTSZ
 40
0.0
  9
$DIMTOL
 70
     0
  9
$DIMLIM
 70
     0
  9
$DIMTIH
 70
     1
  9
$DIMTOH
 70
     1
  9
$DIMSE1
 70
     0
  9
$DIMSE2
 70
     0
  9
$DIMTAD
 70
     1
  9
$DIMZIN
 70
     0
  9
$DIMBLK
  1

  9
$DIMASO
 70
     1
  9
$DIMSHO
 70
     1
  9
$DIMPOST
  1

  9
$DIMAPOST
  1

  9
$DIMALT
 70
     0
  9
$DIMALTD
 70
     3
  9
$DIMALTF
 40
0.0393700787
  9
$DIMLFAC
 40
1.0
  9
$DIMTOFL
 70
     1
  9
$DIMTVP
 40
0.0
  9
$DIMTIX
 70
     0
  9
$DIMSOXD
 70
     0
  9
$DIMSAH
 70
     0
  9
$DIMBLK1
  1

  9
$DIMBLK2
  1

  9
$DIMSTYLE
  2
ISO-25
  9
$DIMCLRD
 70
     0
  9
$DIMCLRE
 70
     0
  9
$DIMCLRT
 70
     0
  9
$DIMTFAC
 40
1.0
  9
$DIMGAP
 40
2.0
  9
$LUNITS
 70
     2
  9
$LUPREC
 70
     3
  9
$SKETCHINC
 40
1.0
  9
$FILLETRAD
 40
10.0
  9
$AUNITS
 70
     0
  9
$AUPREC
 70
     0
  9
$MENU
  1
.
  9
$ELEVATION
 40
0.0
  9
$PELEVATION
 40
0.0
  9
$THICKNESS
 40
0.0
  9
$LIMCHECK
 70
     0
  9
$CHAMFERA
 40
10.0
  9
$CHAMFERB
 40
10.0
  9
$SKPOLY
 70
     0
  9
$TDCREATE
 40
2455005.398647708
  9
$TDUPDATE
 40
2455005.39864772
  9
$TDINDWG
 40
0.0000000116
  9
$TDUSRTIMER
 40
0.0000000116
  9
$USRTIMER
 70
     1
  9
$ANGBASE
 50
0.0
  9
$ANGDIR
 70
     0
  9
$PDMODE
 70
     0
  9
$PDSIZE
 40
-1.0
  9
$PLINEWID
 40
0.0
  9
$COORDS
 70
     1
  9
$SPLFRAME
 70
     0
  9
$SPLINETYPE
 70
     6
  9
$SPLINESEGS
 70
     8
  9
$ATTDIA
 70
     0
  9
$ATTREQ
 70
     1
  9
$HANDLING
 70
     1
  9
$HANDSEED
  5
92C
  9
$SURFTAB1
 70
     6
  9
$SURFTAB2
 70
     6
  9
$SURFTYPE
 70
     6
  9
$SURFU
 70
     6
  9
$SURFV
 70
     6
  9
$UCSNAME
  2

  9
$UCSORG
 10
0.0
 20
0.0
 30
0.0
  9
$UCSXDIR
 10
1.0
 20
0.0
 30
0.0
  9
$UCSYDIR
 10
0.0
 20
1.0
 30
0.0
  9
$PUCSNAME
  2

  9
$PUCSORG
 10
0.0
 20
0.0
 30
0.0
  9
$PUCSXDIR
 10
1.0
 20
0.0
 30
0.0
  9
$PUCSYDIR
 10
0.0
 20
1.0
 30
0.0
  9
$USERI1
 70
     0
  9
$USERI2
 70
     0
  9
$USERI3
 70
     0
  9
$USERI4
 70
     0
  9
$USERI5
 70
     0
  9
$USERR1
 40
0.0
  9
$USERR2
 40
0.0
  9
$USERR3
 40
0.0
  9
$USERR4
 40
0.0
  9
$USERR5
 40
0.0
  9
$WORLDVIEW
 70
     1
  9
$SHADEDGE
 70
     3
  9
$SHADEDIF
 70
    70
  9
$TILEMODE
 70
     1
  9
$MAXACTVP
 70
    64
  9
$PLIMCHECK
 70
     0
  9
$PEXTMIN
 10
1.0000000000E+20
 20
1.0000000000E+20
 30
1.0000000000E+20
  9
$PEXTMAX
 10
-1.0000000000E+20
 20
-1.0000000000E+20
 30
-1.0000000000E+20
  9
$PLIMMIN
 10
0.0
 20
0.0
  9
$PLIMMAX
 10
420.0
 20
297.0
  9
$UNITMODE
 70
     0
  9
$VISRETAIN
 70
     1
  9
$PLINEGEN
 70
     0
  9
$PSLTSCALE
 70
     1
  0
ENDSEC
  0
SECTION
  2
TABLES
  0
TABLE
  2
VPORT
 70
     1
  0
VPORT
  2
*ACTIVE
 70
     0
 10
0.0
 20
0.0
 11
1.0
 21
1.0
 12
105.0
 22
148.5
 13
0.0
 23
0.0
 14
10.0
 24
10.0
 15
10.0
 25
10.0
 16
0.0
 26
0.0
 36
1.0
 17
0.0
 27
0.0
 37
0.0
 40
297.0
 41
0.7070707071
 42
50.0
 43
0.0
 44
0.0
 50
0.0
 51
0.0
 71
     0
 72
  2000
 73
     1
 74
     3
 75
     0
 76
     0
 77
     0
 78
     0
  0
ENDTAB
  0
TABLE
  2
LTYPE
 70
     6
  0
LTYPE
  2
CONTINUOUS
 70
     0
  3
Solid line
 72
    65
 73
     0
 40
0.0
  0
LTYPE
  2
HIDDEN
 70
     0
  3
Hidden __ __ __ __ __ __ __ __ __ __ __ __ __ __
 72
    65
 73
     2
 40
1.905
 49
1.27
 49
-0.635
  0
LTYPE
  2
PHANTOM
 70
     0
  3
Phantom ______  __  __  ______  __  __  ______
 72
    65
 73
     6
 40
12.7
 49
6.35
 49
-1.27
 49
1.27
 49
-1.27
 49
1.27
 49
-1.27
  0
LTYPE
  2
CENTER
 70
     0
  3
Center ____ _ ____ _ ____ _ ____ _ ____ _ ____
 72
    65
 73
     4
 40
10.16
 49
6.35
 49
-1.27
 49
1.27
 49
-1.27
  0
LTYPE
  2
CENTERX2
 70
     0
  3
Center (2x) ________  __  ________  __  _____
 72
    65
 73
     4
 40
20.32
 49
12.7
 49
-2.54
 49
2.54
 49
-2.54
  0
LTYPE
  2
DOT2
 70
     0
  3
Dot (.5x) ........................................
 72
    65
 73
     2
 40
0.635
 49
0.0
 49
-0.635
  0
ENDTAB
  0
TABLE
  2
LAYER
 70
     2
  0
LAYER
  2
0
 70
     0
 62
     7
  6
CONTINUOUS
  0
LAYER
  2
DÜNNE_LINIE
 70
     0
 62
     7
  6
CONTINUOUS
  0
ENDTAB
  0
TABLE
  2
STYLE
 70
     1
  0
STYLE
  2
STANDARD
 70
     0
 40
0.0
 41
1.0
 50
0.0
 71
     0
 42
2.5
  3
txt
  4

  0
ENDTAB
  0
TABLE
  2
VIEW
 70
     0
  0
ENDTAB
  0
TABLE
  2
UCS
 70
     0
  0
ENDTAB
  0
TABLE
  2
APPID
 70
     1
  0
APPID
  2
ACAD
 70
     0
  0
ENDTAB
  0
TABLE
  2
DIMSTYLE
 70
     5
  0
DIMSTYLE
  2
ISO-25
 70
     0
  3

  4

  5

  6

  7

 40
1.0
 41
2.5
 42
0.625
 43
3.75
 44
1.25
 45
0.0
 46
0.0
 47
0.0
 48
0.0
140
2.5
141
2.5
142
0.0
143
0.0393700787
144
1.0
145
0.0
146
1.0
147
0.625
 71
     0
 72
     0
 73
     0
 74
     0
 75
     0
 76
     0
 77
     1
 78
     8
170
     0
171
     3
172
     1
173
     0
174
     0
175
     0
176
     0
177
     0
178
     0
  0
DIMSTYLE
  2
SLDDIMSTYLE0
 70
     0
  3

  4

  5

  6

  7

 40
1.0
 41
3.0
 42
0.0625
 43
0.38
 44
0.0
 45
0.000000001
 46
0.0
 47
0.0
 48
0.0
140
3.0
141
0.09
142
0.0
143
25.4
144
1.0
145
0.0
146
1.0
147
0.75
 71
     0
 72
     0
 73
     0
 74
     0
 75
     0
 76
     0
 77
     1
 78
    12
170
     0
171
     2
172
     0
173
     1
174
     0
175
     0
176
     0
177
     0
178
     0
  0
DIMSTYLE
  2
SLDDIMSTYLE1
 70
     0
  3

  4

  5

  6

  7

 40
1.0
 41
3.0
 42
0.0625
 43
0.38
 44
0.0
 45
0.000000001
 46
0.0
 47
0.0
 48
0.0
140
3.0
141
0.09
142
0.0
143
25.4
144
1.0
145
0.0
146
1.0
147
0.75
 71
     0
 72
     0
 73
     0
 74
     0
 75
     0
 76
     0
 77
     1
 78
    12
170
     0
171
     2
172
     0
173
     1
174
     0
175
     0
176
     0
177
     0
178
     0
  0
DIMSTYLE
  2
SLDDIMSTYLE2
 70
     0
  3

  4

  5

  6

  7

 40
1.0
 41
3.0
 42
0.0625
 43
0.38
 44
0.0
 45
0.000000001
 46
0.0
 47
0.0
 48
0.0
140
3.0
141
0.09
142
0.0
143
25.4
144
1.0
145
0.0
146
1.0
147
0.75
 71
     0
 72
     0
 73
     0
 74
     0
 75
     0
 76
     0
 77
     1
 78
    12
170
     0
171
     2
172
     0
173
     1
174
     0
175
     0
176
     0
177
     0
178
     0
  0
DIMSTYLE
  2
SLDDIMSTYLE3
 70
     0
  3

  4

  5

  6

  7

 40
1.0
 41
3.0
 42
0.0625
 43
0.38
 44
0.0
 45
0.000000001
 46
0.0
 47
0.0
 48
0.0
140
3.0
141
0.09
142
0.0
143
25.4
144
1.0
145
0.0
146
1.0
147
0.75
 71
     0
 72
     0
 73
     0
 74
     0
 75
     0
 76
     0
 77
     1
 78
    12
170
     0
171
     2
172
     0
173
     1
174
     0
175
     0
176
     0
177
     0
178
     0
  0
ENDTAB
  0
ENDSEC
  0
SECTION
  2
BLOCKS
  0
BLOCK
  8
0
  2
$MODEL_SPACE
 70
     0
 10
0.0
 20
0.0
 30
0.0
  3
$MODEL_SPACE
  1

  0
ENDBLK
  5
21
  8
0
  0
BLOCK
 67
     1
  8
0
  2
$PAPER_SPACE
 70
     0
 10
0.0
 20
0.0
 30
0.0
  3
$PAPER_SPACE
  1

  0
ENDBLK
  5
1D
 67
     1
  8
0
  0
BLOCK
  8
0
  2
SW_NOTE_0
 70
     0
 10
0.0
 20
0.0
 30
0.0
  3
SW_NOTE_0
  1

  0
TEXT
  5
66
  8
DÜNNE_LINIE
 62
     0
 10
0.0
 20
1.308534146
 30
0.0
 40
3.7041666667
  1
Wendeplatte FP 328
 41
0.6611111111
 11
0.0
 21
0.0
 31
0.0
 73
     1
  0
TEXT
  5
67
  8
DÜNNE_LINIE
 62
     0
 10
0.0
 20
-3.6303546832
 30
0.0
 40
3.7041666667
  1
Spannschraube SS 3,0-2
 41
0.6681818182
 11
0.0
 21
-4.9388888292
 31
0.0
 73
     1
  0
ENDBLK
  5
65
  8
0
  0
BLOCK
  8
0
  2
SW_NOTE_1
 70
     0
 10
0.0
 20
0.0
 30
0.0
  3
SW_NOTE_1
  1

  0
TEXT
  5
76
  8
0
  6
CONTINUOUS
 62
     0
 10
0.0
 20
1.1050253168
 30
0.0
 40
3.1280788177
  1
%%p
 41
0.7
 11
0.0
 21
0.0
 31
0.0
 73
     1
  0
TEXT
  5
77
  8
0
  6
CONTINUOUS
 62
     0
 10
3.8711482193
 20
1.1050253168
 30
0.0
 40
3.1280788177
  1
0,1
 41
0.7
 11
3.8711482193
 21
0.0
 31
0.0
 73
     1
  0
ENDBLK
  5
75
  8
0
  0
BLOCK
  8
0
  2
SW_NOTE_2
 70
     0
 10
0.0
 20
0.0
 30
0.0
  3
SW_NOTE_2
  1

  0
LINE
  5
84
  8
0
  6
CONTINUOUS
 62
     0
 10
0.0
 20
0.0
 30
0.0
 11
0.0
 21
-3.5260229508
 31
0.0
  0
LINE
  5
85
  8
0
  6
CONTINUOUS
 62
     0
 10
0.0
 20
-3.5260229508
 30
0.0
 11
3.8594697892
 21
-3.5260229508
 31
0.0
  0
LINE
  5
86
  8
0
  6
CONTINUOUS
 62
     0
 10
3.8594697892
 20
-3.5260229508
 30
0.0
 11
3.8594697892
 21
0.0
 31
0.0
  0
LINE
  5
87
  8
0
  6
CONTINUOUS
 62
     0
 10
3.8594697892
 20
0.0
 30
0.0
 11
0.0
 21
0.0
 31
0.0
  0
LINE
  5
88
  8
0
  6
CONTINUOUS
 62
     0
 10
0.0
 20
0.0
 30
0.0
 11
3.8594697892
 21
-3.5260229508
 31
0.0
  0
LINE
  5
89
  8
0
  6
CONTINUOUS
 62
     0
 10
0.0
 20
-3.5260229508
 30
0.0
 11
3.8594697892
 21
0.0
 31
0.0
  0
ENDBLK
  5
83
  8
0
  0
BLOCK
  8
0
  2
SW_NOTE_3
 70
     0
 10
0.0
 20
0.0
 30
0.0
  3
SW_NOTE_3
  1

  0
LINE
  5
95
  8
0
  6
CONTINUOUS
 62
     0
 10
0.0
 20
0.0
 30
0.0
 11
0.0
 21
-5.6437651054
 31
0.0
  0
LINE
  5
96
  8
0
  6
CONTINUOUS
 62
     0
 10
0.0
 20
-5.6437651054
 30
0.0
 11
7.5238377049
 21
-5.6437651054
 31
0.0
  0
LINE
  5
97
  8
0
  6
CONTINUOUS
 62
     0
 10
7.5238377049
 20
-5.6437651054
 30
0.0
 11
7.5238377049
 21
0.0
 31
0.0
  0
LINE
  5
98
  8
0
  6
CONTINUOUS
 62
     0
 10
7.5238377049
 20
0.0
 30
0.0
 11
0.0
 21
0.0
 31
0.0
  0
LINE
  5
99
  8
0
  6
CONTINUOUS
 62
     0
 10
0.0
 20
0.0
 30
0.0
 11
7.5238377049
 21
-5.6437651054
 31
0.0
  0
LINE
  5
9A
  8
0
  6
CONTINUOUS
 62
     0
 10
0.0
 20
-5.6437651054
 30
0.0
 11
7.5238377049
 21
0.0
 31
0.0
  0
ENDBLK
  5
94
  8
0
  0
BLOCK
  8
0
  2
*D5
 70
     1
 10
0.0
 20
0.0
 30
0.0
  3
*D5
  1

  0
SOLID
  5
177
  8
DÜNNE_LINIE
 62
   218
 10
78.0003889297
 20
116.1956676251
 30
0.0
 11
75.0003889297
 21
116.9456676251
 31
0.0
 12
75.0003889297
 22
115.4456676251
 32
0.0
 13
75.0003889297
 23
115.4456676251
 33
0.0
  0
SOLID
  5
178
  8
DÜNNE_LINIE
 62
   218
 10
34.0003889297
 20
116.1956676251
 30
0.0
 11
37.0003889297
 21
115.4456676251
 31
0.0
 12
37.0003889297
 22
116.9456676251
 32
0.0
 13
37.0003889297
 23
116.9456676251
 33
0.0
  0
LINE
  5
179
  8
DÜNNE_LINIE
 62
   218
 10
78.0003889297
 20
126.3794614976
 30
0.0
 11
78.0003889297
 21
115.1956676251
 31
0.0
  0
LINE
  5
17A
  8
DÜNNE_LINIE
 62
   218
 10
34.0003889297
 20
127.8640962004
 30
0.0
 11
34.0003889297
 21
115.1956676251
 31
0.0
  0
LINE
  5
17B
  8
DÜNNE_LINIE
 62
   218
 10
78.0003889297
 20
116.1956676251
 30
0.0
 11
34.0003889297
 21
116.1956676251
 31
0.0
  0
TEXT
  5
17C
  8
DÜNNE_LINIE
 62
   218
 10
53.7850958383
 20
117.2554479272
 30
0.0
 40
3.0
  1
44
 50
0.0
 41
0.7
 11
53.7850958383
 21
116.1956677415
 31
0.0
 73
     1
  0
ENDBLK
  5
176
  8
0
  0
BLOCK
  8
0
  2
*D6
 70
     1
 10
0.0
 20
0.0
 30
0.0
  3
*D6
  1

  0
SOLID
  5
182
  8
DÜNNE_LINIE
 62
     7
 10
145.4220600702
 20
156.7140961967
 30
0.0
 11
144.6720600702
 21
153.7140961967
 31
0.0
 12
146.1720600702
 22
153.7140961967
 32
0.0
 13
146.1720600702
 23
153.7140961967
 33
0.0
  0
SOLID
  5
183
  8
DÜNNE_LINIE
 62
     7
 10
145.4220600702
 20
131.7140961967
 30
0.0
 11
146.1720600702
 21
134.7140961967
 31
0.0
 12
144.6720600702
 22
134.7140961967
 32
0.0
 13
144.6720600702
 23
134.7140961967
 33
0.0
  0
LINE
  5
184
  8
DÜNNE_LINIE
 62
     7
 10
132.7438810738
 20
156.7140961967
 30
0.0
 11
146.4220600702
 21
156.7140961967
 31
0.0
  0
LINE
  5
185
  8
DÜNNE_LINIE
 62
     7
 10
132.7438810738
 20
131.7140961967
 30
0.0
 11
146.4220600702
 21
131.7140961967
 31
0.0
  0
LINE
  5
186
  8
DÜNNE_LINIE
 62
     7
 10
145.4220600702
 20
156.7140961967
 30
0.0
 11
145.4220600702
 21
131.7140961967
 31
0.0
  0
TEXT
  5
187
  8
DÜNNE_LINIE
 62
     7
 10
144.3622796516
 20
139.1278605685
 30
0.0
 40
3.0
  1
%%c
 50
90.0
 41
0.7
 11
145.4220598374
 21
139.1278605685
 31
0.0
 73
     1
  0
TEXT
  5
188
  8
DÜNNE_LINIE
 62
     7
 10
144.3622797681
 20
143.6506767278
 30
0.0
 40
3.0
  1
25
 50
90.0
 41
0.7
 11
145.4220599538
 21
143.6506767278
 31
0.0
 73
     1
  0
ENDBLK
  5
181
  8
0
  0
BLOCK
  8
0
  2
*D7
 70
     1
 10
0.0
 20
0.0
 30
0.0
  3
*D7
  1

  0
SOLID
  5
18E
  8
DÜNNE_LINIE
 62
   218
 10
34.0003889297
 20
107.4517772339
 30
0.0
 11
37.0003889297
 21
106.7017772339
 31
0.0
 12
37.0003889297
 22
108.2017772339
 32
0.0
 13
37.0003889297
 23
108.2017772339
 33
0.0
  0
SOLID
  5
18F
  8
DÜNNE_LINIE
 62
   218
 10
133.9938810738
 20
107.4517772339
 30
0.0
 11
130.9938810738
 21
108.2017772339
 31
0.0
 12
130.9938810738
 22
106.7017772339
 32
0.0
 13
130.9938810738
 23
106.7017772339
 33
0.0
  0
LINE
  5
190
  8
DÜNNE_LINIE
 62
   218
 10
34.0003889297
 20
127.8640962004
 30
0.0
 11
34.0003889297
 21
106.4517772339
 31
0.0
  0
LINE
  5
191
  8
DÜNNE_LINIE
 62
   218
 10
133.9938810738
 20
131.8140961967
 30
0.0
 11
133.9938810738
 21
106.4517772339
 31
0.0
  0
LINE
  5
192
  8
DÜNNE_LINIE
 62
   218
 10
34.0003889297
 20
107.4517772339
 30
0.0
 11
133.9938810738
 21
107.4517772339
 31
0.0
  0
TEXT
  5
193
  8
DÜNNE_LINIE
 62
   218
 10
80.673308538
 20
108.511557536
 30
0.0
 40
3.0
  1
100
 41
0.7
 11
80.673308538
 21
107.4517773503
 31
0.0
 73
     1
  0
ENDBLK
  5
18D
  8
0
  0
BLOCK
  8
0
  2
*D8
 70
     1
 10
0.0
 20
0.0
 30
0.0
  3
*D8
  1

  0
SOLID
  5
34E
  8
DÜNNE_LINIE
 62
   218
 10
160.333959523
 20
194.2432253254
 30
0.0
 11
163.333959523
 21
193.4932253254
 31
0.0
 12
163.333959523
 22
194.9932253254
 32
0.0
 13
163.333959523
 23
194.9932253254
 33
0.0
  0
SOLID
  5
34F
  8
DÜNNE_LINIE
 62
   218
 10
192.333959523
 20
194.2432253254
 30
0.0
 11
189.333959523
 21
194.9932253254
 31
0.0
 12
189.333959523
 22
193.4932253254
 32
0.0
 13
189.333959523
 23
193.4932253254
 33
0.0
  0
LINE
  5
350
  8
DÜNNE_LINIE
 62
   218
 10
160.333959523
 20
223.3754310925
 30
0.0
 11
160.333959523
 21
193.2432253254
 31
0.0
  0
LINE
  5
351
  8
DÜNNE_LINIE
 62
   218
 10
192.333959523
 20
223.3754310925
 30
0.0
 11
192.333959523
 21
193.2432253254
 31
0.0
  0
LINE
  5
352
  8
DÜNNE_LINIE
 62
   218
 10
160.333959523
 20
194.2432253254
 30
0.0
 11
192.333959523
 21
194.2432253254
 31
0.0
  0
TEXT
  5
353
  8
DÜNNE_LINIE
 62
   218
 10
171.8572583521
 20
195.303005744
 30
0.0
 40
3.0
  1
%%c
 41
0.7
 11
171.8572583521
 21
194.2432255582
 31
0.0
 73
     1
  0
TEXT
  5
354
  8
DÜNNE_LINIE
 62
   218
 10
176.3800745113
 20
195.3030056276
 30
0.0
 40
3.0
  1
32
 41
0.7
 11
176.3800745113
 21
194.2432254418
 31
0.0
 73
     1
  0
ENDBLK
  5
34D
  8
0
  0
BLOCK
  8
0
  2
SW_CENTERMARKSYMBOL_0
 70
     0
 10
0.0
 20
0.0
 30
0.0
  3
SW_CENTERMARKSYMBOL_0
  1

  0
LINE
  5
358
  8
DÜNNE_LINIE
 62
     0
 10
0.0
 20
0.0
 30
0.0
 11
0.0
 21
2.5
 31
0.0
  0
LINE
  5
359
  8
DÜNNE_LINIE
 62
     0
 10
0.0
 20
0.0
 30
0.0
 11
-2.5
 21
0.0
 31
0.0
  0
LINE
  5
35A
  8
DÜNNE_LINIE
 62
     0
 10
0.0
 20
0.0
 30
0.0
 11
0.0
 21
-2.5
 31
0.0
  0
LINE
  5
35B
  8
DÜNNE_LINIE
 62
     0
 10
0.0
 20
0.0
 30
0.0
 11
2.5
 21
0.0
 31
0.0
  0
LINE
  5
35C
  8
DÜNNE_LINIE
 62
     0
 10
0.0
 20
5.0
 30
0.0
 11
0.0
 21
17.5760561833
 31
0.0
  0
LINE
  5
35D
  8
DÜNNE_LINIE
 62
     0
 10
-5.0
 20
0.0
 30
0.0
 11
-17.5760561833
 21
0.0
 31
0.0
  0
LINE
  5
35E
  8
DÜNNE_LINIE
 62
     0
 10
0.0
 20
-5.0
 30
0.0
 11
0.0
 21
-17.5760561833
 31
0.0
  0
LINE
  5
35F
  8
DÜNNE_LINIE
 62
     0
 10
5.0
 20
0.0
 30
0.0
 11
17.5760561833
 21
0.0
 31
0.0
  0
ENDBLK
  5
357
  8
0
  0
ENDSEC
  0
SECTION
  2
ENTITIES
  0
LINE
  5
41
  8
0
  6
CONTINUOUS
 62
     7
 10
14.7198675497
 20
54.4522204694
 30
0.0
 11
203.9021502667
 21
54.4522204694
 31
0.0
  0
LINE
  5
42
  8
0
  6
CONTINUOUS
 62
     7
 10
14.7198675497
 20
291.4435430464
 30
0.0
 11
203.9021502667
 21
291.4435430464
 31
0.0
  0
LINE
  5
43
  8
0
  6
CONTINUOUS
 62
     7
 10
14.7198675497
 20
291.4435430464
 30
0.0
 11
14.7198675497
 21
5.5564569536
 31
0.0
  0
LINE
  5
44
  8
0
  6
CONTINUOUS
 62
     7
 10
14.7198675497
 20
5.5564569536
 30
0.0
 11
203.9021502667
 21
5.5564569536
 31
0.0
  0
LINE
  5
45
  8
0
  6
CONTINUOUS
 62
     7
 10
203.9021502667
 20
291.4435430464
 30
0.0
 11
203.9021502667
 21
5.5564569536
 31
0.0
  0
LINE
  5
46
  8
DÜNNE_LINIE
 62
     7
 10
87.7133682192
 20
43.6739122185
 30
0.0
 11
87.7133682192
 21
54.4522204694
 31
0.0
  0
LINE
  5
47
  8
0
  6
CONTINUOUS
 62
     7
 10
112.5985152085
 20
54.4522204694
 30
0.0
 11
112.5985152085
 21
5.5564569536
 31
0.0
  0
LINE
  5
48
  8
0
  6
CONTINUOUS
 62
     7
 10
62.7198675497
 20
27.7011934068
 30
0.0
 11
112.5985152085
 21
27.7011934068
 31
0.0
  0
LINE
  5
49
  8
0
  6
CONTINUOUS
 62
     7
 10
112.5985152085
 20
21.5564569536
 30
0.0
 11
203.9021502667
 21
21.5564569536
 31
0.0
  0
LINE
  5
4A
  8
DÜNNE_LINIE
 62
     7
 10
112.5985152085
 20
37.7011934068
 30
0.0
 11
62.7198675497
 21
37.7011934068
 31
0.0
  0
LINE
  5
4B
  8
0
  6
CONTINUOUS
 62
     7
 10
112.5985152085
 20
46.3471968457
 30
0.0
 11
203.9021502667
 21
46.3471968457
 31
0.0
  0
LINE
  5
4C
  8
DÜNNE_LINIE
 62
     7
 10
62.7198675497
 20
54.4522204694
 30
0.0
 11
62.7198675497
 21
5.5564569536
 31
0.0
  0
LINE
  5
4D
  8
0
  6
CONTINUOUS
 62
     7
 10
26.7198675497
 20
54.4522204694
 30
0.0
 11
26.7198675497
 21
5.5564569536
 31
0.0
  0
LINE
  5
4E
  8
0
  6
CONTINUOUS
 62
     7
 10
14.7198675497
 20
13.7522204694
 30
0.0
 11
62.7198675497
 21
13.7522204694
 31
0.0
  0
LINE
  5
4F
  8
DÜNNE_LINIE
 62
     7
 10
14.7198675497
 20
17.4522204694
 30
0.0
 11
62.7198675497
 21
17.4522204694
 31
0.0
  0
LINE
  5
50
  8
DÜNNE_LINIE
 62
     7
 10
14.7198675497
 20
21.1522204694
 30
0.0
 11
62.7198675497
 21
21.1522204694
 31
0.0
  0
LINE
  5
51
  8
DÜNNE_LINIE
 62
     7
 10
148.481516348
 20
21.5564569536
 30
0.0
 11
148.481516348
 21
5.5564569536
 31
0.0
  0
LINE
  5
52
  8
DÜNNE_LINIE
 62
     7
 10
71.8404271395
 20
43.6739122185
 30
0.0
 11
71.8404271395
 21
27.7011934068
 31
0.0
  0
LINE
  5
53
  8
DÜNNE_LINIE
 62
     7
 10
112.5985152085
 20
43.6739122185
 30
0.0
 11
62.7198675497
 21
43.6739122185
 31
0.0
  0
LINE
  5
54
  8
DÜNNE_LINIE
 62
     7
 10
87.7133682192
 20
5.5564569536
 30
0.0
 11
87.7133682192
 21
27.7011934068
 31
0.0
  0
LINE
  5
55
  8
DÜNNE_LINIE
 62
     7
 10
112.5985152085
 20
32.7011934068
 30
0.0
 11
62.7198675497
 21
32.7011934068
 31
0.0
  0
LINE
  5
56
  8
DÜNNE_LINIE
 62
     7
 10
87.7133682192
 20
17.2472848232
 30
0.0
 11
62.7198675497
 21
17.2472848232
 31
0.0
  0
LINE
  5
57
  8
DÜNNE_LINIE
 62
     7
 10
87.7133682192
 20
43.6739122185
 30
0.0
 11
87.7133682192
 21
27.7011934068
 31
0.0
  0
LINE
  5
58
  8
DÜNNE_LINIE
 62
     7
 10
38.7198675497
 20
5.5564569536
 30
0.0
 11
38.7198675497
 21
54.4522204694
 31
0.0
  0
LINE
  5
59
  8
DÜNNE_LINIE
 62
     7
 10
14.7198675497
 20
10.0522204694
 30
0.0
 11
62.7198675497
 21
10.0522204694
 31
0.0
  0
LINE
  5
5A
  8
DÜNNE_LINIE
 62
     7
 10
14.7198675497
 20
24.8522204694
 30
0.0
 11
62.7198675497
 21
24.8522204694
 31
0.0
  0
LINE
  5
5B
  8
DÜNNE_LINIE
 62
     7
 10
14.7198675497
 20
28.5522204694
 30
0.0
 11
62.7198675497
 21
28.5522204694
 31
0.0
  0
LINE
  5
5C
  8
DÜNNE_LINIE
 62
     7
 10
14.7198675497
 20
32.2522204694
 30
0.0
 11
62.7198675497
 21
32.2522204694
 31
0.0
  0
LINE
  5
5D
  8
DÜNNE_LINIE
 62
     7
 10
14.7198675497
 20
35.9522204694
 30
0.0
 11
62.7198675497
 21
35.9522204694
 31
0.0
  0
LINE
  5
5E
  8
DÜNNE_LINIE
 62
     7
 10
14.7198675497
 20
39.6522204694
 30
0.0
 11
62.7198675497
 21
39.6522204694
 31
0.0
  0
LINE
  5
5F
  8
DÜNNE_LINIE
 62
     7
 10
14.7198675497
 20
43.3522204694
 30
0.0
 11
62.7198675497
 21
43.3522204694
 31
0.0
  0
LINE
  5
60
  8
DÜNNE_LINIE
 62
     7
 10
50.7198675497
 20
54.4522204694
 30
0.0
 11
50.7198675497
 21
5.5564569536
 31
0.0
  0
LINE
  5
61
  8
DÜNNE_LINIE
 62
     7
 10
14.7198675497
 20
47.0522204694
 30
0.0
 11
62.7198675497
 21
47.0522204694
 31
0.0
  0
LINE
  5
62
  8
DÜNNE_LINIE
 62
     7
 10
14.7198675497
 20
50.7522204694
 30
0.0
 11
62.7198675497
 21
50.7522204694
 31
0.0
  0
INSERT
  5
68
  8
DÜNNE_LINIE
 62
   218
  2
SW_NOTE_0
 10
35.8312360176
 20
75.8449285552
 30
0.0
  0
TEXT
  5
69
  8
0
  6
CONTINUOUS
 62
     7
 10
114.1472546394
 20
48.9049931095
 30
0.0
 40
4.0640394089
  1
Jongen Werkzeugtechnik GmbH & Co. KG
 41
0.6513888889
 11
114.1472546394
 21
47.4693302963
 31
0.0
 73
     1
  0
TEXT
  5
6A
  8
0
  6
CONTINUOUS
 62
     7
 10
67.8948579237
 20
24.7275389915
 30
0.0
 40
2.1
  1
Maßstab:
 41
0.7
 11
67.8948579237
 21
23.9856928615
 31
0.0
 73
     1
  0
TEXT
  5
6B
  8
0
  6
CONTINUOUS
 62
     7
 10
69.5866628203
 20
18.0977020526
 30
0.0
 40
3.51908867
  1
1:1
 41
0.7
 11
69.5866628203
 21
16.8545485711
 31
0.0
 73
     1
  0
TEXT
  5
6C
  8
0
  6
CONTINUOUS
 62
     7
 10
112.798427099
 20
18.6740830155
 30
0.0
 40
2.1
  1
Verwendungsbereich:
 41
0.7
 11
112.798427099
 21
17.9322368855
 31
0.0
 73
     1
  0
TEXT
  5
6D
  8
0
  6
CONTINUOUS
 62
     7
 10
93.2262200981
 20
17.5599435449
 30
0.0
 40
2.1
  1
EDV-Nr.:
 41
0.7
 11
93.2262200981
 21
16.8180974148
 31
0.0
 73
     1
  0
TEXT
  5
6E
  8
0
  6
CONTINUOUS
 62
     7
 10
148.9259155915
 20
18.9371740007
 30
0.0
 40
2.1
  1
EDV-Nr.:
 41
0.7
 11
148.9259155915
 21
18.1953278706
 31
0.0
 73
     1
  0
TEXT
  5
6F
  8
0
  6
CONTINUOUS
 62
     7
 10
152.6389589689
 20
9.0555969726
 30
0.0
 40
3.1280788177
  1
JSF122  ( 7 )
 41
0.5923076923
 11
152.6389589689
 21
7.9505716557
 31
0.0
 73
     1
  0
TEXT
  5
70
  8
0
  6
CONTINUOUS
 62
     7
 10
68.3652390548
 20
13.9270684586
 30
0.0
 40
2.1
  1
Material:
 41
0.7
 11
68.3652390548
 21
13.1852223286
 31
0.0
 73
     1
  0
TEXT
  5
71
  8
0
  6
CONTINUOUS
 62
     7
 10
66.7040418524
 20
51.600616123
 30
0.0
 40
2.1
  1
Blattformat:
 41
0.7
 11
66.7040418524
 21
50.858769993
 31
0.0
 73
     1
  0
TEXT
  5
72
  8
0
  6
CONTINUOUS
 62
     7
 10
71.9292449531
 20
46.1281032601
 30
0.0
 40
4.0640394089
  1
A4
 41
0.7
 11
71.9292449531
 21
44.6924404469
 31
0.0
 73
     1
  0
INSERT
  5
78
  8
0
  6
CONTINUOUS
 62
     7
  2
SW_NOTE_1
 10
95.1024529786
 20
44.2906585054
 30
0.0
  0
TEXT
  5
79
  8
0
  6
CONTINUOUS
 62
     7
 10
114.9418989165
 20
42.5183805642
 30
0.0
 40
2.1
  1
Benennung:
 41
0.7
 11
114.9418989165
 21
41.7765344342
 31
0.0
 73
     1
  0
TEXT
  5
7A
  8
0
  6
CONTINUOUS
 62
     7
 10
89.0186469263
 20
51.6922051945
 30
0.0
 40
2.1
  1
Freimaßtoleranz:
 41
0.7
 11
89.0186469263
 21
50.9503590645
 31
0.0
 73
     1
  0
TEXT
  5
7B
  8
0
  6
CONTINUOUS
 62
     7
 10
76.3260818058
 20
39.4788937116
 30
0.0
 40
2.2167487685
  1
Datum
 41
0.7
 11
76.3260818058
 21
38.6958049044
 31
0.0
 73
     1
  0
TEXT
  5
7C
  8
0
  6
CONTINUOUS
 62
     7
 10
90.8611900832
 20
39.5475125211
 30
0.0
 40
2.2167487685
  1
Name
 41
0.7
 11
90.8611900832
 21
38.7644237139
 31
0.0
 73
     1
  0
TEXT
  5
7D
  8
0
  6
CONTINUOUS
 62
     7
 10
90.8611900832
 20
33.9813132087
 30
0.0
 40
2.6458333333
  1
Knüpper
 41
0.7
 11
90.8611900832
 21
33.0466459615
 31
0.0
 73
     1
  0
TEXT
  5
7E
  8
0
  6
CONTINUOUS
 62
     7
 10
74.5281046617
 20
33.9813132087
 30
0.0
 40
2.6458333333
  1
28.05.09
 41
0.7
 11
74.5281046617
 21
33.0466459615
 31
0.0
 73
     1
  0
TEXT
  5
7F
  8
0
  6
CONTINUOUS
 62
     7
 10
63.3870836994
 20
34.1584243035
 30
0.0
 40
2.2167487685
  1
Erst.
 41
0.7
 11
63.3870836994
 21
33.3753354963
 31
0.0
 73
     1
  0
TEXT
  5
80
  8
0
  6
CONTINUOUS
 62
     7
 10
63.0902579449
 20
29.0504271078
 30
0.0
 40
2.2167487685
  1
Geänd.
 41
0.7
 11
63.0902579449
 21
28.2673383006
 31
0.0
 73
     1
  0
INSERT
  5
8A
  8
0
  6
CONTINUOUS
 62
     7
  2
SW_NOTE_2
 10
74.4065359037
 20
31.8282468131
 30
0.0
  0
TEXT
  5
8B
  8
0
  6
CONTINUOUS
 62
     7
 10
29.1689154919
 20
6.6393780016
 30
0.0
 40
2.2167487685
  1
Datum
 41
0.7
 11
29.1689154919
 21
5.8562891944
 31
0.0
 73
     1
  0
TEXT
  5
8C
  8
0
  6
CONTINUOUS
 62
     7
 10
18.4614779851
 20
6.4682771982
 30
0.0
 40
2.2167487685
  1
Änd.
 41
0.7
 11
18.4614779851
 21
5.685188391
 31
0.0
 73
     1
  0
TEXT
  5
8D
  8
0
  6
CONTINUOUS
 62
     7
 10
42.3626711617
 20
6.6621586082
 30
0.0
 40
2.2167487685
  1
Änd.
 41
0.7
 11
42.3626711617
 21
5.879069801
 31
0.0
 73
     1
  0
TEXT
  5
8E
  8
0
  6
CONTINUOUS
 62
     7
 10
53.0078194671
 20
6.2494079573
 30
0.0
 40
2.2167487685
  1
Datum
 41
0.7
 11
53.0078194671
 21
5.46631915
 31
0.0
 73
     1
  0
TEXT
  5
8F
  8
0
  6
CONTINUOUS
 62
     7
 10
115.9494504669
 20
32.6875057062
 30
0.0
 40
3.51908867
  1
Schaftfräser
 41
0.7
 11
115.9494504669
 21
31.4443522248
 31
0.0
 73
     1
  0
TEXT
  5
90
  8
0
  6
CONTINUOUS
 62
     7
 10
115.878559322
 20
24.1503992045
 30
0.0
 40
3.51908867
  1
90PP-32-328
 41
0.7
 11
115.878559322
 21
22.907245723
 31
0.0
 73
     1
  0
TEXT
  5
91
  8
0
  6
CONTINUOUS
 62
     7
 10
125.9566993478
 20
8.6539701229
 30
0.0
 40
3.1280788177
  1
DXF
 41
0.7
 11
125.9566993478
 21
7.548944806
 31
0.0
 73
     1
  0
INSERT
  5
9B
  8
0
  6
CONTINUOUS
 62
     7
  2
SW_NOTE_3
 10
70.1707387402
 20
11.9249524322
 30
0.0
  0
ARC
  5
9C
  8
0
  6
CONTINUOUS
 62
     7
 10
38.4617722547
 20
132.7648186383
 30
0.0
 40
1.950733573899028
 50
270.1971105478
 51
53.988178012
  0
ARC
  5
9D
  8
0
  6
CONTINUOUS
 62
     7
 10
37.4454411359
 20
132.7590191199
 30
0.0
 40
0.2567692094892517
 50
117.6566332131
 51
242.905729175
  0
ARC
  5
9E
  8
0
  6
CONTINUOUS
 62
     7
 10
37.0051796443
 20
133.6006320103
 30
0.0
 40
0.6930426752972093
 50
297.5993050959
 51
3.1385318899
  0
ARC
  5
9F
  8
0
  6
CONTINUOUS
 62
     7
 10
37.0134829103
 20
131.9131181834
 30
0.0
 40
0.6930394517723738
 50
357.4269165255
 51
62.9649352617
  0
ARC
  5
A0
  8
0
  6
CONTINUOUS
 62
     7
 10
37.950002513
 20
133.653520004
 30
0.0
 40
0.2532609656254783
 50
127.9420753401
 51
183.3827065026
  0
ARC
  5
A1
  8
0
  6
CONTINUOUS
 62
     7
 10
37.9609189121
 20
131.8700388081
 30
0.0
 40
0.2553758022226309
 50
177.3142775841
 51
236.1283182282
  0
LINE
  5
A2
  8
0
  6
CONTINUOUS
 62
     7
 10
38.4684832098
 20
134.7140965022
 30
0.0
 11
38.3944009228
 21
134.7140965022
 31
0.0
  0
LINE
  5
A3
  8
0
  6
CONTINUOUS
 62
     7
 10
38.3944009228
 20
130.814096608
 30
0.0
 11
38.4684832098
 21
130.814096608
 31
0.0
  0
LINE
  5
A4
  8
0
  6
CONTINUOUS
 62
     7
 10
38.3643066308
 20
133.7597302131
 30
0.0
 11
38.4601779079
 21
133.7597302131
 31
0.0
  0
LINE
  5
A5
  8
0
  6
CONTINUOUS
 62
     7
 10
38.4767885117
 20
131.7684619657
 30
0.0
 11
38.3809172345
 21
131.7684619657
 31
0.0
  0
ARC
  5
A6
  8
0
  6
CONTINUOUS
 62
     7
 10
42.3569759412
 20
159.5651246298
 30
0.0
 40
0.5883180416888427
 50
359.8998418904
 51
89.9002544049
  0
LINE
  5
A7
  8
0
  6
CONTINUOUS
 62
     7
 10
42.945293084
 20
159.4015822716
 30
0.0
 11
42.945293084
 21
159.5640961982
 31
0.0
  0
LINE
  5
A8
  8
0
  6
CONTINUOUS
 62
     7
 10
42.3580001371
 20
160.15344178
 30
0.0
 11
34.5876817156
 21
160.15344178
 31
0.0
  0
LINE
  5
A9
  8
0
  6
CONTINUOUS
 62
     7
 10
34.5876817156
 20
151.174750828
 30
0.0
 11
34.7938810738
 21
151.174750828
 31
0.0
  0
ARC
  5
AA
  8
0
  6
CONTINUOUS
 62
     7
 10
34.5887130352
 20
159.5651177053
 30
0.0
 40
0.5883249786680885
 50
90.1004381805
 51
180.0994825601
  0
ARC
  5
AB
  8
0
  6
CONTINUOUS
 62
     7
 10
34.588706168
 20
151.7630680594
 30
0.0
 40
0.5883181234165012
 50
179.8998498203
 51
269.9002294391
  0
LINE
  5
AC
  8
0
  6
CONTINUOUS
 62
     7
 10
34.0003889433
 20
159.5640961982
 30
0.0
 11
34.0003889433
 21
151.7640964098
 31
0.0
  0
ARC
  5
AD
  8
0
  6
CONTINUOUS
 62
     7
 10
34.5887138478
 20
136.6651166809
 30
0.0
 40
0.5883257899116906
 50
90.1005171844
 51
180.0994035562
  0
LINE
  5
AE
  8
0
  6
CONTINUOUS
 62
     7
 10
34.0003889433
 20
136.6640959836
 30
0.0
 11
34.0003889433
 21
128.8640961952
 31
0.0
  0
ARC
  5
AF
  8
0
  6
CONTINUOUS
 62
     7
 10
34.5887063299
 20
128.8630680062
 30
0.0
 40
0.5883182850782832
 50
179.8998655645
 51
269.9002136949
  0
LINE
  5
B0
  8
0
  6
CONTINUOUS
 62
     7
 10
34.7938810738
 20
137.2534415655
 30
0.0
 11
34.5876817156
 21
137.2534415655
 31
0.0
  0
LINE
  5
B1
  8
0
  6
CONTINUOUS
 62
     7
 10
34.5876817156
 20
128.2747506134
 30
0.0
 11
42.3580001371
 21
128.2747506134
 31
0.0
  0
ARC
  5
B2
  8
0
  6
CONTINUOUS
 62
     7
 10
42.3569692511
 20
128.8630744303
 30
0.0
 40
0.5883247201081904
 50
270.1003959941
 51
0.0995077105
  0
LINE
  5
B3
  8
0
  6
CONTINUOUS
 62
     7
 10
42.945293084
 20
128.8640961952
 30
0.0
 11
42.945293084
 21
134.6488452486
 31
0.0
  0
ARC
  5
B4
  8
0
  6
CONTINUOUS
 62
     7
 10
56.0623661853
 20
112.7140961967
 30
0.0
 40
20.00000000000001
 50
90.0
 51
120.313687317
  0
ARC
  5
B5
  8
0
  6
CONTINUOUS
 62
     7
 10
56.0623661853
 20
175.7140961967
 30
0.0
 40
20.00000000000003
 50
239.686312683
 51
270.0
  0
LINE
  5
B6
  8
0
  6
CONTINUOUS
 62
     7
 10
77.4267626258
 20
131.7140960104
 30
0.0
 11
131.7438830884
 21
131.7140960104
 31
0.0
  0
LINE
  5
B7
  8
0
  6
CONTINUOUS
 62
     7
 10
131.7438830884
 20
156.714096383
 30
0.0
 11
77.4267626258
 21
156.714096383
 31
0.0
  0
LINE
  5
B8
  8
0
  6
CONTINUOUS
 62
     7
 10
77.4267626258
 20
156.714096383
 30
0.0
 11
74.3404229434
 21
156.1698808305
 31
0.0
  0
LINE
  5
B9
  8
0
  6
CONTINUOUS
 62
     7
 10
74.3404229434
 20
132.258311563
 30
0.0
 11
77.4267626258
 21
131.7140960104
 31
0.0
  0
ARC
  5
BA
  8
0
  6
CONTINUOUS
 62
     7
 10
69.1308810738
 20
102.7140961967
 30
0.0
 40
29.99999999999999
 50
79.9998125191
 51
90.0
  0
ARC
  5
BB
  8
0
  6
CONTINUOUS
 62
     7
 10
69.1308810738
 20
185.7140961967
 30
0.0
 40
30.00000000000002
 50
270.0
 51
280.0001874809
  0
LINE
  5
BC
  8
0
  6
CONTINUOUS
 62
     7
 10
56.0623661878
 20
132.7140961744
 30
0.0
 11
69.1308801325
 21
132.7140961744
 31
0.0
  0
LINE
  5
BD
  8
0
  6
CONTINUOUS
 62
     7
 10
69.1308801325
 20
155.7140962191
 30
0.0
 11
56.0623661878
 21
155.7140962191
 31
0.0
  0
LINE
  5
BE
  8
0
  6
CONTINUOUS
 62
     7
 10
131.7438830884
 20
131.7140960104
 30
0.0
 11
132.9938818963
 21
131.8140958406
 31
0.0
  0
LINE
  5
BF
  8
0
  6
CONTINUOUS
 62
     7
 10
132.9938818963
 20
156.6140965528
 30
0.0
 11
131.7438830884
 21
156.714096383
 31
0.0
  0
LINE
  5
C0
  8
0
  6
CONTINUOUS
 62
     7
 10
132.9938818963
 20
131.8140958406
 30
0.0
 11
133.9938839229
 21
132.8140960045
 31
0.0
  0
LINE
  5
C1
  8
0
  6
CONTINUOUS
 62
     7
 10
133.9938839229
 20
155.6140963889
 30
0.0
 11
132.9938818963
 21
156.6140965528
 31
0.0
  0
ARC
  5
C2
  8
0
  6
CONTINUOUS
 62
     7
 10
44.0235936784
 20
158.42687738
 30
0.0
 40
1.00000000000004
 50
59.686312683
 51
91.3587595207
  0
LINE
  5
C3
  8
0
  6
CONTINUOUS
 62
     7
 10
43.999880858
 20
159.4265957333
 30
0.0
 11
42.731164329
 21
159.3965028383
 31
0.0
  0
LINE
  5
C4
  8
0
  6
CONTINUOUS
 62
     7
 10
45.9676890897
 20
158.4485962026
 30
0.0
 11
44.5283272566
 21
159.2901523195
 31
0.0
  0
LINE
  5
C5
  8
0
  6
CONTINUOUS
 62
     7
 10
42.945293084
 20
129.0266101218
 30
0.0
 11
43.999880858
 21
129.0015966601
 31
0.0
  0
ARC
  5
C6
  8
0
  6
CONTINUOUS
 62
     7
 10
44.0235936784
 20
130.0013150134
 30
0.0
 40
0.99999999999999
 50
268.6412404793
 51
300.313687317
  0
LINE
  5
C7
  8
0
  6
CONTINUOUS
 62
     7
 10
44.5283272566
 20
129.1380400739
 30
0.0
 11
45.9676890897
 21
129.9795961909
 31
0.0
  0
ARC
  5
C8
  8
0
  6
CONTINUOUS
 62
     7
 10
37.9720447128
 20
155.6566080885
 30
0.0
 40
1.19254892578283
 50
240.6202699952
 51
260.1530463992
  0
ARC
  5
C9
  8
0
  6
CONTINUOUS
 62
     7
 10
37.9715750988
 20
155.6567112634
 30
0.0
 40
1.192570365478883
 50
260.176123844
 51
314.0555830598
  0
ARC
  5
CA
  8
0
  6
CONTINUOUS
 62
     7
 10
38.468446642
 20
132.7770006171
 30
0.0
 40
1.937021532497005
 50
53.946977529
 51
129.5767259877
  0
ARC
  5
CB
  8
0
  6
CONTINUOUS
 62
     7
 10
37.9516693623
 20
133.6542181333
 30
0.0
 40
0.2544911985719968
 50
57.346335954
 51
128.4160824706
  0
ARC
  5
CC
  8
0
  6
CONTINUOUS
 62
     7
 10
37.96044196
 20
131.8688711065
 30
0.0
 40
0.2544688001477426
 50
235.9911559721
 51
303.2232743828
  0
ARC
  5
CD
  8
0
  6
CONTINUOUS
 62
     7
 10
38.4003075826
 20
132.7640965551
 30
0.0
 40
1.950008892883089
 50
90.1735516155
 51
269.8264483845
  0
ARC
  5
CE
  8
0
  6
CONTINUOUS
 62
     7
 10
38.4601795593
 20
134.4476522016
 30
0.0
 40
0.6879101180949901
 50
237.3435147551
 51
303.2245273576
  0
ARC
  5
CF
  8
0
  6
CONTINUOUS
 62
     7
 10
38.476786965
 20
131.0805421682
 30
0.0
 40
0.6879083426011383
 50
57.3434072965
 51
123.2246346393
  0
ARC
  5
D0
  8
0
  6
CONTINUOUS
 62
     7
 10
38.9765251716
 20
133.6593232161
 30
0.0
 40
0.2544673968812624
 50
55.9911361637
 51
123.2236729497
  0
ARC
  5
D1
  8
0
  6
CONTINUOUS
 62
     7
 10
38.9852963922
 20
131.8739744452
 30
0.0
 40
0.2544910505536801
 50
237.3465547003
 51
308.4162331018
  0
ARC
  5
D2
  8
0
  6
CONTINUOUS
 62
     7
 10
37.8557292527
 20
133.6540765712
 30
0.0
 40
0.2546475262671405
 50
57.3504822305
 51
79.1321684539
  0
ARC
  5
D3
  8
0
  6
CONTINUOUS
 62
     7
 10
37.8644843245
 20
131.8690687179
 30
0.0
 40
0.2546814288458948
 50
280.8687275435
 51
303.2151688122
  0
ARC
  5
D4
  8
0
  6
CONTINUOUS
 62
     7
 10
38.3644031781
 20
134.4479010067
 30
0.0
 40
0.6881708003963124
 50
237.3480407184
 51
269.9919616546
  0
ARC
  5
D5
  8
0
  6
CONTINUOUS
 62
     7
 10
38.3809765099
 20
131.0804083911
 30
0.0
 40
0.6880535772182532
 50
90.0049359892
 51
123.2227676602
  0
ARC
  5
D6
  8
0
  6
CONTINUOUS
 62
     7
 10
38.8799567102
 20
133.6579348889
 30
0.0
 40
0.2559646860734288
 50
357.3731754693
 51
79.0476202366
  0
ARC
  5
D7
  8
0
  6
CONTINUOUS
 62
     7
 10
38.8887115456
 20
131.8753500005
 30
0.0
 40
0.2559788539415518
 50
280.954222066
 51
3.1901904793
  0
ARC
  5
D8
  8
0
  6
CONTINUOUS
 62
     7
 10
39.8280345525
 20
133.6149975588
 30
0.0
 40
0.693085009563696
 50
177.4193733033
 51
242.9563581051
  0
ARC
  5
D9
  8
0
  6
CONTINUOUS
 62
     7
 10
39.8363941044
 20
131.9276053438
 30
0.0
 40
0.693143356833355
 50
117.610321958
 51
183.1435115896
  0
ARC
  5
DA
  8
0
  6
CONTINUOUS
 62
     7
 10
39.3961603254
 20
132.7691740271
 30
0.0
 40
0.2566164244233496
 50
297.6259991843
 51
62.9377094484
  0
LINE
  5
DB
  8
0
  6
CONTINUOUS
 62
     7
 10
37.3417814991
 20
132.7590157248
 30
0.0
 11
37.2578413954
 21
132.5837883137
 31
0.0
  0
LINE
  5
DC
  8
0
  6
CONTINUOUS
 62
     7
 10
37.3417814991
 20
132.7590157248
 30
0.0
 11
37.2565883009
 21
132.9324084304
 31
0.0
  0
LINE
  5
DD
  8
0
  6
CONTINUOUS
 62
     7
 10
37.8498221545
 20
133.65248935
 30
0.0
 11
37.6970587095
 21
133.6439621605
 31
0.0
  0
ARC
  5
DE
  8
0
  6
CONTINUOUS
 62
     7
 10
-74.4715840352
 20
69.9102327176
 30
0.0
 40
129.1478748141173
 50
29.1226893938
 51
29.5748559465
  0
POLYLINE
  5
DF
  8
0
  6
CONTINUOUS
 62
     7
 66
     1
 10
0.0
 20
0.0
 30
0.0
  0
VERTEX
  5
366
  8
0
  6
CONTINUOUS
 62
     7
 10
38.3493600676
 20
132.7640960894
 30
0.0
  0
VERTEX
  5
367
  8
0
  6
CONTINUOUS
 62
     7
 10
38.1000652706
 20
132.7628350787
 30
0.0
  0
VERTEX
  5
368
  8
0
  6
CONTINUOUS
 62
     7
 10
37.8495993355
 20
132.7615703426
 30
0.0
  0
VERTEX
  5
369
  8
0
  6
CONTINUOUS
 62
     7
 10
37.5969080052
 20
132.7602972246
 30
0.0
  0
VERTEX
  5
36A
  8
0
  6
CONTINUOUS
 62
     7
 10
37.3417814991
 20
132.7590157248
 30
0.0
  0
SEQEND
  5
36B
  8
0
  6
CONTINUOUS
 62
     7
  0
ARC
  5
E0
  8
0
  6
CONTINUOUS
 62
     7
 10
-74.5423267029
 20
194.1923931027
 30
0.0
 40
128.5222494972856
 50
330.9934002053
 51
331.4478492127
  0
LINE
  5
E1
  8
0
  6
CONTINUOUS
 62
     7
 10
37.8585875297
 20
131.8706224642
 30
0.0
 11
37.7057169827
 21
131.877599933
 31
0.0
  0
LINE
  5
E2
  8
0
  6
CONTINUOUS
 62
     7
 10
37.8498221545
 20
133.65248935
 30
0.0
 11
37.9931112548
 21
133.8684863381
 31
0.0
  0
LINE
  5
E3
  8
0
  6
CONTINUOUS
 62
     7
 10
37.8585875297
 20
131.8706224642
 30
0.0
 11
38.0039949233
 21
131.6559973143
 31
0.0
  0
LINE
  5
E4
  8
0
  6
CONTINUOUS
 62
     7
 10
38.8746688405
 20
133.6575697146
 30
0.0
 11
38.7664184237
 21
133.8316804699
 31
0.0
  0
ARC
  5
E5
  8
0
  6
CONTINUOUS
 62
     7
 10
-77.8508519164
 20
201.6839961825
 30
0.0
 40
135.101598413862
 50
329.3272534
 51
329.7668099587
  0
ARC
  5
E6
  8
0
  6
CONTINUOUS
 62
     7
 10
-77.8791724692
 20
62.2863883394
 30
0.0
 40
135.927109383494
 50
30.7945078871
 51
31.231442423
  0
LINE
  5
E7
  8
0
  6
CONTINUOUS
 62
     7
 10
38.8834344486
 20
131.8757028289
 30
0.0
 11
38.7764515618
 21
131.6997387416
 31
0.0
  0
LINE
  5
E8
  8
0
  6
CONTINUOUS
 62
     7
 10
39.391475104
 20
132.7691764541
 30
0.0
 11
39.5129102545
 21
132.9976941429
 31
0.0
  0
POLYLINE
  5
E9
  8
0
  6
CONTINUOUS
 62
     7
 66
     1
 10
0.0
 20
0.0
 30
0.0
  0
VERTEX
  5
36C
  8
0
  6
CONTINUOUS
 62
     7
 10
38.3493600676
 20
132.7640960894
 30
0.0
  0
VERTEX
  5
36D
  8
0
  6
CONTINUOUS
 62
     7
 10
38.6087294465
 20
132.7653571002
 30
0.0
  0
VERTEX
  5
36E
  8
0
  6
CONTINUOUS
 62
     7
 10
38.8685952203
 20
132.7666218362
 30
0.0
  0
VERTEX
  5
36F
  8
0
  6
CONTINUOUS
 62
     7
 10
39.1296742747
 20
132.7678949542
 30
0.0
  0
VERTEX
  5
370
  8
0
  6
CONTINUOUS
 62
     7
 10
39.391475104
 20
132.7691764541
 30
0.0
  0
SEQEND
  5
371
  8
0
  6
CONTINUOUS
 62
     7
  0
LINE
  5
EA
  8
0
  6
CONTINUOUS
 62
     7
 10
38.8746688405
 20
133.6575697146
 30
0.0
 11
39.1356524343
 21
133.6462038539
 31
0.0
  0
LINE
  5
EB
  8
0
  6
CONTINUOUS
 62
     7
 10
38.8834344486
 20
131.8757028289
 30
0.0
 11
39.1442937108
 21
131.8895953677
 31
0.0
  0
LINE
  5
EC
  8
0
  6
CONTINUOUS
 62
     7
 10
39.391475104
 20
132.7691764541
 30
0.0
 11
39.5151528793
 21
132.5418136052
 31
0.0
  0
LINE
  5
ED
  8
0
  6
CONTINUOUS
 62
     7
 10
34.5920394903
 20
145.7445115752
 30
0.0
 11
42.3623582611
 21
145.0646967364
 31
0.0
  0
POLYLINE
  5
EE
  8
0
  6
CONTINUOUS
 62
     7
 66
     1
 10
0.0
 20
0.0
 30
0.0
  0
VERTEX
  5
372
  8
0
  6
CONTINUOUS
 62
     7
 10
34.0547466913
 20
145.7915185688
 30
0.0
  0
VERTEX
  5
373
  8
0
  6
CONTINUOUS
 62
     7
 10
34.0576900781
 20
145.7912610581
 30
0.0
  0
VERTEX
  5
374
  8
0
  6
CONTINUOUS
 62
     7
 10
34.066487875
 20
145.79049132
 30
0.0
  0
VERTEX
  5
375
  8
0
  6
CONTINUOUS
 62
     7
 10
34.0810436902
 20
145.7892178528
 30
0.0
  0
VERTEX
  5
376
  8
0
  6
CONTINUOUS
 62
     7
 10
34.1011980928
 20
145.7874546263
 30
0.0
  0
VERTEX
  5
377
  8
0
  6
CONTINUOUS
 62
     7
 10
34.1267303012
 20
145.7852208491
 30
0.0
  0
VERTEX
  5
378
  8
0
  6
CONTINUOUS
 62
     7
 10
34.1573605111
 20
145.7825409684
 30
0.0
  0
VERTEX
  5
379
  8
0
  6
CONTINUOUS
 62
     7
 10
34.1927531554
 20
145.7794445537
 30
0.0
  0
VERTEX
  5
37A
  8
0
  6
CONTINUOUS
 62
     7
 10
34.2325204548
 20
145.7759653654
 30
0.0
  0
VERTEX
  5
37B
  8
0
  6
CONTINUOUS
 62
     7
 10
34.2762267247
 20
145.7721415877
 30
0.0
  0
VERTEX
  5
37C
  8
0
  6
CONTINUOUS
 62
     7
 10
34.3233931199
 20
145.7680150138
 30
0.0
  0
VERTEX
  5
37D
  8
0
  6
CONTINUOUS
 62
     7
 10
34.3735028437
 20
145.7636310456
 30
0.0
  0
VERTEX
  5
37E
  8
0
  6
CONTINUOUS
 62
     7
 10
34.4260068815
 20
145.7590375298
 30
0.0
  0
VERTEX
  5
37F
  8
0
  6
CONTINUOUS
 62
     7
 10
34.4803300541
 20
145.7542848743
 30
0.0
  0
VERTEX
  5
380
  8
0
  6
CONTINUOUS
 62
     7
 10
34.5358771011
 20
145.7494251167
 30
0.0
  0
VERTEX
  5
381
  8
0
  6
CONTINUOUS
 62
     7
 10
34.5920394903
 20
145.7445115752
 30
0.0
  0
SEQEND
  5
382
  8
0
  6
CONTINUOUS
 62
     7
  0
ARC
  5
EF
  8
0
  6
CONTINUOUS
 62
     7
 10
34.0503889297
 20
145.741708834
 30
0.0
 40
0.0500000000000027
 50
85.0
 51
186.0
  0
POLYLINE
  5
F0
  8
0
  6
CONTINUOUS
 62
     7
 66
     1
 10
0.0
 20
0.0
 30
0.0
  0
VERTEX
  5
383
  8
0
  6
CONTINUOUS
 62
     7
 10
42.3623582611
 20
145.0646967364
 30
0.0
  0
VERTEX
  5
384
  8
0
  6
CONTINUOUS
 62
     7
 10
42.4185207376
 20
145.0597831949
 30
0.0
  0
VERTEX
  5
385
  8
0
  6
CONTINUOUS
 62
     7
 10
42.47406761
 20
145.0549234373
 30
0.0
  0
VERTEX
  5
386
  8
0
  6
CONTINUOUS
 62
     7
 10
42.5283907244
 20
145.0501707818
 30
0.0
  0
VERTEX
  5
387
  8
0
  6
CONTINUOUS
 62
     7
 10
42.5808949659
 20
145.045577266
 30
0.0
  0
VERTEX
  5
388
  8
0
  6
CONTINUOUS
 62
     7
 10
42.6310043113
 20
145.0411932396
 30
0.0
  0
VERTEX
  5
389
  8
0
  6
CONTINUOUS
 62
     7
 10
42.6781711431
 20
145.0370667239
 30
0.0
  0
VERTEX
  5
38A
  8
0
  6
CONTINUOUS
 62
     7
 10
42.7218771802
 20
145.0332428881
 30
0.0
  0
VERTEX
  5
38B
  8
0
  6
CONTINUOUS
 62
     7
 10
42.7616446542
 20
145.0297636998
 30
0.0
  0
VERTEX
  5
38C
  8
0
  6
CONTINUOUS
 62
     7
 10
42.7970367747
 20
145.026667285
 30
0.0
  0
VERTEX
  5
38D
  8
0
  6
CONTINUOUS
 62
     7
 10
42.8276670428
 20
145.0239874625
 30
0.0
  0
VERTEX
  5
38E
  8
0
  6
CONTINUOUS
 62
     7
 10
42.8531992512
 20
145.0217536853
 30
0.0
  0
VERTEX
  5
38F
  8
0
  6
CONTINUOUS
 62
     7
 10
42.873354003
 20
145.0199904007
 30
0.0
  0
VERTEX
  5
390
  8
0
  6
CONTINUOUS
 62
     7
 10
42.8879096436
 20
145.0187169335
 30
0.0
  0
VERTEX
  5
391
  8
0
  6
CONTINUOUS
 62
     7
 10
42.8967078479
 20
145.0179472536
 30
0.0
  0
VERTEX
  5
392
  8
0
  6
CONTINUOUS
 62
     7
 10
42.8996508272
 20
145.0176897429
 30
0.0
  0
SEQEND
  5
393
  8
0
  6
CONTINUOUS
 62
     7
  0
ARC
  5
F1
  8
0
  6
CONTINUOUS
 62
     7
 10
42.8952931321
 20
144.9678799864
 30
0.0
 40
0.0500000000000257
 50
344.0
 51
85.0
  0
POLYLINE
  5
F2
  8
0
  6
CONTINUOUS
 62
     7
 66
     1
 10
0.0
 20
0.0
 30
0.0
  0
VERTEX
  5
394
  8
0
  6
CONTINUOUS
 62
     7
 10
34.0901590681
 20
144.8849825624
 30
0.0
  0
VERTEX
  5
395
  8
0
  6
CONTINUOUS
 62
     7
 10
34.0932464606
 20
144.8847124207
 30
0.0
  0
VERTEX
  5
396
  8
0
  6
CONTINUOUS
 62
     7
 10
34.1024634691
 20
144.8839060117
 30
0.0
  0
VERTEX
  5
397
  8
0
  6
CONTINUOUS
 62
     7
 10
34.1176758085
 20
144.8825751518
 30
0.0
  0
VERTEX
  5
398
  8
0
  6
CONTINUOUS
 62
     7
 10
34.1386615911
 20
144.8807391075
 30
0.0
  0
VERTEX
  5
399
  8
0
  6
CONTINUOUS
 62
     7
 10
34.1651148193
 20
144.8784247709
 30
0.0
  0
VERTEX
  5
39A
  8
0
  6
CONTINUOUS
 62
     7
 10
34.1966497509
 20
144.875665786
 30
0.0
  0
VERTEX
  5
39B
  8
0
  6
CONTINUOUS
 62
     7
 10
34.2328064872
 20
144.8725024907
 30
0.0
  0
VERTEX
  5
39C
  8
0
  6
CONTINUOUS
 62
     7
 10
34.2730578414
 20
144.8689809854
 30
0.0
  0
VERTEX
  5
39D
  8
0
  6
CONTINUOUS
 62
     7
 10
34.3168168184
 20
144.8651525511
 30
0.0
  0
VERTEX
  5
39E
  8
0
  6
CONTINUOUS
 62
     7
 10
34.3634453457
 20
144.8610730672
 30
0.0
  0
VERTEX
  5
39F
  8
0
  6
CONTINUOUS
 62
     7
 10
34.4122634416
 20
144.8568020801
 30
0.0
  0
VERTEX
  5
3A0
  8
0
  6
CONTINUOUS
 62
     7
 10
34.4625592553
 20
144.8524017555
 30
0.0
  0
VERTEX
  5
3A1
  8
0
  6
CONTINUOUS
 62
     7
 10
34.5135993412
 20
144.8479362966
 30
0.0
  0
SEQEND
  5
3A2
  8
0
  6
CONTINUOUS
 62
     7
  0
LINE
  5
F3
  8
0
  6
CONTINUOUS
 62
     7
 10
34.0901590681
 20
144.8849825624
 30
0.0
 11
34.0006628104
 21
145.7364824105
 31
0.0
  0
LINE
  5
F4
  8
0
  6
CONTINUOUS
 62
     7
 10
34.5135993412
 20
144.8479362966
 30
0.0
 11
42.2839180829
 21
144.1681215197
 31
0.0
  0
POLYLINE
  5
F5
  8
0
  6
CONTINUOUS
 62
     7
 66
     1
 10
0.0
 20
0.0
 30
0.0
  0
VERTEX
  5
3A3
  8
0
  6
CONTINUOUS
 62
     7
 10
42.7073578613
 20
144.1310753012
 30
0.0
  0
VERTEX
  5
3A4
  8
0
  6
CONTINUOUS
 62
     7
 10
42.704270527
 20
144.1313454065
 30
0.0
  0
VERTEX
  5
3A5
  8
0
  6
CONTINUOUS
 62
     7
 10
42.6950541588
 20
144.1321517936
 30
0.0
  0
VERTEX
  5
3A6
  8
0
  6
CONTINUOUS
 62
     7
 10
42.6798419358
 20
144.1334827045
 30
0.0
  0
VERTEX
  5
3A7
  8
0
  6
CONTINUOUS
 62
     7
 10
42.6588555129
 20
144.1353187197
 30
0.0
  0
VERTEX
  5
3A8
  8
0
  6
CONTINUOUS
 62
     7
 10
42.6324022265
 20
144.1376330781
 30
0.0
  0
VERTEX
  5
3A9
  8
0
  6
CONTINUOUS
 62
     7
 10
42.6008676442
 20
144.1403920266
 30
0.0
  0
VERTEX
  5
3AA
  8
0
  6
CONTINUOUS
 62
     7
 10
42.5647109078
 20
144.1435553293
 30
0.0
  0
VERTEX
  5
3AB
  8
0
  6
CONTINUOUS
 62
     7
 10
42.5244596118
 20
144.1470768709
 30
0.0
  0
VERTEX
  5
3AC
  8
0
  6
CONTINUOUS
 62
     7
 10
42.4807004893
 20
144.1509052834
 30
0.0
  0
VERTEX
  5
3AD
  8
0
  6
CONTINUOUS
 62
     7
 10
42.434071962
 20
144.1549847491
 30
0.0
  0
VERTEX
  5
3AE
  8
0
  6
CONTINUOUS
 62
     7
 10
42.3852538953
 20
144.1592557799
 30
0.0
  0
VERTEX
  5
3AF
  8
0
  6
CONTINUOUS
 62
     7
 10
42.3349582853
 20
144.1636560898
 30
0.0
  0
VERTEX
  5
3B0
  8
0
  6
CONTINUOUS
 62
     7
 10
42.2839180829
 20
144.1681215197
 30
0.0
  0
SEQEND
  5
3B1
  8
0
  6
CONTINUOUS
 62
     7
  0
LINE
  5
F6
  8
0
  6
CONTINUOUS
 62
     7
 10
42.7073578613
 20
144.1310753012
 30
0.0
 11
42.943355933
 21
144.9540981061
 31
0.0
  0
LINE
  5
F7
  8
0
  6
CONTINUOUS
 62
     7
 10
34.3753409544
 20
143.2676357886
 30
0.0
 11
34.5135993412
 21
144.8479362966
 31
0.0
  0
LINE
  5
F8
  8
0
  6
CONTINUOUS
 62
     7
 10
34.3753409544
 20
143.2676357886
 30
0.0
 11
34.0901590681
 21
144.8849825624
 31
0.0
  0
LINE
  5
F9
  8
0
  6
CONTINUOUS
 62
     7
 10
42.1456595214
 20
142.5878209497
 30
0.0
 11
42.2839180829
 21
144.1681215197
 31
0.0
  0
LINE
  5
FA
  8
0
  6
CONTINUOUS
 62
     7
 10
41.6203162896
 20
141.1444523342
 30
0.0
 11
42.1456595214
 21
142.5878209497
 31
0.0
  0
LINE
  5
FB
  8
0
  6
CONTINUOUS
 62
     7
 10
34.6420647112
 20
141.7549701377
 30
0.0
 11
41.6203162896
 21
141.1444523342
 31
0.0
  0
LINE
  5
FC
  8
0
  6
CONTINUOUS
 62
     7
 10
34.6420647112
 20
141.7549701377
 30
0.0
 11
34.3753409544
 21
143.2676357886
 31
0.0
  0
LINE
  5
FD
  8
0
  6
CONTINUOUS
 62
     7
 10
42.1456595214
 20
142.5878209497
 30
0.0
 11
42.7073578613
 21
144.1310753012
 31
0.0
  0
LINE
  5
FE
  8
0
  6
CONTINUOUS
 62
     7
 10
42.1456595214
 20
159.5640961982
 30
0.0
 11
42.7073578613
 21
159.5640961982
 31
0.0
  0
LINE
  5
FF
  8
0
  6
CONTINUOUS
 62
     7
 10
42.7073578613
 20
159.3957112141
 30
0.0
 11
42.7073578613
 21
159.5640961982
 31
0.0
  0
LINE
  5
100
  8
0
  6
CONTINUOUS
 62
     7
 10
41.6203162896
 20
159.1665499814
 30
0.0
 11
41.6203162896
 21
159.0560429699
 31
0.0
  0
LINE
  5
101
  8
0
  6
CONTINUOUS
 62
     7
 10
41.6203162896
 20
159.1665499814
 30
0.0
 11
42.1456595214
 21
159.5640961982
 31
0.0
  0
LINE
  5
102
  8
0
  6
CONTINUOUS
 62
     7
 10
34.3753409544
 20
159.5640961982
 30
0.0
 11
34.5135993412
 21
159.9891546152
 31
0.0
  0
LINE
  5
103
  8
0
  6
CONTINUOUS
 62
     7
 10
34.5135993412
 20
159.9891546152
 30
0.0
 11
42.2839180829
 21
159.9891546152
 31
0.0
  0
LINE
  5
104
  8
0
  6
CONTINUOUS
 62
     7
 10
42.1456595214
 20
159.5640961982
 30
0.0
 11
42.2839180829
 21
159.9891546152
 31
0.0
  0
LINE
  5
105
  8
0
  6
CONTINUOUS
 62
     7
 10
34.6420647112
 20
159.1665499814
 30
0.0
 11
41.6203162896
 21
159.1665499814
 31
0.0
  0
LINE
  5
106
  8
0
  6
CONTINUOUS
 62
     7
 10
34.6420647112
 20
159.1665499814
 30
0.0
 11
34.3753409544
 21
159.5640961982
 31
0.0
  0
LINE
  5
107
  8
0
  6
CONTINUOUS
 62
     7
 10
34.5135993412
 20
151.3390384584
 30
0.0
 11
34.7938810738
 21
151.3390384584
 31
0.0
  0
LINE
  5
108
  8
0
  6
CONTINUOUS
 62
     7
 10
34.3753409544
 20
151.7640964098
 30
0.0
 11
34.5135993412
 21
151.3390384584
 31
0.0
  0
LINE
  5
109
  8
0
  6
CONTINUOUS
 62
     7
 10
34.6420647112
 20
152.1616426266
 30
0.0
 11
34.3753409544
 21
151.7640964098
 31
0.0
  0
LINE
  5
10A
  8
0
  6
CONTINUOUS
 62
     7
 10
34.7938810738
 20
152.1616426266
 30
0.0
 11
34.6420647112
 21
152.1616426266
 31
0.0
  0
LINE
  5
10B
  8
0
  6
CONTINUOUS
 62
     7
 10
34.6420647112
 20
152.1616426266
 30
0.0
 11
34.6420647112
 21
159.1665499814
 31
0.0
  0
LINE
  5
10C
  8
0
  6
CONTINUOUS
 62
     7
 10
34.3753409544
 20
151.7640964098
 30
0.0
 11
34.0901590681
 21
151.7640964098
 31
0.0
  0
LINE
  5
10D
  8
0
  6
CONTINUOUS
 62
     7
 10
34.0901590681
 20
151.7640964098
 30
0.0
 11
34.0901590681
 21
159.5640961982
 31
0.0
  0
LINE
  5
10E
  8
0
  6
CONTINUOUS
 62
     7
 10
34.3753409544
 20
159.5640961982
 30
0.0
 11
34.0901590681
 21
159.5640961982
 31
0.0
  0
ARC
  5
10F
  8
0
  6
CONTINUOUS
 62
     7
 10
42.2831289582
 20
159.5649256352
 30
0.0
 40
0.4242297139289456
 50
359.8879775035
 51
89.893422032
  0
ARC
  5
110
  8
0
  6
CONTINUOUS
 62
     7
 10
34.5143892549
 20
159.5649243555
 30
0.0
 40
0.4242309951349075
 50
90.1066841994
 51
180.1118493188
  0
ARC
  5
111
  8
0
  6
CONTINUOUS
 62
     7
 10
34.5143865217
 20
151.7632659945
 30
0.0
 40
0.4242282663762146
 50
179.8878449954
 51
269.8936842549
  0
LINE
  5
112
  8
0
  6
CONTINUOUS
 62
     7
 10
42.8106461914
 20
128.8640961952
 30
0.0
 11
42.8106461914
 21
134.654207804
 31
0.0
  0
LINE
  5
113
  8
0
  6
CONTINUOUS
 62
     7
 10
34.5920394903
 20
137.1140961505
 30
0.0
 11
34.7938810738
 21
137.1140961505
 31
0.0
  0
ARC
  5
114
  8
0
  6
CONTINUOUS
 62
     7
 10
34.5928229738
 20
136.6650248089
 30
0.0
 40
0.4490720251041725
 50
90.0999624015
 51
180.1185061676
  0
LINE
  5
115
  8
0
  6
CONTINUOUS
 62
     7
 10
34.1437519092
 20
128.8640961952
 30
0.0
 11
34.1437519092
 21
136.6640959836
 31
0.0
  0
ARC
  5
116
  8
0
  6
CONTINUOUS
 62
     7
 10
34.5928225832
 20
128.8631679102
 30
0.0
 40
0.4490716333802079
 50
179.8815626618
 51
269.9000873479
  0
LINE
  5
117
  8
0
  6
CONTINUOUS
 62
     7
 10
34.5920394903
 20
128.4140969596
 30
0.0
 11
42.3623582611
 21
128.4140969596
 31
0.0
  0
ARC
  5
118
  8
0
  6
CONTINUOUS
 62
     7
 10
42.3615745504
 20
128.8631688743
 30
0.0
 40
0.4490725984611652
 50
270.0999912643
 51
0.118314089
  0
POLYLINE
  5
119
  8
0
  6
CONTINUOUS
 62
     7
 66
     1
 10
0.0
 20
0.0
 30
0.0
  0
VERTEX
  5
3B2
  8
0
  6
CONTINUOUS
 62
     7
 10
34.7938810738
 20
136.4511397637
 30
0.0
  0
VERTEX
  5
3B3
  8
0
  6
CONTINUOUS
 62
     7
 10
34.7012762796
 20
136.5439451269
 30
0.0
  0
VERTEX
  5
3B4
  8
0
  6
CONTINUOUS
 62
     7
 10
34.5817566268
 20
136.6640959836
 30
0.0
  0
SEQEND
  5
3B5
  8
0
  6
CONTINUOUS
 62
     7
  0
LINE
  5
11A
  8
0
  6
CONTINUOUS
 62
     7
 10
35.5384244613
 20
129.8140964441
 30
0.0
 11
35.5384244613
 21
134.9446416802
 31
0.0
  0
ARC
  5
11B
  8
0
  6
CONTINUOUS
 62
     7
 10
102.3082168874
 20
61.6189883682
 30
0.0
 40
95.43991799087856
 50
134.3949424245
 51
135.2043344859
  0
LINE
  5
11C
  8
0
  6
CONTINUOUS
 62
     7
 10
35.5384244613
 20
129.8140964441
 30
0.0
 11
41.4159734065
 21
129.8140964441
 31
0.0
  0
ARC
  5
11D
  8
0
  6
CONTINUOUS
 62
     7
 10
107.6766217209
 20
194.1691419546
 30
0.0
 40
92.36907165123688
 50
224.1641490441
 51
224.9914466611
  0
CIRCLE
  5
11E
  8
0
  6
CONTINUOUS
 62
     7
 10
40.8679928116
 20
130.3645502572
 30
0.0
 40
0.1727507779136824
  0
ARC
  5
11F
  8
0
  6
CONTINUOUS
 62
     7
 10
38.4740741302
 20
132.7693807396
 30
0.0
 40
2.341697819984827
 50
89.9235477309
 51
59.1240303401
  0
ARC
  5
120
  8
0
  6
CONTINUOUS
 62
     7
 10
38.4771841154
 20
132.7816862264
 30
0.0
 40
2.329390248526907
 50
80.4652196354
 51
89.9996398049
  0
LINE
  5
121
  8
0
  6
CONTINUOUS
 62
     7
 10
41.4159734065
 20
129.8140964441
 30
0.0
 11
41.4159734065
 21
134.7097863413
 31
0.0
  0
ARC
  5
122
  8
0
  6
CONTINUOUS
 62
     7
 10
38.4267016309
 20
132.7691879352
 30
0.0
 40
2.244909518762444
 50
89.9346242756
 51
64.1841867401
  0
ARC
  5
123
  8
0
  6
CONTINUOUS
 62
     7
 10
38.4292496961
 20
132.7808478602
 30
0.0
 40
2.233248132402641
 50
77.8005820822
 51
89.9996555818
  0
POLYLINE
  5
124
  8
0
  6
CONTINUOUS
 62
     7
 66
     1
 10
0.0
 20
0.0
 30
0.0
  0
VERTEX
  5
3B6
  8
0
  6
CONTINUOUS
 62
     7
 10
34.4800357853
 20
142.6738817913
 30
0.0
  0
VERTEX
  5
3B7
  8
0
  6
CONTINUOUS
 62
     7
 10
34.4260068815
 20
142.6691548636
 30
0.0
  0
VERTEX
  5
3B8
  8
0
  6
CONTINUOUS
 62
     7
 10
34.3735028437
 20
142.6645613478
 30
0.0
  0
VERTEX
  5
3B9
  8
0
  6
CONTINUOUS
 62
     7
 10
34.3233931199
 20
142.6601773796
 30
0.0
  0
VERTEX
  5
3BA
  8
0
  6
CONTINUOUS
 62
     7
 10
34.2762267247
 20
142.6560508057
 30
0.0
  0
VERTEX
  5
3BB
  8
0
  6
CONTINUOUS
 62
     7
 10
34.2325204548
 20
142.6522270281
 30
0.0
  0
VERTEX
  5
3BC
  8
0
  6
CONTINUOUS
 62
     7
 10
34.1927531554
 20
142.6487478397
 30
0.0
  0
VERTEX
  5
3BD
  8
0
  6
CONTINUOUS
 62
     7
 10
34.1573605111
 20
142.645651425
 30
0.0
  0
VERTEX
  5
3BE
  8
0
  6
CONTINUOUS
 62
     7
 10
34.1267303012
 20
142.6429715443
 30
0.0
  0
VERTEX
  5
3BF
  8
0
  6
CONTINUOUS
 62
     7
 10
34.1011980928
 20
142.6407377671
 30
0.0
  0
VERTEX
  5
3C0
  8
0
  6
CONTINUOUS
 62
     7
 10
34.0810436902
 20
142.6389745406
 30
0.0
  0
VERTEX
  5
3C1
  8
0
  6
CONTINUOUS
 62
     7
 10
34.066487875
 20
142.6377010734
 30
0.0
  0
VERTEX
  5
3C2
  8
0
  6
CONTINUOUS
 62
     7
 10
34.0576900781
 20
142.6369313353
 30
0.0
  0
VERTEX
  5
3C3
  8
0
  6
CONTINUOUS
 62
     7
 10
34.0547466913
 20
142.6366738246
 30
0.0
  0
SEQEND
  5
3C4
  8
0
  6
CONTINUOUS
 62
     7
  0
ARC
  5
125
  8
0
  6
CONTINUOUS
 62
     7
 10
34.0503889297
 20
142.6864835594
 30
0.0
 40
0.0500000000000257
 50
174.0
 51
275.0
  0
POLYLINE
  5
126
  8
0
  6
CONTINUOUS
 62
     7
 66
     1
 10
0.0
 20
0.0
 30
0.0
  0
VERTEX
  5
3C5
  8
0
  6
CONTINUOUS
 62
     7
 10
34.0901590681
 20
143.543209831
 30
0.0
  0
VERTEX
  5
3C6
  8
0
  6
CONTINUOUS
 62
     7
 10
34.0932464606
 20
143.5434799728
 30
0.0
  0
VERTEX
  5
3C7
  8
0
  6
CONTINUOUS
 62
     7
 10
34.1024634691
 20
143.5442863817
 30
0.0
  0
VERTEX
  5
3C8
  8
0
  6
CONTINUOUS
 62
     7
 10
34.1176758085
 20
143.5456172417
 30
0.0
  0
VERTEX
  5
3C9
  8
0
  6
CONTINUOUS
 62
     7
 10
34.1386615911
 20
143.5474532859
 30
0.0
  0
VERTEX
  5
3CA
  8
0
  6
CONTINUOUS
 62
     7
 10
34.1651148193
 20
143.5497676225
 30
0.0
  0
VERTEX
  5
3CB
  8
0
  6
CONTINUOUS
 62
     7
 10
34.1966497509
 20
143.5525266074
 30
0.0
  0
VERTEX
  5
3CC
  8
0
  6
CONTINUOUS
 62
     7
 10
34.2328064872
 20
143.5556899028
 30
0.0
  0
VERTEX
  5
3CD
  8
0
  6
CONTINUOUS
 62
     7
 10
34.2730578414
 20
143.559211408
 30
0.0
  0
VERTEX
  5
3CE
  8
0
  6
CONTINUOUS
 62
     7
 10
34.3168168184
 20
143.5630398423
 30
0.0
  0
VERTEX
  5
3CF
  8
0
  6
CONTINUOUS
 62
     7
 10
34.3231554581
 20
143.5635943867
 30
0.0
  0
SEQEND
  5
3D0
  8
0
  6
CONTINUOUS
 62
     7
  0
LINE
  5
127
  8
0
  6
CONTINUOUS
 62
     7
 10
34.0901590681
 20
143.543209831
 30
0.0
 11
34.0006628104
 21
142.6917099829
 31
0.0
  0
LINE
  5
128
  8
0
  6
CONTINUOUS
 62
     7
 10
34.6420647112
 20
146.6732222557
 30
0.0
 11
34.4800357853
 21
145.7543106021
 31
0.0
  0
LINE
  5
129
  8
0
  6
CONTINUOUS
 62
     7
 10
34.7938810738
 20
146.6865045454
 30
0.0
 11
34.6420647112
 21
146.6732222557
 31
0.0
  0
LINE
  5
12A
  8
0
  6
CONTINUOUS
 62
     7
 10
34.2084544392
 20
144.2140961967
 30
0.0
 11
34.0901590681
 21
143.543209831
 31
0.0
  0
ARC
  5
12B
  8
0
  6
CONTINUOUS
 62
     7
 10
44.0957681388
 20
136.661137876
 30
0.0
 40
2.056513292267401
 50
267.3275499338
 51
282.1420530562
  0
POLYLINE
  5
12C
  8
0
  6
CONTINUOUS
 62
     7
 66
     1
 10
0.0
 20
0.0
 30
0.0
  0
VERTEX
  5
3D1
  8
0
  6
CONTINUOUS
 62
     7
 10
43.999880858
 20
144.8210500616
 30
0.0
  0
VERTEX
  5
3D2
  8
0
  6
CONTINUOUS
 62
     7
 10
44.0829119908
 20
144.8137858038
 30
0.0
  0
VERTEX
  5
3D3
  8
0
  6
CONTINUOUS
 62
     7
 10
44.16556035
 20
144.8065550153
 30
0.0
  0
VERTEX
  5
3D4
  8
0
  6
CONTINUOUS
 62
     7
 10
44.2495982425
 20
144.799202631
 30
0.0
  0
VERTEX
  5
3D5
  8
0
  6
CONTINUOUS
 62
     7
 10
44.3320174964
 20
144.791991866
 30
0.0
  0
VERTEX
  5
3D6
  8
0
  6
CONTINUOUS
 62
     7
 10
44.4319484087
 20
144.7832490753
 30
0.0
  0
VERTEX
  5
3D7
  8
0
  6
CONTINUOUS
 62
     7
 10
44.5283272566
 20
144.7748169971
 30
0.0
  0
SEQEND
  5
3D8
  8
0
  6
CONTINUOUS
 62
     7
  0
LINE
  5
12D
  8
0
  6
CONTINUOUS
 62
     7
 10
43.999880858
 20
134.606861227
 30
0.0
 11
38.9406884352
 21
134.8085689328
 31
0.0
  0
POLYLINE
  5
12E
  8
0
  6
CONTINUOUS
 62
     7
 66
     1
 10
0.0
 20
0.0
 30
0.0
  0
VERTEX
  5
3D9
  8
0
  6
CONTINUOUS
 62
     7
 10
38.9406884352
 20
134.8085689328
 30
0.0
  0
VERTEX
  5
3DA
  8
0
  6
CONTINUOUS
 62
     7
 10
38.9067030775
 20
134.9447105981
 30
0.0
  0
VERTEX
  5
3DB
  8
0
  6
CONTINUOUS
 62
     7
 10
38.861992609
 20
135.0808522634
 30
0.0
  0
VERTEX
  5
3DC
  8
0
  6
CONTINUOUS
 62
     7
 10
38.8059474791
 20
135.2156034641
 30
0.0
  0
VERTEX
  5
3DD
  8
0
  6
CONTINUOUS
 62
     7
 10
38.7379576715
 20
135.3475746669
 30
0.0
  0
VERTEX
  5
3DE
  8
0
  6
CONTINUOUS
 62
     7
 10
38.6574134028
 20
135.4753782011
 30
0.0
  0
VERTEX
  5
3DF
  8
0
  6
CONTINUOUS
 62
     7
 10
38.5919144174
 20
135.5629104159
 30
0.0
  0
VERTEX
  5
3E0
  8
0
  6
CONTINUOUS
 62
     7
 10
38.5186069908
 20
135.6467918463
 30
0.0
  0
VERTEX
  5
3E1
  8
0
  6
CONTINUOUS
 62
     7
 10
38.4370946122
 20
135.7254792906
 30
0.0
  0
VERTEX
  5
3E2
  8
0
  6
CONTINUOUS
 62
     7
 10
38.3451989183
 20
135.7984372385
 30
0.0
  0
VERTEX
  5
3E3
  8
0
  6
CONTINUOUS
 62
     7
 10
38.2434151398
 20
135.8624014042
 30
0.0
  0
VERTEX
  5
3E4
  8
0
  6
CONTINUOUS
 62
     7
 10
38.1328182558
 20
135.9139715291
 30
0.0
  0
VERTEX
  5
3E5
  8
0
  6
CONTINUOUS
 62
     7
 10
38.0203335809
 20
135.9486595697
 30
0.0
  0
VERTEX
  5
3E6
  8
0
  6
CONTINUOUS
 62
     7
 10
37.9029075412
 20
135.9674750797
 30
0.0
  0
VERTEX
  5
3E7
  8
0
  6
CONTINUOUS
 62
     7
 10
37.7835077962
 20
135.9688823081
 30
0.0
  0
VERTEX
  5
3E8
  8
0
  6
CONTINUOUS
 62
     7
 10
37.6657178423
 20
135.9537073381
 30
0.0
  0
VERTEX
  5
3E9
  8
0
  6
CONTINUOUS
 62
     7
 10
37.5709930232
 20
135.9294556983
 30
0.0
  0
VERTEX
  5
3EA
  8
0
  6
CONTINUOUS
 62
     7
 10
37.4800265564
 20
135.8961953751
 30
0.0
  0
VERTEX
  5
3EB
  8
0
  6
CONTINUOUS
 62
     7
 10
37.3938789854
 20
135.8555617712
 30
0.0
  0
VERTEX
  5
3EC
  8
0
  6
CONTINUOUS
 62
     7
 10
37.2716908606
 20
135.7820785574
 30
0.0
  0
VERTEX
  5
3ED
  8
0
  6
CONTINUOUS
 62
     7
 10
37.159990825
 20
135.6975954927
 30
0.0
  0
VERTEX
  5
3EE
  8
0
  6
CONTINUOUS
 62
     7
 10
37.0587034414
 20
135.6053247086
 30
0.0
  0
VERTEX
  5
3EF
  8
0
  6
CONTINUOUS
 62
     7
 10
36.9436934853
 20
135.4803402878
 30
0.0
  0
VERTEX
  5
3F0
  8
0
  6
CONTINUOUS
 62
     7
 10
36.8421779277
 20
135.3480906196
 30
0.0
  0
VERTEX
  5
3F1
  8
0
  6
CONTINUOUS
 62
     7
 10
36.7535989063
 20
135.2106497593
 30
0.0
  0
VERTEX
  5
3F2
  8
0
  6
CONTINUOUS
 62
     7
 10
36.6773983261
 20
135.0700926937
 30
0.0
  0
VERTEX
  5
3F3
  8
0
  6
CONTINUOUS
 62
     7
 10
36.6027237179
 20
134.9020383291
 30
0.0
  0
SEQEND
  5
3F4
  8
0
  6
CONTINUOUS
 62
     7
  0
LINE
  5
12F
  8
0
  6
CONTINUOUS
 62
     7
 10
36.6027237179
 20
134.9020383291
 30
0.0
 11
35.2938810975
 21
134.9544363998
 31
0.0
  0
LINE
  5
130
  8
0
  6
CONTINUOUS
 62
     7
 10
35.2938810975
 20
134.9544363998
 30
0.0
 11
35.2938810975
 21
141.6979436267
 31
0.0
  0
LINE
  5
131
  8
0
  6
CONTINUOUS
 62
     7
 10
42.3236059288
 20
141.0829224128
 30
0.0
 11
41.6203162896
 21
141.1444523342
 31
0.0
  0
ARC
  5
132
  8
0
  6
CONTINUOUS
 62
     7
 10
42.4325159619
 20
142.3286708983
 30
0.0
 40
1.250500173694621
 50
265.003598427
 51
84.7204444046
  0
POLYLINE
  5
133
  8
0
  6
CONTINUOUS
 62
     7
 66
     1
 10
0.0
 20
0.0
 30
0.0
  0
VERTEX
  5
3F5
  8
0
  6
CONTINUOUS
 62
     7
 10
42.7073578613
 20
144.1310753012
 30
0.0
  0
VERTEX
  5
3F6
  8
0
  6
CONTINUOUS
 62
     7
 10
42.6756826492
 20
144.0206085476
 30
0.0
  0
VERTEX
  5
3F7
  8
0
  6
CONTINUOUS
 62
     7
 10
42.5475810917
 20
143.5738659434
 30
0.0
  0
SEQEND
  5
3F8
  8
0
  6
CONTINUOUS
 62
     7
  0
LINE
  5
134
  8
0
  6
CONTINUOUS
 62
     7
 10
42.9319956603
 20
144.9144779558
 30
0.0
 11
43.999880858
 21
144.8210500616
 31
0.0
  0
LINE
  5
135
  8
0
  6
CONTINUOUS
 62
     7
 10
45.9676890897
 20
134.9755466886
 30
0.0
 11
44.5283272566
 21
134.650630594
 31
0.0
  0
LINE
  5
136
  8
0
  6
CONTINUOUS
 62
     7
 10
44.5283272566
 20
144.7748169971
 30
0.0
 11
45.9676890897
 21
144.6488892047
 31
0.0
  0
LINE
  5
137
  8
0
  6
CONTINUOUS
 62
     7
 10
35.2938810975
 20
134.9544363998
 30
0.0
 11
34.7938810738
 21
135.1858272187
 31
0.0
  0
LINE
  5
138
  8
0
  6
CONTINUOUS
 62
     7
 10
34.7938810738
 20
135.1858272187
 30
0.0
 11
34.7938810738
 21
141.741687848
 31
0.0
  0
ARC
  5
139
  8
0
  6
CONTINUOUS
 62
     7
 10
56.064960725
 20
112.6425588582
 30
0.0
 40
20.06883439448079
 50
112.5612377951
 51
120.2074248844
  0
ARC
  5
13A
  8
0
  6
CONTINUOUS
 62
     7
 10
25.527526989
 20
191.4697312807
 30
0.0
 40
64.4743961278306
 50
290.7451631697
 51
293.2688064247
  0
ARC
  5
13B
  8
0
  6
CONTINUOUS
 62
     7
 10
44.8932656418
 20
137.2619219326
 30
0.0
 40
7.905046863094338
 50
320.5552669729
 51
349.8321578389
  0
ARC
  5
13C
  8
0
  6
CONTINUOUS
 62
     7
 10
54.5041360243
 20
96.4021484375
 30
0.0
 40
39.50668271194996
 50
92.6549252543
 51
102.4786629355
  0
ARC
  5
13D
  8
0
  6
CONTINUOUS
 62
     7
 10
48.5827415654
 20
146.930033905
 30
0.0
 40
2.500381118737901
 50
265.007334341
 51
344.9926722037
  0
POLYLINE
  5
13E
  8
0
  6
CONTINUOUS
 62
     7
 66
     1
 10
0.0
 20
0.0
 30
0.0
  0
VERTEX
  5
3F9
  8
0
  6
CONTINUOUS
 62
     7
 10
52.6741625073
 20
152.5386969529
 30
0.0
  0
VERTEX
  5
3FA
  8
0
  6
CONTINUOUS
 62
     7
 10
52.5954527112
 20
152.244946637
 30
0.0
  0
VERTEX
  5
3FB
  8
0
  6
CONTINUOUS
 62
     7
 10
52.5140886458
 20
151.9412875145
 30
0.0
  0
VERTEX
  5
3FC
  8
0
  6
CONTINUOUS
 62
     7
 10
52.4302230479
 20
151.6282970056
 30
0.0
  0
VERTEX
  5
3FD
  8
0
  6
CONTINUOUS
 62
     7
 10
52.3440105172
 20
151.30655253
 30
0.0
  0
VERTEX
  5
3FE
  8
0
  6
CONTINUOUS
 62
     7
 10
52.2556093784
 20
150.976630111
 30
0.0
  0
VERTEX
  5
3FF
  8
0
  6
CONTINUOUS
 62
     7
 10
52.1624212416
 20
150.6288467876
 30
0.0
  0
VERTEX
  5
400
  8
0
  6
CONTINUOUS
 62
     7
 10
52.0669942053
 20
150.2727081038
 30
0.0
  0
VERTEX
  5
401
  8
0
  6
CONTINUOUS
 62
     7
 10
51.9695014956
 20
149.9088627256
 30
0.0
  0
VERTEX
  5
402
  8
0
  6
CONTINUOUS
 62
     7
 10
51.870118201
 20
149.537958388
 30
0.0
  0
VERTEX
  5
403
  8
0
  6
CONTINUOUS
 62
     7
 10
51.7690156849
 20
149.1606428258
 30
0.0
  0
VERTEX
  5
404
  8
0
  6
CONTINUOUS
 62
     7
 10
51.6462189408
 20
148.7023557506
 30
0.0
  0
VERTEX
  5
405
  8
0
  6
CONTINUOUS
 62
     7
 10
51.5211851599
 20
148.2357263535
 30
0.0
  0
VERTEX
  5
406
  8
0
  6
CONTINUOUS
 62
     7
 10
51.3942123654
 20
147.7618570875
 30
0.0
  0
VERTEX
  5
407
  8
0
  6
CONTINUOUS
 62
     7
 10
51.2636670174
 20
147.2746512822
 30
0.0
  0
VERTEX
  5
408
  8
0
  6
CONTINUOUS
 62
     7
 10
51.1314415636
 20
146.7811786074
 30
0.0
  0
VERTEX
  5
409
  8
0
  6
CONTINUOUS
 62
     7
 10
50.9978414776
 20
146.2825787689
 30
0.0
  0
SEQEND
  5
40A
  8
0
  6
CONTINUOUS
 62
     7
  0
ARC
  5
13F
  8
0
  6
CONTINUOUS
 62
     7
 10
56.8425467186
 20
173.9318490448
 30
0.0
 40
21.79546703698191
 50
240.069414797
 51
258.9742551891
  0
POLYLINE
  5
140
  8
0
  6
CONTINUOUS
 62
     7
 66
     1
 10
0.0
 20
0.0
 30
0.0
  0
VERTEX
  5
40B
  8
0
  6
CONTINUOUS
 62
     7
 10
45.9676890897
 20
144.6488892047
 30
0.0
  0
VERTEX
  5
40C
  8
0
  6
CONTINUOUS
 62
     7
 10
46.3550866844
 20
144.6149962808
 30
0.0
  0
VERTEX
  5
40D
  8
0
  6
CONTINUOUS
 62
     7
 10
46.7472954916
 20
144.5806824281
 30
0.0
  0
VERTEX
  5
40E
  8
0
  6
CONTINUOUS
 62
     7
 10
47.1440221446
 20
144.5459733745
 30
0.0
  0
VERTEX
  5
40F
  8
0
  6
CONTINUOUS
 62
     7
 10
47.546911359
 20
144.5107251143
 30
0.0
  0
VERTEX
  5
410
  8
0
  6
CONTINUOUS
 62
     7
 10
47.954052061
 20
144.4751049653
 30
0.0
  0
VERTEX
  5
411
  8
0
  6
CONTINUOUS
 62
     7
 10
48.3651378455
 20
144.4391396158
 30
0.0
  0
SEQEND
  5
412
  8
0
  6
CONTINUOUS
 62
     7
  0
ARC
  5
141
  8
0
  6
CONTINUOUS
 62
     7
 10
37.7362660433
 20
133.275242986
 30
0.0
 40
2.369704004976208
 50
66.6703594689
 51
108.6013707427
  0
LINE
  5
142
  8
0
  6
CONTINUOUS
 62
     7
 10
116.9938792737
 20
136.3299346499
 30
0.0
 11
131.7438830884
 21
136.3299346499
 31
0.0
  0
LINE
  5
143
  8
0
  6
CONTINUOUS
 62
     7
 10
131.7438830884
 20
152.0982577435
 30
0.0
 11
131.7438830884
 21
156.714096383
 31
0.0
  0
LINE
  5
144
  8
0
  6
CONTINUOUS
 62
     7
 10
131.7438830884
 20
131.7140960104
 30
0.0
 11
131.7438830884
 21
136.3299346499
 31
0.0
  0
LINE
  5
145
  8
0
  6
CONTINUOUS
 62
     7
 10
131.7438830884
 20
152.0982577435
 30
0.0
 11
116.9938792737
 21
152.0982577435
 31
0.0
  0
ARC
  5
146
  8
0
  6
CONTINUOUS
 62
     7
 10
126.6938882175
 20
144.2140961967
 30
0.0
 40
12.5000070722233
 50
140.8958093045
 51
219.1041906955
  0
ARC
  5
147
  8
0
  6
CONTINUOUS
 62
     7
 10
105.6438839733
 20
144.2140961967
 30
0.0
 40
12.50000277039083
 50
140.8957932776
 51
219.1042067224
  0
LINE
  5
148
  8
0
  6
CONTINUOUS
 62
     7
 10
95.9438805731
 20
136.3299346499
 30
0.0
 11
108.0438842328
 21
136.3299346499
 31
0.0
  0
ARC
  5
149
  8
0
  6
CONTINUOUS
 62
     7
 10
98.3438752891
 20
144.2140961967
 30
0.0
 40
12.50000707222328
 50
320.8958093045
 51
39.1041906955
  0
LINE
  5
14A
  8
0
  6
CONTINUOUS
 62
     7
 10
108.0438842328
 20
152.0982577435
 30
0.0
 11
95.9438805731
 21
152.0982577435
 31
0.0
  0
LINE
  5
14B
  8
0
  6
CONTINUOUS
 62
     7
 10
77.4267626258
 20
156.714096383
 30
0.0
 11
77.4267626258
 21
131.7140960104
 31
0.0
  0
LINE
  5
14C
  8
0
  6
CONTINUOUS
 62
     7
 10
116.9938792737
 20
136.3299346499
 30
0.0
 11
116.9938792737
 21
152.0982577435
 31
0.0
  0
LINE
  5
14D
  8
0
  6
CONTINUOUS
 62
     7
 10
108.0438842328
 20
136.3299346499
 30
0.0
 11
108.0438842328
 21
152.0982577435
 31
0.0
  0
LINE
  5
14E
  8
0
  6
CONTINUOUS
 62
     7
 10
95.9438805731
 20
136.3299346499
 30
0.0
 11
95.9438805731
 21
152.0982577435
 31
0.0
  0
ARC
  5
14F
  8
0
  6
CONTINUOUS
 62
     7
 10
43.9983423842
 20
154.9389382363
 30
0.0
 40
1.070123849253357
 50
60.3133910224
 51
89.9176281465
  0
LINE
  5
150
  8
0
  6
CONTINUOUS
 62
     7
 10
45.9676890897
 20
155.0432319723
 30
0.0
 11
44.5283272566
 21
155.8686054282
 31
0.0
  0
LINE
  5
151
  8
0
  6
CONTINUOUS
 62
     7
 10
51.7689635309
 20
149.1604425914
 30
0.0
 11
34.7938810738
 21
150.6455700814
 31
0.0
  0
LINE
  5
152
  8
0
  6
CONTINUOUS
 62
     7
 10
35.2938810975
 20
156.0225139342
 30
0.0
 11
34.7938810738
 21
155.5681430705
 31
0.0
  0
LINE
  5
153
  8
0
  6
CONTINUOUS
 62
     7
 10
36.6027237179
 20
156.020801232
 30
0.0
 11
35.2938810975
 21
156.0225139342
 31
0.0
  0
POLYLINE
  5
154
  8
0
  6
CONTINUOUS
 62
     7
 66
     1
 10
0.0
 20
0.0
 30
0.0
  0
VERTEX
  5
413
  8
0
  6
CONTINUOUS
 62
     7
 10
38.9406884352
 20
156.0174680285
 30
0.0
  0
VERTEX
  5
414
  8
0
  6
CONTINUOUS
 62
     7
 10
38.9698248619
 20
155.9412392758
 30
0.0
  0
VERTEX
  5
415
  8
0
  6
CONTINUOUS
 62
     7
 10
38.9940574097
 20
155.8634906046
 30
0.0
  0
VERTEX
  5
416
  8
0
  6
CONTINUOUS
 62
     7
 10
39.0132854955
 20
155.7845461152
 30
0.0
  0
VERTEX
  5
417
  8
0
  6
CONTINUOUS
 62
     7
 10
39.0274294915
 20
155.7047336332
 30
0.0
  0
VERTEX
  5
418
  8
0
  6
CONTINUOUS
 62
     7
 10
39.0364302585
 20
155.6243837781
 30
0.0
  0
VERTEX
  5
419
  8
0
  6
CONTINUOUS
 62
     7
 10
39.0402505437
 20
155.5438308946
 30
0.0
  0
VERTEX
  5
41A
  8
0
  6
CONTINUOUS
 62
     7
 10
39.0388745146
 20
155.4634093277
 30
0.0
  0
VERTEX
  5
41B
  8
0
  6
CONTINUOUS
 62
     7
 10
39.0323082248
 20
155.3834524907
 30
0.0
  0
VERTEX
  5
41C
  8
0
  6
CONTINUOUS
 62
     7
 10
39.020578217
 20
155.3042937971
 30
0.0
  0
VERTEX
  5
41D
  8
0
  6
CONTINUOUS
 62
     7
 10
39.0037338512
 20
155.2262610726
 30
0.0
  0
VERTEX
  5
41E
  8
0
  6
CONTINUOUS
 62
     7
 10
38.9818449767
 20
155.1496784173
 30
0.0
  0
VERTEX
  5
41F
  8
0
  6
CONTINUOUS
 62
     7
 10
38.9550019318
 20
155.0748643435
 30
0.0
  0
VERTEX
  5
420
  8
0
  6
CONTINUOUS
 62
     7
 10
38.9233169409
 20
155.0021289818
 30
0.0
  0
VERTEX
  5
421
  8
0
  6
CONTINUOUS
 62
     7
 10
38.8869213203
 20
154.9317740805
 30
0.0
  0
VERTEX
  5
422
  8
0
  6
CONTINUOUS
 62
     7
 10
38.8459659444
 20
154.8640930064
 30
0.0
  0
VERTEX
  5
423
  8
0
  6
CONTINUOUS
 62
     7
 10
38.8006212453
 20
154.7993660874
 30
0.0
  0
VERTEX
  5
424
  8
0
  6
CONTINUOUS
 62
     7
 10
38.7510753499
 20
154.7378624759
 30
0.0
  0
VERTEX
  5
425
  8
0
  6
CONTINUOUS
 62
     7
 10
38.6975340808
 20
154.6798373542
 30
0.0
  0
VERTEX
  5
426
  8
0
  6
CONTINUOUS
 62
     7
 10
38.6402200239
 20
154.6255310036
 30
0.0
  0
VERTEX
  5
427
  8
0
  6
CONTINUOUS
 62
     7
 10
38.5793708993
 20
154.5751706667
 30
0.0
  0
VERTEX
  5
428
  8
0
  6
CONTINUOUS
 62
     7
 10
38.5152395612
 20
154.5289640285
 30
0.0
  0
VERTEX
  5
429
  8
0
  6
CONTINUOUS
 62
     7
 10
38.4480921349
 20
154.4871038727
 30
0.0
  0
VERTEX
  5
42A
  8
0
  6
CONTINUOUS
 62
     7
 10
38.3782077843
 20
154.4497634254
 30
0.0
  0
VERTEX
  5
42B
  8
0
  6
CONTINUOUS
 62
     7
 10
38.3058766166
 20
154.4170972861
 30
0.0
  0
VERTEX
  5
42C
  8
0
  6
CONTINUOUS
 62
     7
 10
38.2313989831
 20
154.3892432905
 30
0.0
  0
VERTEX
  5
42D
  8
0
  6
CONTINUOUS
 62
     7
 10
38.1550843159
 20
154.3663141288
 30
0.0
  0
VERTEX
  5
42E
  8
0
  6
CONTINUOUS
 62
     7
 10
38.0772494974
 20
154.3484075896
 30
0.0
  0
VERTEX
  5
42F
  8
0
  6
CONTINUOUS
 62
     7
 10
37.9982176965
 20
154.3355963163
 30
0.0
  0
VERTEX
  5
430
  8
0
  6
CONTINUOUS
 62
     7
 10
37.9183169717
 20
154.3279352568
 30
0.0
  0
VERTEX
  5
431
  8
0
  6
CONTINUOUS
 62
     7
 10
37.8378795723
 20
154.3254542134
 30
0.0
  0
VERTEX
  5
432
  8
0
  6
CONTINUOUS
 62
     7
 10
37.7572393773
 20
154.3281643621
 30
0.0
  0
VERTEX
  5
433
  8
0
  6
CONTINUOUS
 62
     7
 10
37.6767311974
 20
154.336054527
 30
0.0
  0
VERTEX
  5
434
  8
0
  6
CONTINUOUS
 62
     7
 10
37.5966893772
 20
154.349093043
 30
0.0
  0
VERTEX
  5
435
  8
0
  6
CONTINUOUS
 62
     7
 10
37.5174463989
 20
154.3672230996
 30
0.0
  0
VERTEX
  5
436
  8
0
  6
CONTINUOUS
 62
     7
 10
37.4393314852
 20
154.3903720535
 30
0.0
  0
VERTEX
  5
437
  8
0
  6
CONTINUOUS
 62
     7
 10
37.3626687361
 20
154.4184421159
 30
0.0
  0
VERTEX
  5
438
  8
0
  6
CONTINUOUS
 62
     7
 10
37.2877768969
 20
154.4513178028
 30
0.0
  0
VERTEX
  5
439
  8
0
  6
CONTINUOUS
 62
     7
 10
37.2149667965
 20
154.4888612784
 30
0.0
  0
VERTEX
  5
43A
  8
0
  6
CONTINUOUS
 62
     7
 10
37.1445408819
 20
154.5309179432
 30
0.0
  0
VERTEX
  5
43B
  8
0
  6
CONTINUOUS
 62
     7
 10
37.0767913556
 20
154.5773127086
 30
0.0
  0
VERTEX
  5
43C
  8
0
  6
CONTINUOUS
 62
     7
 10
37.0119999426
 20
154.6278527908
 30
0.0
  0
VERTEX
  5
43D
  8
0
  6
CONTINUOUS
 62
     7
 10
36.9504357951
 20
154.6823277108
 30
0.0
  0
VERTEX
  5
43E
  8
0
  6
CONTINUOUS
 62
     7
 10
36.8923540956
 20
154.7405120887
 30
0.0
  0
VERTEX
  5
43F
  8
0
  6
CONTINUOUS
 62
     7
 10
36.8379965222
 20
154.8021637804
 30
0.0
  0
VERTEX
  5
440
  8
0
  6
CONTINUOUS
 62
     7
 10
36.7875886878
 20
154.8670276038
 30
0.0
  0
VERTEX
  5
441
  8
0
  6
CONTINUOUS
 62
     7
 10
36.7413397908
 20
154.9348334752
 30
0.0
  0
VERTEX
  5
442
  8
0
  6
CONTINUOUS
 62
     7
 10
36.6994420329
 20
155.0052992038
 30
0.0
  0
VERTEX
  5
443
  8
0
  6
CONTINUOUS
 62
     7
 10
36.662069455
 20
155.0781332858
 30
0.0
  0
VERTEX
  5
444
  8
0
  6
CONTINUOUS
 62
     7
 10
36.6293771222
 20
155.1530321099
 30
0.0
  0
VERTEX
  5
445
  8
0
  6
CONTINUOUS
 62
     7
 10
36.6015010078
 20
155.2296855457
 30
0.0
  0
VERTEX
  5
446
  8
0
  6
CONTINUOUS
 62
     7
 10
36.578556712
 20
155.3077750809
 30
0.0
  0
VERTEX
  5
447
  8
0
  6
CONTINUOUS
 62
     7
 10
36.560639579
 20
155.3869766153
 30
0.0
  0
VERTEX
  5
448
  8
0
  6
CONTINUOUS
 62
     7
 10
36.5478241148
 20
155.4669604607
 30
0.0
  0
VERTEX
  5
449
  8
0
  6
CONTINUOUS
 62
     7
 10
36.5401632881
 20
155.5473950661
 30
0.0
  0
VERTEX
  5
44A
  8
0
  6
CONTINUOUS
 62
     7
 10
36.5376892297
 20
155.6279460869
 30
0.0
  0
VERTEX
  5
44B
  8
0
  6
CONTINUOUS
 62
     7
 10
36.5404119512
 20
155.7082791783
 30
0.0
  0
VERTEX
  5
44C
  8
0
  6
CONTINUOUS
 62
     7
 10
36.5483203933
 20
155.7880609266
 30
0.0
  0
VERTEX
  5
44D
  8
0
  6
CONTINUOUS
 62
     7
 10
36.5613814939
 20
155.8669588498
 30
0.0
  0
VERTEX
  5
44E
  8
0
  6
CONTINUOUS
 62
     7
 10
36.5795410035
 20
155.9446469851
 30
0.0
  0
VERTEX
  5
44F
  8
0
  6
CONTINUOUS
 62
     7
 10
36.6027237179
 20
156.020801232
 30
0.0
  0
SEQEND
  5
450
  8
0
  6
CONTINUOUS
 62
     7
  0
LINE
  5
155
  8
0
  6
CONTINUOUS
 62
     7
 10
43.999880858
 20
156.0090609796
 30
0.0
 11
38.9406884352
 21
156.0174680285
 31
0.0
  0
LINE
  5
156
  8
0
  6
CONTINUOUS
 62
     7
 10
34.7938810738
 20
155.5681430705
 30
0.0
 11
34.7938810738
 21
150.6455700814
 31
0.0
  0
LINE
  5
157
  8
0
  6
CONTINUOUS
 62
     7
 10
131.7438830884
 20
136.3299346499
 30
0.0
 11
132.9938818963
 21
136.489460428
 31
0.0
  0
LINE
  5
158
  8
0
  6
CONTINUOUS
 62
     7
 10
132.9938818963
 20
151.9387319654
 30
0.0
 11
132.9938818963
 21
156.6140965528
 31
0.0
  0
LINE
  5
159
  8
0
  6
CONTINUOUS
 62
     7
 10
132.9938818963
 20
131.8140958406
 30
0.0
 11
132.9938818963
 21
136.489460428
 31
0.0
  0
LINE
  5
15A
  8
0
  6
CONTINUOUS
 62
     7
 10
132.9938818963
 20
151.9387319654
 30
0.0
 11
131.7438830884
 21
152.0982577435
 31
0.0
  0
LINE
  5
15B
  8
0
  6
CONTINUOUS
 62
     7
 10
133.9938839229
 20
151.5809136413
 30
0.0
 11
133.9938839229
 21
155.6140963889
 31
0.0
  0
LINE
  5
15C
  8
0
  6
CONTINUOUS
 62
     7
 10
133.9938839229
 20
132.8140960045
 30
0.0
 11
133.9938839229
 21
136.8472787521
 31
0.0
  0
LINE
  5
15D
  8
0
  6
CONTINUOUS
 62
     7
 10
133.9938839229
 20
151.5809136413
 30
0.0
 11
132.9938818963
 21
151.9387319654
 31
0.0
  0
LINE
  5
15E
  8
0
  6
CONTINUOUS
 62
     7
 10
132.9938818963
 20
136.489460428
 30
0.0
 11
133.9938839229
 21
136.8472787521
 31
0.0
  0
LINE
  5
15F
  8
0
  6
CONTINUOUS
 62
     7
 10
132.9938818963
 20
136.489460428
 30
0.0
 11
132.9938818963
 21
151.9387319654
 31
0.0
  0
LINE
  5
160
  8
0
  6
CONTINUOUS
 62
     7
 10
133.9938839229
 20
136.8472787521
 30
0.0
 11
133.9938839229
 21
151.5809136413
 31
0.0
  0
POLYLINE
  5
161
  8
0
  6
CONTINUOUS
 62
     7
 66
     1
 10
0.0
 20
0.0
 30
0.0
  0
VERTEX
  5
451
  8
0
  6
CONTINUOUS
 62
     7
 10
38.9406884352
 20
156.0174680285
 30
0.0
  0
VERTEX
  5
452
  8
0
  6
CONTINUOUS
 62
     7
 10
38.9067030775
 20
156.1236015491
 30
0.0
  0
VERTEX
  5
453
  8
0
  6
CONTINUOUS
 62
     7
 10
38.861992609
 20
156.2269206129
 30
0.0
  0
VERTEX
  5
454
  8
0
  6
CONTINUOUS
 62
     7
 10
38.8059474791
 20
156.3265339441
 30
0.0
  0
VERTEX
  5
455
  8
0
  6
CONTINUOUS
 62
     7
 10
38.7379576715
 20
156.4215484045
 30
0.0
  0
VERTEX
  5
456
  8
0
  6
CONTINUOUS
 62
     7
 10
38.6574134028
 20
156.5110708557
 30
0.0
  0
VERTEX
  5
457
  8
0
  6
CONTINUOUS
 62
     7
 10
38.5919144174
 20
156.5709036745
 30
0.0
  0
VERTEX
  5
458
  8
0
  6
CONTINUOUS
 62
     7
 10
38.5186069908
 20
156.627095022
 30
0.0
  0
VERTEX
  5
459
  8
0
  6
CONTINUOUS
 62
     7
 10
38.4370946122
 20
156.6787070565
 30
0.0
  0
VERTEX
  5
45A
  8
0
  6
CONTINUOUS
 62
     7
 10
38.3451989183
 20
156.7254454799
 30
0.0
  0
VERTEX
  5
45B
  8
0
  6
CONTINUOUS
 62
     7
 10
38.2434151398
 20
156.7653349571
 30
0.0
  0
VERTEX
  5
45C
  8
0
  6
CONTINUOUS
 62
     7
 10
38.1328182558
 20
156.7963629
 30
0.0
  0
VERTEX
  5
45D
  8
0
  6
CONTINUOUS
 62
     7
 10
38.0203335809
 20
156.8159886606
 30
0.0
  0
VERTEX
  5
45E
  8
0
  6
CONTINUOUS
 62
     7
 10
37.9029075412
 20
156.8249796487
 30
0.0
  0
VERTEX
  5
45F
  8
0
  6
CONTINUOUS
 62
     7
 10
37.7835077962
 20
156.8225190945
 30
0.0
  0
VERTEX
  5
460
  8
0
  6
CONTINUOUS
 62
     7
 10
37.6657178423
 20
156.8092375032
 30
0.0
  0
VERTEX
  5
461
  8
0
  6
CONTINUOUS
 62
     7
 10
37.5709930232
 20
156.7906091891
 30
0.0
  0
VERTEX
  5
462
  8
0
  6
CONTINUOUS
 62
     7
 10
37.4800265564
 20
156.7660474188
 30
0.0
  0
VERTEX
  5
463
  8
0
  6
CONTINUOUS
 62
     7
 10
37.3938789854
 20
156.7365691967
 30
0.0
  0
VERTEX
  5
464
  8
0
  6
CONTINUOUS
 62
     7
 10
37.2716908606
 20
156.6836942888
 30
0.0
  0
VERTEX
  5
465
  8
0
  6
CONTINUOUS
 62
     7
 10
37.159990825
 20
156.6229338728
 30
0.0
  0
VERTEX
  5
466
  8
0
  6
CONTINUOUS
 62
     7
 10
37.0587034414
 20
156.5561850525
 30
0.0
  0
VERTEX
  5
467
  8
0
  6
CONTINUOUS
 62
     7
 10
36.9436934853
 20
156.4646667771
 30
0.0
  0
VERTEX
  5
468
  8
0
  6
CONTINUOUS
 62
     7
 10
36.8421779277
 20
156.3662818603
 30
0.0
  0
VERTEX
  5
469
  8
0
  6
CONTINUOUS
 62
     7
 10
36.7535989063
 20
156.2622177384
 30
0.0
  0
VERTEX
  5
46A
  8
0
  6
CONTINUOUS
 62
     7
 10
36.6773983261
 20
156.1536599852
 30
0.0
  0
VERTEX
  5
46B
  8
0
  6
CONTINUOUS
 62
     7
 10
36.6027237179
 20
156.020801232
 30
0.0
  0
SEQEND
  5
46C
  8
0
  6
CONTINUOUS
 62
     7
  0
LINE
  5
162
  8
0
  6
CONTINUOUS
 62
     7
 10
35.2938810975
 20
156.0225139342
 30
0.0
 11
35.2938810975
 21
159.0076421357
 31
0.0
  0
POLYLINE
  5
163
  8
0
  6
CONTINUOUS
 62
     7
 66
     1
 10
0.0
 20
0.0
 30
0.0
  0
VERTEX
  5
46D
  8
0
  6
CONTINUOUS
 62
     7
 10
42.3236059288
 20
159.0602329902
 30
0.0
  0
VERTEX
  5
46E
  8
0
  6
CONTINUOUS
 62
     7
 10
38.8056252414
 20
159.0368931152
 30
0.0
  0
VERTEX
  5
46F
  8
0
  6
CONTINUOUS
 62
     7
 10
35.2938810975
 20
159.0076421357
 30
0.0
  0
SEQEND
  5
470
  8
0
  6
CONTINUOUS
 62
     7
  0
POLYLINE
  5
164
  8
0
  6
CONTINUOUS
 62
     7
 66
     1
 10
0.0
 20
0.0
 30
0.0
  0
VERTEX
  5
471
  8
0
  6
CONTINUOUS
 62
     7
 10
42.5475810917
 20
159.3786400713
 30
0.0
  0
VERTEX
  5
472
  8
0
  6
CONTINUOUS
 62
     7
 10
42.6389885398
 20
159.380305276
 30
0.0
  0
VERTEX
  5
473
  8
0
  6
CONTINUOUS
 62
     7
 10
42.7292802634
 20
159.3816398613
 30
0.0
  0
VERTEX
  5
474
  8
0
  6
CONTINUOUS
 62
     7
 10
42.8634801211
 20
159.3829632707
 30
0.0
  0
VERTEX
  5
475
  8
0
  6
CONTINUOUS
 62
     7
 10
42.9926890211
 20
159.3833069287
 30
0.0
  0
VERTEX
  5
476
  8
0
  6
CONTINUOUS
 62
     7
 10
43.1144696923
 20
159.3825087852
 30
0.0
  0
VERTEX
  5
477
  8
0
  6
CONTINUOUS
 62
     7
 10
43.2241254749
 20
159.3804775707
 30
0.0
  0
VERTEX
  5
478
  8
0
  6
CONTINUOUS
 62
     7
 10
43.3244503366
 20
159.3770493723
 30
0.0
  0
VERTEX
  5
479
  8
0
  6
CONTINUOUS
 62
     7
 10
43.4166754859
 20
159.3718730814
 30
0.0
  0
VERTEX
  5
47A
  8
0
  6
CONTINUOUS
 62
     7
 10
43.4968604969
 20
159.3648872308
 30
0.0
  0
VERTEX
  5
47B
  8
0
  6
CONTINUOUS
 62
     7
 10
43.5635124596
 20
159.3560247652
 30
0.0
  0
VERTEX
  5
47C
  8
0
  6
CONTINUOUS
 62
     7
 10
43.6158239173
 20
159.3451552994
 30
0.0
  0
VERTEX
  5
47D
  8
0
  6
CONTINUOUS
 62
     7
 10
43.6535573827
 20
159.3322760395
 30
0.0
  0
VERTEX
  5
47E
  8
0
  6
CONTINUOUS
 62
     7
 10
43.6760646554
 20
159.3175201647
 30
0.0
  0
VERTEX
  5
47F
  8
0
  6
CONTINUOUS
 62
     7
 10
43.6829806568
 20
159.3008532159
 30
0.0
  0
VERTEX
  5
480
  8
0
  6
CONTINUOUS
 62
     7
 10
43.6744124891
 20
159.2825061612
 30
0.0
  0
VERTEX
  5
481
  8
0
  6
CONTINUOUS
 62
     7
 10
43.6505827384
 20
159.2628431476
 30
0.0
  0
VERTEX
  5
482
  8
0
  6
CONTINUOUS
 62
     7
 10
43.611027606
 20
159.2418353043
 30
0.0
  0
VERTEX
  5
483
  8
0
  6
CONTINUOUS
 62
     7
 10
43.5565387162
 20
159.2200460814
 30
0.0
  0
VERTEX
  5
484
  8
0
  6
CONTINUOUS
 62
     7
 10
43.4881340044
 20
159.1980258904
 30
0.0
  0
VERTEX
  5
485
  8
0
  6
CONTINUOUS
 62
     7
 10
43.4053012433
 20
159.1759162925
 30
0.0
  0
VERTEX
  5
486
  8
0
  6
CONTINUOUS
 62
     7
 10
43.3096292691
 20
159.1543841146
 30
0.0
  0
VERTEX
  5
487
  8
0
  6
CONTINUOUS
 62
     7
 10
43.2028708311
 20
159.1340617247
 30
0.0
  0
VERTEX
  5
488
  8
0
  6
CONTINUOUS
 62
     7
 10
43.0860252382
 20
159.1154315479
 30
0.0
  0
VERTEX
  5
489
  8
0
  6
CONTINUOUS
 62
     7
 10
42.9601374345
 20
159.0988391049
 30
0.0
  0
VERTEX
  5
48A
  8
0
  6
CONTINUOUS
 62
     7
 10
42.8275999876
 20
159.0848171122
 30
0.0
  0
VERTEX
  5
48B
  8
0
  6
CONTINUOUS
 62
     7
 10
42.691977069
 20
159.0739057369
 30
0.0
  0
VERTEX
  5
48C
  8
0
  6
CONTINUOUS
 62
     7
 10
42.5524435269
 20
159.0660220913
 30
0.0
  0
VERTEX
  5
48D
  8
0
  6
CONTINUOUS
 62
     7
 10
42.4117155636
 20
159.0614018
 30
0.0
  0
VERTEX
  5
48E
  8
0
  6
CONTINUOUS
 62
     7
 10
42.3236059288
 20
159.0602329902
 30
0.0
  0
SEQEND
  5
48F
  8
0
  6
CONTINUOUS
 62
     7
  0
POLYLINE
  5
165
  8
0
  6
CONTINUOUS
 62
     7
 66
     1
 10
0.0
 20
0.0
 30
0.0
  0
VERTEX
  5
490
  8
0
  6
CONTINUOUS
 62
     7
 10
42.731164329
 20
159.3965028383
 30
0.0
  0
VERTEX
  5
491
  8
0
  6
CONTINUOUS
 62
     7
 10
42.6756826492
 20
159.3939538084
 30
0.0
  0
VERTEX
  5
492
  8
0
  6
CONTINUOUS
 62
     7
 10
42.5475810917
 20
159.3786400713
 30
0.0
  0
SEQEND
  5
493
  8
0
  6
CONTINUOUS
 62
     7
  0
LINE
  5
166
  8
0
  6
CONTINUOUS
 62
     7
 10
35.2938810975
 20
159.0076421357
 30
0.0
 11
34.7938810738
 21
158.5078441508
 31
0.0
  0
LINE
  5
167
  8
0
  6
CONTINUOUS
 62
     7
 10
34.7938810738
 20
155.5681430705
 30
0.0
 11
34.7938810738
 21
158.5078441508
 31
0.0
  0
LINE
  5
168
  8
0
  6
CONTINUOUS
 62
     7
 10
42.5388802106
 20
143.5435232793
 30
0.0
 11
42.4949068839
 21
143.5473704564
 31
0.0
  0
LINE
  5
169
  8
0
  6
CONTINUOUS
 62
     7
 10
42.5388802106
 20
143.5435232793
 30
0.0
 11
42.5475810917
 21
143.5738659434
 31
0.0
  0
POLYLINE
  5
16A
  8
0
  6
CONTINUOUS
 62
     7
 66
     1
 10
0.0
 20
0.0
 30
0.0
  0
VERTEX
  5
494
  8
0
  6
CONTINUOUS
 62
     7
 10
43.4721012863
 20
146.5830797765
 30
0.0
  0
VERTEX
  5
495
  8
0
  6
CONTINUOUS
 62
     7
 10
43.4793125169
 20
146.6520353656
 30
0.0
  0
VERTEX
  5
496
  8
0
  6
CONTINUOUS
 62
     7
 10
43.4920865374
 20
146.7204866435
 30
0.0
  0
VERTEX
  5
497
  8
0
  6
CONTINUOUS
 62
     7
 10
43.5103944766
 20
146.7882880911
 30
0.0
  0
VERTEX
  5
498
  8
0
  6
CONTINUOUS
 62
     7
 10
43.5341972189
 20
146.8552948877
 30
0.0
  0
VERTEX
  5
499
  8
0
  6
CONTINUOUS
 62
     7
 10
43.5634454044
 20
146.9213638425
 30
0.0
  0
VERTEX
  5
49A
  8
0
  6
CONTINUOUS
 62
     7
 10
43.598075703
 20
146.98635386
 30
0.0
  0
VERTEX
  5
49B
  8
0
  6
CONTINUOUS
 62
     7
 10
43.6380145403
 20
147.050126639
 30
0.0
  0
VERTEX
  5
49C
  8
0
  6
CONTINUOUS
 62
     7
 10
43.6831762346
 20
147.1125459734
 30
0.0
  0
VERTEX
  5
49D
  8
0
  6
CONTINUOUS
 62
     7
 10
43.7334639283
 20
147.1734784513
 30
0.0
  0
VERTEX
  5
49E
  8
0
  6
CONTINUOUS
 62
     7
 10
43.788772382
 20
147.2327943861
 30
0.0
  0
VERTEX
  5
49F
  8
0
  6
CONTINUOUS
 62
     7
 10
43.8489814552
 20
147.290366885
 30
0.0
  0
VERTEX
  5
4A0
  8
0
  6
CONTINUOUS
 62
     7
 10
43.9139635565
 20
147.3460730135
 30
0.0
  0
VERTEX
  5
4A1
  8
0
  6
CONTINUOUS
 62
     7
 10
43.9835799189
 20
147.3997942608
 30
0.0
  0
VERTEX
  5
4A2
  8
0
  6
CONTINUOUS
 62
     7
 10
44.0576815309
 20
147.4514156084
 30
0.0
  0
VERTEX
  5
4A3
  8
0
  6
CONTINUOUS
 62
     7
 10
44.1361109989
 20
147.5008271604
 30
0.0
  0
VERTEX
  5
4A4
  8
0
  6
CONTINUOUS
 62
     7
 10
44.2186997535
 20
147.5479234446
 30
0.0
  0
VERTEX
  5
4A5
  8
0
  6
CONTINUOUS
 62
     7
 10
44.3052736374
 20
147.5926036451
 30
0.0
  0
VERTEX
  5
4A6
  8
0
  6
CONTINUOUS
 62
     7
 10
44.395646386
 20
147.6347729999
 30
0.0
  0
VERTEX
  5
4A7
  8
0
  6
CONTINUOUS
 62
     7
 10
44.4896252157
 20
147.674340938
 30
0.0
  0
VERTEX
  5
4A8
  8
0
  6
CONTINUOUS
 62
     7
 10
44.5870089607
 20
147.7112234074
 30
0.0
  0
VERTEX
  5
4A9
  8
0
  6
CONTINUOUS
 62
     7
 10
44.6875917988
 20
147.7453412458
 30
0.0
  0
VERTEX
  5
4AA
  8
0
  6
CONTINUOUS
 62
     7
 10
44.7911576631
 20
147.7766222756
 30
0.0
  0
VERTEX
  5
4AB
  8
0
  6
CONTINUOUS
 62
     7
 10
44.8974848988
 20
147.8049992088
 30
0.0
  0
VERTEX
  5
4AC
  8
0
  6
CONTINUOUS
 62
     7
 10
45.0063481258
 20
147.8304117422
 30
0.0
  0
VERTEX
  5
4AD
  8
0
  6
CONTINUOUS
 62
     7
 10
45.1175145136
 20
147.8528056264
 30
0.0
  0
VERTEX
  5
4AE
  8
0
  6
CONTINUOUS
 62
     7
 10
45.2307465749
 20
147.8721331309
 30
0.0
  0
VERTEX
  5
4AF
  8
0
  6
CONTINUOUS
 62
     7
 10
45.3458021658
 20
147.8883528121
 30
0.0
  0
VERTEX
  5
4B0
  8
0
  6
CONTINUOUS
 62
     7
 10
45.4624372797
 20
147.901429978
 30
0.0
  0
VERTEX
  5
4B1
  8
0
  6
CONTINUOUS
 62
     7
 10
45.580401391
 20
147.9113371547
 30
0.0
  0
VERTEX
  5
4B2
  8
0
  6
CONTINUOUS
 62
     7
 10
45.6994439738
 20
147.9180529218
 30
0.0
  0
VERTEX
  5
4B3
  8
0
  6
CONTINUOUS
 62
     7
 10
45.8193098458
 20
147.9215628437
 30
0.0
  0
VERTEX
  5
4B4
  8
0
  6
CONTINUOUS
 62
     7
 10
45.9397447558
 20
147.9218597028
 30
0.0
  0
VERTEX
  5
4B5
  8
0
  6
CONTINUOUS
 62
     7
 10
46.0604897963
 20
147.9189425677
 30
0.0
  0
VERTEX
  5
4B6
  8
0
  6
CONTINUOUS
 62
     7
 10
46.1812888535
 20
147.9128179576
 30
0.0
  0
VERTEX
  5
4B7
  8
0
  6
CONTINUOUS
 62
     7
 10
46.3018830197
 20
147.9034986783
 30
0.0
  0
VERTEX
  5
4B8
  8
0
  6
CONTINUOUS
 62
     7
 10
46.4220152499
 20
147.8910049859
 30
0.0
  0
VERTEX
  5
4B9
  8
0
  6
CONTINUOUS
 62
     7
 10
46.5414303618
 20
147.8753629576
 30
0.0
  0
VERTEX
  5
4BA
  8
0
  6
CONTINUOUS
 62
     7
 10
46.6598713102
 20
147.8566065866
 30
0.0
  0
VERTEX
  5
4BB
  8
0
  6
CONTINUOUS
 62
     7
 10
46.7770875694
 20
147.8347754541
 30
0.0
  0
VERTEX
  5
4BC
  8
0
  6
CONTINUOUS
 62
     7
 10
46.8928276824
 20
147.8099163592
 30
0.0
  0
VERTEX
  5
4BD
  8
0
  6
CONTINUOUS
 62
     7
 10
47.0068448486
 20
147.782082387
 30
0.0
  0
VERTEX
  5
4BE
  8
0
  6
CONTINUOUS
 62
     7
 10
47.1188959928
 20
147.7513329096
 30
0.0
  0
VERTEX
  5
4BF
  8
0
  6
CONTINUOUS
 62
     7
 10
47.2287417652
 20
147.7177333522
 30
0.0
  0
VERTEX
  5
4C0
  8
0
  6
CONTINUOUS
 62
     7
 10
47.3361474725
 20
147.6813556596
 30
0.0
  0
VERTEX
  5
4C1
  8
0
  6
CONTINUOUS
 62
     7
 10
47.4408849405
 20
147.6422773644
 30
0.0
  0
VERTEX
  5
4C2
  8
0
  6
CONTINUOUS
 62
     7
 10
47.5427297207
 20
147.6005818199
 30
0.0
  0
VERTEX
  5
4C3
  8
0
  6
CONTINUOUS
 62
     7
 10
47.6414648147
 20
147.5563582003
 30
0.0
  0
VERTEX
  5
4C4
  8
0
  6
CONTINUOUS
 62
     7
 10
47.7368797438
 20
147.5097005691
 30
0.0
  0
VERTEX
  5
4C5
  8
0
  6
CONTINUOUS
 62
     7
 10
47.828769617
 20
147.4607088107
 30
0.0
  0
VERTEX
  5
4C6
  8
0
  6
CONTINUOUS
 62
     7
 10
47.9169397878
 20
147.4094872333
 30
0.0
  0
VERTEX
  5
4C7
  8
0
  6
CONTINUOUS
 62
     7
 10
48.001202129
 20
147.3561452672
 30
0.0
  0
VERTEX
  5
4C8
  8
0
  6
CONTINUOUS
 62
     7
 10
48.0813759642
 20
147.3007967665
 30
0.0
  0
VERTEX
  5
4C9
  8
0
  6
CONTINUOUS
 62
     7
 10
48.1572899299
 20
147.2435597766
 30
0.0
  0
VERTEX
  5
4CA
  8
0
  6
CONTINUOUS
 62
     7
 10
48.2287829073
 20
147.1845565334
 30
0.0
  0
VERTEX
  5
4CB
  8
0
  6
CONTINUOUS
 62
     7
 10
48.2957021596
 20
147.1239127654
 30
0.0
  0
VERTEX
  5
4CC
  8
0
  6
CONTINUOUS
 62
     7
 10
48.3579051944
 20
147.0617581594
 30
0.0
  0
VERTEX
  5
4CD
  8
0
  6
CONTINUOUS
 62
     7
 10
48.4152588325
 20
146.998225196
 30
0.0
  0
VERTEX
  5
4CE
  8
0
  6
CONTINUOUS
 62
     7
 10
48.4676401394
 20
146.9334493827
 30
0.0
  0
VERTEX
  5
4CF
  8
0
  6
CONTINUOUS
 62
     7
 10
48.5149382876
 20
146.8675690207
 30
0.0
  0
VERTEX
  5
4D0
  8
0
  6
CONTINUOUS
 62
     7
 10
48.5570517631
 20
146.8007247399
 30
0.0
  0
VERTEX
  5
4D1
  8
0
  6
CONTINUOUS
 62
     7
 10
48.5938902276
 20
146.7330592654
 30
0.0
  0
VERTEX
  5
4D2
  8
0
  6
CONTINUOUS
 62
     7
 10
48.6253763812
 20
146.6647169523
 30
0.0
  0
VERTEX
  5
4D3
  8
0
  6
CONTINUOUS
 62
     7
 10
48.6514422374
 20
146.5958435524
 30
0.0
  0
VERTEX
  5
4D4
  8
0
  6
CONTINUOUS
 62
     7
 10
48.6720328482
 20
146.526585982
 30
0.0
  0
VERTEX
  5
4D5
  8
0
  6
CONTINUOUS
 62
     7
 10
48.6871025788
 20
146.4570923213
 30
0.0
  0
VERTEX
  5
4D6
  8
0
  6
CONTINUOUS
 62
     7
 10
48.6966216268
 20
146.3875104177
 30
0.0
  0
VERTEX
  5
4D7
  8
0
  6
CONTINUOUS
 62
     7
 10
48.7005676406
 20
146.317989283
 30
0.0
  0
VERTEX
  5
4D8
  8
0
  6
CONTINUOUS
 62
     7
 10
48.6989331694
 20
146.2486772302
 30
0.0
  0
VERTEX
  5
4D9
  8
0
  6
CONTINUOUS
 62
     7
 10
48.6917219388
 20
146.1797216411
 30
0.0
  0
VERTEX
  5
4DA
  8
0
  6
CONTINUOUS
 62
     7
 10
48.6789479183
 20
146.1112702468
 30
0.0
  0
VERTEX
  5
4DB
  8
0
  6
CONTINUOUS
 62
     7
 10
48.6606399791
 20
146.0434687992
 30
0.0
  0
VERTEX
  5
4DC
  8
0
  6
CONTINUOUS
 62
     7
 10
48.6368372368
 20
145.976462119
 30
0.0
  0
VERTEX
  5
4DD
  8
0
  6
CONTINUOUS
 62
     7
 10
48.6075890513
 20
145.9103931643
 30
0.0
  0
VERTEX
  5
4DE
  8
0
  6
CONTINUOUS
 62
     7
 10
48.5729587527
 20
145.8454030303
 30
0.0
  0
VERTEX
  5
4DF
  8
0
  6
CONTINUOUS
 62
     7
 10
48.5330199154
 20
145.7816302513
 30
0.0
  0
VERTEX
  5
4E0
  8
0
  6
CONTINUOUS
 62
     7
 10
48.4878582211
 20
145.7192109169
 30
0.0
  0
VERTEX
  5
4E1
  8
0
  6
CONTINUOUS
 62
     7
 10
48.4375695961
 20
145.658278439
 30
0.0
  0
VERTEX
  5
4E2
  8
0
  6
CONTINUOUS
 62
     7
 10
48.3822620737
 20
145.5989626206
 30
0.0
  0
VERTEX
  5
4E3
  8
0
  6
CONTINUOUS
 62
     7
 10
48.3220530005
 20
145.5413901217
 30
0.0
  0
VERTEX
  5
4E4
  8
0
  6
CONTINUOUS
 62
     7
 10
48.2570708992
 20
145.4856838768
 30
0.0
  0
VERTEX
  5
4E5
  8
0
  6
CONTINUOUS
 62
     7
 10
48.1874545368
 20
145.431962746
 30
0.0
  0
VERTEX
  5
4E6
  8
0
  6
CONTINUOUS
 62
     7
 10
48.1133529248
 20
145.3803412819
 30
0.0
  0
VERTEX
  5
4E7
  8
0
  6
CONTINUOUS
 62
     7
 10
48.0349234568
 20
145.3309297299
 30
0.0
  0
VERTEX
  5
4E8
  8
0
  6
CONTINUOUS
 62
     7
 10
47.9523337709
 20
145.2838335622
 30
0.0
  0
VERTEX
  5
4E9
  8
0
  6
CONTINUOUS
 62
     7
 10
47.8657608183
 20
145.2391532452
 30
0.0
  0
VERTEX
  5
4EA
  8
0
  6
CONTINUOUS
 62
     7
 10
47.7753880697
 20
145.1969840068
 30
0.0
  0
VERTEX
  5
4EB
  8
0
  6
CONTINUOUS
 62
     7
 10
47.68140924
 20
145.1574160105
 30
0.0
  0
VERTEX
  5
4EC
  8
0
  6
CONTINUOUS
 62
     7
 10
47.5840245636
 20
145.1205336575
 30
0.0
  0
VERTEX
  5
4ED
  8
0
  6
CONTINUOUS
 62
     7
 10
47.4834426569
 20
145.0864155863
 30
0.0
  0
VERTEX
  5
4EE
  8
0
  6
CONTINUOUS
 62
     7
 10
47.3798767926
 20
145.0551346729
 30
0.0
  0
VERTEX
  5
4EF
  8
0
  6
CONTINUOUS
 62
     7
 10
47.2735495569
 20
145.0267576815
 30
0.0
  0
VERTEX
  5
4F0
  8
0
  6
CONTINUOUS
 62
     7
 10
47.1646863299
 20
145.0013451481
 30
0.0
  0
VERTEX
  5
4F1
  8
0
  6
CONTINUOUS
 62
     7
 10
47.0535199421
 20
144.978951264
 30
0.0
  0
VERTEX
  5
4F2
  8
0
  6
CONTINUOUS
 62
     7
 10
46.9402878808
 20
144.9596238758
 30
0.0
  0
VERTEX
  5
4F3
  8
0
  6
CONTINUOUS
 62
     7
 10
46.8252313586
 20
144.9434041947
 30
0.0
  0
VERTEX
  5
4F4
  8
0
  6
CONTINUOUS
 62
     7
 10
46.708597176
 20
144.9303268541
 30
0.0
  0
VERTEX
  5
4F5
  8
0
  6
CONTINUOUS
 62
     7
 10
46.5906330647
 20
144.9204197938
 30
0.0
  0
VERTEX
  5
4F6
  8
0
  6
CONTINUOUS
 62
     7
 10
46.4715904819
 20
144.9137040267
 30
0.0
  0
VERTEX
  5
4F7
  8
0
  6
CONTINUOUS
 62
     7
 10
46.3517246099
 20
144.9101940466
 30
0.0
  0
VERTEX
  5
4F8
  8
0
  6
CONTINUOUS
 62
     7
 10
46.2312896999
 20
144.9098972457
 30
0.0
  0
VERTEX
  5
4F9
  8
0
  6
CONTINUOUS
 62
     7
 10
46.1105446594
 20
144.9128143226
 30
0.0
  0
VERTEX
  5
4FA
  8
0
  6
CONTINUOUS
 62
     7
 10
45.9897456022
 20
144.9189389909
 30
0.0
  0
VERTEX
  5
4FB
  8
0
  6
CONTINUOUS
 62
     7
 10
45.869151436
 20
144.9282582121
 30
0.0
  0
VERTEX
  5
4FC
  8
0
  6
CONTINUOUS
 62
     7
 10
45.7490192058
 20
144.940752079
 30
0.0
  0
VERTEX
  5
4FD
  8
0
  6
CONTINUOUS
 62
     7
 10
45.6296040939
 20
144.9563939327
 30
0.0
  0
VERTEX
  5
4FE
  8
0
  6
CONTINUOUS
 62
     7
 10
45.5111622142
 20
144.9751503619
 30
0.0
  0
VERTEX
  5
4FF
  8
0
  6
CONTINUOUS
 62
     7
 10
45.3939468863
 20
144.9969814362
 30
0.0
  0
VERTEX
  5
500
  8
0
  6
CONTINUOUS
 62
     7
 10
45.2782067733
 20
145.0218405312
 30
0.0
  0
VERTEX
  5
501
  8
0
  6
CONTINUOUS
 62
     7
 10
45.1641896071
 20
145.0496745033
 30
0.0
  0
VERTEX
  5
502
  8
0
  6
CONTINUOUS
 62
     7
 10
45.0521384629
 20
145.0804240389
 30
0.0
  0
VERTEX
  5
503
  8
0
  6
CONTINUOUS
 62
     7
 10
44.9422926905
 20
145.1140235381
 30
0.0
  0
VERTEX
  5
504
  8
0
  6
CONTINUOUS
 62
     7
 10
44.8348860519
 20
145.1504012307
 30
0.0
  0
VERTEX
  5
505
  8
0
  6
CONTINUOUS
 62
     7
 10
44.7301495152
 20
145.1894795259
 30
0.0
  0
VERTEX
  5
506
  8
0
  6
CONTINUOUS
 62
     7
 10
44.628304735
 20
145.2311750704
 30
0.0
  0
VERTEX
  5
507
  8
0
  6
CONTINUOUS
 62
     7
 10
44.529569641
 20
145.27539869
 30
0.0
  0
VERTEX
  5
508
  8
0
  6
CONTINUOUS
 62
     7
 10
44.4341547119
 20
145.3220563212
 30
0.0
  0
VERTEX
  5
509
  8
0
  6
CONTINUOUS
 62
     7
 10
44.3422648387
 20
145.3710480796
 30
0.0
  0
VERTEX
  5
50A
  8
0
  6
CONTINUOUS
 62
     7
 10
44.2540946679
 20
145.422269657
 30
0.0
  0
VERTEX
  5
50B
  8
0
  6
CONTINUOUS
 62
     7
 10
44.1698323267
 20
145.4756116232
 30
0.0
  0
VERTEX
  5
50C
  8
0
  6
CONTINUOUS
 62
     7
 10
44.0896584915
 20
145.5309601238
 30
0.0
  0
VERTEX
  5
50D
  8
0
  6
CONTINUOUS
 62
     7
 10
44.0137445258
 20
145.5881971137
 30
0.0
  0
VERTEX
  5
50E
  8
0
  6
CONTINUOUS
 62
     7
 10
43.9422515484
 20
145.6472004734
 30
0.0
  0
VERTEX
  5
50F
  8
0
  6
CONTINUOUS
 62
     7
 10
43.8753313648
 20
145.7078441249
 30
0.0
  0
VERTEX
  5
510
  8
0
  6
CONTINUOUS
 62
     7
 10
43.8131292613
 20
145.7699988473
 30
0.0
  0
VERTEX
  5
511
  8
0
  6
CONTINUOUS
 62
     7
 10
43.7557756232
 20
145.8335318107
 30
0.0
  0
VERTEX
  5
512
  8
0
  6
CONTINUOUS
 62
     7
 10
43.7033943163
 20
145.8983076241
 30
0.0
  0
VERTEX
  5
513
  8
0
  6
CONTINUOUS
 62
     7
 10
43.6560961681
 20
145.964187986
 30
0.0
  0
VERTEX
  5
514
  8
0
  6
CONTINUOUS
 62
     7
 10
43.6139826926
 20
146.0310321504
 30
0.0
  0
VERTEX
  5
515
  8
0
  6
CONTINUOUS
 62
     7
 10
43.5771432968
 20
146.0986977413
 30
0.0
  0
VERTEX
  5
516
  8
0
  6
CONTINUOUS
 62
     7
 10
43.5456580745
 20
146.1670400545
 30
0.0
  0
VERTEX
  5
517
  8
0
  6
CONTINUOUS
 62
     7
 10
43.519591287
 20
146.2359134543
 30
0.0
  0
VERTEX
  5
518
  8
0
  6
CONTINUOUS
 62
     7
 10
43.4990016075
 20
146.3051710248
 30
0.0
  0
VERTEX
  5
519
  8
0
  6
CONTINUOUS
 62
     7
 10
43.4839309456
 20
146.3746646855
 30
0.0
  0
VERTEX
  5
51A
  8
0
  6
CONTINUOUS
 62
     7
 10
43.4744128289
 20
146.4442463562
 30
0.0
  0
VERTEX
  5
51B
  8
0
  6
CONTINUOUS
 62
     7
 10
43.4704668151
 20
146.5137674909
 30
0.0
  0
VERTEX
  5
51C
  8
0
  6
CONTINUOUS
 62
     7
 10
43.4721012863
 20
146.5830797765
 30
0.0
  0
SEQEND
  5
51D
  8
0
  6
CONTINUOUS
 62
     7
  0
LINE
  5
16B
  8
0
  6
CONTINUOUS
 62
     7
 10
34.7938810738
 20
150.6455700814
 30
0.0
 11
34.7938810738
 21
145.7268526515
 31
0.0
  0
LINE
  5
16C
  8
0
  6
CONTINUOUS
 62
     7
 10
42.5475810917
 20
159.0658619038
 30
0.0
 11
42.5475810917
 21
159.3786400713
 31
0.0
  0
LINE
  5
16D
  8
0
  6
CONTINUOUS
 62
     7
 10
44.5283272566
 20
129.1484708868
 30
0.0
 11
45.9676890897
 21
129.9862383835
 31
0.0
  0
ARC
  5
16E
  8
0
  6
CONTINUOUS
 62
     7
 10
44.0271487846
 20
130.0102740291
 30
0.0
 40
0.9969375692452164
 50
268.4326681768
 51
300.1799856827
  0
LINE
  5
16F
  8
0
  6
CONTINUOUS
 62
     7
 10
42.945293084
 20
129.0427145518
 30
0.0
 11
43.999880858
 21
129.0137094415
 31
0.0
  0
LINE
  5
170
  8
DÜNNE_LINIE
 62
   218
 10
78.0003889297
 20
128.4820043601
 30
0.0
 11
78.0003889297
 21
127.3794614976
 31
0.0
  0
LINE
  5
171
  8
DÜNNE_LINIE
  6
CENTER
 62
     7
 10
31.2346740754
 20
144.2140961967
 30
0.0
 11
135.6445520246
 21
144.2140961967
 31
0.0
  0
DIMENSION
  5
172
  8
DÜNNE_LINIE
 62
   218
  2
*D5
 10
34.0003889297
 20
116.1956676251
 30
0.0
 11
56.0003889297
 21
116.1956676251
 31
0.0
 70
   160
  3
SLDDIMSTYLE0
 13
78.0003889297
 23
127.3794614976
 33
0.0
 14
34.0003889297
 24
128.8640962004
 34
0.0
 50
0.0
  0
DIMENSION
  5
17D
  8
DÜNNE_LINIE
 62
     7
  2
*D6
 10
145.4220600702
 20
131.7140961967
 30
0.0
 11
145.4220600702
 21
143.6045617395
 31
0.0
 70
   160
  1
%%c<>
  3
SLDDIMSTYLE1
 13
131.7438810738
 23
156.7140961967
 33
0.0
 14
131.7438810738
 24
131.7140961967
 34
0.0
 50
90.0
  0
DIMENSION
  5
189
  8
DÜNNE_LINIE
 62
   218
  2
*D7
 10
133.9938810738
 20
107.4517772339
 30
0.0
 11
83.9971350017
 21
107.4517772339
 31
0.0
 70
   160
  3
SLDDIMSTYLE2
 13
34.0003889297
 23
128.8640962004
 33
0.0
 14
133.9938810738
 24
132.8140961967
 34
0.0
  0
ARC
  5
194
  8
0
  6
CONTINUOUS
 62
     7
 10
38.4589973233
 20
212.9255698034
 30
0.0
 40
1.952764096170324
 50
307.0677609642
 51
53.0183193136
  0
ARC
  5
195
  8
0
  6
CONTINUOUS
 62
     7
 10
37.491457845
 20
212.6178073687
 30
0.0
 40
0.2559821429969836
 50
134.5718587842
 51
252.6211821624
  0
POLYLINE
  5
196
  8
0
  6
CONTINUOUS
 62
     7
 66
     1
 10
0.0
 20
0.0
 30
0.0
  0
VERTEX
  5
51E
  8
0
  6
CONTINUOUS
 62
     7
 10
37.4474465644
 20
212.3650243897
 30
0.0
  0
VERTEX
  5
51F
  8
0
  6
CONTINUOUS
 62
     7
 10
37.4319225812
 20
212.3682076503
 30
0.0
  0
VERTEX
  5
520
  8
0
  6
CONTINUOUS
 62
     7
 10
37.4149990531
 20
212.373510601
 30
0.0
  0
SEQEND
  5
521
  8
0
  6
CONTINUOUS
 62
     7
  0
ARC
  5
197
  8
0
  6
CONTINUOUS
 62
     7
 10
36.8232216172
 20
213.293351409
 30
0.0
 40
0.694228772780248
 50
314.7313916782
 51
20.180870503
  0
LINE
  5
198
  8
0
  6
CONTINUOUS
 62
     7
 10
38.4684832098
 20
214.875431398
 30
0.0
 11
38.3944009228
 21
214.875431398
 31
0.0
  0
LINE
  5
199
  8
0
  6
CONTINUOUS
 62
     7
 10
38.3944009228
 20
210.9754315038
 30
0.0
 11
38.4684832098
 21
210.9754315038
 31
0.0
  0
ARC
  5
19A
  8
0
  6
CONTINUOUS
 62
     7
 10
37.7135174851
 20
213.6217610238
 30
0.0
 40
0.2547090345496143
 50
128.1810444646
 51
200.4304254851
  0
ARC
  5
19B
  8
0
  6
CONTINUOUS
 62
     7
 10
37.33488778
 20
211.6867811887
 30
0.0
 40
0.6850585434964545
 50
14.3658870469
 51
53.265105237
  0
ARC
  5
19C
  8
0
  6
CONTINUOUS
 62
     7
 10
38.0413762894
 20
214.4602186551
 30
0.0
 40
0.5840960485322798
 50
308.3913254116
 51
321.1097245345
  0
ARC
  5
19D
  8
0
  6
CONTINUOUS
 62
     7
 10
38.2356854868
 20
211.9148892146
 30
0.0
 40
0.2441818233943128
 50
193.7735317224
 51
232.8257647418
  0
ARC
  5
19E
  8
0
  6
CONTINUOUS
 62
     7
 10
38.6613500196
 20
213.9612363834
 30
0.0
 40
0.2117385792759253
 50
123.7678360923
 51
141.3413539071
  0
LINE
  5
19F
  8
0
  6
CONTINUOUS
 62
     7
 10
37.8692672385
 20
213.8437075932
 30
0.0
 11
37.9651385157
 21
213.8437075932
 31
0.0
  0
LINE
  5
1A0
  8
0
  6
CONTINUOUS
 62
     7
 10
38.9718281368
 20
212.0071543772
 30
0.0
 11
38.8759568596
 21
212.0071543772
 31
0.0
  0
ARC
  5
1A1
  8
0
  6
CONTINUOUS
 62
     7
 10
42.3569759412
 20
239.7264595256
 30
0.0
 40
0.5883180416888711
 50
359.8998418904
 51
89.9002544049
  0
LINE
  5
1A2
  8
0
  6
CONTINUOUS
 62
     7
 10
42.945293084
 20
239.5629171674
 30
0.0
 11
42.945293084
 21
239.725431094
 31
0.0
  0
LINE
  5
1A3
  8
0
  6
CONTINUOUS
 62
     7
 10
42.3580001371
 20
240.3147766758
 30
0.0
 11
34.5876817156
 21
240.3147766758
 31
0.0
  0
LINE
  5
1A4
  8
0
  6
CONTINUOUS
 62
     7
 10
34.5876817156
 20
231.3360857238
 30
0.0
 11
34.7938810738
 21
231.3360857238
 31
0.0
  0
ARC
  5
1A5
  8
0
  6
CONTINUOUS
 62
     7
 10
34.5887130352
 20
239.7264526011
 30
0.0
 40
0.5883249786681171
 50
90.1004381805
 51
180.0994825601
  0
ARC
  5
1A6
  8
0
  6
CONTINUOUS
 62
     7
 10
34.588706168
 20
231.9244029552
 30
0.0
 40
0.5883181234164989
 50
179.8998498203
 51
269.9002294391
  0
LINE
  5
1A7
  8
0
  6
CONTINUOUS
 62
     7
 10
34.0003889433
 20
239.725431094
 30
0.0
 11
34.0003889433
 21
231.9254313056
 31
0.0
  0
ARC
  5
1A8
  8
0
  6
CONTINUOUS
 62
     7
 10
34.5887138478
 20
216.8264515767
 30
0.0
 40
0.5883257899116986
 50
90.1005171844
 51
180.0994035562
  0
LINE
  5
1A9
  8
0
  6
CONTINUOUS
 62
     7
 10
34.0003889433
 20
216.8254308794
 30
0.0
 11
34.0003889433
 21
209.025431091
 31
0.0
  0
ARC
  5
1AA
  8
0
  6
CONTINUOUS
 62
     7
 10
34.5887063299
 20
209.024402902
 30
0.0
 40
0.5883182850782761
 50
179.8998655645
 51
269.9002136949
  0
LINE
  5
1AB
  8
0
  6
CONTINUOUS
 62
     7
 10
34.7938810738
 20
217.4147764612
 30
0.0
 11
34.5876817156
 21
217.4147764612
 31
0.0
  0
LINE
  5
1AC
  8
0
  6
CONTINUOUS
 62
     7
 10
34.5876817156
 20
208.4360855092
 30
0.0
 11
42.3580001371
 21
208.4360855092
 31
0.0
  0
ARC
  5
1AD
  8
0
  6
CONTINUOUS
 62
     7
 10
42.3569692511
 20
209.0244093261
 30
0.0
 40
0.5883247201081915
 50
270.1003959941
 51
0.0995077105
  0
LINE
  5
1AE
  8
0
  6
CONTINUOUS
 62
     7
 10
42.945293084
 20
209.025431091
 30
0.0
 11
42.945293084
 21
214.8101801444
 31
0.0
  0
ARC
  5
1AF
  8
0
  6
CONTINUOUS
 62
     7
 10
56.0623661853
 20
192.8754310925
 30
0.0
 40
20.0
 50
90.0
 51
120.313687317
  0
ARC
  5
1B0
  8
0
  6
CONTINUOUS
 62
     7
 10
56.0623661853
 20
255.8754310925
 30
0.0
 40
20.00000000000002
 50
239.686312683
 51
270.0
  0
LINE
  5
1B1
  8
0
  6
CONTINUOUS
 62
     7
 10
77.4267626258
 20
211.8754309062
 30
0.0
 11
131.7438830884
 21
211.8754309062
 31
0.0
  0
LINE
  5
1B2
  8
0
  6
CONTINUOUS
 62
     7
 10
93.1438816043
 20
236.8754312788
 30
0.0
 11
77.4267626258
 21
236.8754312788
 31
0.0
  0
LINE
  5
1B3
  8
0
  6
CONTINUOUS
 62
     7
 10
114.1938840302
 20
236.8754312788
 30
0.0
 11
110.8438794764
 21
236.8754312788
 31
0.0
  0
LINE
  5
1B4
  8
0
  6
CONTINUOUS
 62
     7
 10
131.7438830884
 20
211.8754309062
 30
0.0
 11
132.9938818963
 21
211.9754307364
 31
0.0
  0
LINE
  5
1B5
  8
0
  6
CONTINUOUS
 62
     7
 10
77.4267626258
 20
236.8754312788
 30
0.0
 11
74.3404229434
 21
236.3312157263
 31
0.0
  0
LINE
  5
1B6
  8
0
  6
CONTINUOUS
 62
     7
 10
74.3404229434
 20
212.4196464587
 30
0.0
 11
77.4267626258
 21
211.8754309062
 31
0.0
  0
LINE
  5
1B7
  8
0
  6
CONTINUOUS
 62
     7
 10
132.9938818963
 20
211.9754307364
 30
0.0
 11
133.9938839229
 21
212.9754309003
 31
0.0
  0
ARC
  5
1B8
  8
0
  6
CONTINUOUS
 62
     7
 10
69.1308810738
 20
182.8754310925
 30
0.0
 40
30.00000000000002
 50
79.9998125191
 51
90.0
  0
ARC
  5
1B9
  8
0
  6
CONTINUOUS
 62
     7
 10
69.1308810738
 20
265.8754310925
 30
0.0
 40
30.00000000000002
 50
270.0
 51
280.0001874809
  0
LINE
  5
1BA
  8
0
  6
CONTINUOUS
 62
     7
 10
56.0623661878
 20
212.8754310701
 30
0.0
 11
69.1308801325
 21
212.8754310701
 31
0.0
  0
LINE
  5
1BB
  8
0
  6
CONTINUOUS
 62
     7
 10
69.1308801325
 20
235.8754311148
 30
0.0
 11
56.0623661878
 21
235.8754311148
 31
0.0
  0
ARC
  5
1BC
  8
0
  6
CONTINUOUS
 62
     7
 10
44.0235936784
 20
238.5882122758
 30
0.0
 40
1.00000000000004
 50
59.686312683
 51
91.3587595207
  0
LINE
  5
1BD
  8
0
  6
CONTINUOUS
 62
     7
 10
43.999880858
 20
239.5879306291
 30
0.0
 11
42.731164329
 21
239.557837734
 31
0.0
  0
LINE
  5
1BE
  8
0
  6
CONTINUOUS
 62
     7
 10
45.9676890897
 20
238.6099310983
 30
0.0
 11
44.5283272566
 21
239.4514872153
 31
0.0
  0
LINE
  5
1BF
  8
0
  6
CONTINUOUS
 62
     7
 10
42.945293084
 20
209.1879450176
 30
0.0
 11
43.999880858
 21
209.1629315559
 31
0.0
  0
ARC
  5
1C0
  8
0
  6
CONTINUOUS
 62
     7
 10
44.0235936784
 20
210.1626499092
 30
0.0
 40
1.00000000000004
 50
268.6412404793
 51
300.313687317
  0
LINE
  5
1C1
  8
0
  6
CONTINUOUS
 62
     7
 10
44.5283272566
 20
209.2993749697
 30
0.0
 11
45.9676890897
 21
210.1409310867
 31
0.0
  0
ARC
  5
1C2
  8
0
  6
CONTINUOUS
 62
     7
 10
37.9718320406
 20
235.8174112094
 30
0.0
 40
1.191981210240473
 50
240.616637687
 51
269.6456430674
  0
ARC
  5
1C3
  8
0
  6
CONTINUOUS
 62
     7
 10
37.9713073465
 20
235.8185563991
 30
0.0
 40
1.193123251430204
 50
269.6711793951
 51
314.047785588
  0
ARC
  5
1C4
  8
0
  6
CONTINUOUS
 62
     7
 10
38.4684769276
 20
212.9125500237
 30
0.0
 40
1.937049630308361
 50
231.0382791684
 51
287.1813483183
  0
ARC
  5
1C5
  8
0
  6
CONTINUOUS
 62
     7
 10
38.4684612582
 20
212.9383364839
 30
0.0
 40
1.937021639495994
 50
53.0258181041
 51
129.0440536463
  0
ARC
  5
1C6
  8
0
  6
CONTINUOUS
 62
     7
 10
38.4671538359
 20
212.9150261372
 30
0.0
 40
1.939806156699939
 50
287.1970799883
 51
307.052300158
  0
ARC
  5
1C7
  8
0
  6
CONTINUOUS
 62
     7
 10
38.4013196867
 20
212.9261409614
 30
0.0
 40
1.950721727286509
 50
107.2697196811
 51
269.7967845463
  0
ARC
  5
1C8
  8
0
  6
CONTINUOUS
 62
     7
 10
38.3944512216
 20
212.9395841839
 30
0.0
 40
1.935847214755494
 50
90.0014887082
 51
107.193716051
  0
ARC
  5
1C9
  8
0
  6
CONTINUOUS
 62
     7
 10
37.713922996
 20
213.6233023046
 30
0.0
 40
0.2545190934745846
 50
74.5431555486
 51
128.5491042481
  0
ARC
  5
1CA
  8
0
  6
CONTINUOUS
 62
     7
 10
37.3299990827
 20
211.686314006
 30
0.0
 40
0.6887865505472347
 50
52.9924998587
 51
80.1930882691
  0
ARC
  5
1CB
  8
0
  6
CONTINUOUS
 62
     7
 10
37.9651401073
 20
214.5318245783
 30
0.0
 40
0.6880957583812614
 50
254.5432866721
 51
309.6300228331
  0
ARC
  5
1CC
  8
0
  6
CONTINUOUS
 62
     7
 10
38.2451522412
 20
211.9196794017
 30
0.0
 40
0.2545157757927897
 50
231.6910201506
 51
305.7973095784
  0
ARC
  5
1CD
  8
0
  6
CONTINUOUS
 62
     7
 10
38.6918142824
 20
213.9311818497
 30
0.0
 40
0.2545164198934763
 50
51.6910977485
 51
125.7972338869
  0
ARC
  5
1CE
  8
0
  6
CONTINUOUS
 62
     7
 10
38.9718264397
 20
211.3190371173
 30
0.0
 40
0.6880960513347002
 50
74.5432843142
 51
129.6300164121
  0
LINE
  5
1CF
  8
0
  6
CONTINUOUS
 62
     7
 10
37.6858842356
 20
213.8686158155
 30
0.0
 11
37.6659865288
 21
213.8732705657
 31
0.0
  0
ARC
  5
1D0
  8
0
  6
CONTINUOUS
 62
     7
 10
37.8692712387
 20
214.5312559069
 30
0.0
 40
0.6875483137230974
 50
254.5304634696
 51
269.9996666485
  0
ARC
  5
1D1
  8
0
  6
CONTINUOUS
 62
     7
 10
39.606958405
 20
214.1645320307
 30
0.0
 40
0.6887684502614178
 50
232.9922953743
 51
260.1935623777
  0
ARC
  5
1D2
  8
0
  6
CONTINUOUS
 62
     7
 10
39.2230429418
 20
212.2275631639
 30
0.0
 40
0.2545222745382491
 50
254.5435204623
 51
308.5487393345
  0
ARC
  5
1D3
  8
0
  6
CONTINUOUS
 62
     7
 10
38.1490651202
 20
211.9201714488
 30
0.0
 40
0.2550457475241616
 50
280.883201104
 51
320.3714456843
  0
ARC
  5
1D4
  8
0
  6
CONTINUOUS
 62
     7
 10
38.8762415819
 20
211.3181723818
 30
0.0
 40
0.6889820542626537
 50
90.0236775188
 51
140.3832494489
  0
ARC
  5
1D5
  8
0
  6
CONTINUOUS
 62
     7
 10
38.5954614007
 20
213.9301739715
 30
0.0
 40
0.2556020523014756
 50
14.464528357
 51
79.0815360276
  0
ARC
  5
1D6
  8
0
  6
CONTINUOUS
 62
     7
 10
39.5121224505
 20
214.1667018042
 30
0.0
 40
0.6910831632980801
 50
194.4700297121
 51
260.1396197008
  0
ARC
  5
1D7
  8
0
  6
CONTINUOUS
 62
     7
 10
39.1262673545
 20
212.2291498063
 30
0.0
 40
0.2562550529539062
 50
280.9876373392
 51
20.2625414356
  0
ARC
  5
1D8
  8
0
  6
CONTINUOUS
 62
     7
 10
40.0185485078
 20
212.557499476
 30
0.0
 40
0.6945233237962971
 50
134.7388998947
 51
200.18111511
  0
ARC
  5
1D9
  8
0
  6
CONTINUOUS
 62
     7
 10
39.3494072816
 20
213.2332348525
 30
0.0
 40
0.2564596271088004
 50
314.6653744319
 51
80.0374501316
  0
LINE
  5
1DA
  8
0
  6
CONTINUOUS
 62
     7
 10
37.6120671427
 20
213.6216029916
 30
0.0
 11
37.4657472858
 21
213.5660607759
 31
0.0
  0
ARC
  5
1DB
  8
0
  6
CONTINUOUS
 62
     7
 10
-73.4889310409
 20
95.2196745769
 30
0.0
 40
162.3651700634219
 50
46.4642410114
 51
46.8220746464
  0
ARC
  5
1DC
  8
0
  6
CONTINUOUS
 62
     7
 10
-72.4707923895
 20
557.0450793162
 30
0.0
 40
361.5237731575152
 50
287.6907427225
 51
287.8506140714
  0
LINE
  5
1DD
  8
0
  6
CONTINUOUS
 62
     7
 10
37.3887392489
 20
212.6175515745
 30
0.0
 11
37.269189561
 21
212.7435008455
 31
0.0
  0
LINE
  5
1DE
  8
0
  6
CONTINUOUS
 62
     7
 10
37.3887392489
 20
212.6175515745
 30
0.0
 11
37.3566400523
 21
212.4001939241
 31
0.0
  0
ARC
  5
1DF
  8
0
  6
CONTINUOUS
 62
     7
 10
-75.6175874282
 20
235.7915047434
 30
0.0
 40
116.2382142439549
 50
348.1497053627
 51
348.6549359665
  0
LINE
  5
1E0
  8
0
  6
CONTINUOUS
 62
     7
 10
38.1433002914
 20
211.9213795681
 30
0.0
 11
37.9916737585
 21
211.8807832171
 31
0.0
  0
LINE
  5
1E1
  8
0
  6
CONTINUOUS
 62
     7
 10
37.6120671427
 20
213.6216029916
 30
0.0
 11
37.6858842356
 21
213.8686158155
 31
0.0
  0
LINE
  5
1E2
  8
0
  6
CONTINUOUS
 62
     7
 10
38.5899560789
 20
213.9294824023
 30
0.0
 11
38.4534039332
 21
214.0471177567
 31
0.0
  0
ARC
  5
1E3
  8
0
  6
CONTINUOUS
 62
     7
 10
-77.0936366607
 20
241.1193331152
 30
0.0
 40
118.8359441033601
 50
346.2756733007
 51
346.7734745002
  0
LINE
  5
1E4
  8
0
  6
CONTINUOUS
 62
     7
 10
38.1433002914
 20
211.9213795681
 30
0.0
 11
38.3455002012
 21
211.7575012539
 31
0.0
  0
ARC
  5
1E5
  8
0
  6
CONTINUOUS
 62
     7
 10
-78.3721218298
 20
82.7431517565
 30
0.0
 40
174.8465903628288
 50
47.7799777787
 51
48.1205847896
  0
LINE
  5
1E6
  8
0
  6
CONTINUOUS
 62
     7
 10
39.1211894604
 20
212.2292589788
 30
0.0
 11
39.0640216211
 21
212.0009443183
 31
0.0
  0
LINE
  5
1E7
  8
0
  6
CONTINUOUS
 62
     7
 10
39.3445173541
 20
213.2333103959
 30
0.0
 11
39.3937759364
 21
213.4858273361
 31
0.0
  0
ARC
  5
1E8
  8
0
  6
CONTINUOUS
 62
     7
 10
-78.9173653818
 20
593.7284210768
 30
0.0
 40
398.4499995737337
 50
287.1160019798
 51
287.2657942358
  0
LINE
  5
1E9
  8
0
  6
CONTINUOUS
 62
     7
 10
38.5899560789
 20
213.9294824023
 30
0.0
 11
38.8429614978
 21
213.9940184001
 31
0.0
  0
LINE
  5
1EA
  8
0
  6
CONTINUOUS
 62
     7
 10
39.1211894604
 20
212.2292589788
 30
0.0
 11
39.3666642049
 21
212.3178966735
 31
0.0
  0
LINE
  5
1EB
  8
0
  6
CONTINUOUS
 62
     7
 10
39.3445173541
 20
213.2333103959
 30
0.0
 11
39.5296894277
 21
213.0508345012
 31
0.0
  0
LINE
  5
1EC
  8
0
  6
CONTINUOUS
 62
     7
 10
42.1456595214
 20
239.725431094
 30
0.0
 11
42.7073578613
 21
239.725431094
 31
0.0
  0
LINE
  5
1ED
  8
0
  6
CONTINUOUS
 62
     7
 10
42.7073578613
 20
239.5570461099
 30
0.0
 11
42.7073578613
 21
239.725431094
 31
0.0
  0
LINE
  5
1EE
  8
0
  6
CONTINUOUS
 62
     7
 10
41.6203162896
 20
239.3278848771
 30
0.0
 11
41.6203162896
 21
239.2173778657
 31
0.0
  0
LINE
  5
1EF
  8
0
  6
CONTINUOUS
 62
     7
 10
41.6203162896
 20
239.3278848771
 30
0.0
 11
42.1456595214
 21
239.725431094
 31
0.0
  0
LINE
  5
1F0
  8
0
  6
CONTINUOUS
 62
     7
 10
34.3753409544
 20
239.725431094
 30
0.0
 11
34.5135993412
 21
240.150489511
 31
0.0
  0
LINE
  5
1F1
  8
0
  6
CONTINUOUS
 62
     7
 10
34.5135993412
 20
240.150489511
 30
0.0
 11
42.2839180829
 21
240.150489511
 31
0.0
  0
LINE
  5
1F2
  8
0
  6
CONTINUOUS
 62
     7
 10
42.1456595214
 20
239.725431094
 30
0.0
 11
42.2839180829
 21
240.150489511
 31
0.0
  0
LINE
  5
1F3
  8
0
  6
CONTINUOUS
 62
     7
 10
34.6420647112
 20
239.3278848771
 30
0.0
 11
41.6203162896
 21
239.3278848771
 31
0.0
  0
LINE
  5
1F4
  8
0
  6
CONTINUOUS
 62
     7
 10
34.6420647112
 20
239.3278848771
 30
0.0
 11
34.3753409544
 21
239.725431094
 31
0.0
  0
LINE
  5
1F5
  8
0
  6
CONTINUOUS
 62
     7
 10
34.5135993412
 20
231.5003733542
 30
0.0
 11
34.7938810738
 21
231.5003733542
 31
0.0
  0
LINE
  5
1F6
  8
0
  6
CONTINUOUS
 62
     7
 10
34.3753409544
 20
231.9254313056
 30
0.0
 11
34.5135993412
 21
231.5003733542
 31
0.0
  0
LINE
  5
1F7
  8
0
  6
CONTINUOUS
 62
     7
 10
34.6420647112
 20
232.3229775224
 30
0.0
 11
34.3753409544
 21
231.9254313056
 31
0.0
  0
LINE
  5
1F8
  8
0
  6
CONTINUOUS
 62
     7
 10
34.7938810738
 20
232.3229775224
 30
0.0
 11
34.6420647112
 21
232.3229775224
 31
0.0
  0
LINE
  5
1F9
  8
0
  6
CONTINUOUS
 62
     7
 10
34.6420647112
 20
232.3229775224
 30
0.0
 11
34.6420647112
 21
239.3278848771
 31
0.0
  0
LINE
  5
1FA
  8
0
  6
CONTINUOUS
 62
     7
 10
34.3753409544
 20
231.9254313056
 30
0.0
 11
34.0901590681
 21
231.9254313056
 31
0.0
  0
LINE
  5
1FB
  8
0
  6
CONTINUOUS
 62
     7
 10
34.0901590681
 20
231.9254313056
 30
0.0
 11
34.0901590681
 21
239.725431094
 31
0.0
  0
LINE
  5
1FC
  8
0
  6
CONTINUOUS
 62
     7
 10
34.3753409544
 20
239.725431094
 30
0.0
 11
34.0901590681
 21
239.725431094
 31
0.0
  0
ARC
  5
1FD
  8
0
  6
CONTINUOUS
 62
     7
 10
42.2831289582
 20
239.726260531
 30
0.0
 40
0.4242297139289456
 50
359.8879775035
 51
89.893422032
  0
ARC
  5
1FE
  8
0
  6
CONTINUOUS
 62
     7
 10
34.5143892549
 20
239.7262592513
 30
0.0
 40
0.424230995134936
 50
90.1066841994
 51
180.1118493188
  0
ARC
  5
1FF
  8
0
  6
CONTINUOUS
 62
     7
 10
34.5143865217
 20
231.9246008903
 30
0.0
 40
0.4242282663762147
 50
179.8878449953
 51
269.8936842549
  0
POLYLINE
  5
200
  8
0
  6
CONTINUOUS
 62
     7
 66
     1
 10
0.0
 20
0.0
 30
0.0
  0
VERTEX
  5
522
  8
0
  6
CONTINUOUS
 62
     7
 10
34.4800357853
 20
222.8352166871
 30
0.0
  0
VERTEX
  5
523
  8
0
  6
CONTINUOUS
 62
     7
 10
34.4260068815
 20
222.8304897594
 30
0.0
  0
VERTEX
  5
524
  8
0
  6
CONTINUOUS
 62
     7
 10
34.3735028437
 20
222.8258962436
 30
0.0
  0
VERTEX
  5
525
  8
0
  6
CONTINUOUS
 62
     7
 10
34.3233931199
 20
222.8215122754
 30
0.0
  0
VERTEX
  5
526
  8
0
  6
CONTINUOUS
 62
     7
 10
34.2762267247
 20
222.8173857015
 30
0.0
  0
VERTEX
  5
527
  8
0
  6
CONTINUOUS
 62
     7
 10
34.2325204548
 20
222.8135619238
 30
0.0
  0
VERTEX
  5
528
  8
0
  6
CONTINUOUS
 62
     7
 10
34.1927531554
 20
222.8100827355
 30
0.0
  0
VERTEX
  5
529
  8
0
  6
CONTINUOUS
 62
     7
 10
34.1573605111
 20
222.8069863208
 30
0.0
  0
VERTEX
  5
52A
  8
0
  6
CONTINUOUS
 62
     7
 10
34.1267303012
 20
222.8043064401
 30
0.0
  0
VERTEX
  5
52B
  8
0
  6
CONTINUOUS
 62
     7
 10
34.1011980928
 20
222.8020726629
 30
0.0
  0
VERTEX
  5
52C
  8
0
  6
CONTINUOUS
 62
     7
 10
34.0810436902
 20
222.8003094364
 30
0.0
  0
VERTEX
  5
52D
  8
0
  6
CONTINUOUS
 62
     7
 10
34.066487875
 20
222.7990359692
 30
0.0
  0
VERTEX
  5
52E
  8
0
  6
CONTINUOUS
 62
     7
 10
34.0576900781
 20
222.7982662311
 30
0.0
  0
VERTEX
  5
52F
  8
0
  6
CONTINUOUS
 62
     7
 10
34.0547466913
 20
222.7980087204
 30
0.0
  0
SEQEND
  5
530
  8
0
  6
CONTINUOUS
 62
     7
  0
ARC
  5
201
  8
0
  6
CONTINUOUS
 62
     7
 10
34.0503889297
 20
222.8478184552
 30
0.0
 40
0.0500000000000251
 50
174.0
 51
275.0
  0
POLYLINE
  5
202
  8
0
  6
CONTINUOUS
 62
     7
 66
     1
 10
0.0
 20
0.0
 30
0.0
  0
VERTEX
  5
531
  8
0
  6
CONTINUOUS
 62
     7
 10
34.0901590681
 20
223.7045447268
 30
0.0
  0
VERTEX
  5
532
  8
0
  6
CONTINUOUS
 62
     7
 10
34.0932464606
 20
223.7048148686
 30
0.0
  0
VERTEX
  5
533
  8
0
  6
CONTINUOUS
 62
     7
 10
34.1024634691
 20
223.7056212775
 30
0.0
  0
VERTEX
  5
534
  8
0
  6
CONTINUOUS
 62
     7
 10
34.1176758085
 20
223.7069521374
 30
0.0
  0
VERTEX
  5
535
  8
0
  6
CONTINUOUS
 62
     7
 10
34.1386615911
 20
223.7087881817
 30
0.0
  0
VERTEX
  5
536
  8
0
  6
CONTINUOUS
 62
     7
 10
34.1651148193
 20
223.7111025183
 30
0.0
  0
VERTEX
  5
537
  8
0
  6
CONTINUOUS
 62
     7
 10
34.1966497509
 20
223.7138615032
 30
0.0
  0
VERTEX
  5
538
  8
0
  6
CONTINUOUS
 62
     7
 10
34.2328064872
 20
223.7170247985
 30
0.0
  0
VERTEX
  5
539
  8
0
  6
CONTINUOUS
 62
     7
 10
34.2730578414
 20
223.7205463038
 30
0.0
  0
VERTEX
  5
53A
  8
0
  6
CONTINUOUS
 62
     7
 10
34.3168168184
 20
223.7243747381
 30
0.0
  0
VERTEX
  5
53B
  8
0
  6
CONTINUOUS
 62
     7
 10
34.3231554581
 20
223.7249292825
 30
0.0
  0
SEQEND
  5
53C
  8
0
  6
CONTINUOUS
 62
     7
  0
LINE
  5
203
  8
0
  6
CONTINUOUS
 62
     7
 10
34.0901590681
 20
223.7045447268
 30
0.0
 11
34.0006628104
 21
222.8530448787
 31
0.0
  0
LINE
  5
204
  8
0
  6
CONTINUOUS
 62
     7
 10
34.6420647112
 20
226.8345571515
 30
0.0
 11
34.4800357853
 21
225.9156454979
 31
0.0
  0
LINE
  5
205
  8
0
  6
CONTINUOUS
 62
     7
 10
34.7938810738
 20
226.8478394412
 30
0.0
 11
34.6420647112
 21
226.8345571515
 31
0.0
  0
LINE
  5
206
  8
0
  6
CONTINUOUS
 62
     7
 10
34.2084544392
 20
224.3754310925
 30
0.0
 11
34.0901590681
 21
223.7045447268
 31
0.0
  0
POLYLINE
  5
207
  8
0
  6
CONTINUOUS
 62
     7
 66
     1
 10
0.0
 20
0.0
 30
0.0
  0
VERTEX
  5
53D
  8
0
  6
CONTINUOUS
 62
     7
 10
34.0547466913
 20
225.9528534646
 30
0.0
  0
VERTEX
  5
53E
  8
0
  6
CONTINUOUS
 62
     7
 10
34.0576900781
 20
225.9525959539
 30
0.0
  0
VERTEX
  5
53F
  8
0
  6
CONTINUOUS
 62
     7
 10
34.066487875
 20
225.9518262158
 30
0.0
  0
VERTEX
  5
540
  8
0
  6
CONTINUOUS
 62
     7
 10
34.0810436902
 20
225.9505527486
 30
0.0
  0
VERTEX
  5
541
  8
0
  6
CONTINUOUS
 62
     7
 10
34.1011980928
 20
225.9487895221
 30
0.0
  0
VERTEX
  5
542
  8
0
  6
CONTINUOUS
 62
     7
 10
34.1267303012
 20
225.9465557449
 30
0.0
  0
VERTEX
  5
543
  8
0
  6
CONTINUOUS
 62
     7
 10
34.1573605111
 20
225.9438758642
 30
0.0
  0
VERTEX
  5
544
  8
0
  6
CONTINUOUS
 62
     7
 10
34.1927531554
 20
225.9407794495
 30
0.0
  0
VERTEX
  5
545
  8
0
  6
CONTINUOUS
 62
     7
 10
34.2325204548
 20
225.9373002612
 30
0.0
  0
VERTEX
  5
546
  8
0
  6
CONTINUOUS
 62
     7
 10
34.2762267247
 20
225.9334764835
 30
0.0
  0
VERTEX
  5
547
  8
0
  6
CONTINUOUS
 62
     7
 10
34.3233931199
 20
225.9293499096
 30
0.0
  0
VERTEX
  5
548
  8
0
  6
CONTINUOUS
 62
     7
 10
34.3735028437
 20
225.9249659414
 30
0.0
  0
VERTEX
  5
549
  8
0
  6
CONTINUOUS
 62
     7
 10
34.4260068815
 20
225.9203724256
 30
0.0
  0
VERTEX
  5
54A
  8
0
  6
CONTINUOUS
 62
     7
 10
34.4803300541
 20
225.9156197701
 30
0.0
  0
VERTEX
  5
54B
  8
0
  6
CONTINUOUS
 62
     7
 10
34.5358771011
 20
225.9107600125
 30
0.0
  0
VERTEX
  5
54C
  8
0
  6
CONTINUOUS
 62
     7
 10
34.5920394903
 20
225.905846471
 30
0.0
  0
SEQEND
  5
54D
  8
0
  6
CONTINUOUS
 62
     7
  0
ARC
  5
208
  8
0
  6
CONTINUOUS
 62
     7
 10
34.0503889297
 20
225.9030437298
 30
0.0
 40
0.0499999999999986
 50
85.0
 51
186.0
  0
LINE
  5
209
  8
0
  6
CONTINUOUS
 62
     7
 10
34.5920394903
 20
225.905846471
 30
0.0
 11
42.3623582611
 21
225.2260316322
 31
0.0
  0
POLYLINE
  5
20A
  8
0
  6
CONTINUOUS
 62
     7
 66
     1
 10
0.0
 20
0.0
 30
0.0
  0
VERTEX
  5
54E
  8
0
  6
CONTINUOUS
 62
     7
 10
42.3623582611
 20
225.2260316322
 30
0.0
  0
VERTEX
  5
54F
  8
0
  6
CONTINUOUS
 62
     7
 10
42.4185207376
 20
225.2211180907
 30
0.0
  0
VERTEX
  5
550
  8
0
  6
CONTINUOUS
 62
     7
 10
42.47406761
 20
225.2162583331
 30
0.0
  0
VERTEX
  5
551
  8
0
  6
CONTINUOUS
 62
     7
 10
42.5283907244
 20
225.2115056776
 30
0.0
  0
VERTEX
  5
552
  8
0
  6
CONTINUOUS
 62
     7
 10
42.5808949659
 20
225.2069121618
 30
0.0
  0
VERTEX
  5
553
  8
0
  6
CONTINUOUS
 62
     7
 10
42.6310043113
 20
225.2025281354
 30
0.0
  0
VERTEX
  5
554
  8
0
  6
CONTINUOUS
 62
     7
 10
42.6781711431
 20
225.1984016197
 30
0.0
  0
VERTEX
  5
555
  8
0
  6
CONTINUOUS
 62
     7
 10
42.7218771802
 20
225.1945777839
 30
0.0
  0
VERTEX
  5
556
  8
0
  6
CONTINUOUS
 62
     7
 10
42.7616446542
 20
225.1910985955
 30
0.0
  0
VERTEX
  5
557
  8
0
  6
CONTINUOUS
 62
     7
 10
42.7970367747
 20
225.1880021808
 30
0.0
  0
VERTEX
  5
558
  8
0
  6
CONTINUOUS
 62
     7
 10
42.8276670428
 20
225.1853223583
 30
0.0
  0
VERTEX
  5
559
  8
0
  6
CONTINUOUS
 62
     7
 10
42.8531992512
 20
225.1830885811
 30
0.0
  0
VERTEX
  5
55A
  8
0
  6
CONTINUOUS
 62
     7
 10
42.873354003
 20
225.1813252964
 30
0.0
  0
VERTEX
  5
55B
  8
0
  6
CONTINUOUS
 62
     7
 10
42.8879096436
 20
225.1800518292
 30
0.0
  0
VERTEX
  5
55C
  8
0
  6
CONTINUOUS
 62
     7
 10
42.8967078479
 20
225.1792821493
 30
0.0
  0
VERTEX
  5
55D
  8
0
  6
CONTINUOUS
 62
     7
 10
42.8996508272
 20
225.1790246386
 30
0.0
  0
SEQEND
  5
55E
  8
0
  6
CONTINUOUS
 62
     7
  0
ARC
  5
20B
  8
0
  6
CONTINUOUS
 62
     7
 10
42.8952931321
 20
225.1292148821
 30
0.0
 40
0.0500000000000112
 50
344.0
 51
85.0
  0
POLYLINE
  5
20C
  8
0
  6
CONTINUOUS
 62
     7
 66
     1
 10
0.0
 20
0.0
 30
0.0
  0
VERTEX
  5
55F
  8
0
  6
CONTINUOUS
 62
     7
 10
34.0901590681
 20
225.0463174582
 30
0.0
  0
VERTEX
  5
560
  8
0
  6
CONTINUOUS
 62
     7
 10
34.0932464606
 20
225.0460473164
 30
0.0
  0
VERTEX
  5
561
  8
0
  6
CONTINUOUS
 62
     7
 10
34.1024634691
 20
225.0452409075
 30
0.0
  0
VERTEX
  5
562
  8
0
  6
CONTINUOUS
 62
     7
 10
34.1176758085
 20
225.0439100475
 30
0.0
  0
VERTEX
  5
563
  8
0
  6
CONTINUOUS
 62
     7
 10
34.1386615911
 20
225.0420740033
 30
0.0
  0
VERTEX
  5
564
  8
0
  6
CONTINUOUS
 62
     7
 10
34.1651148193
 20
225.0397596667
 30
0.0
  0
VERTEX
  5
565
  8
0
  6
CONTINUOUS
 62
     7
 10
34.1966497509
 20
225.0370006818
 30
0.0
  0
VERTEX
  5
566
  8
0
  6
CONTINUOUS
 62
     7
 10
34.2328064872
 20
225.0338373864
 30
0.0
  0
VERTEX
  5
567
  8
0
  6
CONTINUOUS
 62
     7
 10
34.2730578414
 20
225.0303158812
 30
0.0
  0
VERTEX
  5
568
  8
0
  6
CONTINUOUS
 62
     7
 10
34.3168168184
 20
225.0264874469
 30
0.0
  0
VERTEX
  5
569
  8
0
  6
CONTINUOUS
 62
     7
 10
34.3634453457
 20
225.022407963
 30
0.0
  0
VERTEX
  5
56A
  8
0
  6
CONTINUOUS
 62
     7
 10
34.4122634416
 20
225.0181369759
 30
0.0
  0
VERTEX
  5
56B
  8
0
  6
CONTINUOUS
 62
     7
 10
34.4625592553
 20
225.0137366513
 30
0.0
  0
VERTEX
  5
56C
  8
0
  6
CONTINUOUS
 62
     7
 10
34.5135993412
 20
225.0092711924
 30
0.0
  0
SEQEND
  5
56D
  8
0
  6
CONTINUOUS
 62
     7
  0
LINE
  5
20D
  8
0
  6
CONTINUOUS
 62
     7
 10
34.0901590681
 20
225.0463174582
 30
0.0
 11
34.0006628104
 21
225.8978173063
 31
0.0
  0
LINE
  5
20E
  8
0
  6
CONTINUOUS
 62
     7
 10
34.5135993412
 20
225.0092711924
 30
0.0
 11
42.2839180829
 21
224.3294564154
 31
0.0
  0
POLYLINE
  5
20F
  8
0
  6
CONTINUOUS
 62
     7
 66
     1
 10
0.0
 20
0.0
 30
0.0
  0
VERTEX
  5
56E
  8
0
  6
CONTINUOUS
 62
     7
 10
42.7073578613
 20
224.292410197
 30
0.0
  0
VERTEX
  5
56F
  8
0
  6
CONTINUOUS
 62
     7
 10
42.704270527
 20
224.2926803023
 30
0.0
  0
VERTEX
  5
570
  8
0
  6
CONTINUOUS
 62
     7
 10
42.6950541588
 20
224.2934866894
 30
0.0
  0
VERTEX
  5
571
  8
0
  6
CONTINUOUS
 62
     7
 10
42.6798419358
 20
224.2948176003
 30
0.0
  0
VERTEX
  5
572
  8
0
  6
CONTINUOUS
 62
     7
 10
42.6588555129
 20
224.2966536155
 30
0.0
  0
VERTEX
  5
573
  8
0
  6
CONTINUOUS
 62
     7
 10
42.6324022265
 20
224.2989679739
 30
0.0
  0
VERTEX
  5
574
  8
0
  6
CONTINUOUS
 62
     7
 10
42.6008676442
 20
224.3017269224
 30
0.0
  0
VERTEX
  5
575
  8
0
  6
CONTINUOUS
 62
     7
 10
42.5647109078
 20
224.304890225
 30
0.0
  0
VERTEX
  5
576
  8
0
  6
CONTINUOUS
 62
     7
 10
42.5244596118
 20
224.3084117667
 30
0.0
  0
VERTEX
  5
577
  8
0
  6
CONTINUOUS
 62
     7
 10
42.4807004893
 20
224.3122401791
 30
0.0
  0
VERTEX
  5
578
  8
0
  6
CONTINUOUS
 62
     7
 10
42.434071962
 20
224.3163196449
 30
0.0
  0
VERTEX
  5
579
  8
0
  6
CONTINUOUS
 62
     7
 10
42.3852538953
 20
224.3205906756
 30
0.0
  0
VERTEX
  5
57A
  8
0
  6
CONTINUOUS
 62
     7
 10
42.3349582853
 20
224.3249909856
 30
0.0
  0
VERTEX
  5
57B
  8
0
  6
CONTINUOUS
 62
     7
 10
42.2839180829
 20
224.3294564154
 30
0.0
  0
SEQEND
  5
57C
  8
0
  6
CONTINUOUS
 62
     7
  0
LINE
  5
210
  8
0
  6
CONTINUOUS
 62
     7
 10
42.7073578613
 20
224.292410197
 30
0.0
 11
42.943355933
 21
225.1154330019
 31
0.0
  0
LINE
  5
211
  8
0
  6
CONTINUOUS
 62
     7
 10
34.3753409544
 20
223.4289706843
 30
0.0
 11
34.5135993412
 21
225.0092711924
 31
0.0
  0
LINE
  5
212
  8
0
  6
CONTINUOUS
 62
     7
 10
42.1456595214
 20
222.7491558455
 30
0.0
 11
42.2839180829
 21
224.3294564154
 31
0.0
  0
LINE
  5
213
  8
0
  6
CONTINUOUS
 62
     7
 10
41.6203162896
 20
221.30578723
 30
0.0
 11
42.1456595214
 21
222.7491558455
 31
0.0
  0
LINE
  5
214
  8
0
  6
CONTINUOUS
 62
     7
 10
34.6420647112
 20
221.9163050335
 30
0.0
 11
41.6203162896
 21
221.30578723
 31
0.0
  0
LINE
  5
215
  8
0
  6
CONTINUOUS
 62
     7
 10
34.6420647112
 20
221.9163050335
 30
0.0
 11
34.3753409544
 21
223.4289706843
 31
0.0
  0
LINE
  5
216
  8
0
  6
CONTINUOUS
 62
     7
 10
34.3753409544
 20
223.4289706843
 30
0.0
 11
34.0901590681
 21
225.0463174582
 31
0.0
  0
LINE
  5
217
  8
0
  6
CONTINUOUS
 62
     7
 10
42.1456595214
 20
222.7491558455
 30
0.0
 11
42.7073578613
 21
224.292410197
 31
0.0
  0
LINE
  5
218
  8
0
  6
CONTINUOUS
 62
     7
 10
42.8106461914
 20
209.025431091
 30
0.0
 11
42.8106461914
 21
214.8155426998
 31
0.0
  0
LINE
  5
219
  8
0
  6
CONTINUOUS
 62
     7
 10
34.5920394903
 20
217.2754310463
 30
0.0
 11
34.7938810738
 21
217.2754310463
 31
0.0
  0
ARC
  5
21A
  8
0
  6
CONTINUOUS
 62
     7
 10
34.5928229738
 20
216.8263597047
 30
0.0
 40
0.4490720251041939
 50
90.0999624015
 51
180.1185061676
  0
LINE
  5
21B
  8
0
  6
CONTINUOUS
 62
     7
 10
34.1437519092
 20
209.025431091
 30
0.0
 11
34.1437519092
 21
216.8254308794
 31
0.0
  0
ARC
  5
21C
  8
0
  6
CONTINUOUS
 62
     7
 10
34.5928225832
 20
209.024502806
 30
0.0
 40
0.4490716333802079
 50
179.8815626618
 51
269.9000873479
  0
LINE
  5
21D
  8
0
  6
CONTINUOUS
 62
     7
 10
34.5920394903
 20
208.5754318554
 30
0.0
 11
42.3623582611
 21
208.5754318554
 31
0.0
  0
ARC
  5
21E
  8
0
  6
CONTINUOUS
 62
     7
 10
42.3615745504
 20
209.02450377
 30
0.0
 40
0.4490725984611581
 50
270.0999912643
 51
0.118314089
  0
POLYLINE
  5
21F
  8
0
  6
CONTINUOUS
 62
     7
 66
     1
 10
0.0
 20
0.0
 30
0.0
  0
VERTEX
  5
57D
  8
0
  6
CONTINUOUS
 62
     7
 10
34.7938810738
 20
216.6124746595
 30
0.0
  0
VERTEX
  5
57E
  8
0
  6
CONTINUOUS
 62
     7
 10
34.7012762796
 20
216.7052800227
 30
0.0
  0
VERTEX
  5
57F
  8
0
  6
CONTINUOUS
 62
     7
 10
34.5817566268
 20
216.8254308794
 30
0.0
  0
SEQEND
  5
580
  8
0
  6
CONTINUOUS
 62
     7
  0
LINE
  5
220
  8
0
  6
CONTINUOUS
 62
     7
 10
35.5384244613
 20
209.9754313399
 30
0.0
 11
35.5384244613
 21
215.105976576
 31
0.0
  0
ARC
  5
221
  8
0
  6
CONTINUOUS
 62
     7
 10
102.3082168874
 20
141.780323264
 30
0.0
 40
95.43991799087858
 50
134.3949424245
 51
135.2043344859
  0
LINE
  5
222
  8
0
  6
CONTINUOUS
 62
     7
 10
35.5384244613
 20
209.9754313399
 30
0.0
 11
41.4159734065
 21
209.9754313399
 31
0.0
  0
ARC
  5
223
  8
0
  6
CONTINUOUS
 62
     7
 10
107.6766217209
 20
274.3304768504
 30
0.0
 40
92.36907165123681
 50
224.1641490441
 51
224.9914466611
  0
CIRCLE
  5
224
  8
0
  6
CONTINUOUS
 62
     7
 10
40.8679928116
 20
210.525885153
 30
0.0
 40
0.1727507779137108
  0
ARC
  5
225
  8
0
  6
CONTINUOUS
 62
     7
 10
38.4740741302
 20
212.9307156354
 30
0.0
 40
2.341697819984855
 50
89.9235477309
 51
59.1240303401
  0
ARC
  5
226
  8
0
  6
CONTINUOUS
 62
     7
 10
38.477171775
 20
212.9428259436
 30
0.0
 40
2.32958542720575
 50
80.5101128743
 51
89.9993363252
  0
LINE
  5
227
  8
0
  6
CONTINUOUS
 62
     7
 10
41.4159734065
 20
209.9754313399
 30
0.0
 11
41.4159734065
 21
214.8711212371
 31
0.0
  0
ARC
  5
228
  8
0
  6
CONTINUOUS
 62
     7
 10
38.4267016309
 20
212.9305228309
 30
0.0
 40
2.244909518762471
 50
89.9346242756
 51
64.1841867401
  0
ARC
  5
229
  8
0
  6
CONTINUOUS
 62
     7
 10
38.4292502259
 20
212.9421888229
 30
0.0
 40
2.233242065493324
 50
77.8277325994
 51
89.999669171
  0
POLYLINE
  5
22A
  8
0
  6
CONTINUOUS
 62
     7
 66
     1
 10
0.0
 20
0.0
 30
0.0
  0
VERTEX
  5
581
  8
0
  6
CONTINUOUS
 62
     7
 10
43.999880858
 20
224.9823849574
 30
0.0
  0
VERTEX
  5
582
  8
0
  6
CONTINUOUS
 62
     7
 10
44.0829119908
 20
224.9751206995
 30
0.0
  0
VERTEX
  5
583
  8
0
  6
CONTINUOUS
 62
     7
 10
44.16556035
 20
224.9678899111
 30
0.0
  0
VERTEX
  5
584
  8
0
  6
CONTINUOUS
 62
     7
 10
44.2495982425
 20
224.9605375268
 30
0.0
  0
VERTEX
  5
585
  8
0
  6
CONTINUOUS
 62
     7
 10
44.3320174964
 20
224.9533267618
 30
0.0
  0
VERTEX
  5
586
  8
0
  6
CONTINUOUS
 62
     7
 10
44.4319484087
 20
224.9445839711
 30
0.0
  0
VERTEX
  5
587
  8
0
  6
CONTINUOUS
 62
     7
 10
44.5283272566
 20
224.9361518929
 30
0.0
  0
SEQEND
  5
588
  8
0
  6
CONTINUOUS
 62
     7
  0
ARC
  5
22B
  8
0
  6
CONTINUOUS
 62
     7
 10
44.0957681388
 20
216.8224727718
 30
0.0
 40
2.056513292267403
 50
267.3275499338
 51
282.1420530562
  0
POLYLINE
  5
22C
  8
0
  6
CONTINUOUS
 62
     7
 66
     1
 10
0.0
 20
0.0
 30
0.0
  0
VERTEX
  5
589
  8
0
  6
CONTINUOUS
 62
     7
 10
38.9406884352
 20
214.9699038286
 30
0.0
  0
VERTEX
  5
58A
  8
0
  6
CONTINUOUS
 62
     7
 10
38.9236731717
 20
215.0429809858
 30
0.0
  0
VERTEX
  5
58B
  8
0
  6
CONTINUOUS
 62
     7
 10
38.8811960148
 20
215.187324809
 30
0.0
  0
VERTEX
  5
58C
  8
0
  6
CONTINUOUS
 62
     7
 10
38.8263006026
 20
215.3309189175
 30
0.0
  0
VERTEX
  5
58D
  8
0
  6
CONTINUOUS
 62
     7
 10
38.7582218537
 20
215.4720655103
 30
0.0
  0
VERTEX
  5
58E
  8
0
  6
CONTINUOUS
 62
     7
 10
38.6761963165
 20
215.6090649236
 30
0.0
  0
VERTEX
  5
58F
  8
0
  6
CONTINUOUS
 62
     7
 10
38.6054002011
 20
215.7072998975
 30
0.0
  0
VERTEX
  5
590
  8
0
  6
CONTINUOUS
 62
     7
 10
38.5250822438
 20
215.8012694139
 30
0.0
  0
VERTEX
  5
591
  8
0
  6
CONTINUOUS
 62
     7
 10
38.4346927313
 20
215.8889254947
 30
0.0
  0
VERTEX
  5
592
  8
0
  6
CONTINUOUS
 62
     7
 10
38.3582334763
 20
215.9504030291
 30
0.0
  0
VERTEX
  5
593
  8
0
  6
CONTINUOUS
 62
     7
 10
38.2748852281
 20
216.0058027525
 30
0.0
  0
VERTEX
  5
594
  8
0
  6
CONTINUOUS
 62
     7
 10
38.1851143466
 20
216.0531903077
 30
0.0
  0
VERTEX
  5
595
  8
0
  6
CONTINUOUS
 62
     7
 10
38.1111603493
 20
216.0832617823
 30
0.0
  0
VERTEX
  5
596
  8
0
  6
CONTINUOUS
 62
     7
 10
38.0337255338
 20
216.1067627762
 30
0.0
  0
VERTEX
  5
597
  8
0
  6
CONTINUOUS
 62
     7
 10
37.9540290015
 20
216.1228066702
 30
0.0
  0
VERTEX
  5
598
  8
0
  6
CONTINUOUS
 62
     7
 10
37.8724449111
 20
216.1307461951
 30
0.0
  0
VERTEX
  5
599
  8
0
  6
CONTINUOUS
 62
     7
 10
37.7901583707
 20
216.1305897329
 30
0.0
  0
VERTEX
  5
59A
  8
0
  6
CONTINUOUS
 62
     7
 10
37.7088508831
 20
216.1225468312
 30
0.0
  0
VERTEX
  5
59B
  8
0
  6
CONTINUOUS
 62
     7
 10
37.5957648067
 20
216.0981536303
 30
0.0
  0
VERTEX
  5
59C
  8
0
  6
CONTINUOUS
 62
     7
 10
37.4879618904
 20
216.0608765129
 30
0.0
  0
VERTEX
  5
59D
  8
0
  6
CONTINUOUS
 62
     7
 10
37.3757174967
 20
216.007169934
 30
0.0
  0
VERTEX
  5
59E
  8
0
  6
CONTINUOUS
 62
     7
 10
37.2712955142
 20
215.9430856277
 30
0.0
  0
VERTEX
  5
59F
  8
0
  6
CONTINUOUS
 62
     7
 10
37.1750859341
 20
215.8712983523
 30
0.0
  0
VERTEX
  5
5A0
  8
0
  6
CONTINUOUS
 62
     7
 10
37.0652846323
 20
215.7733288054
 30
0.0
  0
VERTEX
  5
5A1
  8
0
  6
CONTINUOUS
 62
     7
 10
36.9660869038
 20
215.6680111234
 30
0.0
  0
VERTEX
  5
5A2
  8
0
  6
CONTINUOUS
 62
     7
 10
36.8770177739
 20
215.5572116767
 30
0.0
  0
VERTEX
  5
5A3
  8
0
  6
CONTINUOUS
 62
     7
 10
36.7976022681
 20
215.442797767
 30
0.0
  0
VERTEX
  5
5A4
  8
0
  6
CONTINUOUS
 62
     7
 10
36.7231556011
 20
215.3186375667
 30
0.0
  0
VERTEX
  5
5A5
  8
0
  6
CONTINUOUS
 62
     7
 10
36.6582305433
 20
215.1918603499
 30
0.0
  0
VERTEX
  5
5A6
  8
0
  6
CONTINUOUS
 62
     7
 10
36.6027237179
 20
215.0633732249
 30
0.0
  0
SEQEND
  5
5A7
  8
0
  6
CONTINUOUS
 62
     7
  0
LINE
  5
22D
  8
0
  6
CONTINUOUS
 62
     7
 10
36.6027237179
 20
215.0633732249
 30
0.0
 11
35.2938810975
 21
215.1157712955
 31
0.0
  0
LINE
  5
22E
  8
0
  6
CONTINUOUS
 62
     7
 10
35.2938810975
 20
215.1157712955
 30
0.0
 11
35.2938810975
 21
221.8592785225
 31
0.0
  0
LINE
  5
22F
  8
0
  6
CONTINUOUS
 62
     7
 10
42.3236059288
 20
221.2442573086
 30
0.0
 11
41.6203162896
 21
221.30578723
 31
0.0
  0
ARC
  5
230
  8
0
  6
CONTINUOUS
 62
     7
 10
42.4325140666
 20
222.4900059645
 30
0.0
 40
1.250500178398363
 50
265.0036856191
 51
84.7203572124
  0
POLYLINE
  5
231
  8
0
  6
CONTINUOUS
 62
     7
 66
     1
 10
0.0
 20
0.0
 30
0.0
  0
VERTEX
  5
5A8
  8
0
  6
CONTINUOUS
 62
     7
 10
42.7073578613
 20
224.292410197
 30
0.0
  0
VERTEX
  5
5A9
  8
0
  6
CONTINUOUS
 62
     7
 10
42.6756826492
 20
224.1819434434
 30
0.0
  0
VERTEX
  5
5AA
  8
0
  6
CONTINUOUS
 62
     7
 10
42.5475810917
 20
223.7352008392
 30
0.0
  0
SEQEND
  5
5AB
  8
0
  6
CONTINUOUS
 62
     7
  0
LINE
  5
232
  8
0
  6
CONTINUOUS
 62
     7
 10
43.999880858
 20
214.7681961228
 30
0.0
 11
38.9406884352
 21
214.9699038286
 31
0.0
  0
LINE
  5
233
  8
0
  6
CONTINUOUS
 62
     7
 10
42.9319956603
 20
225.0758128516
 30
0.0
 11
43.999880858
 21
224.9823849574
 31
0.0
  0
LINE
  5
234
  8
0
  6
CONTINUOUS
 62
     7
 10
45.9676890897
 20
215.1368815843
 30
0.0
 11
44.5283272566
 21
214.8119654898
 31
0.0
  0
LINE
  5
235
  8
0
  6
CONTINUOUS
 62
     7
 10
44.5283272566
 20
224.9361518929
 30
0.0
 11
45.9676890897
 21
224.8102241005
 31
0.0
  0
LINE
  5
236
  8
0
  6
CONTINUOUS
 62
     7
 10
34.7938810738
 20
215.3471621145
 30
0.0
 11
34.7938810738
 21
221.9030227438
 31
0.0
  0
LINE
  5
237
  8
0
  6
CONTINUOUS
 62
     7
 10
35.2938810975
 20
215.1157712955
 30
0.0
 11
34.7938810738
 21
215.3471621145
 31
0.0
  0
ARC
  5
238
  8
0
  6
CONTINUOUS
 62
     7
 10
48.5827415654
 20
227.0913688008
 30
0.0
 40
2.500381118737902
 50
265.007334341
 51
344.9926722037
  0
POLYLINE
  5
239
  8
0
  6
CONTINUOUS
 62
     7
 66
     1
 10
0.0
 20
0.0
 30
0.0
  0
VERTEX
  5
5AC
  8
0
  6
CONTINUOUS
 62
     7
 10
52.6741625073
 20
232.7000318487
 30
0.0
  0
VERTEX
  5
5AD
  8
0
  6
CONTINUOUS
 62
     7
 10
52.5954527112
 20
232.4062815328
 30
0.0
  0
VERTEX
  5
5AE
  8
0
  6
CONTINUOUS
 62
     7
 10
52.5140886458
 20
232.1026224103
 30
0.0
  0
VERTEX
  5
5AF
  8
0
  6
CONTINUOUS
 62
     7
 10
52.4302230479
 20
231.7896319013
 30
0.0
  0
VERTEX
  5
5B0
  8
0
  6
CONTINUOUS
 62
     7
 10
52.3440105172
 20
231.4678874258
 30
0.0
  0
VERTEX
  5
5B1
  8
0
  6
CONTINUOUS
 62
     7
 10
52.2556093784
 20
231.1379650068
 30
0.0
  0
VERTEX
  5
5B2
  8
0
  6
CONTINUOUS
 62
     7
 10
52.1624212416
 20
230.7901816834
 30
0.0
  0
VERTEX
  5
5B3
  8
0
  6
CONTINUOUS
 62
     7
 10
52.0669942053
 20
230.4340429996
 30
0.0
  0
VERTEX
  5
5B4
  8
0
  6
CONTINUOUS
 62
     7
 10
51.9695014956
 20
230.0701976214
 30
0.0
  0
VERTEX
  5
5B5
  8
0
  6
CONTINUOUS
 62
     7
 10
51.870118201
 20
229.6992932838
 30
0.0
  0
VERTEX
  5
5B6
  8
0
  6
CONTINUOUS
 62
     7
 10
51.7690156849
 20
229.3219777216
 30
0.0
  0
VERTEX
  5
5B7
  8
0
  6
CONTINUOUS
 62
     7
 10
51.6462189408
 20
228.8636906464
 30
0.0
  0
VERTEX
  5
5B8
  8
0
  6
CONTINUOUS
 62
     7
 10
51.5211851599
 20
228.3970612493
 30
0.0
  0
VERTEX
  5
5B9
  8
0
  6
CONTINUOUS
 62
     7
 10
51.3942123654
 20
227.9231919833
 30
0.0
  0
VERTEX
  5
5BA
  8
0
  6
CONTINUOUS
 62
     7
 10
51.2636670174
 20
227.435986178
 30
0.0
  0
VERTEX
  5
5BB
  8
0
  6
CONTINUOUS
 62
     7
 10
51.1314415636
 20
226.9425135032
 30
0.0
  0
VERTEX
  5
5BC
  8
0
  6
CONTINUOUS
 62
     7
 10
50.9978414776
 20
226.4439136647
 30
0.0
  0
SEQEND
  5
5BD
  8
0
  6
CONTINUOUS
 62
     7
  0
ARC
  5
23A
  8
0
  6
CONTINUOUS
 62
     7
 10
56.8425467186
 20
254.0931839406
 30
0.0
 40
21.79546703698187
 50
240.069414797
 51
258.9742551891
  0
ARC
  5
23B
  8
0
  6
CONTINUOUS
 62
     7
 10
56.064960725
 20
192.803893754
 30
0.0
 40
20.0688343944808
 50
112.5612377951
 51
120.2074248844
  0
ARC
  5
23C
  8
0
  6
CONTINUOUS
 62
     7
 10
25.527526989
 20
271.6310661765
 30
0.0
 40
64.47439612783057
 50
290.7451631697
 51
293.2688064247
  0
ARC
  5
23D
  8
0
  6
CONTINUOUS
 62
     7
 10
44.8932656418
 20
217.4232568283
 30
0.0
 40
7.905046863094735
 50
320.5552669729
 51
349.8321578389
  0
ARC
  5
23E
  8
0
  6
CONTINUOUS
 62
     7
 10
54.5041360243
 20
176.5634833333
 30
0.0
 40
39.50668271194996
 50
92.6549252543
 51
102.4786629355
  0
POLYLINE
  5
23F
  8
0
  6
CONTINUOUS
 62
     7
 66
     1
 10
0.0
 20
0.0
 30
0.0
  0
VERTEX
  5
5BE
  8
0
  6
CONTINUOUS
 62
     7
 10
45.9676890897
 20
224.8102241005
 30
0.0
  0
VERTEX
  5
5BF
  8
0
  6
CONTINUOUS
 62
     7
 10
46.3550866844
 20
224.7763311766
 30
0.0
  0
VERTEX
  5
5C0
  8
0
  6
CONTINUOUS
 62
     7
 10
46.7472954916
 20
224.7420173239
 30
0.0
  0
VERTEX
  5
5C1
  8
0
  6
CONTINUOUS
 62
     7
 10
47.1440221446
 20
224.7073082703
 30
0.0
  0
VERTEX
  5
5C2
  8
0
  6
CONTINUOUS
 62
     7
 10
47.546911359
 20
224.6720600101
 30
0.0
  0
VERTEX
  5
5C3
  8
0
  6
CONTINUOUS
 62
     7
 10
47.954052061
 20
224.6364398611
 30
0.0
  0
VERTEX
  5
5C4
  8
0
  6
CONTINUOUS
 62
     7
 10
48.3651378455
 20
224.6004745115
 30
0.0
  0
SEQEND
  5
5C5
  8
0
  6
CONTINUOUS
 62
     7
  0
ARC
  5
240
  8
0
  6
CONTINUOUS
 62
     7
 10
37.7365226536
 20
213.4381349309
 30
0.0
 40
2.368161740034981
 50
66.6553279606
 51
108.7364108628
  0
LINE
  5
241
  8
0
  6
CONTINUOUS
 62
     7
 10
116.9938792737
 20
234.0754313786
 30
0.0
 11
131.7438830884
 21
234.0754313786
 31
0.0
  0
LINE
  5
242
  8
0
  6
CONTINUOUS
 62
     7
 10
131.7438830884
 20
211.8754309062
 30
0.0
 11
131.7438830884
 21
234.0754313786
 31
0.0
  0
POLYLINE
  5
243
  8
0
  6
CONTINUOUS
 62
     7
 66
     1
 10
0.0
 20
0.0
 30
0.0
  0
VERTEX
  5
5C6
  8
0
  6
CONTINUOUS
 62
     7
 10
114.1938840302
 20
236.8754312788
 30
0.0
  0
VERTEX
  5
5C7
  8
0
  6
CONTINUOUS
 62
     7
 10
114.1981904658
 20
236.8711248432
 30
0.0
  0
VERTEX
  5
5C8
  8
0
  6
CONTINUOUS
 62
     7
 10
114.2111023219
 20
236.8582083304
 30
0.0
  0
VERTEX
  5
5C9
  8
0
  6
CONTINUOUS
 62
     7
 10
114.2326195987
 20
236.8366919849
 30
0.0
  0
VERTEX
  5
5CA
  8
0
  6
CONTINUOUS
 62
     7
 10
114.2627199443
 20
236.8065888454
 30
0.0
  0
VERTEX
  5
5CB
  8
0
  6
CONTINUOUS
 62
     7
 10
114.3013884576
 20
236.7679203321
 30
0.0
  0
VERTEX
  5
5CC
  8
0
  6
CONTINUOUS
 62
     7
 10
114.3485953363
 20
236.7207134534
 30
0.0
  0
VERTEX
  5
5CD
  8
0
  6
CONTINUOUS
 62
     7
 10
114.404310778
 20
236.6650008057
 30
0.0
  0
VERTEX
  5
5CE
  8
0
  6
CONTINUOUS
 62
     7
 10
114.4684900792
 20
236.6008196418
 30
0.0
  0
VERTEX
  5
5CF
  8
0
  6
CONTINUOUS
 62
     7
 10
114.5410959872
 20
236.5282155965
 30
0.0
  0
VERTEX
  5
5D0
  8
0
  6
CONTINUOUS
 62
     7
 10
114.6220763477
 20
236.44723803
 30
0.0
  0
VERTEX
  5
5D1
  8
0
  6
CONTINUOUS
 62
     7
 10
114.7113715561
 20
236.3579418902
 30
0.0
  0
VERTEX
  5
5D2
  8
0
  6
CONTINUOUS
 62
     7
 10
114.8089220079
 20
236.2603905071
 30
0.0
  0
VERTEX
  5
5D3
  8
0
  6
CONTINUOUS
 62
     7
 10
114.9146606477
 20
236.1546500046
 30
0.0
  0
VERTEX
  5
5D4
  8
0
  6
CONTINUOUS
 62
     7
 10
115.0285204204
 20
236.0407930259
 30
0.0
  0
VERTEX
  5
5D5
  8
0
  6
CONTINUOUS
 62
     7
 10
115.150411919
 20
235.9188987334
 30
0.0
  0
VERTEX
  5
5D6
  8
0
  6
CONTINUOUS
 62
     7
 10
115.2802606376
 20
235.7890509461
 30
0.0
  0
VERTEX
  5
5D7
  8
0
  6
CONTINUOUS
 62
     7
 10
115.4179697188
 20
235.6513390709
 30
0.0
  0
VERTEX
  5
5D8
  8
0
  6
CONTINUOUS
 62
     7
 10
115.5634572061
 20
235.5058581029
 30
0.0
  0
VERTEX
  5
5D9
  8
0
  6
CONTINUOUS
 62
     7
 10
115.7166038903
 20
235.3527076934
 30
0.0
  0
VERTEX
  5
5DA
  8
0
  6
CONTINUOUS
 62
     7
 10
115.8773203643
 20
235.191993082
 30
0.0
  0
VERTEX
  5
5DB
  8
0
  6
CONTINUOUS
 62
     7
 10
116.045487419
 20
235.0238260273
 30
0.0
  0
VERTEX
  5
5DC
  8
0
  6
CONTINUOUS
 62
     7
 10
116.2209858449
 20
234.8483229448
 30
0.0
  0
VERTEX
  5
5DD
  8
0
  6
CONTINUOUS
 62
     7
 10
116.4037113341
 20
234.6656030436
 30
0.0
  0
VERTEX
  5
5DE
  8
0
  6
CONTINUOUS
 62
     7
 10
116.5935223254
 20
234.4757929836
 30
0.0
  0
VERTEX
  5
5DF
  8
0
  6
CONTINUOUS
 62
     7
 10
116.7902847083
 20
234.2790240813
 30
0.0
  0
VERTEX
  5
5E0
  8
0
  6
CONTINUOUS
 62
     7
 10
116.9938792737
 20
234.0754313786
 30
0.0
  0
SEQEND
  5
5E1
  8
0
  6
CONTINUOUS
 62
     7
  0
POLYLINE
  5
244
  8
0
  6
CONTINUOUS
 62
     7
 66
     1
 10
0.0
 20
0.0
 30
0.0
  0
VERTEX
  5
5E2
  8
0
  6
CONTINUOUS
 62
     7
 10
93.1438816043
 20
236.8754312788
 30
0.0
  0
VERTEX
  5
5E3
  8
0
  6
CONTINUOUS
 62
     7
 10
93.1481880399
 20
236.8711248432
 30
0.0
  0
VERTEX
  5
5E4
  8
0
  6
CONTINUOUS
 62
     7
 10
93.1611036213
 20
236.8582083304
 30
0.0
  0
VERTEX
  5
5E5
  8
0
  6
CONTINUOUS
 62
     7
 10
93.1826208981
 20
236.8366919849
 30
0.0
  0
VERTEX
  5
5E6
  8
0
  6
CONTINUOUS
 62
     7
 10
93.212724969
 20
236.8065888454
 30
0.0
  0
VERTEX
  5
5E7
  8
0
  6
CONTINUOUS
 62
     7
 10
93.2513934823
 20
236.7679203321
 30
0.0
  0
VERTEX
  5
5E8
  8
0
  6
CONTINUOUS
 62
     7
 10
93.298600361
 20
236.7207134534
 30
0.0
  0
VERTEX
  5
5E9
  8
0
  6
CONTINUOUS
 62
     7
 10
93.3543120774
 20
236.6650008057
 30
0.0
  0
VERTEX
  5
5EA
  8
0
  6
CONTINUOUS
 62
     7
 10
93.4184913786
 20
236.6008196418
 30
0.0
  0
VERTEX
  5
5EB
  8
0
  6
CONTINUOUS
 62
     7
 10
93.4910972865
 20
236.5282155965
 30
0.0
  0
VERTEX
  5
5EC
  8
0
  6
CONTINUOUS
 62
     7
 10
93.5720739218
 20
236.44723803
 30
0.0
  0
VERTEX
  5
5ED
  8
0
  6
CONTINUOUS
 62
     7
 10
93.6613691302
 20
236.3579418902
 30
0.0
  0
VERTEX
  5
5EE
  8
0
  6
CONTINUOUS
 62
     7
 10
93.7589233073
 20
236.2603905071
 30
0.0
  0
VERTEX
  5
5EF
  8
0
  6
CONTINUOUS
 62
     7
 10
93.8646619471
 20
236.1546500046
 30
0.0
  0
VERTEX
  5
5F0
  8
0
  6
CONTINUOUS
 62
     7
 10
93.9785179945
 20
236.0407930259
 30
0.0
  0
VERTEX
  5
5F1
  8
0
  6
CONTINUOUS
 62
     7
 10
94.1004132183
 20
235.9188987334
 30
0.0
  0
VERTEX
  5
5F2
  8
0
  6
CONTINUOUS
 62
     7
 10
94.230261937
 20
235.7890509461
 30
0.0
  0
VERTEX
  5
5F3
  8
0
  6
CONTINUOUS
 62
     7
 10
94.3679747434
 20
235.6513390709
 30
0.0
  0
VERTEX
  5
5F4
  8
0
  6
CONTINUOUS
 62
     7
 10
94.5134547802
 20
235.5058581029
 30
0.0
  0
VERTEX
  5
5F5
  8
0
  6
CONTINUOUS
 62
     7
 10
94.6666051896
 20
235.3527076934
 30
0.0
  0
VERTEX
  5
5F6
  8
0
  6
CONTINUOUS
 62
     7
 10
94.8273179384
 20
235.191993082
 30
0.0
  0
VERTEX
  5
5F7
  8
0
  6
CONTINUOUS
 62
     7
 10
94.9954849931
 20
235.0238260273
 30
0.0
  0
VERTEX
  5
5F8
  8
0
  6
CONTINUOUS
 62
     7
 10
95.1709908696
 20
234.8483229448
 30
0.0
  0
VERTEX
  5
5F9
  8
0
  6
CONTINUOUS
 62
     7
 10
95.3537089082
 20
234.6656030436
 30
0.0
  0
VERTEX
  5
5FA
  8
0
  6
CONTINUOUS
 62
     7
 10
95.5435198994
 20
234.4757929836
 30
0.0
  0
VERTEX
  5
5FB
  8
0
  6
CONTINUOUS
 62
     7
 10
95.740289733
 20
234.2790240813
 30
0.0
  0
VERTEX
  5
5FC
  8
0
  6
CONTINUOUS
 62
     7
 10
95.9438805731
 20
234.0754313786
 30
0.0
  0
SEQEND
  5
5FD
  8
0
  6
CONTINUOUS
 62
     7
  0
LINE
  5
245
  8
0
  6
CONTINUOUS
 62
     7
 10
95.9438805731
 20
234.0754313786
 30
0.0
 11
108.0438842328
 21
234.0754313786
 31
0.0
  0
POLYLINE
  5
246
  8
0
  6
CONTINUOUS
 62
     7
 66
     1
 10
0.0
 20
0.0
 30
0.0
  0
VERTEX
  5
5FE
  8
0
  6
CONTINUOUS
 62
     7
 10
108.0438842328
 20
234.0754313786
 30
0.0
  0
VERTEX
  5
5FF
  8
0
  6
CONTINUOUS
 62
     7
 10
108.2474713477
 20
234.2790240813
 30
0.0
  0
VERTEX
  5
600
  8
0
  6
CONTINUOUS
 62
     7
 10
108.4442411812
 20
234.4757929836
 30
0.0
  0
VERTEX
  5
601
  8
0
  6
CONTINUOUS
 62
     7
 10
108.6340521725
 20
234.6656030436
 30
0.0
  0
VERTEX
  5
602
  8
0
  6
CONTINUOUS
 62
     7
 10
108.8167702111
 20
234.8483229448
 30
0.0
  0
VERTEX
  5
603
  8
0
  6
CONTINUOUS
 62
     7
 10
108.9922760876
 20
235.0238260273
 30
0.0
  0
VERTEX
  5
604
  8
0
  6
CONTINUOUS
 62
     7
 10
109.1604431423
 20
235.191993082
 30
0.0
  0
VERTEX
  5
605
  8
0
  6
CONTINUOUS
 62
     7
 10
109.3211596163
 20
235.3527076934
 30
0.0
  0
VERTEX
  5
606
  8
0
  6
CONTINUOUS
 62
     7
 10
109.4743063005
 20
235.5058581029
 30
0.0
  0
VERTEX
  5
607
  8
0
  6
CONTINUOUS
 62
     7
 10
109.6197863372
 20
235.6513390709
 30
0.0
  0
VERTEX
  5
608
  8
0
  6
CONTINUOUS
 62
     7
 10
109.757502869
 20
235.7890509461
 30
0.0
  0
VERTEX
  5
609
  8
0
  6
CONTINUOUS
 62
     7
 10
109.8873515876
 20
235.9188987334
 30
0.0
  0
VERTEX
  5
60A
  8
0
  6
CONTINUOUS
 62
     7
 10
110.0092430862
 20
236.0407930259
 30
0.0
  0
VERTEX
  5
60B
  8
0
  6
CONTINUOUS
 62
     7
 10
110.1231028589
 20
236.1546500046
 30
0.0
  0
VERTEX
  5
60C
  8
0
  6
CONTINUOUS
 62
     7
 10
110.2288414987
 20
236.2603905071
 30
0.0
  0
VERTEX
  5
60D
  8
0
  6
CONTINUOUS
 62
     7
 10
110.3263919504
 20
236.3579418902
 30
0.0
  0
VERTEX
  5
60E
  8
0
  6
CONTINUOUS
 62
     7
 10
110.4156871589
 20
236.44723803
 30
0.0
  0
VERTEX
  5
60F
  8
0
  6
CONTINUOUS
 62
     7
 10
110.4966675194
 20
236.5282155965
 30
0.0
  0
VERTEX
  5
610
  8
0
  6
CONTINUOUS
 62
     7
 10
110.5692659767
 20
236.6008196418
 30
0.0
  0
VERTEX
  5
611
  8
0
  6
CONTINUOUS
 62
     7
 10
110.6334527286
 20
236.6650008057
 30
0.0
  0
VERTEX
  5
612
  8
0
  6
CONTINUOUS
 62
     7
 10
110.6891607197
 20
236.7207134534
 30
0.0
  0
VERTEX
  5
613
  8
0
  6
CONTINUOUS
 62
     7
 10
110.7363675984
 20
236.7679203321
 30
0.0
  0
VERTEX
  5
614
  8
0
  6
CONTINUOUS
 62
     7
 10
110.7750361117
 20
236.8065888454
 30
0.0
  0
VERTEX
  5
615
  8
0
  6
CONTINUOUS
 62
     7
 10
110.8051439079
 20
236.8366919849
 30
0.0
  0
VERTEX
  5
616
  8
0
  6
CONTINUOUS
 62
     7
 10
110.8266611846
 20
236.8582083304
 30
0.0
  0
VERTEX
  5
617
  8
0
  6
CONTINUOUS
 62
     7
 10
110.8395730408
 20
236.8711248432
 30
0.0
  0
VERTEX
  5
618
  8
0
  6
CONTINUOUS
 62
     7
 10
110.8438794764
 20
236.8754312788
 30
0.0
  0
SEQEND
  5
619
  8
0
  6
CONTINUOUS
 62
     7
  0
LINE
  5
247
  8
0
  6
CONTINUOUS
 62
     7
 10
77.4267626258
 20
236.8754312788
 30
0.0
 11
77.4267626258
 21
211.8754309062
 31
0.0
  0
LINE
  5
248
  8
0
  6
CONTINUOUS
 62
     7
 10
131.7438830884
 20
234.0754313786
 30
0.0
 11
132.9938818963
 21
234.0754313786
 31
0.0
  0
LINE
  5
249
  8
0
  6
CONTINUOUS
 62
     7
 10
132.9938818963
 20
211.9754307364
 30
0.0
 11
132.9938818963
 21
234.0754313786
 31
0.0
  0
LINE
  5
24A
  8
0
  6
CONTINUOUS
 62
     7
 10
133.9938839229
 20
212.9754309003
 30
0.0
 11
133.9938839229
 21
233.0754312147
 31
0.0
  0
LINE
  5
24B
  8
0
  6
CONTINUOUS
 62
     7
 10
132.9938818963
 20
234.0754313786
 30
0.0
 11
133.9938839229
 21
233.0754312147
 31
0.0
  0
ARC
  5
24C
  8
0
  6
CONTINUOUS
 62
     7
 10
43.9983423842
 20
235.100273132
 30
0.0
 40
1.070123849253414
 50
60.3133910224
 51
89.9176281465
  0
LINE
  5
24D
  8
0
  6
CONTINUOUS
 62
     7
 10
45.9676890897
 20
235.2045668681
 30
0.0
 11
44.5283272566
 21
236.0299403239
 31
0.0
  0
LINE
  5
24E
  8
0
  6
CONTINUOUS
 62
     7
 10
51.7689635309
 20
229.3217774872
 30
0.0
 11
34.7938810738
 21
230.8069049772
 31
0.0
  0
LINE
  5
24F
  8
0
  6
CONTINUOUS
 62
     7
 10
35.2938810975
 20
236.18384883
 30
0.0
 11
34.7938810738
 21
235.7294779662
 31
0.0
  0
LINE
  5
250
  8
0
  6
CONTINUOUS
 62
     7
 10
36.6027237179
 20
236.1821361278
 30
0.0
 11
35.2938810975
 21
236.18384883
 31
0.0
  0
POLYLINE
  5
251
  8
0
  6
CONTINUOUS
 62
     7
 66
     1
 10
0.0
 20
0.0
 30
0.0
  0
VERTEX
  5
61A
  8
0
  6
CONTINUOUS
 62
     7
 10
38.9406884352
 20
236.1788029243
 30
0.0
  0
VERTEX
  5
61B
  8
0
  6
CONTINUOUS
 62
     7
 10
38.9698248619
 20
236.1025741715
 30
0.0
  0
VERTEX
  5
61C
  8
0
  6
CONTINUOUS
 62
     7
 10
38.9940574097
 20
236.0248255004
 30
0.0
  0
VERTEX
  5
61D
  8
0
  6
CONTINUOUS
 62
     7
 10
39.0132854955
 20
235.945881011
 30
0.0
  0
VERTEX
  5
61E
  8
0
  6
CONTINUOUS
 62
     7
 10
39.0274294915
 20
235.866068529
 30
0.0
  0
VERTEX
  5
61F
  8
0
  6
CONTINUOUS
 62
     7
 10
39.0364302585
 20
235.7857186739
 30
0.0
  0
VERTEX
  5
620
  8
0
  6
CONTINUOUS
 62
     7
 10
39.0402505437
 20
235.7051657904
 30
0.0
  0
VERTEX
  5
621
  8
0
  6
CONTINUOUS
 62
     7
 10
39.0388745146
 20
235.6247442235
 30
0.0
  0
VERTEX
  5
622
  8
0
  6
CONTINUOUS
 62
     7
 10
39.0323082248
 20
235.5447873865
 30
0.0
  0
VERTEX
  5
623
  8
0
  6
CONTINUOUS
 62
     7
 10
39.020578217
 20
235.4656286929
 30
0.0
  0
VERTEX
  5
624
  8
0
  6
CONTINUOUS
 62
     7
 10
39.0037338512
 20
235.3875959684
 30
0.0
  0
VERTEX
  5
625
  8
0
  6
CONTINUOUS
 62
     7
 10
38.9818449767
 20
235.3110133131
 30
0.0
  0
VERTEX
  5
626
  8
0
  6
CONTINUOUS
 62
     7
 10
38.9550019318
 20
235.2361992393
 30
0.0
  0
VERTEX
  5
627
  8
0
  6
CONTINUOUS
 62
     7
 10
38.9233169409
 20
235.1634638776
 30
0.0
  0
VERTEX
  5
628
  8
0
  6
CONTINUOUS
 62
     7
 10
38.8869213203
 20
235.0931089763
 30
0.0
  0
VERTEX
  5
629
  8
0
  6
CONTINUOUS
 62
     7
 10
38.8459659444
 20
235.0254279022
 30
0.0
  0
VERTEX
  5
62A
  8
0
  6
CONTINUOUS
 62
     7
 10
38.8006212453
 20
234.9607009832
 30
0.0
  0
VERTEX
  5
62B
  8
0
  6
CONTINUOUS
 62
     7
 10
38.7510753499
 20
234.8991973717
 30
0.0
  0
VERTEX
  5
62C
  8
0
  6
CONTINUOUS
 62
     7
 10
38.6975340808
 20
234.84117225
 30
0.0
  0
VERTEX
  5
62D
  8
0
  6
CONTINUOUS
 62
     7
 10
38.6402200239
 20
234.7868658994
 30
0.0
  0
VERTEX
  5
62E
  8
0
  6
CONTINUOUS
 62
     7
 10
38.5793708993
 20
234.7365055625
 30
0.0
  0
VERTEX
  5
62F
  8
0
  6
CONTINUOUS
 62
     7
 10
38.5152395612
 20
234.6902989243
 30
0.0
  0
VERTEX
  5
630
  8
0
  6
CONTINUOUS
 62
     7
 10
38.4480921349
 20
234.6484387685
 30
0.0
  0
VERTEX
  5
631
  8
0
  6
CONTINUOUS
 62
     7
 10
38.3782077843
 20
234.6110983212
 30
0.0
  0
VERTEX
  5
632
  8
0
  6
CONTINUOUS
 62
     7
 10
38.3058766166
 20
234.5784321819
 30
0.0
  0
VERTEX
  5
633
  8
0
  6
CONTINUOUS
 62
     7
 10
38.2313989831
 20
234.5505781863
 30
0.0
  0
VERTEX
  5
634
  8
0
  6
CONTINUOUS
 62
     7
 10
38.1550843159
 20
234.5276490245
 30
0.0
  0
VERTEX
  5
635
  8
0
  6
CONTINUOUS
 62
     7
 10
38.0772494974
 20
234.5097424854
 30
0.0
  0
VERTEX
  5
636
  8
0
  6
CONTINUOUS
 62
     7
 10
37.9982176965
 20
234.4969312121
 30
0.0
  0
VERTEX
  5
637
  8
0
  6
CONTINUOUS
 62
     7
 10
37.9183169717
 20
234.4892701526
 30
0.0
  0
VERTEX
  5
638
  8
0
  6
CONTINUOUS
 62
     7
 10
37.8378795723
 20
234.4867891092
 30
0.0
  0
VERTEX
  5
639
  8
0
  6
CONTINUOUS
 62
     7
 10
37.7572393773
 20
234.4894992579
 30
0.0
  0
VERTEX
  5
63A
  8
0
  6
CONTINUOUS
 62
     7
 10
37.6767311974
 20
234.4973894228
 30
0.0
  0
VERTEX
  5
63B
  8
0
  6
CONTINUOUS
 62
     7
 10
37.5966893772
 20
234.5104279388
 30
0.0
  0
VERTEX
  5
63C
  8
0
  6
CONTINUOUS
 62
     7
 10
37.5174463989
 20
234.5285579954
 30
0.0
  0
VERTEX
  5
63D
  8
0
  6
CONTINUOUS
 62
     7
 10
37.4393314852
 20
234.5517069493
 30
0.0
  0
VERTEX
  5
63E
  8
0
  6
CONTINUOUS
 62
     7
 10
37.3626687361
 20
234.5797770117
 30
0.0
  0
VERTEX
  5
63F
  8
0
  6
CONTINUOUS
 62
     7
 10
37.2877768969
 20
234.6126526986
 30
0.0
  0
VERTEX
  5
640
  8
0
  6
CONTINUOUS
 62
     7
 10
37.2149667965
 20
234.6501961742
 30
0.0
  0
VERTEX
  5
641
  8
0
  6
CONTINUOUS
 62
     7
 10
37.1445408819
 20
234.692252839
 30
0.0
  0
VERTEX
  5
642
  8
0
  6
CONTINUOUS
 62
     7
 10
37.0767913556
 20
234.7386476044
 30
0.0
  0
VERTEX
  5
643
  8
0
  6
CONTINUOUS
 62
     7
 10
37.0119999426
 20
234.7891876866
 30
0.0
  0
VERTEX
  5
644
  8
0
  6
CONTINUOUS
 62
     7
 10
36.9504357951
 20
234.8436626066
 30
0.0
  0
VERTEX
  5
645
  8
0
  6
CONTINUOUS
 62
     7
 10
36.8923540956
 20
234.9018469844
 30
0.0
  0
VERTEX
  5
646
  8
0
  6
CONTINUOUS
 62
     7
 10
36.8379965222
 20
234.9634986762
 30
0.0
  0
VERTEX
  5
647
  8
0
  6
CONTINUOUS
 62
     7
 10
36.7875886878
 20
235.0283624996
 30
0.0
  0
VERTEX
  5
648
  8
0
  6
CONTINUOUS
 62
     7
 10
36.7413397908
 20
235.096168371
 30
0.0
  0
VERTEX
  5
649
  8
0
  6
CONTINUOUS
 62
     7
 10
36.6994420329
 20
235.1666340996
 30
0.0
  0
VERTEX
  5
64A
  8
0
  6
CONTINUOUS
 62
     7
 10
36.662069455
 20
235.2394681815
 30
0.0
  0
VERTEX
  5
64B
  8
0
  6
CONTINUOUS
 62
     7
 10
36.6293771222
 20
235.3143670056
 30
0.0
  0
VERTEX
  5
64C
  8
0
  6
CONTINUOUS
 62
     7
 10
36.6015010078
 20
235.3910204415
 30
0.0
  0
VERTEX
  5
64D
  8
0
  6
CONTINUOUS
 62
     7
 10
36.578556712
 20
235.4691099767
 30
0.0
  0
VERTEX
  5
64E
  8
0
  6
CONTINUOUS
 62
     7
 10
36.560639579
 20
235.5483115111
 30
0.0
  0
VERTEX
  5
64F
  8
0
  6
CONTINUOUS
 62
     7
 10
36.5478241148
 20
235.6282953564
 30
0.0
  0
VERTEX
  5
650
  8
0
  6
CONTINUOUS
 62
     7
 10
36.5401632881
 20
235.7087299619
 30
0.0
  0
VERTEX
  5
651
  8
0
  6
CONTINUOUS
 62
     7
 10
36.5376892297
 20
235.7892809827
 30
0.0
  0
VERTEX
  5
652
  8
0
  6
CONTINUOUS
 62
     7
 10
36.5404119512
 20
235.869614074
 30
0.0
  0
VERTEX
  5
653
  8
0
  6
CONTINUOUS
 62
     7
 10
36.5483203933
 20
235.9493958224
 30
0.0
  0
VERTEX
  5
654
  8
0
  6
CONTINUOUS
 62
     7
 10
36.5613814939
 20
236.0282937456
 30
0.0
  0
VERTEX
  5
655
  8
0
  6
CONTINUOUS
 62
     7
 10
36.5795410035
 20
236.1059818808
 30
0.0
  0
VERTEX
  5
656
  8
0
  6
CONTINUOUS
 62
     7
 10
36.6027237179
 20
236.1821361278
 30
0.0
  0
SEQEND
  5
657
  8
0
  6
CONTINUOUS
 62
     7
  0
LINE
  5
252
  8
0
  6
CONTINUOUS
 62
     7
 10
43.999880858
 20
236.1703958754
 30
0.0
 11
38.9406884352
 21
236.1788029243
 31
0.0
  0
LINE
  5
253
  8
0
  6
CONTINUOUS
 62
     7
 10
34.7938810738
 20
235.7294779662
 30
0.0
 11
34.7938810738
 21
230.8069049772
 31
0.0
  0
POLYLINE
  5
254
  8
0
  6
CONTINUOUS
 62
     7
 66
     1
 10
0.0
 20
0.0
 30
0.0
  0
VERTEX
  5
658
  8
0
  6
CONTINUOUS
 62
     7
 10
38.9406884352
 20
236.1788029243
 30
0.0
  0
VERTEX
  5
659
  8
0
  6
CONTINUOUS
 62
     7
 10
38.9067030775
 20
236.2849364449
 30
0.0
  0
VERTEX
  5
65A
  8
0
  6
CONTINUOUS
 62
     7
 10
38.861992609
 20
236.3882555087
 30
0.0
  0
VERTEX
  5
65B
  8
0
  6
CONTINUOUS
 62
     7
 10
38.8059474791
 20
236.4878688399
 30
0.0
  0
VERTEX
  5
65C
  8
0
  6
CONTINUOUS
 62
     7
 10
38.7379576715
 20
236.5828833003
 30
0.0
  0
VERTEX
  5
65D
  8
0
  6
CONTINUOUS
 62
     7
 10
38.6574134028
 20
236.6724057515
 30
0.0
  0
VERTEX
  5
65E
  8
0
  6
CONTINUOUS
 62
     7
 10
38.5919144174
 20
236.7322385703
 30
0.0
  0
VERTEX
  5
65F
  8
0
  6
CONTINUOUS
 62
     7
 10
38.5186069908
 20
236.7884299178
 30
0.0
  0
VERTEX
  5
660
  8
0
  6
CONTINUOUS
 62
     7
 10
38.4370946122
 20
236.8400419522
 30
0.0
  0
VERTEX
  5
661
  8
0
  6
CONTINUOUS
 62
     7
 10
38.3451989183
 20
236.8867803757
 30
0.0
  0
VERTEX
  5
662
  8
0
  6
CONTINUOUS
 62
     7
 10
38.2434151398
 20
236.9266698528
 30
0.0
  0
VERTEX
  5
663
  8
0
  6
CONTINUOUS
 62
     7
 10
38.1328182558
 20
236.9576977957
 30
0.0
  0
VERTEX
  5
664
  8
0
  6
CONTINUOUS
 62
     7
 10
38.0203335809
 20
236.9773235564
 30
0.0
  0
VERTEX
  5
665
  8
0
  6
CONTINUOUS
 62
     7
 10
37.9029075412
 20
236.9863145445
 30
0.0
  0
VERTEX
  5
666
  8
0
  6
CONTINUOUS
 62
     7
 10
37.7835077962
 20
236.9838539903
 30
0.0
  0
VERTEX
  5
667
  8
0
  6
CONTINUOUS
 62
     7
 10
37.6657178423
 20
236.970572399
 30
0.0
  0
VERTEX
  5
668
  8
0
  6
CONTINUOUS
 62
     7
 10
37.5709930232
 20
236.9519440849
 30
0.0
  0
VERTEX
  5
669
  8
0
  6
CONTINUOUS
 62
     7
 10
37.4800265564
 20
236.9273823146
 30
0.0
  0
VERTEX
  5
66A
  8
0
  6
CONTINUOUS
 62
     7
 10
37.3938789854
 20
236.8979040925
 30
0.0
  0
VERTEX
  5
66B
  8
0
  6
CONTINUOUS
 62
     7
 10
37.2716908606
 20
236.8450291846
 30
0.0
  0
VERTEX
  5
66C
  8
0
  6
CONTINUOUS
 62
     7
 10
37.159990825
 20
236.7842687685
 30
0.0
  0
VERTEX
  5
66D
  8
0
  6
CONTINUOUS
 62
     7
 10
37.0587034414
 20
236.7175199483
 30
0.0
  0
VERTEX
  5
66E
  8
0
  6
CONTINUOUS
 62
     7
 10
36.9436934853
 20
236.6260016729
 30
0.0
  0
VERTEX
  5
66F
  8
0
  6
CONTINUOUS
 62
     7
 10
36.8421779277
 20
236.5276167561
 30
0.0
  0
VERTEX
  5
670
  8
0
  6
CONTINUOUS
 62
     7
 10
36.7535989063
 20
236.4235526342
 30
0.0
  0
VERTEX
  5
671
  8
0
  6
CONTINUOUS
 62
     7
 10
36.6773983261
 20
236.314994881
 30
0.0
  0
VERTEX
  5
672
  8
0
  6
CONTINUOUS
 62
     7
 10
36.6027237179
 20
236.1821361278
 30
0.0
  0
SEQEND
  5
673
  8
0
  6
CONTINUOUS
 62
     7
  0
LINE
  5
255
  8
0
  6
CONTINUOUS
 62
     7
 10
35.2938810975
 20
236.18384883
 30
0.0
 11
35.2938810975
 21
239.1689770315
 31
0.0
  0
POLYLINE
  5
256
  8
0
  6
CONTINUOUS
 62
     7
 66
     1
 10
0.0
 20
0.0
 30
0.0
  0
VERTEX
  5
674
  8
0
  6
CONTINUOUS
 62
     7
 10
42.3236059288
 20
239.221567886
 30
0.0
  0
VERTEX
  5
675
  8
0
  6
CONTINUOUS
 62
     7
 10
38.8056252414
 20
239.1982280109
 30
0.0
  0
VERTEX
  5
676
  8
0
  6
CONTINUOUS
 62
     7
 10
35.2938810975
 20
239.1689770315
 30
0.0
  0
SEQEND
  5
677
  8
0
  6
CONTINUOUS
 62
     7
  0
POLYLINE
  5
257
  8
0
  6
CONTINUOUS
 62
     7
 66
     1
 10
0.0
 20
0.0
 30
0.0
  0
VERTEX
  5
678
  8
0
  6
CONTINUOUS
 62
     7
 10
42.5475810917
 20
239.5399749671
 30
0.0
  0
VERTEX
  5
679
  8
0
  6
CONTINUOUS
 62
     7
 10
42.5939162525
 20
239.5408559982
 30
0.0
  0
VERTEX
  5
67A
  8
0
  6
CONTINUOUS
 62
     7
 10
42.7318441944
 20
239.543009216
 30
0.0
  0
VERTEX
  5
67B
  8
0
  6
CONTINUOUS
 62
     7
 10
42.8664501088
 20
239.5443186555
 30
0.0
  0
VERTEX
  5
67C
  8
0
  6
CONTINUOUS
 62
     7
 10
42.9951980041
 20
239.5446390305
 30
0.0
  0
VERTEX
  5
67D
  8
0
  6
CONTINUOUS
 62
     7
 10
43.1166080089
 20
239.5438101534
 30
0.0
  0
VERTEX
  5
67E
  8
0
  6
CONTINUOUS
 62
     7
 10
43.2298074739
 20
239.5416569356
 30
0.0
  0
VERTEX
  5
67F
  8
0
  6
CONTINUOUS
 62
     7
 10
43.3326590138
 20
239.5380154644
 30
0.0
  0
VERTEX
  5
680
  8
0
  6
CONTINUOUS
 62
     7
 10
43.423847601
 20
239.5326966811
 30
0.0
  0
VERTEX
  5
681
  8
0
  6
CONTINUOUS
 62
     7
 10
43.502915025
 20
239.5255580936
 30
0.0
  0
VERTEX
  5
682
  8
0
  6
CONTINUOUS
 62
     7
 10
43.5683925899
 20
239.5165382345
 30
0.0
  0
VERTEX
  5
683
  8
0
  6
CONTINUOUS
 62
     7
 10
43.6194560753
 20
239.5055169631
 30
0.0
  0
VERTEX
  5
684
  8
0
  6
CONTINUOUS
 62
     7
 10
43.65592853
 20
239.4924914856
 30
0.0
  0
VERTEX
  5
685
  8
0
  6
CONTINUOUS
 62
     7
 10
43.6771859678
 20
239.4776024316
 30
0.0
  0
VERTEX
  5
686
  8
0
  6
CONTINUOUS
 62
     7
 10
43.6828707608
 20
239.4607929904
 30
0.0
  0
VERTEX
  5
687
  8
0
  6
CONTINUOUS
 62
     7
 10
43.6730676593
 20
239.4423211385
 30
0.0
  0
VERTEX
  5
688
  8
0
  6
CONTINUOUS
 62
     7
 10
43.6480188074
 20
239.4225556795
 30
0.0
  0
VERTEX
  5
689
  8
0
  6
CONTINUOUS
 62
     7
 10
43.6072557496
 20
239.4014696051
 30
0.0
  0
VERTEX
  5
68A
  8
0
  6
CONTINUOUS
 62
     7
 10
43.5515933933
 20
239.3796319534
 30
0.0
  0
VERTEX
  5
68B
  8
0
  6
CONTINUOUS
 62
     7
 10
43.4820701631
 20
239.3575996552
 30
0.0
  0
VERTEX
  5
68C
  8
0
  6
CONTINUOUS
 62
     7
 10
43.3974688204
 20
239.3353298698
 30
0.0
  0
VERTEX
  5
68D
  8
0
  6
CONTINUOUS
 62
     7
 10
43.3001865896
 20
239.3137595077
 30
0.0
  0
VERTEX
  5
68E
  8
0
  6
CONTINUOUS
 62
     7
 10
43.1943818258
 20
239.2939474825
 30
0.0
  0
VERTEX
  5
68F
  8
0
  6
CONTINUOUS
 62
     7
 10
43.0785914214
 20
239.2756861095
 30
0.0
  0
VERTEX
  5
690
  8
0
  6
CONTINUOUS
 62
     7
 10
42.9549024703
 20
239.2595304568
 30
0.0
  0
VERTEX
  5
691
  8
0
  6
CONTINUOUS
 62
     7
 10
42.8242164927
 20
239.2458679546
 30
0.0
  0
VERTEX
  5
692
  8
0
  6
CONTINUOUS
 62
     7
 10
42.6879472362
 20
239.2349640299
 30
0.0
  0
VERTEX
  5
693
  8
0
  6
CONTINUOUS
 62
     7
 10
42.5487070607
 20
239.2271604781
 30
0.0
  0
VERTEX
  5
694
  8
0
  6
CONTINUOUS
 62
     7
 10
42.4361972401
 20
239.223297352
 30
0.0
  0
VERTEX
  5
695
  8
0
  6
CONTINUOUS
 62
     7
 10
42.3236059288
 20
239.221567886
 30
0.0
  0
SEQEND
  5
696
  8
0
  6
CONTINUOUS
 62
     7
  0
POLYLINE
  5
258
  8
0
  6
CONTINUOUS
 62
     7
 66
     1
 10
0.0
 20
0.0
 30
0.0
  0
VERTEX
  5
697
  8
0
  6
CONTINUOUS
 62
     7
 10
42.731164329
 20
239.557837734
 30
0.0
  0
VERTEX
  5
698
  8
0
  6
CONTINUOUS
 62
     7
 10
42.6756826492
 20
239.5552887042
 30
0.0
  0
VERTEX
  5
699
  8
0
  6
CONTINUOUS
 62
     7
 10
42.5475810917
 20
239.5399749671
 30
0.0
  0
SEQEND
  5
69A
  8
0
  6
CONTINUOUS
 62
     7
  0
LINE
  5
259
  8
0
  6
CONTINUOUS
 62
     7
 10
35.2938810975
 20
239.1689770315
 30
0.0
 11
34.7938810738
 21
238.6691790466
 31
0.0
  0
LINE
  5
25A
  8
0
  6
CONTINUOUS
 62
     7
 10
34.7938810738
 20
235.7294779662
 30
0.0
 11
34.7938810738
 21
238.6691790466
 31
0.0
  0
LINE
  5
25B
  8
0
  6
CONTINUOUS
 62
     7
 10
42.5388802106
 20
223.7048581751
 30
0.0
 11
42.4949068839
 21
223.7087053522
 31
0.0
  0
LINE
  5
25C
  8
0
  6
CONTINUOUS
 62
     7
 10
42.5388802106
 20
223.7048581751
 30
0.0
 11
42.5475810917
 21
223.7352008392
 31
0.0
  0
POLYLINE
  5
25D
  8
0
  6
CONTINUOUS
 62
     7
 66
     1
 10
0.0
 20
0.0
 30
0.0
  0
VERTEX
  5
69B
  8
0
  6
CONTINUOUS
 62
     7
 10
43.4721012863
 20
226.7444146723
 30
0.0
  0
VERTEX
  5
69C
  8
0
  6
CONTINUOUS
 62
     7
 10
43.4793125169
 20
226.8133702614
 30
0.0
  0
VERTEX
  5
69D
  8
0
  6
CONTINUOUS
 62
     7
 10
43.4920865374
 20
226.8818215393
 30
0.0
  0
VERTEX
  5
69E
  8
0
  6
CONTINUOUS
 62
     7
 10
43.5103944766
 20
226.9496229869
 30
0.0
  0
VERTEX
  5
69F
  8
0
  6
CONTINUOUS
 62
     7
 10
43.5341972189
 20
227.0166297835
 30
0.0
  0
VERTEX
  5
6A0
  8
0
  6
CONTINUOUS
 62
     7
 10
43.5634454044
 20
227.0826987382
 30
0.0
  0
VERTEX
  5
6A1
  8
0
  6
CONTINUOUS
 62
     7
 10
43.598075703
 20
227.1476887558
 30
0.0
  0
VERTEX
  5
6A2
  8
0
  6
CONTINUOUS
 62
     7
 10
43.6380145403
 20
227.2114615348
 30
0.0
  0
VERTEX
  5
6A3
  8
0
  6
CONTINUOUS
 62
     7
 10
43.6831762346
 20
227.2738808692
 30
0.0
  0
VERTEX
  5
6A4
  8
0
  6
CONTINUOUS
 62
     7
 10
43.7334639283
 20
227.3348133471
 30
0.0
  0
VERTEX
  5
6A5
  8
0
  6
CONTINUOUS
 62
     7
 10
43.788772382
 20
227.3941292819
 30
0.0
  0
VERTEX
  5
6A6
  8
0
  6
CONTINUOUS
 62
     7
 10
43.8489814552
 20
227.4517017808
 30
0.0
  0
VERTEX
  5
6A7
  8
0
  6
CONTINUOUS
 62
     7
 10
43.9139635565
 20
227.5074079093
 30
0.0
  0
VERTEX
  5
6A8
  8
0
  6
CONTINUOUS
 62
     7
 10
43.9835799189
 20
227.5611291565
 30
0.0
  0
VERTEX
  5
6A9
  8
0
  6
CONTINUOUS
 62
     7
 10
44.0576815309
 20
227.6127505042
 30
0.0
  0
VERTEX
  5
6AA
  8
0
  6
CONTINUOUS
 62
     7
 10
44.1361109989
 20
227.6621620562
 30
0.0
  0
VERTEX
  5
6AB
  8
0
  6
CONTINUOUS
 62
     7
 10
44.2186997535
 20
227.7092583403
 30
0.0
  0
VERTEX
  5
6AC
  8
0
  6
CONTINUOUS
 62
     7
 10
44.3052736374
 20
227.7539385409
 30
0.0
  0
VERTEX
  5
6AD
  8
0
  6
CONTINUOUS
 62
     7
 10
44.395646386
 20
227.7961078957
 30
0.0
  0
VERTEX
  5
6AE
  8
0
  6
CONTINUOUS
 62
     7
 10
44.4896252157
 20
227.8356758338
 30
0.0
  0
VERTEX
  5
6AF
  8
0
  6
CONTINUOUS
 62
     7
 10
44.5870089607
 20
227.8725583032
 30
0.0
  0
VERTEX
  5
6B0
  8
0
  6
CONTINUOUS
 62
     7
 10
44.6875917988
 20
227.9066761416
 30
0.0
  0
VERTEX
  5
6B1
  8
0
  6
CONTINUOUS
 62
     7
 10
44.7911576631
 20
227.9379571714
 30
0.0
  0
VERTEX
  5
6B2
  8
0
  6
CONTINUOUS
 62
     7
 10
44.8974848988
 20
227.9663341046
 30
0.0
  0
VERTEX
  5
6B3
  8
0
  6
CONTINUOUS
 62
     7
 10
45.0063481258
 20
227.991746638
 30
0.0
  0
VERTEX
  5
6B4
  8
0
  6
CONTINUOUS
 62
     7
 10
45.1175145136
 20
228.0141405221
 30
0.0
  0
VERTEX
  5
6B5
  8
0
  6
CONTINUOUS
 62
     7
 10
45.2307465749
 20
228.0334680267
 30
0.0
  0
VERTEX
  5
6B6
  8
0
  6
CONTINUOUS
 62
     7
 10
45.3458021658
 20
228.0496877078
 30
0.0
  0
VERTEX
  5
6B7
  8
0
  6
CONTINUOUS
 62
     7
 10
45.4624372797
 20
228.0627648738
 30
0.0
  0
VERTEX
  5
6B8
  8
0
  6
CONTINUOUS
 62
     7
 10
45.580401391
 20
228.0726720505
 30
0.0
  0
VERTEX
  5
6B9
  8
0
  6
CONTINUOUS
 62
     7
 10
45.6994439738
 20
228.0793878176
 30
0.0
  0
VERTEX
  5
6BA
  8
0
  6
CONTINUOUS
 62
     7
 10
45.8193098458
 20
228.0828977395
 30
0.0
  0
VERTEX
  5
6BB
  8
0
  6
CONTINUOUS
 62
     7
 10
45.9397447558
 20
228.0831945986
 30
0.0
  0
VERTEX
  5
6BC
  8
0
  6
CONTINUOUS
 62
     7
 10
46.0604897963
 20
228.0802774635
 30
0.0
  0
VERTEX
  5
6BD
  8
0
  6
CONTINUOUS
 62
     7
 10
46.1812888535
 20
228.0741528534
 30
0.0
  0
VERTEX
  5
6BE
  8
0
  6
CONTINUOUS
 62
     7
 10
46.3018830197
 20
228.064833574
 30
0.0
  0
VERTEX
  5
6BF
  8
0
  6
CONTINUOUS
 62
     7
 10
46.4220152499
 20
228.0523398817
 30
0.0
  0
VERTEX
  5
6C0
  8
0
  6
CONTINUOUS
 62
     7
 10
46.5414303618
 20
228.0366978534
 30
0.0
  0
VERTEX
  5
6C1
  8
0
  6
CONTINUOUS
 62
     7
 10
46.6598713102
 20
228.0179414824
 30
0.0
  0
VERTEX
  5
6C2
  8
0
  6
CONTINUOUS
 62
     7
 10
46.7770875694
 20
227.9961103499
 30
0.0
  0
VERTEX
  5
6C3
  8
0
  6
CONTINUOUS
 62
     7
 10
46.8928276824
 20
227.9712512549
 30
0.0
  0
VERTEX
  5
6C4
  8
0
  6
CONTINUOUS
 62
     7
 10
47.0068448486
 20
227.9434172828
 30
0.0
  0
VERTEX
  5
6C5
  8
0
  6
CONTINUOUS
 62
     7
 10
47.1188959928
 20
227.9126678054
 30
0.0
  0
VERTEX
  5
6C6
  8
0
  6
CONTINUOUS
 62
     7
 10
47.2287417652
 20
227.879068248
 30
0.0
  0
VERTEX
  5
6C7
  8
0
  6
CONTINUOUS
 62
     7
 10
47.3361474725
 20
227.8426905554
 30
0.0
  0
VERTEX
  5
6C8
  8
0
  6
CONTINUOUS
 62
     7
 10
47.4408849405
 20
227.8036122602
 30
0.0
  0
VERTEX
  5
6C9
  8
0
  6
CONTINUOUS
 62
     7
 10
47.5427297207
 20
227.7619167157
 30
0.0
  0
VERTEX
  5
6CA
  8
0
  6
CONTINUOUS
 62
     7
 10
47.6414648147
 20
227.7176930961
 30
0.0
  0
VERTEX
  5
6CB
  8
0
  6
CONTINUOUS
 62
     7
 10
47.7368797438
 20
227.6710354649
 30
0.0
  0
VERTEX
  5
6CC
  8
0
  6
CONTINUOUS
 62
     7
 10
47.828769617
 20
227.6220437065
 30
0.0
  0
VERTEX
  5
6CD
  8
0
  6
CONTINUOUS
 62
     7
 10
47.9169397878
 20
227.5708221291
 30
0.0
  0
VERTEX
  5
6CE
  8
0
  6
CONTINUOUS
 62
     7
 10
48.001202129
 20
227.5174801629
 30
0.0
  0
VERTEX
  5
6CF
  8
0
  6
CONTINUOUS
 62
     7
 10
48.0813759642
 20
227.4621316623
 30
0.0
  0
VERTEX
  5
6D0
  8
0
  6
CONTINUOUS
 62
     7
 10
48.1572899299
 20
227.4048946724
 30
0.0
  0
VERTEX
  5
6D1
  8
0
  6
CONTINUOUS
 62
     7
 10
48.2287829073
 20
227.3458914292
 30
0.0
  0
VERTEX
  5
6D2
  8
0
  6
CONTINUOUS
 62
     7
 10
48.2957021596
 20
227.2852476612
 30
0.0
  0
VERTEX
  5
6D3
  8
0
  6
CONTINUOUS
 62
     7
 10
48.3579051944
 20
227.2230930552
 30
0.0
  0
VERTEX
  5
6D4
  8
0
  6
CONTINUOUS
 62
     7
 10
48.4152588325
 20
227.1595600918
 30
0.0
  0
VERTEX
  5
6D5
  8
0
  6
CONTINUOUS
 62
     7
 10
48.4676401394
 20
227.0947842785
 30
0.0
  0
VERTEX
  5
6D6
  8
0
  6
CONTINUOUS
 62
     7
 10
48.5149382876
 20
227.0289039165
 30
0.0
  0
VERTEX
  5
6D7
  8
0
  6
CONTINUOUS
 62
     7
 10
48.5570517631
 20
226.9620596357
 30
0.0
  0
VERTEX
  5
6D8
  8
0
  6
CONTINUOUS
 62
     7
 10
48.5938902276
 20
226.8943941612
 30
0.0
  0
VERTEX
  5
6D9
  8
0
  6
CONTINUOUS
 62
     7
 10
48.6253763812
 20
226.826051848
 30
0.0
  0
VERTEX
  5
6DA
  8
0
  6
CONTINUOUS
 62
     7
 10
48.6514422374
 20
226.7571784482
 30
0.0
  0
VERTEX
  5
6DB
  8
0
  6
CONTINUOUS
 62
     7
 10
48.6720328482
 20
226.6879208778
 30
0.0
  0
VERTEX
  5
6DC
  8
0
  6
CONTINUOUS
 62
     7
 10
48.6871025788
 20
226.618427217
 30
0.0
  0
VERTEX
  5
6DD
  8
0
  6
CONTINUOUS
 62
     7
 10
48.6966216268
 20
226.5488453135
 30
0.0
  0
VERTEX
  5
6DE
  8
0
  6
CONTINUOUS
 62
     7
 10
48.7005676406
 20
226.4793241788
 30
0.0
  0
VERTEX
  5
6DF
  8
0
  6
CONTINUOUS
 62
     7
 10
48.6989331694
 20
226.410012126
 30
0.0
  0
VERTEX
  5
6E0
  8
0
  6
CONTINUOUS
 62
     7
 10
48.6917219388
 20
226.3410565369
 30
0.0
  0
VERTEX
  5
6E1
  8
0
  6
CONTINUOUS
 62
     7
 10
48.6789479183
 20
226.2726051426
 30
0.0
  0
VERTEX
  5
6E2
  8
0
  6
CONTINUOUS
 62
     7
 10
48.6606399791
 20
226.204803695
 30
0.0
  0
VERTEX
  5
6E3
  8
0
  6
CONTINUOUS
 62
     7
 10
48.6368372368
 20
226.1377970148
 30
0.0
  0
VERTEX
  5
6E4
  8
0
  6
CONTINUOUS
 62
     7
 10
48.6075890513
 20
226.0717280601
 30
0.0
  0
VERTEX
  5
6E5
  8
0
  6
CONTINUOUS
 62
     7
 10
48.5729587527
 20
226.0067379261
 30
0.0
  0
VERTEX
  5
6E6
  8
0
  6
CONTINUOUS
 62
     7
 10
48.5330199154
 20
225.9429651471
 30
0.0
  0
VERTEX
  5
6E7
  8
0
  6
CONTINUOUS
 62
     7
 10
48.4878582211
 20
225.8805458127
 30
0.0
  0
VERTEX
  5
6E8
  8
0
  6
CONTINUOUS
 62
     7
 10
48.4375695961
 20
225.8196133348
 30
0.0
  0
VERTEX
  5
6E9
  8
0
  6
CONTINUOUS
 62
     7
 10
48.3822620737
 20
225.7602975164
 30
0.0
  0
VERTEX
  5
6EA
  8
0
  6
CONTINUOUS
 62
     7
 10
48.3220530005
 20
225.7027250175
 30
0.0
  0
VERTEX
  5
6EB
  8
0
  6
CONTINUOUS
 62
     7
 10
48.2570708992
 20
225.6470187726
 30
0.0
  0
VERTEX
  5
6EC
  8
0
  6
CONTINUOUS
 62
     7
 10
48.1874545368
 20
225.5932976418
 30
0.0
  0
VERTEX
  5
6ED
  8
0
  6
CONTINUOUS
 62
     7
 10
48.1133529248
 20
225.5416761777
 30
0.0
  0
VERTEX
  5
6EE
  8
0
  6
CONTINUOUS
 62
     7
 10
48.0349234568
 20
225.4922646257
 30
0.0
  0
VERTEX
  5
6EF
  8
0
  6
CONTINUOUS
 62
     7
 10
47.9523337709
 20
225.445168458
 30
0.0
  0
VERTEX
  5
6F0
  8
0
  6
CONTINUOUS
 62
     7
 10
47.8657608183
 20
225.400488141
 30
0.0
  0
VERTEX
  5
6F1
  8
0
  6
CONTINUOUS
 62
     7
 10
47.7753880697
 20
225.3583189026
 30
0.0
  0
VERTEX
  5
6F2
  8
0
  6
CONTINUOUS
 62
     7
 10
47.68140924
 20
225.3187509063
 30
0.0
  0
VERTEX
  5
6F3
  8
0
  6
CONTINUOUS
 62
     7
 10
47.5840245636
 20
225.2818685533
 30
0.0
  0
VERTEX
  5
6F4
  8
0
  6
CONTINUOUS
 62
     7
 10
47.4834426569
 20
225.2477504821
 30
0.0
  0
VERTEX
  5
6F5
  8
0
  6
CONTINUOUS
 62
     7
 10
47.3798767926
 20
225.2164695687
 30
0.0
  0
VERTEX
  5
6F6
  8
0
  6
CONTINUOUS
 62
     7
 10
47.2735495569
 20
225.1880925773
 30
0.0
  0
VERTEX
  5
6F7
  8
0
  6
CONTINUOUS
 62
     7
 10
47.1646863299
 20
225.1626800439
 30
0.0
  0
VERTEX
  5
6F8
  8
0
  6
CONTINUOUS
 62
     7
 10
47.0535199421
 20
225.1402861597
 30
0.0
  0
VERTEX
  5
6F9
  8
0
  6
CONTINUOUS
 62
     7
 10
46.9402878808
 20
225.1209587716
 30
0.0
  0
VERTEX
  5
6FA
  8
0
  6
CONTINUOUS
 62
     7
 10
46.8252313586
 20
225.1047390905
 30
0.0
  0
VERTEX
  5
6FB
  8
0
  6
CONTINUOUS
 62
     7
 10
46.708597176
 20
225.0916617499
 30
0.0
  0
VERTEX
  5
6FC
  8
0
  6
CONTINUOUS
 62
     7
 10
46.5906330647
 20
225.0817546896
 30
0.0
  0
VERTEX
  5
6FD
  8
0
  6
CONTINUOUS
 62
     7
 10
46.4715904819
 20
225.0750389225
 30
0.0
  0
VERTEX
  5
6FE
  8
0
  6
CONTINUOUS
 62
     7
 10
46.3517246099
 20
225.0715289424
 30
0.0
  0
VERTEX
  5
6FF
  8
0
  6
CONTINUOUS
 62
     7
 10
46.2312896999
 20
225.0712321415
 30
0.0
  0
VERTEX
  5
700
  8
0
  6
CONTINUOUS
 62
     7
 10
46.1105446594
 20
225.0741492184
 30
0.0
  0
VERTEX
  5
701
  8
0
  6
CONTINUOUS
 62
     7
 10
45.9897456022
 20
225.0802738867
 30
0.0
  0
VERTEX
  5
702
  8
0
  6
CONTINUOUS
 62
     7
 10
45.869151436
 20
225.0895931079
 30
0.0
  0
VERTEX
  5
703
  8
0
  6
CONTINUOUS
 62
     7
 10
45.7490192058
 20
225.1020869748
 30
0.0
  0
VERTEX
  5
704
  8
0
  6
CONTINUOUS
 62
     7
 10
45.6296040939
 20
225.1177288285
 30
0.0
  0
VERTEX
  5
705
  8
0
  6
CONTINUOUS
 62
     7
 10
45.5111622142
 20
225.1364852577
 30
0.0
  0
VERTEX
  5
706
  8
0
  6
CONTINUOUS
 62
     7
 10
45.3939468863
 20
225.158316332
 30
0.0
  0
VERTEX
  5
707
  8
0
  6
CONTINUOUS
 62
     7
 10
45.2782067733
 20
225.1831754269
 30
0.0
  0
VERTEX
  5
708
  8
0
  6
CONTINUOUS
 62
     7
 10
45.1641896071
 20
225.2110093991
 30
0.0
  0
VERTEX
  5
709
  8
0
  6
CONTINUOUS
 62
     7
 10
45.0521384629
 20
225.2417589347
 30
0.0
  0
VERTEX
  5
70A
  8
0
  6
CONTINUOUS
 62
     7
 10
44.9422926905
 20
225.2753584339
 30
0.0
  0
VERTEX
  5
70B
  8
0
  6
CONTINUOUS
 62
     7
 10
44.8348860519
 20
225.3117361265
 30
0.0
  0
VERTEX
  5
70C
  8
0
  6
CONTINUOUS
 62
     7
 10
44.7301495152
 20
225.3508144217
 30
0.0
  0
VERTEX
  5
70D
  8
0
  6
CONTINUOUS
 62
     7
 10
44.628304735
 20
225.3925099662
 30
0.0
  0
VERTEX
  5
70E
  8
0
  6
CONTINUOUS
 62
     7
 10
44.529569641
 20
225.4367335858
 30
0.0
  0
VERTEX
  5
70F
  8
0
  6
CONTINUOUS
 62
     7
 10
44.4341547119
 20
225.483391217
 30
0.0
  0
VERTEX
  5
710
  8
0
  6
CONTINUOUS
 62
     7
 10
44.3422648387
 20
225.5323829754
 30
0.0
  0
VERTEX
  5
711
  8
0
  6
CONTINUOUS
 62
     7
 10
44.2540946679
 20
225.5836045528
 30
0.0
  0
VERTEX
  5
712
  8
0
  6
CONTINUOUS
 62
     7
 10
44.1698323267
 20
225.6369465189
 30
0.0
  0
VERTEX
  5
713
  8
0
  6
CONTINUOUS
 62
     7
 10
44.0896584915
 20
225.6922950196
 30
0.0
  0
VERTEX
  5
714
  8
0
  6
CONTINUOUS
 62
     7
 10
44.0137445258
 20
225.7495320095
 30
0.0
  0
VERTEX
  5
715
  8
0
  6
CONTINUOUS
 62
     7
 10
43.9422515484
 20
225.8085353692
 30
0.0
  0
VERTEX
  5
716
  8
0
  6
CONTINUOUS
 62
     7
 10
43.8753313648
 20
225.8691790207
 30
0.0
  0
VERTEX
  5
717
  8
0
  6
CONTINUOUS
 62
     7
 10
43.8131292613
 20
225.9313337431
 30
0.0
  0
VERTEX
  5
718
  8
0
  6
CONTINUOUS
 62
     7
 10
43.7557756232
 20
225.9948667065
 30
0.0
  0
VERTEX
  5
719
  8
0
  6
CONTINUOUS
 62
     7
 10
43.7033943163
 20
226.0596425198
 30
0.0
  0
VERTEX
  5
71A
  8
0
  6
CONTINUOUS
 62
     7
 10
43.6560961681
 20
226.1255228818
 30
0.0
  0
VERTEX
  5
71B
  8
0
  6
CONTINUOUS
 62
     7
 10
43.6139826926
 20
226.1923670462
 30
0.0
  0
VERTEX
  5
71C
  8
0
  6
CONTINUOUS
 62
     7
 10
43.5771432968
 20
226.2600326371
 30
0.0
  0
VERTEX
  5
71D
  8
0
  6
CONTINUOUS
 62
     7
 10
43.5456580745
 20
226.3283749503
 30
0.0
  0
VERTEX
  5
71E
  8
0
  6
CONTINUOUS
 62
     7
 10
43.519591287
 20
226.3972483501
 30
0.0
  0
VERTEX
  5
71F
  8
0
  6
CONTINUOUS
 62
     7
 10
43.4990016075
 20
226.4665059206
 30
0.0
  0
VERTEX
  5
720
  8
0
  6
CONTINUOUS
 62
     7
 10
43.4839309456
 20
226.5359995813
 30
0.0
  0
VERTEX
  5
721
  8
0
  6
CONTINUOUS
 62
     7
 10
43.4744128289
 20
226.6055812519
 30
0.0
  0
VERTEX
  5
722
  8
0
  6
CONTINUOUS
 62
     7
 10
43.4704668151
 20
226.6751023867
 30
0.0
  0
VERTEX
  5
723
  8
0
  6
CONTINUOUS
 62
     7
 10
43.4721012863
 20
226.7444146723
 30
0.0
  0
SEQEND
  5
724
  8
0
  6
CONTINUOUS
 62
     7
  0
LINE
  5
25E
  8
0
  6
CONTINUOUS
 62
     7
 10
34.7938810738
 20
230.8069049772
 30
0.0
 11
34.7938810738
 21
225.8881875473
 31
0.0
  0
LINE
  5
25F
  8
0
  6
CONTINUOUS
 62
     7
 10
42.5475810917
 20
239.2271222938
 30
0.0
 11
42.5475810917
 21
239.5399749671
 31
0.0
  0
LINE
  5
260
  8
0
  6
CONTINUOUS
 62
     7
 10
44.5283272566
 20
209.3098057826
 30
0.0
 11
45.9676890897
 21
210.1475732793
 31
0.0
  0
ARC
  5
261
  8
0
  6
CONTINUOUS
 62
     7
 10
44.0271487846
 20
210.1716089249
 30
0.0
 40
0.9969375692451882
 50
268.4326681768
 51
300.1799856827
  0
LINE
  5
262
  8
0
  6
CONTINUOUS
 62
     7
 10
42.945293084
 20
209.2040494476
 30
0.0
 11
43.999880858
 21
209.1750443373
 31
0.0
  0
LINE
  5
263
  8
DÜNNE_LINIE
  6
CONTINUOUS
 62
     7
 10
35.2937605907
 20
221.8592890418
 30
0.0
 11
35.2936180132
 21
221.8593015157
 31
0.0
  0
LINE
  5
264
  8
DÜNNE_LINIE
  6
CENTER
 62
     7
 10
31.1660271966
 20
224.3754310925
 30
0.0
 11
97.0825982913
 21
224.3754310925
 31
0.0
  0
LINE
  5
265
  8
DÜNNE_LINIE
  6
CENTER
 62
     7
 10
105.0496716493
 20
224.3754310925
 30
0.0
 11
136.4885649511
 21
224.3754310925
 31
0.0
  0
LINE
  5
266
  8
0
  6
CONTINUOUS
 62
     7
 10
174.7563469283
 20
239.725431094
 30
0.0
 11
174.7563469283
 21
231.9254313056
 31
0.0
  0
POLYLINE
  5
267
  8
0
  6
CONTINUOUS
 62
     7
 66
     1
 10
0.0
 20
0.0
 30
0.0
  0
VERTEX
  5
725
  8
0
  6
CONTINUOUS
 62
     7
 10
174.8533539534
 20
240.3147766758
 30
0.0
  0
VERTEX
  5
726
  8
0
  6
CONTINUOUS
 62
     7
 10
174.8372806063
 20
240.3123384733
 30
0.0
  0
VERTEX
  5
727
  8
0
  6
CONTINUOUS
 62
     7
 10
174.8244084477
 20
240.3064469267
 30
0.0
  0
VERTEX
  5
728
  8
0
  6
CONTINUOUS
 62
     7
 10
174.8147060456
 20
240.2988696862
 30
0.0
  0
VERTEX
  5
729
  8
0
  6
CONTINUOUS
 62
     7
 10
174.8074532546
 20
240.2905306239
 30
0.0
  0
VERTEX
  5
72A
  8
0
  6
CONTINUOUS
 62
     7
 10
174.8017199164
 20
240.2813664098
 30
0.0
  0
VERTEX
  5
72B
  8
0
  6
CONTINUOUS
 62
     7
 10
174.7965736607
 20
240.2700992693
 30
0.0
  0
VERTEX
  5
72C
  8
0
  6
CONTINUOUS
 62
     7
 10
174.7909467261
 20
240.2528474499
 30
0.0
  0
VERTEX
  5
72D
  8
0
  6
CONTINUOUS
 62
     7
 10
174.7856264295
 20
240.2300766129
 30
0.0
  0
VERTEX
  5
72E
  8
0
  6
CONTINUOUS
 62
     7
 10
174.7811693525
 20
240.204906689
 30
0.0
  0
VERTEX
  5
72F
  8
0
  6
CONTINUOUS
 62
     7
 10
174.7768569797
 20
240.1740724612
 30
0.0
  0
VERTEX
  5
730
  8
0
  6
CONTINUOUS
 62
     7
 10
174.7730254022
 20
240.1400568355
 30
0.0
  0
VERTEX
  5
731
  8
0
  6
CONTINUOUS
 62
     7
 10
174.7715655541
 20
240.1242169012
 30
0.0
  0
SEQEND
  5
732
  8
0
  6
CONTINUOUS
 62
     7
  0
POLYLINE
  5
268
  8
0
  6
CONTINUOUS
 62
     7
 66
     1
 10
0.0
 20
0.0
 30
0.0
  0
VERTEX
  5
733
  8
0
  6
CONTINUOUS
 62
     7
 10
174.769777764
 20
231.5467629973
 30
0.0
  0
VERTEX
  5
734
  8
0
  6
CONTINUOUS
 62
     7
 10
174.7715996638
 20
231.5253924039
 30
0.0
  0
VERTEX
  5
735
  8
0
  6
CONTINUOUS
 62
     7
 10
174.7752024852
 20
231.4906233382
 30
0.0
  0
VERTEX
  5
736
  8
0
  6
CONTINUOUS
 62
     7
 10
174.779159442
 20
231.459451506
 30
0.0
  0
VERTEX
  5
737
  8
0
  6
CONTINUOUS
 62
     7
 10
174.7835169839
 20
231.4319318552
 30
0.0
  0
VERTEX
  5
738
  8
0
  6
CONTINUOUS
 62
     7
 10
174.7884429818
 20
231.4078436625
 30
0.0
  0
VERTEX
  5
739
  8
0
  6
CONTINUOUS
 62
     7
 10
174.7945814453
 20
231.3861866873
 30
0.0
  0
VERTEX
  5
73A
  8
0
  6
CONTINUOUS
 62
     7
 10
174.8002253765
 20
231.3724138234
 30
0.0
  0
VERTEX
  5
73B
  8
0
  6
CONTINUOUS
 62
     7
 10
174.806510989
 20
231.3616505284
 30
0.0
  0
VERTEX
  5
73C
  8
0
  6
CONTINUOUS
 62
     7
 10
174.813969253
 20
231.3527154196
 30
0.0
  0
VERTEX
  5
73D
  8
0
  6
CONTINUOUS
 62
     7
 10
174.8241339404
 20
231.3445868362
 30
0.0
  0
VERTEX
  5
73E
  8
0
  6
CONTINUOUS
 62
     7
 10
174.8372918986
 20
231.3385211323
 30
0.0
  0
VERTEX
  5
73F
  8
0
  6
CONTINUOUS
 62
     7
 10
174.8533539534
 20
231.3360857238
 30
0.0
  0
SEQEND
  5
740
  8
0
  6
CONTINUOUS
 62
     7
  0
LINE
  5
269
  8
0
  6
CONTINUOUS
 62
     7
 10
174.8533539534
 20
231.3360857238
 30
0.0
 11
174.9215849735
 21
231.3360857238
 31
0.0
  0
LINE
  5
26A
  8
0
  6
CONTINUOUS
 62
     7
 10
175.533168734
 20
240.3147766758
 30
0.0
 11
174.8533539534
 21
240.3147766758
 31
0.0
  0
LINE
  5
26B
  8
0
  6
CONTINUOUS
 62
     7
 10
176.8138553483
 20
231.6170014833
 30
0.0
 11
177.96023477
 21
231.9254313056
 31
0.0
  0
LINE
  5
26C
  8
0
  6
CONTINUOUS
 62
     7
 10
177.96023477
 20
239.725431094
 30
0.0
 11
176.3808026547
 21
240.1503721644
 31
0.0
  0
LINE
  5
26D
  8
0
  6
CONTINUOUS
 62
     7
 10
176.3805642107
 20
240.1504280437
 30
0.0
 11
175.5435450062
 21
240.3137727101
 31
0.0
  0
LINE
  5
26E
  8
0
  6
CONTINUOUS
 62
     7
 10
175.5435422123
 20
240.3132027407
 30
0.0
 11
175.533168734
 21
240.3147766758
 31
0.0
  0
POLYLINE
  5
26F
  8
0
  6
CONTINUOUS
 62
     7
 66
     1
 10
0.0
 20
0.0
 30
0.0
  0
VERTEX
  5
741
  8
0
  6
CONTINUOUS
 62
     7
 10
160.3946139397
 20
222.8948255228
 30
0.0
  0
VERTEX
  5
742
  8
0
  6
CONTINUOUS
 62
     7
 10
160.3970521422
 20
222.8787521758
 30
0.0
  0
VERTEX
  5
743
  8
0
  6
CONTINUOUS
 62
     7
 10
160.4029436888
 20
222.8658800172
 30
0.0
  0
VERTEX
  5
744
  8
0
  6
CONTINUOUS
 62
     7
 10
160.4105209293
 20
222.856177615
 30
0.0
  0
VERTEX
  5
745
  8
0
  6
CONTINUOUS
 62
     7
 10
160.4188599916
 20
222.8489248241
 30
0.0
  0
VERTEX
  5
746
  8
0
  6
CONTINUOUS
 62
     7
 10
160.4280242058
 20
222.8431914859
 30
0.0
  0
VERTEX
  5
747
  8
0
  6
CONTINUOUS
 62
     7
 10
160.4392913463
 20
222.8380452302
 30
0.0
  0
VERTEX
  5
748
  8
0
  6
CONTINUOUS
 62
     7
 10
160.4565431656
 20
222.8324182956
 30
0.0
  0
VERTEX
  5
749
  8
0
  6
CONTINUOUS
 62
     7
 10
160.4793140026
 20
222.827097999
 30
0.0
  0
VERTEX
  5
74A
  8
0
  6
CONTINUOUS
 62
     7
 10
160.5044839265
 20
222.822640922
 30
0.0
  0
VERTEX
  5
74B
  8
0
  6
CONTINUOUS
 62
     7
 10
160.5353181543
 20
222.8183285492
 30
0.0
  0
VERTEX
  5
74C
  8
0
  6
CONTINUOUS
 62
     7
 10
160.56933378
 20
222.8144969717
 30
0.0
  0
VERTEX
  5
74D
  8
0
  6
CONTINUOUS
 62
     7
 10
160.5851737144
 20
222.8130371236
 30
0.0
  0
SEQEND
  5
74E
  8
0
  6
CONTINUOUS
 62
     7
  0
LINE
  5
270
  8
0
  6
CONTINUOUS
 62
     7
 10
160.9839595215
 20
222.7978184978
 30
0.0
 11
168.7839593099
 21
222.7978184978
 31
0.0
  0
POLYLINE
  5
271
  8
0
  6
CONTINUOUS
 62
     7
 66
     1
 10
0.0
 20
0.0
 30
0.0
  0
VERTEX
  5
74F
  8
0
  6
CONTINUOUS
 62
     7
 10
169.1626276182
 20
222.8112493335
 30
0.0
  0
VERTEX
  5
750
  8
0
  6
CONTINUOUS
 62
     7
 10
169.1839982117
 20
222.8130712333
 30
0.0
  0
VERTEX
  5
751
  8
0
  6
CONTINUOUS
 62
     7
 10
169.2187672773
 20
222.8166740546
 30
0.0
  0
VERTEX
  5
752
  8
0
  6
CONTINUOUS
 62
     7
 10
169.2499391096
 20
222.8206310114
 30
0.0
  0
VERTEX
  5
753
  8
0
  6
CONTINUOUS
 62
     7
 10
169.2774587603
 20
222.8249885533
 30
0.0
  0
VERTEX
  5
754
  8
0
  6
CONTINUOUS
 62
     7
 10
169.3015469531
 20
222.8299145513
 30
0.0
  0
VERTEX
  5
755
  8
0
  6
CONTINUOUS
 62
     7
 10
169.3232039282
 20
222.8360530148
 30
0.0
  0
VERTEX
  5
756
  8
0
  6
CONTINUOUS
 62
     7
 10
169.3369767921
 20
222.841696946
 30
0.0
  0
VERTEX
  5
757
  8
0
  6
CONTINUOUS
 62
     7
 10
169.3477400871
 20
222.8479825585
 30
0.0
  0
VERTEX
  5
758
  8
0
  6
CONTINUOUS
 62
     7
 10
169.3566751959
 20
222.8554408225
 30
0.0
  0
VERTEX
  5
759
  8
0
  6
CONTINUOUS
 62
     7
 10
169.3648037793
 20
222.8656055099
 30
0.0
  0
VERTEX
  5
75A
  8
0
  6
CONTINUOUS
 62
     7
 10
169.3708694832
 20
222.878763468
 30
0.0
  0
VERTEX
  5
75B
  8
0
  6
CONTINUOUS
 62
     7
 10
169.3733048918
 20
222.8948255228
 30
0.0
  0
SEQEND
  5
75C
  8
0
  6
CONTINUOUS
 62
     7
  0
LINE
  5
272
  8
0
  6
CONTINUOUS
 62
     7
 10
160.3946139397
 20
223.5746403034
 30
0.0
 11
160.3946139397
 21
222.8948255228
 31
0.0
  0
LINE
  5
273
  8
0
  6
CONTINUOUS
 62
     7
 10
169.3733048918
 20
222.8948255228
 30
0.0
 11
169.3733048918
 21
222.963056543
 31
0.0
  0
LINE
  5
274
  8
0
  6
CONTINUOUS
 62
     7
 10
160.9839595215
 20
226.0017063395
 30
0.0
 11
160.5590184512
 21
224.4222742242
 31
0.0
  0
LINE
  5
275
  8
0
  6
CONTINUOUS
 62
     7
 10
169.0923891323
 20
224.8553269178
 30
0.0
 11
168.7839593099
 21
226.0017063395
 31
0.0
  0
LINE
  5
276
  8
0
  6
CONTINUOUS
 62
     7
 10
160.5589625718
 20
224.4220357802
 30
0.0
 11
160.3956179055
 21
223.5850165757
 31
0.0
  0
LINE
  5
277
  8
0
  6
CONTINUOUS
 62
     7
 10
160.3961878749
 20
223.5850137817
 30
0.0
 11
160.3946139397
 21
223.5746403034
 31
0.0
  0
POLYLINE
  5
278
  8
0
  6
CONTINUOUS
 62
     7
 66
     1
 10
0.0
 20
0.0
 30
0.0
  0
VERTEX
  5
75D
  8
0
  6
CONTINUOUS
 62
     7
 10
183.5052914279
 20
225.9396128515
 30
0.0
  0
VERTEX
  5
75E
  8
0
  6
CONTINUOUS
 62
     7
 10
183.4839208344
 20
225.9377909517
 30
0.0
  0
VERTEX
  5
75F
  8
0
  6
CONTINUOUS
 62
     7
 10
183.4491517687
 20
225.9341881304
 30
0.0
  0
VERTEX
  5
760
  8
0
  6
CONTINUOUS
 62
     7
 10
183.4179799365
 20
225.9302311736
 30
0.0
  0
VERTEX
  5
761
  8
0
  6
CONTINUOUS
 62
     7
 10
183.3904602857
 20
225.9258736317
 30
0.0
  0
VERTEX
  5
762
  8
0
  6
CONTINUOUS
 62
     7
 10
183.366372093
 20
225.9209476337
 30
0.0
  0
VERTEX
  5
763
  8
0
  6
CONTINUOUS
 62
     7
 10
183.3447151179
 20
225.9148091702
 30
0.0
  0
VERTEX
  5
764
  8
0
  6
CONTINUOUS
 62
     7
 10
183.330942254
 20
225.909165239
 30
0.0
  0
VERTEX
  5
765
  8
0
  6
CONTINUOUS
 62
     7
 10
183.320178959
 20
225.9028796265
 30
0.0
  0
VERTEX
  5
766
  8
0
  6
CONTINUOUS
 62
     7
 10
183.3112438502
 20
225.8954213625
 30
0.0
  0
VERTEX
  5
767
  8
0
  6
CONTINUOUS
 62
     7
 10
183.3031152668
 20
225.8852566751
 30
0.0
  0
VERTEX
  5
768
  8
0
  6
CONTINUOUS
 62
     7
 10
183.2970495628
 20
225.8720987169
 30
0.0
  0
VERTEX
  5
769
  8
0
  6
CONTINUOUS
 62
     7
 10
183.2946141543
 20
225.8560366622
 30
0.0
  0
SEQEND
  5
76A
  8
0
  6
CONTINUOUS
 62
     7
  0
LINE
  5
279
  8
0
  6
CONTINUOUS
 62
     7
 10
191.6839595245
 20
225.9530436872
 30
0.0
 11
183.8839597361
 21
225.9530436872
 31
0.0
  0
POLYLINE
  5
27A
  8
0
  6
CONTINUOUS
 62
     7
 66
     1
 10
0.0
 20
0.0
 30
0.0
  0
VERTEX
  5
76B
  8
0
  6
CONTINUOUS
 62
     7
 10
192.2733051064
 20
225.8560366622
 30
0.0
  0
VERTEX
  5
76C
  8
0
  6
CONTINUOUS
 62
     7
 10
192.2708669039
 20
225.8721100092
 30
0.0
  0
VERTEX
  5
76D
  8
0
  6
CONTINUOUS
 62
     7
 10
192.2649753572
 20
225.8849821678
 30
0.0
  0
VERTEX
  5
76E
  8
0
  6
CONTINUOUS
 62
     7
 10
192.2573981168
 20
225.89468457
 30
0.0
  0
VERTEX
  5
76F
  8
0
  6
CONTINUOUS
 62
     7
 10
192.2490590544
 20
225.9019373609
 30
0.0
  0
VERTEX
  5
770
  8
0
  6
CONTINUOUS
 62
     7
 10
192.2398948403
 20
225.9076706991
 30
0.0
  0
VERTEX
  5
771
  8
0
  6
CONTINUOUS
 62
     7
 10
192.2286276998
 20
225.9128169548
 30
0.0
  0
VERTEX
  5
772
  8
0
  6
CONTINUOUS
 62
     7
 10
192.2113758804
 20
225.9184438894
 30
0.0
  0
VERTEX
  5
773
  8
0
  6
CONTINUOUS
 62
     7
 10
192.1886050435
 20
225.923764186
 30
0.0
  0
VERTEX
  5
774
  8
0
  6
CONTINUOUS
 62
     7
 10
192.1634351196
 20
225.928221263
 30
0.0
  0
VERTEX
  5
775
  8
0
  6
CONTINUOUS
 62
     7
 10
192.1326008918
 20
225.9325336358
 30
0.0
  0
VERTEX
  5
776
  8
0
  6
CONTINUOUS
 62
     7
 10
192.0985852661
 20
225.9363652133
 30
0.0
  0
VERTEX
  5
777
  8
0
  6
CONTINUOUS
 62
     7
 10
192.0827453317
 20
225.9378250614
 30
0.0
  0
SEQEND
  5
778
  8
0
  6
CONTINUOUS
 62
     7
  0
LINE
  5
27B
  8
0
  6
CONTINUOUS
 62
     7
 10
183.2946141543
 20
225.8560366622
 30
0.0
 11
183.2946141543
 21
225.787805642
 31
0.0
  0
LINE
  5
27C
  8
0
  6
CONTINUOUS
 62
     7
 10
192.2733051064
 20
225.1762218816
 30
0.0
 11
192.2733051064
 21
225.8560366622
 31
0.0
  0
LINE
  5
27D
  8
0
  6
CONTINUOUS
 62
     7
 10
183.5755299138
 20
223.8955352672
 30
0.0
 11
183.8839597361
 21
222.7491558455
 31
0.0
  0
LINE
  5
27E
  8
0
  6
CONTINUOUS
 62
     7
 10
191.6839595245
 20
222.7491558455
 30
0.0
 11
192.1089005949
 21
224.3285879608
 31
0.0
  0
LINE
  5
27F
  8
0
  6
CONTINUOUS
 62
     7
 10
192.1089564743
 20
224.3288264048
 30
0.0
 11
192.2723011406
 21
225.1658456093
 31
0.0
  0
LINE
  5
280
  8
0
  6
CONTINUOUS
 62
     7
 10
192.2717311712
 20
225.1658484033
 30
0.0
 11
192.2733051064
 21
225.1762218816
 31
0.0
  0
LINE
  5
281
  8
0
  6
CONTINUOUS
 62
     7
 10
177.9115721177
 20
209.025431091
 30
0.0
 11
177.9115721177
 21
216.8254308794
 31
0.0
  0
POLYLINE
  5
282
  8
0
  6
CONTINUOUS
 62
     7
 66
     1
 10
0.0
 20
0.0
 30
0.0
  0
VERTEX
  5
779
  8
0
  6
CONTINUOUS
 62
     7
 10
177.8145650927
 20
208.4360855092
 30
0.0
  0
VERTEX
  5
77A
  8
0
  6
CONTINUOUS
 62
     7
 10
177.8306384398
 20
208.4385237117
 30
0.0
  0
VERTEX
  5
77B
  8
0
  6
CONTINUOUS
 62
     7
 10
177.8435105983
 20
208.4444152583
 30
0.0
  0
VERTEX
  5
77C
  8
0
  6
CONTINUOUS
 62
     7
 10
177.8532130005
 20
208.4519924988
 30
0.0
  0
VERTEX
  5
77D
  8
0
  6
CONTINUOUS
 62
     7
 10
177.8604657915
 20
208.4603315611
 30
0.0
  0
VERTEX
  5
77E
  8
0
  6
CONTINUOUS
 62
     7
 10
177.8661991296
 20
208.4694957752
 30
0.0
  0
VERTEX
  5
77F
  8
0
  6
CONTINUOUS
 62
     7
 10
177.8713453854
 20
208.4807629157
 30
0.0
  0
VERTEX
  5
780
  8
0
  6
CONTINUOUS
 62
     7
 10
177.8769723199
 20
208.4980147351
 30
0.0
  0
VERTEX
  5
781
  8
0
  6
CONTINUOUS
 62
     7
 10
177.8822926166
 20
208.520785572
 30
0.0
  0
VERTEX
  5
782
  8
0
  6
CONTINUOUS
 62
     7
 10
177.8867496936
 20
208.5459554959
 30
0.0
  0
VERTEX
  5
783
  8
0
  6
CONTINUOUS
 62
     7
 10
177.8910620663
 20
208.5767897237
 30
0.0
  0
VERTEX
  5
784
  8
0
  6
CONTINUOUS
 62
     7
 10
177.8948936438
 20
208.6108053495
 30
0.0
  0
VERTEX
  5
785
  8
0
  6
CONTINUOUS
 62
     7
 10
177.896353492
 20
208.6266452838
 30
0.0
  0
SEQEND
  5
786
  8
0
  6
CONTINUOUS
 62
     7
  0
POLYLINE
  5
283
  8
0
  6
CONTINUOUS
 62
     7
 66
     1
 10
0.0
 20
0.0
 30
0.0
  0
VERTEX
  5
787
  8
0
  6
CONTINUOUS
 62
     7
 10
177.8981412821
 20
217.2040991877
 30
0.0
  0
VERTEX
  5
788
  8
0
  6
CONTINUOUS
 62
     7
 10
177.8963193823
 20
217.2254697811
 30
0.0
  0
VERTEX
  5
789
  8
0
  6
CONTINUOUS
 62
     7
 10
177.8927165609
 20
217.2602388468
 30
0.0
  0
VERTEX
  5
78A
  8
0
  6
CONTINUOUS
 62
     7
 10
177.8887596041
 20
217.291410679
 30
0.0
  0
VERTEX
  5
78B
  8
0
  6
CONTINUOUS
 62
     7
 10
177.8844020622
 20
217.3189303298
 30
0.0
  0
VERTEX
  5
78C
  8
0
  6
CONTINUOUS
 62
     7
 10
177.8794760643
 20
217.3430185225
 30
0.0
  0
VERTEX
  5
78D
  8
0
  6
CONTINUOUS
 62
     7
 10
177.8733376008
 20
217.3646754977
 30
0.0
  0
VERTEX
  5
78E
  8
0
  6
CONTINUOUS
 62
     7
 10
177.8676936695
 20
217.3784483616
 30
0.0
  0
VERTEX
  5
78F
  8
0
  6
CONTINUOUS
 62
     7
 10
177.8614080571
 20
217.3892116566
 30
0.0
  0
VERTEX
  5
790
  8
0
  6
CONTINUOUS
 62
     7
 10
177.8539497931
 20
217.3981467653
 30
0.0
  0
VERTEX
  5
791
  8
0
  6
CONTINUOUS
 62
     7
 10
177.8437851057
 20
217.4062753488
 30
0.0
  0
VERTEX
  5
792
  8
0
  6
CONTINUOUS
 62
     7
 10
177.8306271475
 20
217.4123410527
 30
0.0
  0
VERTEX
  5
793
  8
0
  6
CONTINUOUS
 62
     7
 10
177.8145650927
 20
217.4147764612
 30
0.0
  0
SEQEND
  5
794
  8
0
  6
CONTINUOUS
 62
     7
  0
LINE
  5
284
  8
0
  6
CONTINUOUS
 62
     7
 10
177.1347503121
 20
208.4360855092
 30
0.0
 11
177.8145650927
 21
208.4360855092
 31
0.0
  0
LINE
  5
285
  8
0
  6
CONTINUOUS
 62
     7
 10
177.8145650927
 20
217.4147764612
 30
0.0
 11
177.7463340726
 21
217.4147764612
 31
0.0
  0
LINE
  5
286
  8
0
  6
CONTINUOUS
 62
     7
 10
174.7076842761
 20
209.025431091
 30
0.0
 11
176.2871163913
 21
208.6004900206
 31
0.0
  0
LINE
  5
287
  8
0
  6
CONTINUOUS
 62
     7
 10
175.8540636978
 20
217.1338607017
 30
0.0
 11
174.7076842761
 21
216.8254308794
 31
0.0
  0
LINE
  5
288
  8
0
  6
CONTINUOUS
 62
     7
 10
176.2873548354
 20
208.6004341413
 30
0.0
 11
177.1243740398
 21
208.4370894749
 31
0.0
  0
LINE
  5
289
  8
0
  6
CONTINUOUS
 62
     7
 10
177.1243768338
 20
208.4376594443
 30
0.0
 11
177.1347503121
 21
208.4360855092
 31
0.0
  0
ARC
  5
28A
  8
0
  6
CONTINUOUS
 62
     7
 10
176.333959523
 20
224.3754310925
 30
0.0
 40
15.21278118334047
 50
140.8323525363
 51
168.3588975882
  0
ARC
  5
28B
  8
0
  6
CONTINUOUS
 62
     7
 10
176.333959523
 20
224.3754310925
 30
0.0
 40
15.21278118334048
 50
230.8323478891
 51
258.3588975882
  0
ARC
  5
28C
  8
0
  6
CONTINUOUS
 62
     7
 10
176.333959523
 20
224.3754310925
 30
0.0
 40
15.21278118334048
 50
50.8323673597
 51
78.3588975882
  0
ARC
  5
28D
  8
0
  6
CONTINUOUS
 62
     7
 10
176.333959523
 20
224.3754310925
 30
0.0
 40
15.2127811833405
 50
320.8323449085
 51
348.3588975882
  0
LINE
  5
28E
  8
0
  6
CONTINUOUS
 62
     7
 10
177.2804199312
 20
231.9254313056
 30
0.0
 11
175.6630731573
 21
231.9254313056
 31
0.0
  0
LINE
  5
28F
  8
0
  6
CONTINUOUS
 62
     7
 10
175.6630731573
 20
231.9254313056
 30
0.0
 11
175.6630731573
 21
239.725431094
 31
0.0
  0
LINE
  5
290
  8
0
  6
CONTINUOUS
 62
     7
 10
177.2804199312
 20
239.725431094
 30
0.0
 11
175.6630731573
 21
239.725431094
 31
0.0
  0
LINE
  5
291
  8
0
  6
CONTINUOUS
 62
     7
 10
178.793085582
 20
239.3278848771
 30
0.0
 11
177.2804199312
 21
239.725431094
 31
0.0
  0
LINE
  5
292
  8
0
  6
CONTINUOUS
 62
     7
 10
178.793085582
 20
232.3229775224
 30
0.0
 11
178.793085582
 21
239.3278848771
 31
0.0
  0
LINE
  5
293
  8
0
  6
CONTINUOUS
 62
     7
 10
178.793085582
 20
232.3229775224
 30
0.0
 11
177.2804199312
 21
231.9254313056
 31
0.0
  0
ARC
  5
294
  8
0
  6
CONTINUOUS
 62
     7
 10
176.8756662713
 20
231.8169724543
 30
0.0
 40
1.217433933485149
 50
174.8888528363
 51
195.07329246
  0
ARC
  5
295
  8
0
  6
CONTINUOUS
 62
     7
 10
176.8756864508
 20
239.8338885333
 30
0.0
 40
1.217453907006217
 50
164.9268691884
 51
185.1109963742
  0
LINE
  5
296
  8
0
  6
CONTINUOUS
 62
     7
 10
177.2804199312
 20
231.9254313056
 30
0.0
 11
175.7001194231
 21
231.5003733542
 31
0.0
  0
LINE
  5
297
  8
0
  6
CONTINUOUS
 62
     7
 10
177.2804199312
 20
239.725431094
 30
0.0
 11
175.7001194231
 21
240.150489511
 31
0.0
  0
ARC
  5
298
  8
0
  6
CONTINUOUS
 62
     7
 10
179.2831618348
 20
239.7518235052
 30
0.0
 40
4.526701623399177
 50
175.3775917369
 51
180.3340583205
  0
ARC
  5
299
  8
0
  6
CONTINUOUS
 62
     7
 10
179.4093007478
 20
231.9014303658
 30
0.0
 40
4.652825500001463
 50
179.7044465452
 51
184.2889473665
  0
LINE
  5
29A
  8
0
  6
CONTINUOUS
 62
     7
 10
177.96023477
 20
231.9254313056
 30
0.0
 11
176.813540212
 21
231.6170014833
 31
0.0
  0
LINE
  5
29B
  8
0
  6
CONTINUOUS
 62
     7
 10
175.7001194231
 20
231.5003733542
 30
0.0
 11
175.7246408555
 21
231.5003733542
 31
0.0
  0
LINE
  5
29C
  8
0
  6
CONTINUOUS
 62
     7
 10
178.8063678717
 20
232.3229775224
 30
0.0
 11
178.793085582
 21
232.3229775224
 31
0.0
  0
LINE
  5
29D
  8
0
  6
CONTINUOUS
 62
     7
 10
178.8063678717
 20
232.1584812757
 30
0.0
 11
177.96023477
 21
231.9254313056
 31
0.0
  0
LINE
  5
29E
  8
0
  6
CONTINUOUS
 62
     7
 10
175.7001194231
 20
240.150489511
 30
0.0
 11
176.3799342001
 21
240.150489511
 31
0.0
  0
LINE
  5
29F
  8
0
  6
CONTINUOUS
 62
     7
 10
177.96023477
 20
239.725431094
 30
0.0
 11
176.3799342001
 21
240.150489511
 31
0.0
  0
LINE
  5
2A0
  8
0
  6
CONTINUOUS
 62
     7
 10
179.4036033856
 20
239.3278848771
 30
0.0
 11
177.96023477
 21
239.725431094
 31
0.0
  0
LINE
  5
2A1
  8
0
  6
CONTINUOUS
 62
     7
 10
178.793085582
 20
239.3278848771
 30
0.0
 11
179.4036033856
 21
239.3278848771
 31
0.0
  0
LINE
  5
2A2
  8
0
  6
CONTINUOUS
 62
     7
 10
179.4036033856
 20
239.3278848771
 30
0.0
 11
179.4036033856
 21
239.2173778657
 31
0.0
  0
LINE
  5
2A3
  8
0
  6
CONTINUOUS
 62
     7
 10
176.3808026547
 20
240.1503721644
 30
0.0
 11
176.3799342001
 21
240.150489511
 31
0.0
  0
LINE
  5
2A4
  8
0
  6
CONTINUOUS
 62
     7
 10
168.7839593099
 20
225.3218915007
 30
0.0
 11
168.7839593099
 21
223.7045447268
 31
0.0
  0
LINE
  5
2A5
  8
0
  6
CONTINUOUS
 62
     7
 10
168.7839593099
 20
223.7045447268
 30
0.0
 11
160.9839595215
 21
223.7045447268
 31
0.0
  0
LINE
  5
2A6
  8
0
  6
CONTINUOUS
 62
     7
 10
160.9839595215
 20
225.3218915007
 30
0.0
 11
160.9839595215
 21
223.7045447268
 31
0.0
  0
LINE
  5
2A7
  8
0
  6
CONTINUOUS
 62
     7
 10
161.3815057384
 20
226.8345571515
 30
0.0
 11
160.9839595215
 21
225.3218915007
 31
0.0
  0
LINE
  5
2A8
  8
0
  6
CONTINUOUS
 62
     7
 10
168.3864130931
 20
226.8345571515
 30
0.0
 11
161.3815057384
 21
226.8345571515
 31
0.0
  0
LINE
  5
2A9
  8
0
  6
CONTINUOUS
 62
     7
 10
168.3864130931
 20
226.8345571515
 30
0.0
 11
168.7839593099
 21
225.3218915007
 31
0.0
  0
ARC
  5
2AA
  8
0
  6
CONTINUOUS
 62
     7
 10
160.8755020822
 20
224.9171580203
 30
0.0
 40
1.21745390700615
 50
254.9268691884
 51
275.1109963742
  0
ARC
  5
2AB
  8
0
  6
CONTINUOUS
 62
     7
 10
168.8924181612
 20
224.9171378407
 30
0.0
 40
1.217433933485121
 50
264.8888528363
 51
285.07329246
  0
LINE
  5
2AC
  8
0
  6
CONTINUOUS
 62
     7
 10
160.9839595215
 20
225.3218915007
 30
0.0
 11
160.5589011045
 21
223.7415909926
 31
0.0
  0
LINE
  5
2AD
  8
0
  6
CONTINUOUS
 62
     7
 10
168.7839593099
 20
225.3218915007
 30
0.0
 11
169.2090172613
 21
223.7415909926
 31
0.0
  0
ARC
  5
2AE
  8
0
  6
CONTINUOUS
 62
     7
 10
160.9575671103
 20
227.3246334042
 30
0.0
 40
4.526701623399147
 50
265.3775917369
 51
270.3340583205
  0
ARC
  5
2AF
  8
0
  6
CONTINUOUS
 62
     7
 10
168.8079602497
 20
227.4507723173
 30
0.0
 40
4.652825500001437
 50
269.7044465452
 51
274.2889473665
  0
LINE
  5
2B0
  8
0
  6
CONTINUOUS
 62
     7
 10
160.5589011045
 20
223.7415909926
 30
0.0
 11
160.5589011045
 21
224.4214057695
 31
0.0
  0
LINE
  5
2B1
  8
0
  6
CONTINUOUS
 62
     7
 10
160.9839595215
 20
226.0017063395
 30
0.0
 11
160.5589011045
 21
224.4214057695
 31
0.0
  0
LINE
  5
2B2
  8
0
  6
CONTINUOUS
 62
     7
 10
161.3815057384
 20
227.445074955
 30
0.0
 11
160.9839595215
 21
226.0017063395
 31
0.0
  0
LINE
  5
2B3
  8
0
  6
CONTINUOUS
 62
     7
 10
161.3815057384
 20
226.8345571515
 30
0.0
 11
161.3815057384
 21
227.445074955
 31
0.0
  0
LINE
  5
2B4
  8
0
  6
CONTINUOUS
 62
     7
 10
168.7839593099
 20
226.0017063395
 30
0.0
 11
169.0923891323
 21
224.8550117815
 31
0.0
  0
LINE
  5
2B5
  8
0
  6
CONTINUOUS
 62
     7
 10
169.2090172613
 20
223.7415909926
 30
0.0
 11
169.2090172613
 21
223.7661124249
 31
0.0
  0
LINE
  5
2B6
  8
0
  6
CONTINUOUS
 62
     7
 10
168.3864130931
 20
226.8478394412
 30
0.0
 11
168.3864130931
 21
226.8345571515
 31
0.0
  0
LINE
  5
2B7
  8
0
  6
CONTINUOUS
 62
     7
 10
168.5509093398
 20
226.8478394412
 30
0.0
 11
168.7839593099
 21
226.0017063395
 31
0.0
  0
LINE
  5
2B8
  8
0
  6
CONTINUOUS
 62
     7
 10
161.3815057384
 20
227.445074955
 30
0.0
 11
161.4920127498
 21
227.445074955
 31
0.0
  0
LINE
  5
2B9
  8
0
  6
CONTINUOUS
 62
     7
 10
160.5590184512
 20
224.4222742242
 30
0.0
 11
160.5589011045
 21
224.4214057695
 31
0.0
  0
LINE
  5
2BA
  8
0
  6
CONTINUOUS
 62
     7
 10
183.8839597361
 20
223.4289706843
 30
0.0
 11
183.8839597361
 21
225.0463174582
 31
0.0
  0
LINE
  5
2BB
  8
0
  6
CONTINUOUS
 62
     7
 10
183.8839597361
 20
225.0463174582
 30
0.0
 11
191.6839595245
 21
225.0463174582
 31
0.0
  0
LINE
  5
2BC
  8
0
  6
CONTINUOUS
 62
     7
 10
191.6839595245
 20
223.4289706843
 30
0.0
 11
191.6839595245
 21
225.0463174582
 31
0.0
  0
LINE
  5
2BD
  8
0
  6
CONTINUOUS
 62
     7
 10
191.2864133077
 20
221.9163050335
 30
0.0
 11
191.6839595245
 21
223.4289706843
 31
0.0
  0
LINE
  5
2BE
  8
0
  6
CONTINUOUS
 62
     7
 10
184.281505953
 20
221.9163050335
 30
0.0
 11
191.2864133077
 21
221.9163050335
 31
0.0
  0
LINE
  5
2BF
  8
0
  6
CONTINUOUS
 62
     7
 10
184.281505953
 20
221.9163050335
 30
0.0
 11
183.8839597361
 21
223.4289706843
 31
0.0
  0
ARC
  5
2C0
  8
0
  6
CONTINUOUS
 62
     7
 10
183.7755008849
 20
223.8337243442
 30
0.0
 40
1.217433933485206
 50
84.8888528363
 51
105.07329246
  0
ARC
  5
2C1
  8
0
  6
CONTINUOUS
 62
     7
 10
191.7924169639
 20
223.8337041647
 30
0.0
 40
1.217453907006237
 50
74.9268691884
 51
95.1109963742
  0
LINE
  5
2C2
  8
0
  6
CONTINUOUS
 62
     7
 10
183.8839597361
 20
223.4289706843
 30
0.0
 11
183.4589017848
 21
225.0092711924
 31
0.0
  0
LINE
  5
2C3
  8
0
  6
CONTINUOUS
 62
     7
 10
191.6839595245
 20
223.4289706843
 30
0.0
 11
192.1090179415
 21
225.0092711924
 31
0.0
  0
ARC
  5
2C4
  8
0
  6
CONTINUOUS
 62
     7
 10
183.8599587964
 20
221.3000898677
 30
0.0
 40
4.652825500001521
 50
89.7044465452
 51
94.2889473665
  0
ARC
  5
2C5
  8
0
  6
CONTINUOUS
 62
     7
 10
191.7103519358
 20
221.4262287808
 30
0.0
 40
4.526701623399232
 50
85.3775917369
 51
90.3340583205
  0
LINE
  5
2C6
  8
0
  6
CONTINUOUS
 62
     7
 10
183.8839597361
 20
222.7491558455
 30
0.0
 11
183.5755299138
 21
223.8958504035
 31
0.0
  0
LINE
  5
2C7
  8
0
  6
CONTINUOUS
 62
     7
 10
183.4589017848
 20
225.0092711924
 30
0.0
 11
183.4589017848
 21
224.9847497601
 31
0.0
  0
LINE
  5
2C8
  8
0
  6
CONTINUOUS
 62
     7
 10
184.281505953
 20
221.9030227438
 30
0.0
 11
184.281505953
 21
221.9163050335
 31
0.0
  0
LINE
  5
2C9
  8
0
  6
CONTINUOUS
 62
     7
 10
184.1170097062
 20
221.9030227438
 30
0.0
 11
183.8839597361
 21
222.7491558455
 31
0.0
  0
LINE
  5
2CA
  8
0
  6
CONTINUOUS
 62
     7
 10
192.1090179415
 20
225.0092711924
 30
0.0
 11
192.1090179415
 21
224.3294564154
 31
0.0
  0
LINE
  5
2CB
  8
0
  6
CONTINUOUS
 62
     7
 10
191.6839595245
 20
222.7491558455
 30
0.0
 11
192.1090179415
 21
224.3294564154
 31
0.0
  0
LINE
  5
2CC
  8
0
  6
CONTINUOUS
 62
     7
 10
191.2864133077
 20
221.30578723
 30
0.0
 11
191.6839595245
 21
222.7491558455
 31
0.0
  0
LINE
  5
2CD
  8
0
  6
CONTINUOUS
 62
     7
 10
191.2864133077
 20
221.9163050335
 30
0.0
 11
191.2864133077
 21
221.30578723
 31
0.0
  0
LINE
  5
2CE
  8
0
  6
CONTINUOUS
 62
     7
 10
191.2864133077
 20
221.30578723
 30
0.0
 11
191.1759062963
 21
221.30578723
 31
0.0
  0
LINE
  5
2CF
  8
0
  6
CONTINUOUS
 62
     7
 10
192.1089005949
 20
224.3285879608
 30
0.0
 11
192.1090179415
 21
224.3294564154
 31
0.0
  0
LINE
  5
2D0
  8
0
  6
CONTINUOUS
 62
     7
 10
175.3874991149
 20
216.8254308794
 30
0.0
 11
177.0048458887
 21
216.8254308794
 31
0.0
  0
LINE
  5
2D1
  8
0
  6
CONTINUOUS
 62
     7
 10
177.0048458887
 20
216.8254308794
 30
0.0
 11
177.0048458887
 21
209.025431091
 31
0.0
  0
LINE
  5
2D2
  8
0
  6
CONTINUOUS
 62
     7
 10
175.3874991149
 20
209.025431091
 30
0.0
 11
177.0048458887
 21
209.025431091
 31
0.0
  0
LINE
  5
2D3
  8
0
  6
CONTINUOUS
 62
     7
 10
173.8748334641
 20
209.4229773079
 30
0.0
 11
175.3874991149
 21
209.025431091
 31
0.0
  0
LINE
  5
2D4
  8
0
  6
CONTINUOUS
 62
     7
 10
173.8748334641
 20
216.4278846626
 30
0.0
 11
173.8748334641
 21
209.4229773079
 31
0.0
  0
LINE
  5
2D5
  8
0
  6
CONTINUOUS
 62
     7
 10
173.8748334641
 20
216.4278846626
 30
0.0
 11
175.3874991149
 21
216.8254308794
 31
0.0
  0
ARC
  5
2D6
  8
0
  6
CONTINUOUS
 62
     7
 10
175.7922527748
 20
216.9338897307
 30
0.0
 40
1.217433933485156
 50
354.8888528363
 51
15.07329246
  0
ARC
  5
2D7
  8
0
  6
CONTINUOUS
 62
     7
 10
175.7922325952
 20
208.9169736517
 30
0.0
 40
1.217453907006209
 50
344.9268691884
 51
5.1109963742
  0
LINE
  5
2D8
  8
0
  6
CONTINUOUS
 62
     7
 10
175.3874991149
 20
216.8254308794
 30
0.0
 11
176.9677996229
 21
217.2504888308
 31
0.0
  0
LINE
  5
2D9
  8
0
  6
CONTINUOUS
 62
     7
 10
175.3874991149
 20
209.025431091
 30
0.0
 11
176.9677996229
 21
208.600372674
 31
0.0
  0
ARC
  5
2DA
  8
0
  6
CONTINUOUS
 62
     7
 10
173.3847572113
 20
208.9990386798
 30
0.0
 40
4.526701623399232
 50
355.3775917369
 51
0.3340583205
  0
ARC
  5
2DB
  8
0
  6
CONTINUOUS
 62
     7
 10
173.2586182982
 20
216.8494318192
 30
0.0
 40
4.652825500001468
 50
359.7044465452
 51
4.2889473665
  0
LINE
  5
2DC
  8
0
  6
CONTINUOUS
 62
     7
 10
174.7076842761
 20
216.8254308794
 30
0.0
 11
175.854378834
 21
217.1338607017
 31
0.0
  0
LINE
  5
2DD
  8
0
  6
CONTINUOUS
 62
     7
 10
176.9677996229
 20
217.2504888308
 30
0.0
 11
176.9432781906
 21
217.2504888308
 31
0.0
  0
LINE
  5
2DE
  8
0
  6
CONTINUOUS
 62
     7
 10
173.8615511743
 20
216.4278846626
 30
0.0
 11
173.8748334641
 21
216.4278846626
 31
0.0
  0
LINE
  5
2DF
  8
0
  6
CONTINUOUS
 62
     7
 10
173.8615511743
 20
216.5923809093
 30
0.0
 11
174.7076842761
 21
216.8254308794
 31
0.0
  0
LINE
  5
2E0
  8
0
  6
CONTINUOUS
 62
     7
 10
176.9677996229
 20
208.600372674
 30
0.0
 11
176.287984846
 21
208.600372674
 31
0.0
  0
LINE
  5
2E1
  8
0
  6
CONTINUOUS
 62
     7
 10
174.7076842761
 20
209.025431091
 30
0.0
 11
176.287984846
 21
208.600372674
 31
0.0
  0
LINE
  5
2E2
  8
0
  6
CONTINUOUS
 62
     7
 10
173.2643156605
 20
209.4229773079
 30
0.0
 11
174.7076842761
 21
209.025431091
 31
0.0
  0
LINE
  5
2E3
  8
0
  6
CONTINUOUS
 62
     7
 10
173.8748334641
 20
209.4229773079
 30
0.0
 11
173.2643156605
 21
209.4229773079
 31
0.0
  0
LINE
  5
2E4
  8
0
  6
CONTINUOUS
 62
     7
 10
173.2643156605
 20
209.4229773079
 30
0.0
 11
173.2643156605
 21
209.5334843193
 31
0.0
  0
LINE
  5
2E5
  8
0
  6
CONTINUOUS
 62
     7
 10
176.2871163913
 20
208.6004900206
 30
0.0
 11
176.287984846
 21
208.600372674
 31
0.0
  0
LINE
  5
2E6
  8
0
  6
CONTINUOUS
 62
     7
 10
178.8063678717
 20
238.6691790466
 30
0.0
 11
178.8063678717
 21
231.6170014833
 31
0.0
  0
ARC
  5
2E7
  8
0
  6
CONTINUOUS
 62
     7
 10
176.333959523
 20
224.3754310925
 30
0.0
 40
14.50600000000001
 50
51.5097296396
 51
80.1865749096
  0
LINE
  5
2E8
  8
0
  6
CONTINUOUS
 62
     7
 10
185.362228501
 20
235.7294779662
 30
0.0
 11
183.0755298318
 21
230.8069049772
 31
0.0
  0
LINE
  5
2E9
  8
0
  6
CONTINUOUS
 62
     7
 10
183.0755298318
 20
230.8069049772
 30
0.0
 11
183.0755298318
 21
225.787805642
 31
0.0
  0
LINE
  5
2EA
  8
0
  6
CONTINUOUS
 62
     7
 10
183.0755298318
 20
225.787805642
 30
0.0
 11
183.3033974575
 21
225.787805642
 31
0.0
  0
LINE
  5
2EB
  8
0
  6
CONTINUOUS
 62
     7
 10
183.5755299138
 20
224.3824578313
 30
0.0
 11
183.3033974575
 21
225.787805642
 31
0.0
  0
LINE
  5
2EC
  8
0
  6
CONTINUOUS
 62
     7
 10
183.5755299138
 20
224.3824578313
 30
0.0
 11
183.5755299138
 21
221.9030227438
 31
0.0
  0
LINE
  5
2ED
  8
0
  6
CONTINUOUS
 62
     7
 10
190.6277074771
 20
221.9030227438
 30
0.0
 11
183.5755299138
 21
221.9030227438
 31
0.0
  0
ARC
  5
2EE
  8
0
  6
CONTINUOUS
 62
     7
 10
176.333959523
 20
224.3754310925
 30
0.0
 40
14.50600000000001
 50
321.5097296396
 51
350.1865749096
  0
LINE
  5
2EF
  8
0
  6
CONTINUOUS
 62
     7
 10
187.6880063968
 20
215.3471621145
 30
0.0
 11
182.7654334078
 21
217.6338607837
 31
0.0
  0
LINE
  5
2F0
  8
0
  6
CONTINUOUS
 62
     7
 10
182.7654334078
 20
217.6338607837
 30
0.0
 11
177.7463340726
 21
217.6338607837
 31
0.0
  0
LINE
  5
2F1
  8
0
  6
CONTINUOUS
 62
     7
 10
177.7463340726
 20
217.6338607837
 30
0.0
 11
177.7463340726
 21
217.405993158
 31
0.0
  0
LINE
  5
2F2
  8
0
  6
CONTINUOUS
 62
     7
 10
176.3409862618
 20
217.1338607017
 30
0.0
 11
177.7463340726
 21
217.405993158
 31
0.0
  0
LINE
  5
2F3
  8
0
  6
CONTINUOUS
 62
     7
 10
176.3409862618
 20
217.1338607017
 30
0.0
 11
173.8615511743
 21
217.1338607017
 31
0.0
  0
LINE
  5
2F4
  8
0
  6
CONTINUOUS
 62
     7
 10
173.8615511743
 20
210.0816831384
 30
0.0
 11
173.8615511743
 21
217.1338607017
 31
0.0
  0
ARC
  5
2F5
  8
0
  6
CONTINUOUS
 62
     7
 10
176.333959523
 20
224.3754310925
 30
0.0
 40
14.50600000000001
 50
231.5097296396
 51
260.1865749096
  0
LINE
  5
2F6
  8
0
  6
CONTINUOUS
 62
     7
 10
167.305690545
 20
213.0213842187
 30
0.0
 11
169.5923892142
 21
217.9439572078
 31
0.0
  0
LINE
  5
2F7
  8
0
  6
CONTINUOUS
 62
     7
 10
169.5923892142
 20
217.9439572078
 30
0.0
 11
169.5923892142
 21
222.963056543
 31
0.0
  0
LINE
  5
2F8
  8
0
  6
CONTINUOUS
 62
     7
 10
169.5923892142
 20
222.963056543
 30
0.0
 11
169.3645215886
 21
222.963056543
 31
0.0
  0
LINE
  5
2F9
  8
0
  6
CONTINUOUS
 62
     7
 10
169.0923891323
 20
224.3684043537
 30
0.0
 11
169.3645215886
 21
222.963056543
 31
0.0
  0
LINE
  5
2FA
  8
0
  6
CONTINUOUS
 62
     7
 10
169.0923891323
 20
224.3684043537
 30
0.0
 11
169.0923891323
 21
226.8478394412
 31
0.0
  0
LINE
  5
2FB
  8
0
  6
CONTINUOUS
 62
     7
 10
162.040211569
 20
226.8478394412
 30
0.0
 11
169.0923891323
 21
226.8478394412
 31
0.0
  0
ARC
  5
2FC
  8
0
  6
CONTINUOUS
 62
     7
 10
176.333959523
 20
224.3754310925
 30
0.0
 40
14.506
 50
141.5097296396
 51
170.1865749096
  0
LINE
  5
2FD
  8
0
  6
CONTINUOUS
 62
     7
 10
164.9799126493
 20
233.4037000705
 30
0.0
 11
169.9024856383
 21
231.1170014013
 31
0.0
  0
LINE
  5
2FE
  8
0
  6
CONTINUOUS
 62
     7
 10
169.9024856383
 20
231.1170014013
 30
0.0
 11
174.9215849735
 21
231.1170014013
 31
0.0
  0
LINE
  5
2FF
  8
0
  6
CONTINUOUS
 62
     7
 10
174.9215849735
 20
231.1170014013
 30
0.0
 11
174.9215849735
 21
231.344869027
 31
0.0
  0
LINE
  5
300
  8
0
  6
CONTINUOUS
 62
     7
 10
176.3269327843
 20
231.6170014833
 30
0.0
 11
174.9215849735
 21
231.344869027
 31
0.0
  0
LINE
  5
301
  8
0
  6
CONTINUOUS
 62
     7
 10
176.3269327843
 20
231.6170014833
 30
0.0
 11
178.8063678717
 21
231.6170014833
 31
0.0
  0
CIRCLE
  5
302
  8
0
  6
CONTINUOUS
 62
     7
 10
176.333959523
 20
224.3754310925
 30
0.0
 40
2.650000000000034
  0
ARC
  5
303
  8
0
  6
CONTINUOUS
 62
     7
 10
176.333959523
 20
224.3754310925
 30
0.0
 40
15.00600000000001
 50
141.8979626325
 51
170.3472505028
  0
LINE
  5
304
  8
0
  6
CONTINUOUS
 62
     7
 10
164.5255417856
 20
233.6350908894
 30
0.0
 11
164.9799126493
 21
233.4037000705
 31
0.0
  0
LINE
  5
305
  8
0
  6
CONTINUOUS
 62
     7
 10
161.540413584
 20
226.8915836625
 30
0.0
 11
162.040211569
 21
226.8478394412
 31
0.0
  0
ARC
  5
306
  8
0
  6
CONTINUOUS
 62
     7
 10
164.4765141726
 20
233.5349213583
 30
0.0
 40
0.4520831131382214
 50
63.3274349991
 51
82.0559555142
  0
LINE
  5
307
  8
0
  6
CONTINUOUS
 62
     7
 10
165.5048237475
 20
233.6139806007
 30
0.0
 11
164.6794502916
 21
233.9388966952
 31
0.0
  0
ARC
  5
308
  8
0
  6
CONTINUOUS
 62
     7
 10
175.1506484594
 20
256.7654144136
 30
0.0
 40
25.08048687662397
 50
247.3814130446
 51
253.4569976074
  0
LINE
  5
309
  8
0
  6
CONTINUOUS
 62
     7
 10
171.3876131283
 20
231.1170014013
 30
0.0
 11
168.0093587669
 21
232.7231016402
 31
0.0
  0
LINE
  5
30A
  8
0
  6
CONTINUOUS
 62
     7
 10
164.5272544878
 20
233.6874889601
 30
0.0
 11
164.5255417856
 21
233.6350908894
 31
0.0
  0
POLYLINE
  5
30B
  8
0
  6
CONTINUOUS
 62
     7
 66
     1
 10
0.0
 20
0.0
 30
0.0
  0
VERTEX
  5
795
  8
0
  6
CONTINUOUS
 62
     7
 10
164.5305876913
 20
233.7809583564
 30
0.0
  0
VERTEX
  5
796
  8
0
  6
CONTINUOUS
 62
     7
 10
164.606816444
 20
233.7467322518
 30
0.0
  0
VERTEX
  5
797
  8
0
  6
CONTINUOUS
 62
     7
 10
164.6845651152
 20
233.7115999703
 30
0.0
  0
VERTEX
  5
798
  8
0
  6
CONTINUOUS
 62
     7
 10
164.7635096045
 20
233.6757095922
 30
0.0
  0
VERTEX
  5
799
  8
0
  6
CONTINUOUS
 62
     7
 10
164.8433220865
 20
233.6392082666
 30
0.0
  0
VERTEX
  5
79A
  8
0
  6
CONTINUOUS
 62
     7
 10
164.9236719417
 20
233.6022487302
 30
0.0
  0
VERTEX
  5
79B
  8
0
  6
CONTINUOUS
 62
     7
 10
165.0042248251
 20
233.5649846513
 30
0.0
  0
VERTEX
  5
79C
  8
0
  6
CONTINUOUS
 62
     7
 10
165.0846463921
 20
233.5275706295
 30
0.0
  0
VERTEX
  5
79D
  8
0
  6
CONTINUOUS
 62
     7
 10
165.1646032291
 20
233.4901612644
 30
0.0
  0
VERTEX
  5
79E
  8
0
  6
CONTINUOUS
 62
     7
 10
165.2437619226
 20
233.4529120867
 30
0.0
  0
VERTEX
  5
79F
  8
0
  6
CONTINUOUS
 62
     7
 10
165.3217946472
 20
233.4159786273
 30
0.0
  0
VERTEX
  5
7A0
  8
0
  6
CONTINUOUS
 62
     7
 10
165.3983773025
 20
233.3795145546
 30
0.0
  0
VERTEX
  5
7A1
  8
0
  6
CONTINUOUS
 62
     7
 10
165.4731913762
 20
233.3436698113
 30
0.0
  0
VERTEX
  5
7A2
  8
0
  6
CONTINUOUS
 62
     7
 10
165.545926738
 20
233.3085934092
 30
0.0
  0
VERTEX
  5
7A3
  8
0
  6
CONTINUOUS
 62
     7
 10
165.6162816392
 20
233.2744324971
 30
0.0
  0
VERTEX
  5
7A4
  8
0
  6
CONTINUOUS
 62
     7
 10
165.6839627134
 20
233.2413277049
 30
0.0
  0
VERTEX
  5
7A5
  8
0
  6
CONTINUOUS
 62
     7
 10
165.7486896323
 20
233.2094168682
 30
0.0
  0
VERTEX
  5
7A6
  8
0
  6
CONTINUOUS
 62
     7
 10
165.8101932438
 20
233.1788331662
 30
0.0
  0
VERTEX
  5
7A7
  8
0
  6
CONTINUOUS
 62
     7
 10
165.8682183655
 20
233.1497023274
 30
0.0
  0
VERTEX
  5
7A8
  8
0
  6
CONTINUOUS
 62
     7
 10
165.9225247162
 20
233.122146355
 30
0.0
  0
VERTEX
  5
7A9
  8
0
  6
CONTINUOUS
 62
     7
 10
165.9728850531
 20
233.0962788705
 30
0.0
  0
VERTEX
  5
7AA
  8
0
  6
CONTINUOUS
 62
     7
 10
166.0190916913
 20
233.0722079073
 30
0.0
  0
VERTEX
  5
7AB
  8
0
  6
CONTINUOUS
 62
     7
 10
166.060951847
 20
233.0500340481
 30
0.0
  0
VERTEX
  5
7AC
  8
0
  6
CONTINUOUS
 62
     7
 10
166.0982922943
 20
233.0298476313
 30
0.0
  0
VERTEX
  5
7AD
  8
0
  6
CONTINUOUS
 62
     7
 10
166.1309584336
 20
233.0117334072
 30
0.0
  0
VERTEX
  5
7AE
  8
0
  6
CONTINUOUS
 62
     7
 10
166.1588124292
 20
232.9957677443
 30
0.0
  0
VERTEX
  5
7AF
  8
0
  6
CONTINUOUS
 62
     7
 10
166.181741591
 20
232.9820149038
 30
0.0
  0
VERTEX
  5
7B0
  8
0
  6
CONTINUOUS
 62
     7
 10
166.1996481301
 20
232.9705335591
 30
0.0
  0
VERTEX
  5
7B1
  8
0
  6
CONTINUOUS
 62
     7
 10
166.2124594035
 20
232.9613702763
 30
0.0
  0
VERTEX
  5
7B2
  8
0
  6
CONTINUOUS
 62
     7
 10
166.220120463
 20
232.954564171
 30
0.0
  0
VERTEX
  5
7B3
  8
0
  6
CONTINUOUS
 62
     7
 10
166.2226015063
 20
232.9501422514
 30
0.0
  0
VERTEX
  5
7B4
  8
0
  6
CONTINUOUS
 62
     7
 10
166.2198913576
 20
232.9481240753
 30
0.0
  0
VERTEX
  5
7B5
  8
0
  6
CONTINUOUS
 62
     7
 10
166.2120011928
 20
232.9485170935
 30
0.0
  0
VERTEX
  5
7B6
  8
0
  6
CONTINUOUS
 62
     7
 10
166.1989626767
 20
232.9513213057
 30
0.0
  0
VERTEX
  5
7B7
  8
0
  6
CONTINUOUS
 62
     7
 10
166.1808326202
 20
232.9565227423
 30
0.0
  0
VERTEX
  5
7B8
  8
0
  6
CONTINUOUS
 62
     7
 10
166.1576836662
 20
232.9641009141
 30
0.0
  0
VERTEX
  5
7B9
  8
0
  6
CONTINUOUS
 62
     7
 10
166.1296136038
 20
232.9740250875
 30
0.0
  0
VERTEX
  5
7BA
  8
0
  6
CONTINUOUS
 62
     7
 10
166.096737917
 20
232.9862533529
 30
0.0
  0
VERTEX
  5
7BB
  8
0
  6
CONTINUOUS
 62
     7
 10
166.0591944413
 20
233.0007344876
 30
0.0
  0
VERTEX
  5
7BC
  8
0
  6
CONTINUOUS
 62
     7
 10
166.0171377765
 20
233.017408887
 30
0.0
  0
VERTEX
  5
7BD
  8
0
  6
CONTINUOUS
 62
     7
 10
165.9707430111
 20
233.0362076331
 30
0.0
  0
VERTEX
  5
7BE
  8
0
  6
CONTINUOUS
 62
     7
 10
165.920202929
 20
233.0570515637
 30
0.0
  0
VERTEX
  5
7BF
  8
0
  6
CONTINUOUS
 62
     7
 10
165.8657280089
 20
233.0798549969
 30
0.0
  0
VERTEX
  5
7C0
  8
0
  6
CONTINUOUS
 62
     7
 10
165.8075436311
 20
233.1045229379
 30
0.0
  0
VERTEX
  5
7C1
  8
0
  6
CONTINUOUS
 62
     7
 10
165.7458919393
 20
233.1309529413
 30
0.0
  0
VERTEX
  5
7C2
  8
0
  6
CONTINUOUS
 62
     7
 10
165.6810281159
 20
233.1590360422
 30
0.0
  0
VERTEX
  5
7C3
  8
0
  6
CONTINUOUS
 62
     7
 10
165.6132222446
 20
233.1886539627
 30
0.0
  0
VERTEX
  5
7C4
  8
0
  6
CONTINUOUS
 62
     7
 10
165.5427565159
 20
233.2196856309
 30
0.0
  0
VERTEX
  5
7C5
  8
0
  6
CONTINUOUS
 62
     7
 10
165.469922434
 20
233.2519997303
 30
0.0
  0
VERTEX
  5
7C6
  8
0
  6
CONTINUOUS
 62
     7
 10
165.3950236099
 20
233.2854649444
 30
0.0
  0
VERTEX
  5
7C7
  8
0
  6
CONTINUOUS
 62
     7
 10
165.3183701741
 20
233.3199397121
 30
0.0
  0
VERTEX
  5
7C8
  8
0
  6
CONTINUOUS
 62
     7
 10
165.2402806388
 20
233.3552824725
 30
0.0
  0
VERTEX
  5
7C9
  8
0
  6
CONTINUOUS
 62
     7
 10
165.1610791044
 20
233.3913460765
 30
0.0
  0
VERTEX
  5
7CA
  8
0
  6
CONTINUOUS
 62
     7
 10
165.0810952591
 20
233.4279805813
 30
0.0
  0
VERTEX
  5
7CB
  8
0
  6
CONTINUOUS
 62
     7
 10
165.0006606536
 20
233.46503325
 30
0.0
  0
VERTEX
  5
7CC
  8
0
  6
CONTINUOUS
 62
     7
 10
164.9201096328
 20
233.5023513455
 30
0.0
  0
VERTEX
  5
7CD
  8
0
  6
CONTINUOUS
 62
     7
 10
164.8397765415
 20
233.5397793372
 30
0.0
  0
VERTEX
  5
7CE
  8
0
  6
CONTINUOUS
 62
     7
 10
164.7599947931
 20
233.5771626253
 30
0.0
  0
VERTEX
  5
7CF
  8
0
  6
CONTINUOUS
 62
     7
 10
164.6810968699
 20
233.6143438165
 30
0.0
  0
VERTEX
  5
7D0
  8
0
  6
CONTINUOUS
 62
     7
 10
164.6034087347
 20
233.6511701737
 30
0.0
  0
VERTEX
  5
7D1
  8
0
  6
CONTINUOUS
 62
     7
 10
164.5272544878
 20
233.6874889601
 30
0.0
  0
SEQEND
  5
7D2
  8
0
  6
CONTINUOUS
 62
     7
  0
LINE
  5
30C
  8
0
  6
CONTINUOUS
 62
     7
 10
164.5389947401
 20
233.9826660622
 30
0.0
 11
164.5305876913
 21
233.7809583564
 31
0.0
  0
ARC
  5
30D
  8
0
  6
CONTINUOUS
 62
     7
 10
167.1744692572
 20
212.517985742
 30
0.0
 40
0.4520831131381804
 50
153.3274349991
 51
172.0559555142
  0
LINE
  5
30E
  8
0
  6
CONTINUOUS
 62
     7
 10
167.0954100149
 20
213.5462953169
 30
0.0
 11
166.7704939203
 21
212.720921861
 31
0.0
  0
ARC
  5
30F
  8
0
  6
CONTINUOUS
 62
     7
 10
143.9439762019
 20
223.1921200288
 30
0.0
 40
25.08048687664042
 50
337.3814130446
 51
343.4569976074
  0
LINE
  5
310
  8
0
  6
CONTINUOUS
 62
     7
 10
169.5923892142
 20
219.4290846978
 30
0.0
 11
167.9862889754
 21
216.0508303363
 31
0.0
  0
LINE
  5
311
  8
0
  6
CONTINUOUS
 62
     7
 10
167.0742997261
 20
212.567013355
 30
0.0
 11
167.305690545
 21
213.0213842187
 31
0.0
  0
LINE
  5
312
  8
0
  6
CONTINUOUS
 62
     7
 10
167.0219016554
 20
212.5687260572
 30
0.0
 11
167.0742997261
 21
212.567013355
 31
0.0
  0
POLYLINE
  5
313
  8
0
  6
CONTINUOUS
 62
     7
 66
     1
 10
0.0
 20
0.0
 30
0.0
  0
VERTEX
  5
7D3
  8
0
  6
CONTINUOUS
 62
     7
 10
166.9284322592
 20
212.5720592607
 30
0.0
  0
VERTEX
  5
7D4
  8
0
  6
CONTINUOUS
 62
     7
 10
166.9626583638
 20
212.6482880135
 30
0.0
  0
VERTEX
  5
7D5
  8
0
  6
CONTINUOUS
 62
     7
 10
166.9977906453
 20
212.7260366846
 30
0.0
  0
VERTEX
  5
7D6
  8
0
  6
CONTINUOUS
 62
     7
 10
167.0336810233
 20
212.804981174
 30
0.0
  0
VERTEX
  5
7D7
  8
0
  6
CONTINUOUS
 62
     7
 10
167.070182349
 20
212.884793656
 30
0.0
  0
VERTEX
  5
7D8
  8
0
  6
CONTINUOUS
 62
     7
 10
167.1071418854
 20
212.9651435111
 30
0.0
  0
VERTEX
  5
7D9
  8
0
  6
CONTINUOUS
 62
     7
 10
167.1444059642
 20
213.0456963946
 30
0.0
  0
VERTEX
  5
7DA
  8
0
  6
CONTINUOUS
 62
     7
 10
167.181819986
 20
213.1261179615
 30
0.0
  0
VERTEX
  5
7DB
  8
0
  6
CONTINUOUS
 62
     7
 10
167.2192293512
 20
213.2060747985
 30
0.0
  0
VERTEX
  5
7DC
  8
0
  6
CONTINUOUS
 62
     7
 10
167.2564785289
 20
213.2852334921
 30
0.0
  0
VERTEX
  5
7DD
  8
0
  6
CONTINUOUS
 62
     7
 10
167.2934119882
 20
213.3632662166
 30
0.0
  0
VERTEX
  5
7DE
  8
0
  6
CONTINUOUS
 62
     7
 10
167.329876061
 20
213.4398488719
 30
0.0
  0
VERTEX
  5
7DF
  8
0
  6
CONTINUOUS
 62
     7
 10
167.3657208042
 20
213.5146629457
 30
0.0
  0
VERTEX
  5
7E0
  8
0
  6
CONTINUOUS
 62
     7
 10
167.4007972064
 20
213.5873983074
 30
0.0
  0
VERTEX
  5
7E1
  8
0
  6
CONTINUOUS
 62
     7
 10
167.4349581184
 20
213.6577532087
 30
0.0
  0
VERTEX
  5
7E2
  8
0
  6
CONTINUOUS
 62
     7
 10
167.4680629106
 20
213.7254342828
 30
0.0
  0
VERTEX
  5
7E3
  8
0
  6
CONTINUOUS
 62
     7
 10
167.4999737473
 20
213.7901612018
 30
0.0
  0
VERTEX
  5
7E4
  8
0
  6
CONTINUOUS
 62
     7
 10
167.5305574494
 20
213.8516648133
 30
0.0
  0
VERTEX
  5
7E5
  8
0
  6
CONTINUOUS
 62
     7
 10
167.5596882882
 20
213.909689935
 30
0.0
  0
VERTEX
  5
7E6
  8
0
  6
CONTINUOUS
 62
     7
 10
167.5872442605
 20
213.9639962856
 30
0.0
  0
VERTEX
  5
7E7
  8
0
  6
CONTINUOUS
 62
     7
 10
167.613111745
 20
214.0143566225
 30
0.0
  0
VERTEX
  5
7E8
  8
0
  6
CONTINUOUS
 62
     7
 10
167.6371827083
 20
214.0605632607
 30
0.0
  0
VERTEX
  5
7E9
  8
0
  6
CONTINUOUS
 62
     7
 10
167.6593565675
 20
214.1024234165
 30
0.0
  0
VERTEX
  5
7EA
  8
0
  6
CONTINUOUS
 62
     7
 10
167.6795429843
 20
214.1397638638
 30
0.0
  0
VERTEX
  5
7EB
  8
0
  6
CONTINUOUS
 62
     7
 10
167.6976572083
 20
214.1724300031
 30
0.0
  0
VERTEX
  5
7EC
  8
0
  6
CONTINUOUS
 62
     7
 10
167.7136228712
 20
214.2002839987
 30
0.0
  0
VERTEX
  5
7ED
  8
0
  6
CONTINUOUS
 62
     7
 10
167.7273757117
 20
214.2232131605
 30
0.0
  0
VERTEX
  5
7EE
  8
0
  6
CONTINUOUS
 62
     7
 10
167.7388570564
 20
214.2411196996
 30
0.0
  0
VERTEX
  5
7EF
  8
0
  6
CONTINUOUS
 62
     7
 10
167.7480203392
 20
214.2539309729
 30
0.0
  0
VERTEX
  5
7F0
  8
0
  6
CONTINUOUS
 62
     7
 10
167.7548264446
 20
214.2615920324
 30
0.0
  0
VERTEX
  5
7F1
  8
0
  6
CONTINUOUS
 62
     7
 10
167.7592483642
 20
214.2640730758
 30
0.0
  0
VERTEX
  5
7F2
  8
0
  6
CONTINUOUS
 62
     7
 10
167.7612665402
 20
214.2613629271
 30
0.0
  0
VERTEX
  5
7F3
  8
0
  6
CONTINUOUS
 62
     7
 10
167.7608735221
 20
214.2534727622
 30
0.0
  0
VERTEX
  5
7F4
  8
0
  6
CONTINUOUS
 62
     7
 10
167.7580693098
 20
214.2404342462
 30
0.0
  0
VERTEX
  5
7F5
  8
0
  6
CONTINUOUS
 62
     7
 10
167.7528678732
 20
214.2223041896
 30
0.0
  0
VERTEX
  5
7F6
  8
0
  6
CONTINUOUS
 62
     7
 10
167.7452897014
 20
214.1991552357
 30
0.0
  0
VERTEX
  5
7F7
  8
0
  6
CONTINUOUS
 62
     7
 10
167.7353655281
 20
214.1710851733
 30
0.0
  0
VERTEX
  5
7F8
  8
0
  6
CONTINUOUS
 62
     7
 10
167.7231372627
 20
214.1382094864
 30
0.0
  0
VERTEX
  5
7F9
  8
0
  6
CONTINUOUS
 62
     7
 10
167.7086561279
 20
214.1006660108
 30
0.0
  0
VERTEX
  5
7FA
  8
0
  6
CONTINUOUS
 62
     7
 10
167.6919817286
 20
214.058609346
 30
0.0
  0
VERTEX
  5
7FB
  8
0
  6
CONTINUOUS
 62
     7
 10
167.6731829824
 20
214.0122145806
 30
0.0
  0
VERTEX
  5
7FC
  8
0
  6
CONTINUOUS
 62
     7
 10
167.6523390519
 20
213.9616744984
 30
0.0
  0
VERTEX
  5
7FD
  8
0
  6
CONTINUOUS
 62
     7
 10
167.6295356186
 20
213.9071995784
 30
0.0
  0
VERTEX
  5
7FE
  8
0
  6
CONTINUOUS
 62
     7
 10
167.6048676776
 20
213.8490152006
 30
0.0
  0
VERTEX
  5
7FF
  8
0
  6
CONTINUOUS
 62
     7
 10
167.5784376742
 20
213.7873635088
 30
0.0
  0
VERTEX
  5
800
  8
0
  6
CONTINUOUS
 62
     7
 10
167.5503545733
 20
213.7224996854
 30
0.0
  0
VERTEX
  5
801
  8
0
  6
CONTINUOUS
 62
     7
 10
167.5207366528
 20
213.654693814
 30
0.0
  0
VERTEX
  5
802
  8
0
  6
CONTINUOUS
 62
     7
 10
167.4897049846
 20
213.5842280854
 30
0.0
  0
VERTEX
  5
803
  8
0
  6
CONTINUOUS
 62
     7
 10
167.4573908852
 20
213.5113940034
 30
0.0
  0
VERTEX
  5
804
  8
0
  6
CONTINUOUS
 62
     7
 10
167.4239256712
 20
213.4364951794
 30
0.0
  0
VERTEX
  5
805
  8
0
  6
CONTINUOUS
 62
     7
 10
167.3894509034
 20
213.3598417435
 30
0.0
  0
VERTEX
  5
806
  8
0
  6
CONTINUOUS
 62
     7
 10
167.354108143
 20
213.2817522083
 30
0.0
  0
VERTEX
  5
807
  8
0
  6
CONTINUOUS
 62
     7
 10
167.318044539
 20
213.2025506739
 30
0.0
  0
VERTEX
  5
808
  8
0
  6
CONTINUOUS
 62
     7
 10
167.2814100342
 20
213.1225668285
 30
0.0
  0
VERTEX
  5
809
  8
0
  6
CONTINUOUS
 62
     7
 10
167.2443573656
 20
213.0421322231
 30
0.0
  0
VERTEX
  5
80A
  8
0
  6
CONTINUOUS
 62
     7
 10
167.20703927
 20
212.9615812023
 30
0.0
  0
VERTEX
  5
80B
  8
0
  6
CONTINUOUS
 62
     7
 10
167.1696112784
 20
212.8812481109
 30
0.0
  0
VERTEX
  5
80C
  8
0
  6
CONTINUOUS
 62
     7
 10
167.1322279902
 20
212.8014663626
 30
0.0
  0
VERTEX
  5
80D
  8
0
  6
CONTINUOUS
 62
     7
 10
167.0950467991
 20
212.7225684394
 30
0.0
  0
VERTEX
  5
80E
  8
0
  6
CONTINUOUS
 62
     7
 10
167.0582204418
 20
212.6448803042
 30
0.0
  0
VERTEX
  5
80F
  8
0
  6
CONTINUOUS
 62
     7
 10
167.0219016554
 20
212.5687260572
 30
0.0
  0
SEQEND
  5
810
  8
0
  6
CONTINUOUS
 62
     7
  0
LINE
  5
314
  8
0
  6
CONTINUOUS
 62
     7
 10
166.7267245533
 20
212.5804663096
 30
0.0
 11
166.9284322592
 21
212.5720592607
 31
0.0
  0
LINE
  5
315
  8
0
  6
CONTINUOUS
 62
     7
 10
173.817806953
 20
209.5818851535
 30
0.0
 11
173.8615511743
 21
210.0816831384
 31
0.0
  0
ARC
  5
316
  8
0
  6
CONTINUOUS
 62
     7
 10
176.333959523
 20
224.3754310925
 30
0.0
 40
15.00600000000001
 50
231.8979626325
 51
260.3472505028
  0
CIRCLE
  5
317
  8
0
  6
CONTINUOUS
 62
     7
 10
176.333959523
 20
224.3754310925
 30
0.0
 40
1.25
  0
LINE
  5
318
  8
0
  6
CONTINUOUS
 62
     7
 10
181.2803059178
 20
217.6338607837
 30
0.0
 11
184.6585602792
 21
216.0277605448
 31
0.0
  0
LINE
  5
319
  8
0
  6
CONTINUOUS
 62
     7
 10
188.1423772605
 20
215.1157712955
 30
0.0
 11
187.6880063968
 21
215.3471621145
 31
0.0
  0
LINE
  5
31A
  8
0
  6
CONTINUOUS
 62
     7
 10
188.1406645583
 20
215.0633732249
 30
0.0
 11
188.1423772605
 21
215.1157712955
 31
0.0
  0
POLYLINE
  5
31B
  8
0
  6
CONTINUOUS
 62
     7
 66
     1
 10
0.0
 20
0.0
 30
0.0
  0
VERTEX
  5
811
  8
0
  6
CONTINUOUS
 62
     7
 10
188.1406645583
 20
215.0633732249
 30
0.0
  0
VERTEX
  5
812
  8
0
  6
CONTINUOUS
 62
     7
 10
188.0645103114
 20
215.0996920113
 30
0.0
  0
VERTEX
  5
813
  8
0
  6
CONTINUOUS
 62
     7
 10
187.9868221762
 20
215.1365183685
 30
0.0
  0
VERTEX
  5
814
  8
0
  6
CONTINUOUS
 62
     7
 10
187.9079242529
 20
215.1736995597
 30
0.0
  0
VERTEX
  5
815
  8
0
  6
CONTINUOUS
 62
     7
 10
187.8281425046
 20
215.2110828478
 30
0.0
  0
VERTEX
  5
816
  8
0
  6
CONTINUOUS
 62
     7
 10
187.7478094133
 20
215.2485108395
 30
0.0
  0
VERTEX
  5
817
  8
0
  6
CONTINUOUS
 62
     7
 10
187.6672583925
 20
215.285828935
 30
0.0
  0
VERTEX
  5
818
  8
0
  6
CONTINUOUS
 62
     7
 10
187.586823787
 20
215.3228816037
 30
0.0
  0
VERTEX
  5
819
  8
0
  6
CONTINUOUS
 62
     7
 10
187.5068399416
 20
215.3595161084
 30
0.0
  0
VERTEX
  5
81A
  8
0
  6
CONTINUOUS
 62
     7
 10
187.4276384072
 20
215.3955797125
 30
0.0
  0
VERTEX
  5
81B
  8
0
  6
CONTINUOUS
 62
     7
 10
187.349548872
 20
215.4309224729
 30
0.0
  0
VERTEX
  5
81C
  8
0
  6
CONTINUOUS
 62
     7
 10
187.2728954362
 20
215.4653972406
 30
0.0
  0
VERTEX
  5
81D
  8
0
  6
CONTINUOUS
 62
     7
 10
187.1979966121
 20
215.4988624547
 30
0.0
  0
VERTEX
  5
81E
  8
0
  6
CONTINUOUS
 62
     7
 10
187.1251625301
 20
215.5311765541
 30
0.0
  0
VERTEX
  5
81F
  8
0
  6
CONTINUOUS
 62
     7
 10
187.0546968015
 20
215.5622082223
 30
0.0
  0
VERTEX
  5
820
  8
0
  6
CONTINUOUS
 62
     7
 10
186.9868909301
 20
215.5918261428
 30
0.0
  0
VERTEX
  5
821
  8
0
  6
CONTINUOUS
 62
     7
 10
186.9220271068
 20
215.6199092437
 30
0.0
  0
VERTEX
  5
822
  8
0
  6
CONTINUOUS
 62
     7
 10
186.860375415
 20
215.646339247
 30
0.0
  0
VERTEX
  5
823
  8
0
  6
CONTINUOUS
 62
     7
 10
186.8021910371
 20
215.6710071881
 30
0.0
  0
VERTEX
  5
824
  8
0
  6
CONTINUOUS
 62
     7
 10
186.7477161171
 20
215.6938106213
 30
0.0
  0
VERTEX
  5
825
  8
0
  6
CONTINUOUS
 62
     7
 10
186.6971760349
 20
215.7146545519
 30
0.0
  0
VERTEX
  5
826
  8
0
  6
CONTINUOUS
 62
     7
 10
186.6507812696
 20
215.733453298
 30
0.0
  0
VERTEX
  5
827
  8
0
  6
CONTINUOUS
 62
     7
 10
186.6087246047
 20
215.7501276974
 30
0.0
  0
VERTEX
  5
828
  8
0
  6
CONTINUOUS
 62
     7
 10
186.5711811291
 20
215.7646088321
 30
0.0
  0
VERTEX
  5
829
  8
0
  6
CONTINUOUS
 62
     7
 10
186.5383054422
 20
215.7768370975
 30
0.0
  0
VERTEX
  5
82A
  8
0
  6
CONTINUOUS
 62
     7
 10
186.5102353798
 20
215.7867612709
 30
0.0
  0
VERTEX
  5
82B
  8
0
  6
CONTINUOUS
 62
     7
 10
186.4870864259
 20
215.7943394427
 30
0.0
  0
VERTEX
  5
82C
  8
0
  6
CONTINUOUS
 62
     7
 10
186.4689563694
 20
215.7995408792
 30
0.0
  0
VERTEX
  5
82D
  8
0
  6
CONTINUOUS
 62
     7
 10
186.4559178533
 20
215.8023450915
 30
0.0
  0
VERTEX
  5
82E
  8
0
  6
CONTINUOUS
 62
     7
 10
186.4480276885
 20
215.8027381096
 30
0.0
  0
VERTEX
  5
82F
  8
0
  6
CONTINUOUS
 62
     7
 10
186.4453175398
 20
215.8007199336
 30
0.0
  0
VERTEX
  5
830
  8
0
  6
CONTINUOUS
 62
     7
 10
186.4477985831
 20
215.796298014
 30
0.0
  0
VERTEX
  5
831
  8
0
  6
CONTINUOUS
 62
     7
 10
186.4554596426
 20
215.7894919087
 30
0.0
  0
VERTEX
  5
832
  8
0
  6
CONTINUOUS
 62
     7
 10
186.4682709159
 20
215.7803286259
 30
0.0
  0
VERTEX
  5
833
  8
0
  6
CONTINUOUS
 62
     7
 10
186.4861774551
 20
215.7688472812
 30
0.0
  0
VERTEX
  5
834
  8
0
  6
CONTINUOUS
 62
     7
 10
186.5091066169
 20
215.7550944407
 30
0.0
  0
VERTEX
  5
835
  8
0
  6
CONTINUOUS
 62
     7
 10
186.5369606124
 20
215.7391287778
 30
0.0
  0
VERTEX
  5
836
  8
0
  6
CONTINUOUS
 62
     7
 10
186.5696267517
 20
215.7210145537
 30
0.0
  0
VERTEX
  5
837
  8
0
  6
CONTINUOUS
 62
     7
 10
186.606967199
 20
215.7008281369
 30
0.0
  0
VERTEX
  5
838
  8
0
  6
CONTINUOUS
 62
     7
 10
186.6488273548
 20
215.6786542777
 30
0.0
  0
VERTEX
  5
839
  8
0
  6
CONTINUOUS
 62
     7
 10
186.695033993
 20
215.6545833145
 30
0.0
  0
VERTEX
  5
83A
  8
0
  6
CONTINUOUS
 62
     7
 10
186.7453943299
 20
215.62871583
 30
0.0
  0
VERTEX
  5
83B
  8
0
  6
CONTINUOUS
 62
     7
 10
186.7997006806
 20
215.6011598576
 30
0.0
  0
VERTEX
  5
83C
  8
0
  6
CONTINUOUS
 62
     7
 10
186.8577258023
 20
215.5720290188
 30
0.0
  0
VERTEX
  5
83D
  8
0
  6
CONTINUOUS
 62
     7
 10
186.9192294138
 20
215.5414453168
 30
0.0
  0
VERTEX
  5
83E
  8
0
  6
CONTINUOUS
 62
     7
 10
186.9839563327
 20
215.5095344801
 30
0.0
  0
VERTEX
  5
83F
  8
0
  6
CONTINUOUS
 62
     7
 10
187.0516374068
 20
215.4764296879
 30
0.0
  0
VERTEX
  5
840
  8
0
  6
CONTINUOUS
 62
     7
 10
187.1219923081
 20
215.4422687758
 30
0.0
  0
VERTEX
  5
841
  8
0
  6
CONTINUOUS
 62
     7
 10
187.1947276698
 20
215.4071923737
 30
0.0
  0
VERTEX
  5
842
  8
0
  6
CONTINUOUS
 62
     7
 10
187.2695417436
 20
215.3713476304
 30
0.0
  0
VERTEX
  5
843
  8
0
  6
CONTINUOUS
 62
     7
 10
187.3461243989
 20
215.3348835577
 30
0.0
  0
VERTEX
  5
844
  8
0
  6
CONTINUOUS
 62
     7
 10
187.4241571235
 20
215.2979500983
 30
0.0
  0
VERTEX
  5
845
  8
0
  6
CONTINUOUS
 62
     7
 10
187.503315817
 20
215.2607009206
 30
0.0
  0
VERTEX
  5
846
  8
0
  6
CONTINUOUS
 62
     7
 10
187.583272654
 20
215.2232915555
 30
0.0
  0
VERTEX
  5
847
  8
0
  6
CONTINUOUS
 62
     7
 10
187.663694221
 20
215.1858775337
 30
0.0
  0
VERTEX
  5
848
  8
0
  6
CONTINUOUS
 62
     7
 10
187.7442471044
 20
215.1486134548
 30
0.0
  0
VERTEX
  5
849
  8
0
  6
CONTINUOUS
 62
     7
 10
187.8245969595
 20
215.1116539184
 30
0.0
  0
VERTEX
  5
84A
  8
0
  6
CONTINUOUS
 62
     7
 10
187.9044094415
 20
215.0751525928
 30
0.0
  0
VERTEX
  5
84B
  8
0
  6
CONTINUOUS
 62
     7
 10
187.9833539309
 20
215.0392622147
 30
0.0
  0
VERTEX
  5
84C
  8
0
  6
CONTINUOUS
 62
     7
 10
188.0611026021
 20
215.0041299332
 30
0.0
  0
VERTEX
  5
84D
  8
0
  6
CONTINUOUS
 62
     7
 10
188.1373313548
 20
214.9699038286
 30
0.0
  0
SEQEND
  5
84E
  8
0
  6
CONTINUOUS
 62
     7
  0
LINE
  5
31C
  8
0
  6
CONTINUOUS
 62
     7
 10
188.1289243059
 20
214.7681961228
 30
0.0
 11
188.1373313548
 21
214.9699038286
 31
0.0
  0
ARC
  5
31D
  8
0
  6
CONTINUOUS
 62
     7
 10
188.1914048735
 20
215.2159408267
 30
0.0
 40
0.4520831131381168
 50
243.3274349991
 51
262.0559555142
  0
LINE
  5
31E
  8
0
  6
CONTINUOUS
 62
     7
 10
187.1630952986
 20
215.1368815843
 30
0.0
 11
187.9884687545
 21
214.8119654898
 31
0.0
  0
ARC
  5
31F
  8
0
  6
CONTINUOUS
 62
     7
 10
177.5172705867
 20
191.9854477714
 30
0.0
 40
25.08048687663398
 50
67.3814130446
 51
73.4569976074
  0
LINE
  5
320
  8
0
  6
CONTINUOUS
 62
     7
 10
185.59361932
 20
236.18384883
 30
0.0
 11
185.362228501
 21
235.7294779662
 31
0.0
  0
ARC
  5
321
  8
0
  6
CONTINUOUS
 62
     7
 10
176.333959523
 20
224.3754310925
 30
0.0
 40
15.00600000000002
 50
51.8979626325
 51
80.3472505028
  0
LINE
  5
322
  8
0
  6
CONTINUOUS
 62
     7
 10
178.8501120931
 20
239.1689770315
 30
0.0
 11
178.8063678717
 21
238.6691790466
 31
0.0
  0
ARC
  5
323
  8
0
  6
CONTINUOUS
 62
     7
 10
185.4934497889
 20
236.232876443
 30
0.0
 40
0.4520831131381893
 50
333.3274349991
 51
352.0559555142
  0
LINE
  5
324
  8
0
  6
CONTINUOUS
 62
     7
 10
185.5725090312
 20
235.2045668681
 30
0.0
 11
185.8974251257
 21
236.0299403239
 31
0.0
  0
ARC
  5
325
  8
0
  6
CONTINUOUS
 62
     7
 10
208.7239428441
 20
225.5587421562
 30
0.0
 40
25.0804868766176
 50
157.3814130446
 51
163.4569976074
  0
LINE
  5
326
  8
0
  6
CONTINUOUS
 62
     7
 10
183.0755298318
 20
229.3217774872
 30
0.0
 11
184.6816300707
 21
232.7000318487
 31
0.0
  0
LINE
  5
327
  8
0
  6
CONTINUOUS
 62
     7
 10
185.6460173907
 20
236.1821361278
 30
0.0
 11
185.59361932
 21
236.18384883
 31
0.0
  0
POLYLINE
  5
328
  8
0
  6
CONTINUOUS
 62
     7
 66
     1
 10
0.0
 20
0.0
 30
0.0
  0
VERTEX
  5
84F
  8
0
  6
CONTINUOUS
 62
     7
 10
185.7394867869
 20
236.1788029243
 30
0.0
  0
VERTEX
  5
850
  8
0
  6
CONTINUOUS
 62
     7
 10
185.7052606823
 20
236.1025741715
 30
0.0
  0
VERTEX
  5
851
  8
0
  6
CONTINUOUS
 62
     7
 10
185.6701284008
 20
236.0248255004
 30
0.0
  0
VERTEX
  5
852
  8
0
  6
CONTINUOUS
 62
     7
 10
185.6342380228
 20
235.945881011
 30
0.0
  0
VERTEX
  5
853
  8
0
  6
CONTINUOUS
 62
     7
 10
185.5977366971
 20
235.866068529
 30
0.0
  0
VERTEX
  5
854
  8
0
  6
CONTINUOUS
 62
     7
 10
185.5607771607
 20
235.7857186739
 30
0.0
  0
VERTEX
  5
855
  8
0
  6
CONTINUOUS
 62
     7
 10
185.5235130819
 20
235.7051657904
 30
0.0
  0
VERTEX
  5
856
  8
0
  6
CONTINUOUS
 62
     7
 10
185.4860990601
 20
235.6247442235
 30
0.0
  0
VERTEX
  5
857
  8
0
  6
CONTINUOUS
 62
     7
 10
185.4486896949
 20
235.5447873865
 30
0.0
  0
VERTEX
  5
858
  8
0
  6
CONTINUOUS
 62
     7
 10
185.4114405172
 20
235.4656286929
 30
0.0
  0
VERTEX
  5
859
  8
0
  6
CONTINUOUS
 62
     7
 10
185.3745070579
 20
235.3875959684
 30
0.0
  0
VERTEX
  5
85A
  8
0
  6
CONTINUOUS
 62
     7
 10
185.3380429851
 20
235.3110133131
 30
0.0
  0
VERTEX
  5
85B
  8
0
  6
CONTINUOUS
 62
     7
 10
185.3021982418
 20
235.2361992393
 30
0.0
  0
VERTEX
  5
85C
  8
0
  6
CONTINUOUS
 62
     7
 10
185.2671218397
 20
235.1634638776
 30
0.0
  0
VERTEX
  5
85D
  8
0
  6
CONTINUOUS
 62
     7
 10
185.2329609277
 20
235.0931089763
 30
0.0
  0
VERTEX
  5
85E
  8
0
  6
CONTINUOUS
 62
     7
 10
185.1998561354
 20
235.0254279022
 30
0.0
  0
VERTEX
  5
85F
  8
0
  6
CONTINUOUS
 62
     7
 10
185.1679452987
 20
234.9607009832
 30
0.0
  0
VERTEX
  5
860
  8
0
  6
CONTINUOUS
 62
     7
 10
185.1373615967
 20
234.8991973717
 30
0.0
  0
VERTEX
  5
861
  8
0
  6
CONTINUOUS
 62
     7
 10
185.1082307579
 20
234.84117225
 30
0.0
  0
VERTEX
  5
862
  8
0
  6
CONTINUOUS
 62
     7
 10
185.0806747856
 20
234.7868658994
 30
0.0
  0
VERTEX
  5
863
  8
0
  6
CONTINUOUS
 62
     7
 10
185.0548073011
 20
234.7365055625
 30
0.0
  0
VERTEX
  5
864
  8
0
  6
CONTINUOUS
 62
     7
 10
185.0307363378
 20
234.6902989243
 30
0.0
  0
VERTEX
  5
865
  8
0
  6
CONTINUOUS
 62
     7
 10
185.0085624786
 20
234.6484387685
 30
0.0
  0
VERTEX
  5
866
  8
0
  6
CONTINUOUS
 62
     7
 10
184.9883760618
 20
234.6110983212
 30
0.0
  0
VERTEX
  5
867
  8
0
  6
CONTINUOUS
 62
     7
 10
184.9702618377
 20
234.5784321819
 30
0.0
  0
VERTEX
  5
868
  8
0
  6
CONTINUOUS
 62
     7
 10
184.9542961748
 20
234.5505781863
 30
0.0
  0
VERTEX
  5
869
  8
0
  6
CONTINUOUS
 62
     7
 10
184.9405433344
 20
234.5276490245
 30
0.0
  0
VERTEX
  5
86A
  8
0
  6
CONTINUOUS
 62
     7
 10
184.9290619897
 20
234.5097424854
 30
0.0
  0
VERTEX
  5
86B
  8
0
  6
CONTINUOUS
 62
     7
 10
184.9198987069
 20
234.4969312121
 30
0.0
  0
VERTEX
  5
86C
  8
0
  6
CONTINUOUS
 62
     7
 10
184.9130926015
 20
234.4892701526
 30
0.0
  0
VERTEX
  5
86D
  8
0
  6
CONTINUOUS
 62
     7
 10
184.9086706819
 20
234.4867891092
 30
0.0
  0
VERTEX
  5
86E
  8
0
  6
CONTINUOUS
 62
     7
 10
184.9066525059
 20
234.4894992579
 30
0.0
  0
VERTEX
  5
86F
  8
0
  6
CONTINUOUS
 62
     7
 10
184.907045524
 20
234.4973894228
 30
0.0
  0
VERTEX
  5
870
  8
0
  6
CONTINUOUS
 62
     7
 10
184.9098497363
 20
234.5104279388
 30
0.0
  0
VERTEX
  5
871
  8
0
  6
CONTINUOUS
 62
     7
 10
184.9150511729
 20
234.5285579954
 30
0.0
  0
VERTEX
  5
872
  8
0
  6
CONTINUOUS
 62
     7
 10
184.9226293447
 20
234.5517069493
 30
0.0
  0
VERTEX
  5
873
  8
0
  6
CONTINUOUS
 62
     7
 10
184.932553518
 20
234.5797770117
 30
0.0
  0
VERTEX
  5
874
  8
0
  6
CONTINUOUS
 62
     7
 10
184.9447817834
 20
234.6126526986
 30
0.0
  0
VERTEX
  5
875
  8
0
  6
CONTINUOUS
 62
     7
 10
184.9592629181
 20
234.6501961742
 30
0.0
  0
VERTEX
  5
876
  8
0
  6
CONTINUOUS
 62
     7
 10
184.9759373175
 20
234.692252839
 30
0.0
  0
VERTEX
  5
877
  8
0
  6
CONTINUOUS
 62
     7
 10
184.9947360637
 20
234.7386476044
 30
0.0
  0
VERTEX
  5
878
  8
0
  6
CONTINUOUS
 62
     7
 10
185.0155799942
 20
234.7891876866
 30
0.0
  0
VERTEX
  5
879
  8
0
  6
CONTINUOUS
 62
     7
 10
185.0383834275
 20
234.8436626066
 30
0.0
  0
VERTEX
  5
87A
  8
0
  6
CONTINUOUS
 62
     7
 10
185.0630513685
 20
234.9018469844
 30
0.0
  0
VERTEX
  5
87B
  8
0
  6
CONTINUOUS
 62
     7
 10
185.0894813718
 20
234.9634986762
 30
0.0
  0
VERTEX
  5
87C
  8
0
  6
CONTINUOUS
 62
     7
 10
185.1175644727
 20
235.0283624996
 30
0.0
  0
VERTEX
  5
87D
  8
0
  6
CONTINUOUS
 62
     7
 10
185.1471823933
 20
235.096168371
 30
0.0
  0
VERTEX
  5
87E
  8
0
  6
CONTINUOUS
 62
     7
 10
185.1782140615
 20
235.1666340996
 30
0.0
  0
VERTEX
  5
87F
  8
0
  6
CONTINUOUS
 62
     7
 10
185.2105281608
 20
235.2394681815
 30
0.0
  0
VERTEX
  5
880
  8
0
  6
CONTINUOUS
 62
     7
 10
185.2439933749
 20
235.3143670056
 30
0.0
  0
VERTEX
  5
881
  8
0
  6
CONTINUOUS
 62
     7
 10
185.2784681426
 20
235.3910204415
 30
0.0
  0
VERTEX
  5
882
  8
0
  6
CONTINUOUS
 62
     7
 10
185.313810903
 20
235.4691099767
 30
0.0
  0
VERTEX
  5
883
  8
0
  6
CONTINUOUS
 62
     7
 10
185.3498745071
 20
235.5483115111
 30
0.0
  0
VERTEX
  5
884
  8
0
  6
CONTINUOUS
 62
     7
 10
185.3865090119
 20
235.6282953564
 30
0.0
  0
VERTEX
  5
885
  8
0
  6
CONTINUOUS
 62
     7
 10
185.4235616805
 20
235.7087299619
 30
0.0
  0
VERTEX
  5
886
  8
0
  6
CONTINUOUS
 62
     7
 10
185.4608797761
 20
235.7892809827
 30
0.0
  0
VERTEX
  5
887
  8
0
  6
CONTINUOUS
 62
     7
 10
185.4983077677
 20
235.869614074
 30
0.0
  0
VERTEX
  5
888
  8
0
  6
CONTINUOUS
 62
     7
 10
185.5356910558
 20
235.9493958224
 30
0.0
  0
VERTEX
  5
889
  8
0
  6
CONTINUOUS
 62
     7
 10
185.572872247
 20
236.0282937456
 30
0.0
  0
VERTEX
  5
88A
  8
0
  6
CONTINUOUS
 62
     7
 10
185.6096986042
 20
236.1059818808
 30
0.0
  0
VERTEX
  5
88B
  8
0
  6
CONTINUOUS
 62
     7
 10
185.6460173907
 20
236.1821361278
 30
0.0
  0
SEQEND
  5
88C
  8
0
  6
CONTINUOUS
 62
     7
  0
LINE
  5
329
  8
0
  6
CONTINUOUS
 62
     7
 10
185.9411944928
 20
236.1703958754
 30
0.0
 11
185.7394867869
 21
236.1788029243
 31
0.0
  0
ARC
  5
32A
  8
0
  6
CONTINUOUS
 62
     7
 10
176.333959523
 20
224.3754310925
 30
0.0
 40
15.00599999999999
 50
321.8979626325
 51
350.3472505028
  0
LINE
  5
32B
  8
0
  6
CONTINUOUS
 62
     7
 10
191.1275054621
 20
221.8592785225
 30
0.0
 11
190.6277074771
 21
221.9030227438
 31
0.0
  0
POLYLINE
  5
32C
  8
0
  6
CONTINUOUS
 62
     7
 66
     1
 10
0.0
 20
0.0
 30
0.0
  0
VERTEX
  5
88D
  8
0
  6
CONTINUOUS
 62
     7
 10
164.5305876913
 20
233.7809583564
 30
0.0
  0
VERTEX
  5
88E
  8
0
  6
CONTINUOUS
 62
     7
 10
164.4244541707
 20
233.6448166911
 30
0.0
  0
VERTEX
  5
88F
  8
0
  6
CONTINUOUS
 62
     7
 10
164.3211351069
 20
233.5086750258
 30
0.0
  0
VERTEX
  5
890
  8
0
  6
CONTINUOUS
 62
     7
 10
164.2215217756
 20
233.3739238251
 30
0.0
  0
VERTEX
  5
891
  8
0
  6
CONTINUOUS
 62
     7
 10
164.1265073152
 20
233.2419526223
 30
0.0
  0
VERTEX
  5
892
  8
0
  6
CONTINUOUS
 62
     7
 10
164.0369848641
 20
233.1141490881
 30
0.0
  0
VERTEX
  5
893
  8
0
  6
CONTINUOUS
 62
     7
 10
163.9771520453
 20
233.0266168733
 30
0.0
  0
VERTEX
  5
894
  8
0
  6
CONTINUOUS
 62
     7
 10
163.9209606977
 20
232.9427354429
 30
0.0
  0
VERTEX
  5
895
  8
0
  6
CONTINUOUS
 62
     7
 10
163.8693486633
 20
232.8640479986
 30
0.0
  0
VERTEX
  5
896
  8
0
  6
CONTINUOUS
 62
     7
 10
163.8226102399
 20
232.7910900508
 30
0.0
  0
VERTEX
  5
897
  8
0
  6
CONTINUOUS
 62
     7
 10
163.7827207627
 20
232.727125885
 30
0.0
  0
VERTEX
  5
898
  8
0
  6
CONTINUOUS
 62
     7
 10
163.7516928198
 20
232.6755557601
 30
0.0
  0
VERTEX
  5
899
  8
0
  6
CONTINUOUS
 62
     7
 10
163.7320670592
 20
232.6408677195
 30
0.0
  0
VERTEX
  5
89A
  8
0
  6
CONTINUOUS
 62
     7
 10
163.723076071
 20
232.6220522095
 30
0.0
  0
VERTEX
  5
89B
  8
0
  6
CONTINUOUS
 62
     7
 10
163.7255366253
 20
232.6206449811
 30
0.0
  0
VERTEX
  5
89C
  8
0
  6
CONTINUOUS
 62
     7
 10
163.7388182165
 20
232.6358199511
 30
0.0
  0
VERTEX
  5
89D
  8
0
  6
CONTINUOUS
 62
     7
 10
163.7574465307
 20
232.660071591
 30
0.0
  0
VERTEX
  5
89E
  8
0
  6
CONTINUOUS
 62
     7
 10
163.7820083009
 20
232.6933319141
 30
0.0
  0
VERTEX
  5
89F
  8
0
  6
CONTINUOUS
 62
     7
 10
163.811486523
 20
232.733965518
 30
0.0
  0
VERTEX
  5
8A0
  8
0
  6
CONTINUOUS
 62
     7
 10
163.8643614309
 20
232.8074487318
 30
0.0
  0
VERTEX
  5
8A1
  8
0
  6
CONTINUOUS
 62
     7
 10
163.925121847
 20
232.8919317965
 30
0.0
  0
VERTEX
  5
8A2
  8
0
  6
CONTINUOUS
 62
     7
 10
163.9918706672
 20
232.9842025806
 30
0.0
  0
VERTEX
  5
8A3
  8
0
  6
CONTINUOUS
 62
     7
 10
164.0833889427
 20
233.1091870014
 30
0.0
  0
VERTEX
  5
8A4
  8
0
  6
CONTINUOUS
 62
     7
 10
164.1817738595
 20
233.2414366696
 30
0.0
  0
VERTEX
  5
8A5
  8
0
  6
CONTINUOUS
 62
     7
 10
164.2858379813
 20
233.3788775299
 30
0.0
  0
VERTEX
  5
8A6
  8
0
  6
CONTINUOUS
 62
     7
 10
164.3943957346
 20
233.5194345955
 30
0.0
  0
VERTEX
  5
8A7
  8
0
  6
CONTINUOUS
 62
     7
 10
164.5272544878
 20
233.6874889601
 30
0.0
  0
SEQEND
  5
8A8
  8
0
  6
CONTINUOUS
 62
     7
  0
POLYLINE
  5
32D
  8
0
  6
CONTINUOUS
 62
     7
 66
     1
 10
0.0
 20
0.0
 30
0.0
  0
VERTEX
  5
8A9
  8
0
  6
CONTINUOUS
 62
     7
 10
161.4626379045
 20
227.445074955
 30
0.0
  0
VERTEX
  5
8AA
  8
0
  6
CONTINUOUS
 62
     7
 10
161.4632386075
 20
227.4473376032
 30
0.0
  0
VERTEX
  5
8AB
  8
0
  6
CONTINUOUS
 62
     7
 10
161.4741499828
 20
227.4840568584
 30
0.0
  0
VERTEX
  5
8AC
  8
0
  6
CONTINUOUS
 62
     7
 10
161.4820336284
 20
227.5054991637
 30
0.0
  0
VERTEX
  5
8AD
  8
0
  6
CONTINUOUS
 62
     7
 10
161.4866539197
 20
227.511189079
 30
0.0
  0
VERTEX
  5
8AE
  8
0
  6
CONTINUOUS
 62
     7
 10
161.4878227295
 20
227.5066048764
 30
0.0
  0
SEQEND
  5
8AF
  8
0
  6
CONTINUOUS
 62
     7
  0
POLYLINE
  5
32E
  8
0
  6
CONTINUOUS
 62
     7
 66
     1
 10
0.0
 20
0.0
 30
0.0
  0
VERTEX
  5
8B0
  8
0
  6
CONTINUOUS
 62
     7
 10
161.4878227295
 20
227.5066048764
 30
0.0
  0
VERTEX
  5
8B1
  8
0
  6
CONTINUOUS
 62
     7
 10
161.5111626046
 20
227.198821392
 30
0.0
  0
VERTEX
  5
8B2
  8
0
  6
CONTINUOUS
 62
     7
 10
161.540413584
 20
226.8915836625
 30
0.0
  0
SEQEND
  5
8B3
  8
0
  6
CONTINUOUS
 62
     7
  0
POLYLINE
  5
32F
  8
0
  6
CONTINUOUS
 62
     7
 66
     1
 10
0.0
 20
0.0
 30
0.0
  0
VERTEX
  5
8B4
  8
0
  6
CONTINUOUS
 62
     7
 10
166.9284322592
 20
212.5720592607
 30
0.0
  0
VERTEX
  5
8B5
  8
0
  6
CONTINUOUS
 62
     7
 10
167.0645739244
 20
212.4659257401
 30
0.0
  0
VERTEX
  5
8B6
  8
0
  6
CONTINUOUS
 62
     7
 10
167.2007155897
 20
212.3626066763
 30
0.0
  0
VERTEX
  5
8B7
  8
0
  6
CONTINUOUS
 62
     7
 10
167.3354667904
 20
212.2629933451
 30
0.0
  0
VERTEX
  5
8B8
  8
0
  6
CONTINUOUS
 62
     7
 10
167.4674379932
 20
212.1679788847
 30
0.0
  0
VERTEX
  5
8B9
  8
0
  6
CONTINUOUS
 62
     7
 10
167.5952415275
 20
212.0784564335
 30
0.0
  0
VERTEX
  5
8BA
  8
0
  6
CONTINUOUS
 62
     7
 10
167.6827737423
 20
212.0186236147
 30
0.0
  0
VERTEX
  5
8BB
  8
0
  6
CONTINUOUS
 62
     7
 10
167.7666551726
 20
211.9624322672
 30
0.0
  0
VERTEX
  5
8BC
  8
0
  6
CONTINUOUS
 62
     7
 10
167.8453426169
 20
211.9108202327
 30
0.0
  0
VERTEX
  5
8BD
  8
0
  6
CONTINUOUS
 62
     7
 10
167.9183005648
 20
211.8640818093
 30
0.0
  0
VERTEX
  5
8BE
  8
0
  6
CONTINUOUS
 62
     7
 10
167.9822647305
 20
211.8241923321
 30
0.0
  0
VERTEX
  5
8BF
  8
0
  6
CONTINUOUS
 62
     7
 10
168.0338348555
 20
211.7931643892
 30
0.0
  0
VERTEX
  5
8C0
  8
0
  6
CONTINUOUS
 62
     7
 10
168.0685228961
 20
211.7735386286
 30
0.0
  0
VERTEX
  5
8C1
  8
0
  6
CONTINUOUS
 62
     7
 10
168.087338406
 20
211.7645476405
 30
0.0
  0
VERTEX
  5
8C2
  8
0
  6
CONTINUOUS
 62
     7
 10
168.0887456345
 20
211.7670081947
 30
0.0
  0
VERTEX
  5
8C3
  8
0
  6
CONTINUOUS
 62
     7
 10
168.0735706644
 20
211.780289786
 30
0.0
  0
VERTEX
  5
8C4
  8
0
  6
CONTINUOUS
 62
     7
 10
168.0493190246
 20
211.7989181001
 30
0.0
  0
VERTEX
  5
8C5
  8
0
  6
CONTINUOUS
 62
     7
 10
168.0160587015
 20
211.8234798704
 30
0.0
  0
VERTEX
  5
8C6
  8
0
  6
CONTINUOUS
 62
     7
 10
167.9754250975
 20
211.8529580925
 30
0.0
  0
VERTEX
  5
8C7
  8
0
  6
CONTINUOUS
 62
     7
 10
167.9019418838
 20
211.9058330004
 30
0.0
  0
VERTEX
  5
8C8
  8
0
  6
CONTINUOUS
 62
     7
 10
167.817458819
 20
211.9665934164
 30
0.0
  0
VERTEX
  5
8C9
  8
0
  6
CONTINUOUS
 62
     7
 10
167.725188035
 20
212.0333422367
 30
0.0
  0
VERTEX
  5
8CA
  8
0
  6
CONTINUOUS
 62
     7
 10
167.6002036141
 20
212.1248605121
 30
0.0
  0
VERTEX
  5
8CB
  8
0
  6
CONTINUOUS
 62
     7
 10
167.4679539459
 20
212.2232454289
 30
0.0
  0
VERTEX
  5
8CC
  8
0
  6
CONTINUOUS
 62
     7
 10
167.3305130856
 20
212.3273095508
 30
0.0
  0
VERTEX
  5
8CD
  8
0
  6
CONTINUOUS
 62
     7
 10
167.18995602
 20
212.435867304
 30
0.0
  0
VERTEX
  5
8CE
  8
0
  6
CONTINUOUS
 62
     7
 10
167.0219016554
 20
212.5687260572
 30
0.0
  0
SEQEND
  5
8CF
  8
0
  6
CONTINUOUS
 62
     7
  0
POLYLINE
  5
330
  8
0
  6
CONTINUOUS
 62
     7
 66
     1
 10
0.0
 20
0.0
 30
0.0
  0
VERTEX
  5
8D0
  8
0
  6
CONTINUOUS
 62
     7
 10
173.2643156605
 20
209.5041094739
 30
0.0
  0
VERTEX
  5
8D1
  8
0
  6
CONTINUOUS
 62
     7
 10
173.2620530123
 20
209.504710177
 30
0.0
  0
VERTEX
  5
8D2
  8
0
  6
CONTINUOUS
 62
     7
 10
173.2253337571
 20
209.5156215523
 30
0.0
  0
VERTEX
  5
8D3
  8
0
  6
CONTINUOUS
 62
     7
 10
173.2038914518
 20
209.5235051979
 30
0.0
  0
VERTEX
  5
8D4
  8
0
  6
CONTINUOUS
 62
     7
 10
173.1982015366
 20
209.5281254892
 30
0.0
  0
VERTEX
  5
8D5
  8
0
  6
CONTINUOUS
 62
     7
 10
173.2027857391
 20
209.529294299
 30
0.0
  0
SEQEND
  5
8D6
  8
0
  6
CONTINUOUS
 62
     7
  0
POLYLINE
  5
331
  8
0
  6
CONTINUOUS
 62
     7
 66
     1
 10
0.0
 20
0.0
 30
0.0
  0
VERTEX
  5
8D7
  8
0
  6
CONTINUOUS
 62
     7
 10
173.2027857391
 20
209.529294299
 30
0.0
  0
VERTEX
  5
8D8
  8
0
  6
CONTINUOUS
 62
     7
 10
173.5105692236
 20
209.552634174
 30
0.0
  0
VERTEX
  5
8D9
  8
0
  6
CONTINUOUS
 62
     7
 10
173.817806953
 20
209.5818851535
 30
0.0
  0
SEQEND
  5
8DA
  8
0
  6
CONTINUOUS
 62
     7
  0
POLYLINE
  5
332
  8
0
  6
CONTINUOUS
 62
     7
 66
     1
 10
0.0
 20
0.0
 30
0.0
  0
VERTEX
  5
8DB
  8
0
  6
CONTINUOUS
 62
     7
 10
185.7394867869
 20
236.1788029243
 30
0.0
  0
VERTEX
  5
8DC
  8
0
  6
CONTINUOUS
 62
     7
 10
185.6033451216
 20
236.2849364449
 30
0.0
  0
VERTEX
  5
8DD
  8
0
  6
CONTINUOUS
 62
     7
 10
185.4672034564
 20
236.3882555087
 30
0.0
  0
VERTEX
  5
8DE
  8
0
  6
CONTINUOUS
 62
     7
 10
185.3324522557
 20
236.4878688399
 30
0.0
  0
VERTEX
  5
8DF
  8
0
  6
CONTINUOUS
 62
     7
 10
185.2004810529
 20
236.5828833003
 30
0.0
  0
VERTEX
  5
8E0
  8
0
  6
CONTINUOUS
 62
     7
 10
185.0726775186
 20
236.6724057515
 30
0.0
  0
VERTEX
  5
8E1
  8
0
  6
CONTINUOUS
 62
     7
 10
184.9851453038
 20
236.7322385703
 30
0.0
  0
VERTEX
  5
8E2
  8
0
  6
CONTINUOUS
 62
     7
 10
184.9012638735
 20
236.7884299178
 30
0.0
  0
VERTEX
  5
8E3
  8
0
  6
CONTINUOUS
 62
     7
 10
184.8225764291
 20
236.8400419522
 30
0.0
  0
VERTEX
  5
8E4
  8
0
  6
CONTINUOUS
 62
     7
 10
184.7496184813
 20
236.8867803757
 30
0.0
  0
VERTEX
  5
8E5
  8
0
  6
CONTINUOUS
 62
     7
 10
184.6856543155
 20
236.9266698528
 30
0.0
  0
VERTEX
  5
8E6
  8
0
  6
CONTINUOUS
 62
     7
 10
184.6340841906
 20
236.9576977957
 30
0.0
  0
VERTEX
  5
8E7
  8
0
  6
CONTINUOUS
 62
     7
 10
184.59939615
 20
236.9773235564
 30
0.0
  0
VERTEX
  5
8E8
  8
0
  6
CONTINUOUS
 62
     7
 10
184.58058064
 20
236.9863145445
 30
0.0
  0
VERTEX
  5
8E9
  8
0
  6
CONTINUOUS
 62
     7
 10
184.5791734116
 20
236.9838539903
 30
0.0
  0
VERTEX
  5
8EA
  8
0
  6
CONTINUOUS
 62
     7
 10
184.5943483817
 20
236.970572399
 30
0.0
  0
VERTEX
  5
8EB
  8
0
  6
CONTINUOUS
 62
     7
 10
184.6186000215
 20
236.9519440849
 30
0.0
  0
VERTEX
  5
8EC
  8
0
  6
CONTINUOUS
 62
     7
 10
184.6518603446
 20
236.9273823146
 30
0.0
  0
VERTEX
  5
8ED
  8
0
  6
CONTINUOUS
 62
     7
 10
184.6924939485
 20
236.8979040925
 30
0.0
  0
VERTEX
  5
8EE
  8
0
  6
CONTINUOUS
 62
     7
 10
184.7659771623
 20
236.8450291846
 30
0.0
  0
VERTEX
  5
8EF
  8
0
  6
CONTINUOUS
 62
     7
 10
184.850460227
 20
236.7842687685
 30
0.0
  0
VERTEX
  5
8F0
  8
0
  6
CONTINUOUS
 62
     7
 10
184.9427310111
 20
236.7175199483
 30
0.0
  0
VERTEX
  5
8F1
  8
0
  6
CONTINUOUS
 62
     7
 10
185.0677154319
 20
236.6260016729
 30
0.0
  0
VERTEX
  5
8F2
  8
0
  6
CONTINUOUS
 62
     7
 10
185.1999651002
 20
236.5276167561
 30
0.0
  0
VERTEX
  5
8F3
  8
0
  6
CONTINUOUS
 62
     7
 10
185.3374059605
 20
236.4235526342
 30
0.0
  0
VERTEX
  5
8F4
  8
0
  6
CONTINUOUS
 62
     7
 10
185.4779630261
 20
236.314994881
 30
0.0
  0
VERTEX
  5
8F5
  8
0
  6
CONTINUOUS
 62
     7
 10
185.6460173907
 20
236.1821361278
 30
0.0
  0
SEQEND
  5
8F6
  8
0
  6
CONTINUOUS
 62
     7
  0
POLYLINE
  5
333
  8
0
  6
CONTINUOUS
 62
     7
 66
     1
 10
0.0
 20
0.0
 30
0.0
  0
VERTEX
  5
8F7
  8
0
  6
CONTINUOUS
 62
     7
 10
179.4036033856
 20
239.2467396725
 30
0.0
  0
VERTEX
  5
8F8
  8
0
  6
CONTINUOUS
 62
     7
 10
179.4068760531
 20
239.2458679546
 30
0.0
  0
VERTEX
  5
8F9
  8
0
  6
CONTINUOUS
 62
     7
 10
179.4434353536
 20
239.2349640299
 30
0.0
  0
VERTEX
  5
8FA
  8
0
  6
CONTINUOUS
 62
     7
 10
179.4644895302
 20
239.2271604781
 30
0.0
  0
VERTEX
  5
8FB
  8
0
  6
CONTINUOUS
 62
     7
 10
179.4698753687
 20
239.223297352
 30
0.0
  0
VERTEX
  5
8FC
  8
0
  6
CONTINUOUS
 62
     7
 10
179.4651333069
 20
239.221567886
 30
0.0
  0
SEQEND
  5
8FD
  8
0
  6
CONTINUOUS
 62
     7
  0
POLYLINE
  5
334
  8
0
  6
CONTINUOUS
 62
     7
 66
     1
 10
0.0
 20
0.0
 30
0.0
  0
VERTEX
  5
8FE
  8
0
  6
CONTINUOUS
 62
     7
 10
179.4651333069
 20
239.221567886
 30
0.0
  0
VERTEX
  5
8FF
  8
0
  6
CONTINUOUS
 62
     7
 10
179.1573498225
 20
239.1982280109
 30
0.0
  0
VERTEX
  5
900
  8
0
  6
CONTINUOUS
 62
     7
 10
178.8501120931
 20
239.1689770315
 30
0.0
  0
SEQEND
  5
901
  8
0
  6
CONTINUOUS
 62
     7
  0
POLYLINE
  5
335
  8
0
  6
CONTINUOUS
 62
     7
 66
     1
 10
0.0
 20
0.0
 30
0.0
  0
VERTEX
  5
902
  8
0
  6
CONTINUOUS
 62
     7
 10
188.1373313548
 20
214.9699038286
 30
0.0
  0
VERTEX
  5
903
  8
0
  6
CONTINUOUS
 62
     7
 10
188.194682199
 20
215.0429809858
 30
0.0
  0
VERTEX
  5
904
  8
0
  6
CONTINUOUS
 62
     7
 10
188.3055356624
 20
215.187324809
 30
0.0
  0
VERTEX
  5
905
  8
0
  6
CONTINUOUS
 62
     7
 10
188.4127290281
 20
215.3309189175
 30
0.0
  0
VERTEX
  5
906
  8
0
  6
CONTINUOUS
 62
     7
 10
188.5151754426
 20
215.4720655103
 30
0.0
  0
VERTEX
  5
907
  8
0
  6
CONTINUOUS
 62
     7
 10
188.6117871212
 20
215.6090649236
 30
0.0
  0
VERTEX
  5
908
  8
0
  6
CONTINUOUS
 62
     7
 10
188.6792716863
 20
215.7072998975
 30
0.0
  0
VERTEX
  5
909
  8
0
  6
CONTINUOUS
 62
     7
 10
188.7424051123
 20
215.8012694139
 30
0.0
  0
VERTEX
  5
90A
  8
0
  6
CONTINUOUS
 62
     7
 10
188.7999384956
 20
215.8889254947
 30
0.0
  0
VERTEX
  5
90B
  8
0
  6
CONTINUOUS
 62
     7
 10
188.839378144
 20
215.9504030291
 30
0.0
  0
VERTEX
  5
90C
  8
0
  6
CONTINUOUS
 62
     7
 10
188.8741472097
 20
216.0058027525
 30
0.0
  0
VERTEX
  5
90D
  8
0
  6
CONTINUOUS
 62
     7
 10
188.9030964406
 20
216.0531903077
 30
0.0
  0
VERTEX
  5
90E
  8
0
  6
CONTINUOUS
 62
     7
 10
188.9208567621
 20
216.0832617823
 30
0.0
  0
VERTEX
  5
90F
  8
0
  6
CONTINUOUS
 62
     7
 10
188.934111345
 20
216.1067627762
 30
0.0
  0
VERTEX
  5
910
  8
0
  6
CONTINUOUS
 62
     7
 10
188.9423647257
 20
216.1228066702
 30
0.0
  0
VERTEX
  5
911
  8
0
  6
CONTINUOUS
 62
     7
 10
188.9452490317
 20
216.1307461951
 30
0.0
  0
VERTEX
  5
912
  8
0
  6
CONTINUOUS
 62
     7
 10
188.9428145545
 20
216.1305897329
 30
0.0
  0
VERTEX
  5
913
  8
0
  6
CONTINUOUS
 62
     7
 10
188.9352429019
 20
216.1225468312
 30
0.0
  0
VERTEX
  5
914
  8
0
  6
CONTINUOUS
 62
     7
 10
188.916023198
 20
216.0981536303
 30
0.0
  0
VERTEX
  5
915
  8
0
  6
CONTINUOUS
 62
     7
 10
188.8883536043
 20
216.0608765129
 30
0.0
  0
VERTEX
  5
916
  8
0
  6
CONTINUOUS
 62
     7
 10
188.8494084882
 20
216.007169934
 30
0.0
  0
VERTEX
  5
917
  8
0
  6
CONTINUOUS
 62
     7
 10
188.8033303725
 20
215.9430856277
 30
0.0
  0
VERTEX
  5
918
  8
0
  6
CONTINUOUS
 62
     7
 10
188.7517257886
 20
215.8712983523
 30
0.0
  0
VERTEX
  5
919
  8
0
  6
CONTINUOUS
 62
     7
 10
188.6808595913
 20
215.7733288054
 30
0.0
  0
VERTEX
  5
91A
  8
0
  6
CONTINUOUS
 62
     7
 10
188.6039034756
 20
215.6680111234
 30
0.0
  0
VERTEX
  5
91B
  8
0
  6
CONTINUOUS
 62
     7
 10
188.5219321879
 20
215.5572116767
 30
0.0
  0
VERTEX
  5
91C
  8
0
  6
CONTINUOUS
 62
     7
 10
188.4360176804
 20
215.442797767
 30
0.0
  0
VERTEX
  5
91D
  8
0
  6
CONTINUOUS
 62
     7
 10
188.3411624761
 20
215.3186375667
 30
0.0
  0
VERTEX
  5
91E
  8
0
  6
CONTINUOUS
 62
     7
 10
188.2425335528
 20
215.1918603499
 30
0.0
  0
VERTEX
  5
91F
  8
0
  6
CONTINUOUS
 62
     7
 10
188.1406645583
 20
215.0633732249
 30
0.0
  0
SEQEND
  5
920
  8
0
  6
CONTINUOUS
 62
     7
  0
POLYLINE
  5
336
  8
0
  6
CONTINUOUS
 62
     7
 66
     1
 10
0.0
 20
0.0
 30
0.0
  0
VERTEX
  5
921
  8
0
  6
CONTINUOUS
 62
     7
 10
191.2051386492
 20
221.30578723
 30
0.0
  0
VERTEX
  5
922
  8
0
  6
CONTINUOUS
 62
     7
 10
191.199499491
 20
221.2854410913
 30
0.0
  0
VERTEX
  5
923
  8
0
  6
CONTINUOUS
 62
     7
 10
191.1899403961
 20
221.2555302699
 30
0.0
  0
VERTEX
  5
924
  8
0
  6
CONTINUOUS
 62
     7
 10
191.1834853994
 20
221.240993023
 30
0.0
  0
VERTEX
  5
925
  8
0
  6
CONTINUOUS
 62
     7
 10
191.1803198339
 20
221.2421597373
 30
0.0
  0
VERTEX
  5
926
  8
0
  6
CONTINUOUS
 62
     7
 10
191.1800963165
 20
221.2442573086
 30
0.0
  0
SEQEND
  5
927
  8
0
  6
CONTINUOUS
 62
     7
  0
POLYLINE
  5
337
  8
0
  6
CONTINUOUS
 62
     7
 66
     1
 10
0.0
 20
0.0
 30
0.0
  0
VERTEX
  5
928
  8
0
  6
CONTINUOUS
 62
     7
 10
191.1800963165
 20
221.2442573086
 30
0.0
  0
VERTEX
  5
929
  8
0
  6
CONTINUOUS
 62
     7
 10
191.1567564415
 20
221.552040793
 30
0.0
  0
VERTEX
  5
92A
  8
0
  6
CONTINUOUS
 62
     7
 10
191.1275054621
 20
221.8592785225
 30
0.0
  0
SEQEND
  5
92B
  8
0
  6
CONTINUOUS
 62
     7
  0
LINE
  5
338
  8
0
  6
CONTINUOUS
 62
     7
 10
169.0923891323
 20
225.0156613458
 30
0.0
 11
169.0492516676
 21
225.0156613458
 31
0.0
  0
LINE
  5
339
  8
0
  6
CONTINUOUS
 62
     7
 10
175.6937292697
 20
217.1338607017
 30
0.0
 11
175.6937292697
 21
217.0907232371
 31
0.0
  0
LINE
  5
33A
  8
0
  6
CONTINUOUS
 62
     7
 10
183.5755299138
 20
223.7352008392
 30
0.0
 11
183.6186673785
 21
223.7352008392
 31
0.0
  0
LINE
  5
33B
  8
0
  6
CONTINUOUS
 62
     7
 10
176.9741897764
 20
231.6170014833
 30
0.0
 11
176.9741897764
 21
231.6601389479
 31
0.0
  0
ARC
  5
33C
  8
0
  6
CONTINUOUS
 62
     7
 10
204.2847065032
 20
230.2737730943
 30
0.0
 40
16.42886999174797
 50
193.4806901343
 51
195.2479170983
  0
ARC
  5
33D
  8
0
  6
CONTINUOUS
 62
     7
 10
175.9433106881
 20
223.454834178
 30
0.0
 40
12.72131697592939
 50
13.5896302865
 51
46.6144950714
  0
ARC
  5
33E
  8
0
  6
CONTINUOUS
 62
     7
 10
170.4356175212
 20
252.3261780726
 30
0.0
 40
16.42886999174798
 50
283.4806901343
 51
285.2479170983
  0
ARC
  5
33F
  8
0
  6
CONTINUOUS
 62
     7
 10
177.2545564376
 20
223.9847822576
 30
0.0
 40
12.72131697592938
 50
103.5896302865
 51
136.6144950714
  0
ARC
  5
340
  8
0
  6
CONTINUOUS
 62
     7
 10
148.3832125429
 20
218.4770890907
 30
0.0
 40
16.42886999174798
 50
13.4806901343
 51
15.2479170983
  0
ARC
  5
341
  8
0
  6
CONTINUOUS
 62
     7
 10
176.7246083579
 20
225.296028007
 30
0.0
 40
12.72131697592932
 50
193.5896302865
 51
226.6144950714
  0
ARC
  5
342
  8
0
  6
CONTINUOUS
 62
     7
 10
182.2323015248
 20
196.4246841124
 30
0.0
 40
16.42886999174804
 50
103.4806901343
 51
105.2479170983
  0
ARC
  5
343
  8
0
  6
CONTINUOUS
 62
     7
 10
175.4133626085
 20
224.7660799274
 30
0.0
 40
12.72131697592931
 50
283.5896302865
 51
316.6144950714
  0
ARC
  5
344
  8
0
  6
CONTINUOUS
 62
     7
 10
176.333959523
 20
224.3754310925
 30
0.0
 40
12.49999999999999
 50
97.2505799931
 51
136.6206937546
  0
ARC
  5
345
  8
0
  6
CONTINUOUS
 62
     7
 10
176.333959523
 20
224.3754310925
 30
0.0
 40
12.5
 50
7.2505799931
 51
46.6167095365
  0
ARC
  5
346
  8
0
  6
CONTINUOUS
 62
     7
 10
176.333959523
 20
224.3754310925
 30
0.0
 40
12.49999999999999
 50
277.2505799931
 51
316.6156080026
  0
ARC
  5
347
  8
0
  6
CONTINUOUS
 62
     7
 10
176.333959523
 20
224.3754310925
 30
0.0
 40
12.49999999999999
 50
187.2505799931
 51
226.6183358671
  0
CIRCLE
  5
348
  8
DÜNNE_LINIE
  6
CENTERX2
 62
   218
 10
176.333959523
 20
224.3754310925
 30
0.0
 40
16.00000000000003
  0
DIMENSION
  5
349
  8
DÜNNE_LINIE
 62
   218
  2
*D8
 10
192.333959523
 20
194.2432253254
 30
0.0
 11
176.333959523
 21
194.2432253254
 31
0.0
 70
   160
  1
%%c<>
  3
SLDDIMSTYLE3
 13
160.333959523
 23
224.3754310925
 33
0.0
 14
192.333959523
 24
224.3754310925
 34
0.0
  0
INSERT
  5
360
  8
DÜNNE_LINIE
 62
   218
  2
SW_CENTERMARKSYMBOL_0
 10
176.333959523
 20
224.3754310925
 30
0.0
  0
ENDSEC
  0
EOF
