  0
SECTION
  2
HEADER
  9
$ACADVER
  1
AC1009
  9
$DWGCODEPAGE
  3
ansi_1252
  9
$INSBASE
 10
0.0
 20
0.0
 30
0.0
  9
$EXTMIN
 10
0.0
 20
0.0
 30
0.0
  9
$EXTMAX
 10
210.0
 20
297.0
 30
0.0
  9
$LIMMIN
 10
0.0
 20
0.0
  9
$LIMMAX
 10
210.0
 20
297.0
  9
$ORTHOMODE
 70
     0
  9
$REGENMODE
 70
     1
  9
$FILLMODE
 70
     1
  9
$QTEXTMODE
 70
     0
  9
$MIRRTEXT
 70
     1
  9
$DRAGMODE
 70
     2
  9
$LTSCALE
 40
1.0
  9
$OSMODE
 70
    37
  9
$ATTMODE
 70
     1
  9
$TEXTSIZE
 40
3.0
  9
$TRACEWID
 40
1.0
  9
$TEXTSTYLE
  7
STANDARD
  9
$CLAYER
  8
0
  9
$CELTYPE
  6
BYLAYER
  9
$CECOLOR
 62
   256
  9
$DIMSCALE
 40
1.0
  9
$DIMASZ
 40
3.0
  9
$DIMEXO
 40
1.0
  9
$DIMDLI
 40
3.75
  9
$DIMRND
 40
0.0
  9
$DIMDLE
 40
0.0
  9
$DIMEXE
 40
1.0
  9
$DIMTP
 40
0.0
  9
$DIMTM
 40
0.0
  9
$DIMTXT
 40
3.0
  9
$DIMCEN
 40
2.5
  9
$DIMTSZ
 40
0.0
  9
$DIMTOL
 70
     0
  9
$DIMLIM
 70
     0
  9
$DIMTIH
 70
     1
  9
$DIMTOH
 70
     1
  9
$DIMSE1
 70
     0
  9
$DIMSE2
 70
     0
  9
$DIMTAD
 70
     1
  9
$DIMZIN
 70
     0
  9
$DIMBLK
  1

  9
$DIMASO
 70
     1
  9
$DIMSHO
 70
     1
  9
$DIMPOST
  1

  9
$DIMAPOST
  1

  9
$DIMALT
 70
     0
  9
$DIMALTD
 70
     3
  9
$DIMALTF
 40
0.0393700787
  9
$DIMLFAC
 40
1.0
  9
$DIMTOFL
 70
     1
  9
$DIMTVP
 40
0.0
  9
$DIMTIX
 70
     0
  9
$DIMSOXD
 70
     0
  9
$DIMSAH
 70
     0
  9
$DIMBLK1
  1

  9
$DIMBLK2
  1

  9
$DIMSTYLE
  2
ISO-25
  9
$DIMCLRD
 70
     0
  9
$DIMCLRE
 70
     0
  9
$DIMCLRT
 70
     0
  9
$DIMTFAC
 40
1.0
  9
$DIMGAP
 40
2.0
  9
$LUNITS
 70
     2
  9
$LUPREC
 70
     3
  9
$SKETCHINC
 40
1.0
  9
$FILLETRAD
 40
10.0
  9
$AUNITS
 70
     0
  9
$AUPREC
 70
     0
  9
$MENU
  1
.
  9
$ELEVATION
 40
0.0
  9
$PELEVATION
 40
0.0
  9
$THICKNESS
 40
0.0
  9
$LIMCHECK
 70
     0
  9
$CHAMFERA
 40
10.0
  9
$CHAMFERB
 40
10.0
  9
$SKPOLY
 70
     0
  9
$TDCREATE
 40
2455005.410830185
  9
$TDUPDATE
 40
2455005.410830197
  9
$TDINDWG
 40
0.0000000116
  9
$TDUSRTIMER
 40
0.0000000116
  9
$USRTIMER
 70
     1
  9
$ANGBASE
 50
0.0
  9
$ANGDIR
 70
     0
  9
$PDMODE
 70
     0
  9
$PDSIZE
 40
-1.0
  9
$PLINEWID
 40
0.0
  9
$COORDS
 70
     1
  9
$SPLFRAME
 70
     0
  9
$SPLINETYPE
 70
     6
  9
$SPLINESEGS
 70
     8
  9
$ATTDIA
 70
     0
  9
$ATTREQ
 70
     1
  9
$HANDLING
 70
     1
  9
$HANDSEED
  5
71B
  9
$SURFTAB1
 70
     6
  9
$SURFTAB2
 70
     6
  9
$SURFTYPE
 70
     6
  9
$SURFU
 70
     6
  9
$SURFV
 70
     6
  9
$UCSNAME
  2

  9
$UCSORG
 10
0.0
 20
0.0
 30
0.0
  9
$UCSXDIR
 10
1.0
 20
0.0
 30
0.0
  9
$UCSYDIR
 10
0.0
 20
1.0
 30
0.0
  9
$PUCSNAME
  2

  9
$PUCSORG
 10
0.0
 20
0.0
 30
0.0
  9
$PUCSXDIR
 10
1.0
 20
0.0
 30
0.0
  9
$PUCSYDIR
 10
0.0
 20
1.0
 30
0.0
  9
$USERI1
 70
     0
  9
$USERI2
 70
     0
  9
$USERI3
 70
     0
  9
$USERI4
 70
     0
  9
$USERI5
 70
     0
  9
$USERR1
 40
0.0
  9
$USERR2
 40
0.0
  9
$USERR3
 40
0.0
  9
$USERR4
 40
0.0
  9
$USERR5
 40
0.0
  9
$WORLDVIEW
 70
     1
  9
$SHADEDGE
 70
     3
  9
$SHADEDIF
 70
    70
  9
$TILEMODE
 70
     1
  9
$MAXACTVP
 70
    64
  9
$PLIMCHECK
 70
     0
  9
$PEXTMIN
 10
1.0000000000E+20
 20
1.0000000000E+20
 30
1.0000000000E+20
  9
$PEXTMAX
 10
-1.0000000000E+20
 20
-1.0000000000E+20
 30
-1.0000000000E+20
  9
$PLIMMIN
 10
0.0
 20
0.0
  9
$PLIMMAX
 10
420.0
 20
297.0
  9
$UNITMODE
 70
     0
  9
$VISRETAIN
 70
     1
  9
$PLINEGEN
 70
     0
  9
$PSLTSCALE
 70
     1
  0
ENDSEC
  0
SECTION
  2
TABLES
  0
TABLE
  2
VPORT
 70
     1
  0
VPORT
  2
*ACTIVE
 70
     0
 10
0.0
 20
0.0
 11
1.0
 21
1.0
 12
105.0
 22
148.5
 13
0.0
 23
0.0
 14
10.0
 24
10.0
 15
10.0
 25
10.0
 16
0.0
 26
0.0
 36
1.0
 17
0.0
 27
0.0
 37
0.0
 40
297.0
 41
0.7070707071
 42
50.0
 43
0.0
 44
0.0
 50
0.0
 51
0.0
 71
     0
 72
  2000
 73
     1
 74
     3
 75
     0
 76
     0
 77
     0
 78
     0
  0
ENDTAB
  0
TABLE
  2
LTYPE
 70
     6
  0
LTYPE
  2
CONTINUOUS
 70
     0
  3
Solid line
 72
    65
 73
     0
 40
0.0
  0
LTYPE
  2
HIDDEN
 70
     0
  3
Hidden __ __ __ __ __ __ __ __ __ __ __ __ __ __
 72
    65
 73
     2
 40
1.905
 49
1.27
 49
-0.635
  0
LTYPE
  2
PHANTOM
 70
     0
  3
Phantom ______  __  __  ______  __  __  ______
 72
    65
 73
     6
 40
12.7
 49
6.35
 49
-1.27
 49
1.27
 49
-1.27
 49
1.27
 49
-1.27
  0
LTYPE
  2
CENTER
 70
     0
  3
Center ____ _ ____ _ ____ _ ____ _ ____ _ ____
 72
    65
 73
     4
 40
10.16
 49
6.35
 49
-1.27
 49
1.27
 49
-1.27
  0
LTYPE
  2
CENTERX2
 70
     0
  3
Center (2x) ________  __  ________  __  _____
 72
    65
 73
     4
 40
20.32
 49
12.7
 49
-2.54
 49
2.54
 49
-2.54
  0
LTYPE
  2
DOT2
 70
     0
  3
Dot (.5x) ........................................
 72
    65
 73
     2
 40
0.635
 49
0.0
 49
-0.635
  0
ENDTAB
  0
TABLE
  2
LAYER
 70
     2
  0
LAYER
  2
0
 70
     0
 62
     7
  6
CONTINUOUS
  0
LAYER
  2
DÜNNE_LINIE
 70
     0
 62
   153
  6
CONTINUOUS
  0
ENDTAB
  0
TABLE
  2
STYLE
 70
     1
  0
STYLE
  2
STANDARD
 70
     0
 40
0.0
 41
1.0
 50
0.0
 71
     0
 42
2.5
  3
txt
  4

  0
ENDTAB
  0
TABLE
  2
VIEW
 70
     0
  0
ENDTAB
  0
TABLE
  2
UCS
 70
     0
  0
ENDTAB
  0
TABLE
  2
APPID
 70
     1
  0
APPID
  2
ACAD
 70
     0
  0
ENDTAB
  0
TABLE
  2
DIMSTYLE
 70
     5
  0
DIMSTYLE
  2
ISO-25
 70
     0
  3

  4

  5

  6

  7

 40
1.0
 41
2.5
 42
0.625
 43
3.75
 44
1.25
 45
0.0
 46
0.0
 47
0.0
 48
0.0
140
2.5
141
2.5
142
0.0
143
0.0393700787
144
1.0
145
0.0
146
1.0
147
0.625
 71
     0
 72
     0
 73
     0
 74
     0
 75
     0
 76
     0
 77
     1
 78
     8
170
     0
171
     3
172
     1
173
     0
174
     0
175
     0
176
     0
177
     0
178
     0
  0
DIMSTYLE
  2
SLDDIMSTYLE0
 70
     0
  3

  4

  5

  6

  7

 40
1.0
 41
3.0
 42
0.0625
 43
0.38
 44
0.0
 45
0.000000001
 46
0.0
 47
0.0
 48
0.0
140
3.0
141
0.09
142
0.0
143
25.4
144
1.0
145
0.0
146
1.0
147
0.75
 71
     0
 72
     0
 73
     0
 74
     0
 75
     0
 76
     0
 77
     1
 78
    12
170
     0
171
     2
172
     0
173
     1
174
     0
175
     0
176
     0
177
     0
178
     0
  0
DIMSTYLE
  2
SLDDIMSTYLE1
 70
     0
  3

  4

  5

  6

  7

 40
1.0
 41
3.0
 42
0.0625
 43
0.38
 44
0.0
 45
0.000000001
 46
0.0
 47
0.0
 48
0.0
140
3.0
141
0.09
142
0.0
143
25.4
144
1.0
145
0.0
146
1.0
147
0.75
 71
     0
 72
     0
 73
     0
 74
     0
 75
     0
 76
     0
 77
     1
 78
    12
170
     0
171
     2
172
     0
173
     1
174
     0
175
     0
176
     0
177
     0
178
     0
  0
DIMSTYLE
  2
SLDDIMSTYLE2
 70
     0
  3

  4

  5

  6

  7

 40
1.0
 41
3.0
 42
0.0625
 43
0.38
 44
0.0
 45
0.000000001
 46
0.0
 47
0.0
 48
0.0
140
3.0
141
0.09
142
0.0
143
25.4
144
1.0
145
0.0
146
1.0
147
0.75
 71
     0
 72
     0
 73
     0
 74
     0
 75
     0
 76
     0
 77
     1
 78
    12
170
     0
171
     2
172
     0
173
     1
174
     0
175
     0
176
     0
177
     0
178
     0
  0
DIMSTYLE
  2
SLDDIMSTYLE3
 70
     0
  3

  4

  5

  6

  7

 40
1.0
 41
3.0
 42
0.0625
 43
0.38
 44
0.0
 45
0.000000001
 46
0.0
 47
0.0
 48
0.0
140
3.0
141
0.09
142
0.0
143
25.4
144
1.0
145
0.0
146
1.0
147
0.75
 71
     0
 72
     0
 73
     0
 74
     0
 75
     0
 76
     0
 77
     1
 78
    12
170
     0
171
     2
172
     0
173
     1
174
     0
175
     0
176
     0
177
     0
178
     0
  0
ENDTAB
  0
ENDSEC
  0
SECTION
  2
BLOCKS
  0
BLOCK
  8
0
  2
$MODEL_SPACE
 70
     0
 10
0.0
 20
0.0
 30
0.0
  3
$MODEL_SPACE
  1

  0
ENDBLK
  5
21
  8
0
  0
BLOCK
 67
     1
  8
0
  2
$PAPER_SPACE
 70
     0
 10
0.0
 20
0.0
 30
0.0
  3
$PAPER_SPACE
  1

  0
ENDBLK
  5
1D
 67
     1
  8
0
  0
BLOCK
  8
0
  2
SW_NOTE_0
 70
     0
 10
0.0
 20
0.0
 30
0.0
  3
SW_NOTE_0
  1

  0
TEXT
  5
66
  8
DÜNNE_LINIE
 62
     0
 10
0.0
 20
1.308534146
 30
0.0
 40
3.7041666667
  1
Wendeplatte FP 328
 41
0.6611111111
 11
0.0
 21
0.0
 31
0.0
 73
     1
  0
TEXT
  5
67
  8
DÜNNE_LINIE
 62
     0
 10
0.0
 20
-3.6303546832
 30
0.0
 40
3.7041666667
  1
Spannschraube SS 3,0-2
 41
0.6681818182
 11
0.0
 21
-4.9388888292
 31
0.0
 73
     1
  0
ENDBLK
  5
65
  8
0
  0
BLOCK
  8
0
  2
SW_NOTE_1
 70
     0
 10
0.0
 20
0.0
 30
0.0
  3
SW_NOTE_1
  1

  0
TEXT
  5
76
  8
0
  6
CONTINUOUS
 62
     0
 10
0.0
 20
1.1050253168
 30
0.0
 40
3.1280788177
  1
%%p
 41
0.7
 11
0.0
 21
0.0
 31
0.0
 73
     1
  0
TEXT
  5
77
  8
0
  6
CONTINUOUS
 62
     0
 10
3.8711482193
 20
1.1050253168
 30
0.0
 40
3.1280788177
  1
0,1
 41
0.7
 11
3.8711482193
 21
0.0
 31
0.0
 73
     1
  0
ENDBLK
  5
75
  8
0
  0
BLOCK
  8
0
  2
SW_NOTE_2
 70
     0
 10
0.0
 20
0.0
 30
0.0
  3
SW_NOTE_2
  1

  0
LINE
  5
84
  8
0
  6
CONTINUOUS
 62
     0
 10
0.0
 20
0.0
 30
0.0
 11
0.0
 21
-3.5263803963
 31
0.0
  0
LINE
  5
85
  8
0
  6
CONTINUOUS
 62
     0
 10
0.0
 20
-3.5263803963
 30
0.0
 11
3.8600715645
 21
-3.5263803963
 31
0.0
  0
LINE
  5
86
  8
0
  6
CONTINUOUS
 62
     0
 10
3.8600715645
 20
-3.5263803963
 30
0.0
 11
3.8600715645
 21
0.0
 31
0.0
  0
LINE
  5
87
  8
0
  6
CONTINUOUS
 62
     0
 10
3.8600715645
 20
0.0
 30
0.0
 11
0.0
 21
0.0
 31
0.0
  0
LINE
  5
88
  8
0
  6
CONTINUOUS
 62
     0
 10
0.0
 20
0.0
 30
0.0
 11
3.8600715645
 21
-3.5263803963
 31
0.0
  0
LINE
  5
89
  8
0
  6
CONTINUOUS
 62
     0
 10
0.0
 20
-3.5263803963
 30
0.0
 11
3.8600715645
 21
0.0
 31
0.0
  0
ENDBLK
  5
83
  8
0
  0
BLOCK
  8
0
  2
SW_NOTE_3
 70
     0
 10
0.0
 20
0.0
 30
0.0
  3
SW_NOTE_3
  1

  0
LINE
  5
95
  8
0
  6
CONTINUOUS
 62
     0
 10
0.0
 20
0.0
 30
0.0
 11
0.0
 21
-5.6416430558
 31
0.0
  0
LINE
  5
96
  8
0
  6
CONTINUOUS
 62
     0
 10
0.0
 20
-5.6416430558
 30
0.0
 11
7.5250186323
 21
-5.6416430558
 31
0.0
  0
LINE
  5
97
  8
0
  6
CONTINUOUS
 62
     0
 10
7.5250186323
 20
-5.6416430558
 30
0.0
 11
7.5250186323
 21
0.0
 31
0.0
  0
LINE
  5
98
  8
0
  6
CONTINUOUS
 62
     0
 10
7.5250186323
 20
0.0
 30
0.0
 11
0.0
 21
0.0
 31
0.0
  0
LINE
  5
99
  8
0
  6
CONTINUOUS
 62
     0
 10
0.0
 20
0.0
 30
0.0
 11
7.5250186323
 21
-5.6416430558
 31
0.0
  0
LINE
  5
9A
  8
0
  6
CONTINUOUS
 62
     0
 10
0.0
 20
-5.6416430558
 30
0.0
 11
7.5250186323
 21
0.0
 31
0.0
  0
ENDBLK
  5
94
  8
0
  0
BLOCK
  8
0
  2
*D5
 70
     1
 10
0.0
 20
0.0
 30
0.0
  3
*D5
  1

  0
SOLID
  5
15E
  8
DÜNNE_LINIE
 62
   218
 10
75.2690122563
 20
120.326062393
 30
0.0
 11
72.2690122563
 21
121.076062393
 31
0.0
 12
72.2690122563
 22
119.576062393
 32
0.0
 13
72.2690122563
 23
119.576062393
 33
0.0
  0
SOLID
  5
15F
  8
DÜNNE_LINIE
 62
   218
 10
31.2690122563
 20
120.326062393
 30
0.0
 11
34.2690122563
 21
119.576062393
 31
0.0
 12
34.2690122563
 22
121.076062393
 32
0.0
 13
34.2690122563
 23
121.076062393
 33
0.0
  0
LINE
  5
160
  8
DÜNNE_LINIE
 62
   218
 10
75.2690122563
 20
125.3700448934
 30
0.0
 11
75.2690122563
 21
119.326062393
 31
0.0
  0
LINE
  5
161
  8
DÜNNE_LINIE
 62
   218
 10
31.2690122563
 20
129.2246848563
 30
0.0
 11
31.2690122563
 21
119.326062393
 31
0.0
  0
LINE
  5
162
  8
DÜNNE_LINIE
 62
   218
 10
75.2690122563
 20
120.326062393
 30
0.0
 11
31.2690122563
 21
120.326062393
 31
0.0
  0
TEXT
  5
163
  8
DÜNNE_LINIE
 62
   218
 10
51.0533594572
 20
121.3858426951
 30
0.0
 40
3.0
  1
44
 50
0.0
 41
0.7
 11
51.0533594572
 21
120.3260625094
 31
0.0
 73
     1
  0
ENDBLK
  5
15D
  8
0
  0
BLOCK
  8
0
  2
*D6
 70
     1
 10
0.0
 20
0.0
 30
0.0
  3
*D6
  1

  0
SOLID
  5
169
  8
DÜNNE_LINIE
 62
     7
 10
147.2625574739
 20
154.5746848526
 30
0.0
 11
146.5125574739
 21
151.5746848526
 31
0.0
 12
148.0125574739
 22
151.5746848526
 32
0.0
 13
148.0125574739
 23
151.5746848526
 33
0.0
  0
SOLID
  5
16A
  8
DÜNNE_LINIE
 62
     7
 10
147.2625574739
 20
129.5746848526
 30
0.0
 11
148.0125574739
 21
132.5746848526
 31
0.0
 12
146.5125574739
 22
132.5746848526
 32
0.0
 13
146.5125574739
 23
132.5746848526
 33
0.0
  0
LINE
  5
16B
  8
DÜNNE_LINIE
 62
     7
 10
130.0125574739
 20
154.5746848526
 30
0.0
 11
148.2625574739
 21
154.5746848526
 31
0.0
  0
LINE
  5
16C
  8
DÜNNE_LINIE
 62
     7
 10
130.0125574739
 20
129.5746848526
 30
0.0
 11
148.2625574739
 21
129.5746848526
 31
0.0
  0
LINE
  5
16D
  8
DÜNNE_LINIE
 62
     7
 10
147.2625574739
 20
154.5746848526
 30
0.0
 11
147.2625574739
 21
129.5746848526
 31
0.0
  0
TEXT
  5
16E
  8
DÜNNE_LINIE
 62
     7
 10
146.2027770553
 20
137.5981329943
 30
0.0
 40
3.0
  1
%%c
 50
90.0
 41
0.7
 11
147.262557241
 21
137.5981329943
 31
0.0
 73
     1
  0
TEXT
  5
16F
  8
DÜNNE_LINIE
 62
     7
 10
146.2027771717
 20
142.1199311127
 30
0.0
 40
3.0
  1
25
 50
90.0
 41
0.7
 11
147.2625573574
 21
142.1199311127
 31
0.0
 73
     1
  0
ENDBLK
  5
168
  8
0
  0
BLOCK
  8
0
  2
*D7
 70
     1
 10
0.0
 20
0.0
 30
0.0
  3
*D7
  1

  0
SOLID
  5
175
  8
DÜNNE_LINIE
 62
   218
 10
31.2690122563
 20
111.2494099777
 30
0.0
 11
34.2690122563
 21
110.4994099777
 31
0.0
 12
34.2690122563
 22
111.9994099777
 32
0.0
 13
34.2690122563
 23
111.9994099777
 33
0.0
  0
SOLID
  5
176
  8
DÜNNE_LINIE
 62
   218
 10
131.2625574739
 20
111.2494099777
 30
0.0
 11
128.2625574739
 21
111.9994099777
 31
0.0
 12
128.2625574739
 22
110.4994099777
 32
0.0
 13
128.2625574739
 23
110.4994099777
 33
0.0
  0
LINE
  5
177
  8
DÜNNE_LINIE
 62
   218
 10
31.2690122563
 20
129.2246848563
 30
0.0
 11
31.2690122563
 21
110.2494099777
 31
0.0
  0
LINE
  5
178
  8
DÜNNE_LINIE
 62
   218
 10
131.2625574739
 20
129.6746848526
 30
0.0
 11
131.2625574739
 21
110.2494099777
 31
0.0
  0
LINE
  5
179
  8
DÜNNE_LINIE
 62
   218
 10
31.2690122563
 20
111.2494099777
 30
0.0
 11
131.2625574739
 21
111.2494099777
 31
0.0
  0
TEXT
  5
17A
  8
DÜNNE_LINIE
 62
   218
 10
77.9415986936
 20
112.3091902799
 30
0.0
 40
3.0
  1
100
 41
0.7
 11
77.9415986936
 21
111.2494100941
 31
0.0
 73
     1
  0
ENDBLK
  5
174
  8
0
  0
BLOCK
  8
0
  2
*D8
 70
     1
 10
0.0
 20
0.0
 30
0.0
  3
*D8
  1

  0
SOLID
  5
2C2
  8
DÜNNE_LINIE
 62
   218
 10
162.0417172897
 20
188.3333141561
 30
0.0
 11
165.0417172897
 21
187.5833141561
 31
0.0
 12
165.0417172897
 22
189.0833141561
 32
0.0
 13
165.0417172897
 23
189.0833141561
 33
0.0
  0
SOLID
  5
2C3
  8
DÜNNE_LINIE
 62
   218
 10
187.0417172897
 20
188.3333141561
 30
0.0
 11
184.0417172897
 21
189.0833141561
 31
0.0
 12
184.0417172897
 22
187.5833141561
 32
0.0
 13
184.0417172897
 23
187.5833141561
 33
0.0
  0
LINE
  5
2C4
  8
DÜNNE_LINIE
 62
   218
 10
162.0417172897
 20
210.5690433783
 30
0.0
 11
162.0417172897
 21
187.3333141561
 31
0.0
  0
LINE
  5
2C5
  8
DÜNNE_LINIE
 62
   218
 10
187.0417172897
 20
210.5690433783
 30
0.0
 11
187.0417172897
 21
187.3333141561
 31
0.0
  0
LINE
  5
2C6
  8
DÜNNE_LINIE
 62
   218
 10
162.0417172897
 20
188.3333141561
 30
0.0
 11
187.0417172897
 21
188.3333141561
 31
0.0
  0
TEXT
  5
2C7
  8
DÜNNE_LINIE
 62
   218
 10
170.0651654314
 20
189.3930945747
 30
0.0
 40
3.0
  1
%%c
 41
0.7
 11
170.0651654314
 21
188.3333143889
 31
0.0
 73
     1
  0
TEXT
  5
2C8
  8
DÜNNE_LINIE
 62
   218
 10
174.5869635498
 20
189.3930944583
 30
0.0
 40
3.0
  1
25
 41
0.7
 11
174.5869635498
 21
188.3333142725
 31
0.0
 73
     1
  0
ENDBLK
  5
2C1
  8
0
  0
BLOCK
  8
0
  2
SW_CENTERMARKSYMBOL_0
 70
     0
 10
0.0
 20
0.0
 30
0.0
  3
SW_CENTERMARKSYMBOL_0
  1

  0
LINE
  5
2CC
  8
DÜNNE_LINIE
 62
     0
 10
0.0
 20
0.0
 30
0.0
 11
0.0
 21
2.5
 31
0.0
  0
LINE
  5
2CD
  8
DÜNNE_LINIE
 62
     0
 10
0.0
 20
0.0
 30
0.0
 11
-2.5
 21
0.0
 31
0.0
  0
LINE
  5
2CE
  8
DÜNNE_LINIE
 62
     0
 10
0.0
 20
0.0
 30
0.0
 11
0.0
 21
-2.5
 31
0.0
  0
LINE
  5
2CF
  8
DÜNNE_LINIE
 62
     0
 10
0.0
 20
0.0
 30
0.0
 11
2.5
 21
0.0
 31
0.0
  0
LINE
  5
2D0
  8
DÜNNE_LINIE
 62
     0
 10
0.0
 20
5.0
 30
0.0
 11
0.0
 21
15.0
 31
0.0
  0
LINE
  5
2D1
  8
DÜNNE_LINIE
 62
     0
 10
-5.0
 20
0.0
 30
0.0
 11
-15.0
 21
0.0
 31
0.0
  0
LINE
  5
2D2
  8
DÜNNE_LINIE
 62
     0
 10
0.0
 20
-5.0
 30
0.0
 11
0.0
 21
-15.0
 31
0.0
  0
LINE
  5
2D3
  8
DÜNNE_LINIE
 62
     0
 10
5.0
 20
0.0
 30
0.0
 11
15.0
 21
0.0
 31
0.0
  0
ENDBLK
  5
2CB
  8
0
  0
ENDSEC
  0
SECTION
  2
ENTITIES
  0
LINE
  5
41
  8
0
  6
CONTINUOUS
 62
     7
 10
14.7198675497
 20
54.4522204694
 30
0.0
 11
203.9021502667
 21
54.4522204694
 31
0.0
  0
LINE
  5
42
  8
0
  6
CONTINUOUS
 62
     7
 10
14.7198675497
 20
291.4435430464
 30
0.0
 11
203.9021502667
 21
291.4435430464
 31
0.0
  0
LINE
  5
43
  8
0
  6
CONTINUOUS
 62
     7
 10
14.7198675497
 20
291.4435430464
 30
0.0
 11
14.7198675497
 21
5.5564569536
 31
0.0
  0
LINE
  5
44
  8
0
  6
CONTINUOUS
 62
     7
 10
14.7198675497
 20
5.5564569536
 30
0.0
 11
203.9021502667
 21
5.5564569536
 31
0.0
  0
LINE
  5
45
  8
0
  6
CONTINUOUS
 62
     7
 10
203.9021502667
 20
291.4435430464
 30
0.0
 11
203.9021502667
 21
5.5564569536
 31
0.0
  0
LINE
  5
46
  8
DÜNNE_LINIE
 62
     7
 10
87.7133682192
 20
43.6739122185
 30
0.0
 11
87.7133682192
 21
54.4522204694
 31
0.0
  0
LINE
  5
47
  8
0
  6
CONTINUOUS
 62
     7
 10
112.5985152085
 20
54.4522204694
 30
0.0
 11
112.5985152085
 21
5.5564569536
 31
0.0
  0
LINE
  5
48
  8
0
  6
CONTINUOUS
 62
     7
 10
62.7198675497
 20
27.7011934068
 30
0.0
 11
112.5985152085
 21
27.7011934068
 31
0.0
  0
LINE
  5
49
  8
0
  6
CONTINUOUS
 62
     7
 10
112.5985152085
 20
21.5564569536
 30
0.0
 11
203.9021502667
 21
21.5564569536
 31
0.0
  0
LINE
  5
4A
  8
DÜNNE_LINIE
 62
     7
 10
112.5985152085
 20
37.7011934068
 30
0.0
 11
62.7198675497
 21
37.7011934068
 31
0.0
  0
LINE
  5
4B
  8
0
  6
CONTINUOUS
 62
     7
 10
112.5985152085
 20
46.3471968457
 30
0.0
 11
203.9021502667
 21
46.3471968457
 31
0.0
  0
LINE
  5
4C
  8
DÜNNE_LINIE
 62
     7
 10
62.7198675497
 20
54.4522204694
 30
0.0
 11
62.7198675497
 21
5.5564569536
 31
0.0
  0
LINE
  5
4D
  8
0
  6
CONTINUOUS
 62
     7
 10
26.7198675497
 20
54.4522204694
 30
0.0
 11
26.7198675497
 21
5.5564569536
 31
0.0
  0
LINE
  5
4E
  8
0
  6
CONTINUOUS
 62
     7
 10
14.7198675497
 20
13.7522204694
 30
0.0
 11
62.7198675497
 21
13.7522204694
 31
0.0
  0
LINE
  5
4F
  8
DÜNNE_LINIE
 62
     7
 10
14.7198675497
 20
17.4522204694
 30
0.0
 11
62.7198675497
 21
17.4522204694
 31
0.0
  0
LINE
  5
50
  8
DÜNNE_LINIE
 62
     7
 10
14.7198675497
 20
21.1522204694
 30
0.0
 11
62.7198675497
 21
21.1522204694
 31
0.0
  0
LINE
  5
51
  8
DÜNNE_LINIE
 62
     7
 10
148.481516348
 20
21.5564569536
 30
0.0
 11
148.481516348
 21
5.5564569536
 31
0.0
  0
LINE
  5
52
  8
DÜNNE_LINIE
 62
     7
 10
71.8404271395
 20
43.6739122185
 30
0.0
 11
71.8404271395
 21
27.7011934068
 31
0.0
  0
LINE
  5
53
  8
DÜNNE_LINIE
 62
     7
 10
112.5985152085
 20
43.6739122185
 30
0.0
 11
62.7198675497
 21
43.6739122185
 31
0.0
  0
LINE
  5
54
  8
DÜNNE_LINIE
 62
     7
 10
87.7133682192
 20
5.5564569536
 30
0.0
 11
87.7133682192
 21
27.7011934068
 31
0.0
  0
LINE
  5
55
  8
DÜNNE_LINIE
 62
     7
 10
112.5985152085
 20
32.7011934068
 30
0.0
 11
62.7198675497
 21
32.7011934068
 31
0.0
  0
LINE
  5
56
  8
DÜNNE_LINIE
 62
     7
 10
87.7133682192
 20
17.2472848232
 30
0.0
 11
62.7198675497
 21
17.2472848232
 31
0.0
  0
LINE
  5
57
  8
DÜNNE_LINIE
 62
     7
 10
87.7133682192
 20
43.6739122185
 30
0.0
 11
87.7133682192
 21
27.7011934068
 31
0.0
  0
LINE
  5
58
  8
DÜNNE_LINIE
 62
     7
 10
38.7198675497
 20
5.5564569536
 30
0.0
 11
38.7198675497
 21
54.4522204694
 31
0.0
  0
LINE
  5
59
  8
DÜNNE_LINIE
 62
     7
 10
14.7198675497
 20
10.0522204694
 30
0.0
 11
62.7198675497
 21
10.0522204694
 31
0.0
  0
LINE
  5
5A
  8
DÜNNE_LINIE
 62
     7
 10
14.7198675497
 20
24.8522204694
 30
0.0
 11
62.7198675497
 21
24.8522204694
 31
0.0
  0
LINE
  5
5B
  8
DÜNNE_LINIE
 62
     7
 10
14.7198675497
 20
28.5522204694
 30
0.0
 11
62.7198675497
 21
28.5522204694
 31
0.0
  0
LINE
  5
5C
  8
DÜNNE_LINIE
 62
     7
 10
14.7198675497
 20
32.2522204694
 30
0.0
 11
62.7198675497
 21
32.2522204694
 31
0.0
  0
LINE
  5
5D
  8
DÜNNE_LINIE
 62
     7
 10
14.7198675497
 20
35.9522204694
 30
0.0
 11
62.7198675497
 21
35.9522204694
 31
0.0
  0
LINE
  5
5E
  8
DÜNNE_LINIE
 62
     7
 10
14.7198675497
 20
39.6522204694
 30
0.0
 11
62.7198675497
 21
39.6522204694
 31
0.0
  0
LINE
  5
5F
  8
DÜNNE_LINIE
 62
     7
 10
14.7198675497
 20
43.3522204694
 30
0.0
 11
62.7198675497
 21
43.3522204694
 31
0.0
  0
LINE
  5
60
  8
DÜNNE_LINIE
 62
     7
 10
50.7198675497
 20
54.4522204694
 30
0.0
 11
50.7198675497
 21
5.5564569536
 31
0.0
  0
LINE
  5
61
  8
DÜNNE_LINIE
 62
     7
 10
14.7198675497
 20
47.0522204694
 30
0.0
 11
62.7198675497
 21
47.0522204694
 31
0.0
  0
LINE
  5
62
  8
DÜNNE_LINIE
 62
     7
 10
14.7198675497
 20
50.7522204694
 30
0.0
 11
62.7198675497
 21
50.7522204694
 31
0.0
  0
INSERT
  5
68
  8
DÜNNE_LINIE
 62
   218
  2
SW_NOTE_0
 10
33.9000966566
 20
75.5571132858
 30
0.0
  0
TEXT
  5
69
  8
0
  6
CONTINUOUS
 62
     7
 10
114.1472546394
 20
48.9049931095
 30
0.0
 40
4.0640394089
  1
Jongen Werkzeugtechnik GmbH & Co. KG
 41
0.6513888889
 11
114.1472546394
 21
47.4693302963
 31
0.0
 73
     1
  0
TEXT
  5
6A
  8
0
  6
CONTINUOUS
 62
     7
 10
67.8948579237
 20
24.7275389915
 30
0.0
 40
2.1
  1
Maßstab:
 41
0.7
 11
67.8948579237
 21
23.9856928615
 31
0.0
 73
     1
  0
TEXT
  5
6B
  8
0
  6
CONTINUOUS
 62
     7
 10
69.5866628203
 20
18.0977020526
 30
0.0
 40
3.51908867
  1
1:1
 41
0.7
 11
69.5866628203
 21
16.8545485711
 31
0.0
 73
     1
  0
TEXT
  5
6C
  8
0
  6
CONTINUOUS
 62
     7
 10
112.798427099
 20
18.6740830155
 30
0.0
 40
2.1
  1
Verwendungsbereich:
 41
0.7
 11
112.798427099
 21
17.9322368855
 31
0.0
 73
     1
  0
TEXT
  5
6D
  8
0
  6
CONTINUOUS
 62
     7
 10
93.2262200981
 20
17.5599435449
 30
0.0
 40
2.1
  1
EDV-Nr.:
 41
0.7
 11
93.2262200981
 21
16.8180974148
 31
0.0
 73
     1
  0
TEXT
  5
6E
  8
0
  6
CONTINUOUS
 62
     7
 10
148.9259155915
 20
18.9371740007
 30
0.0
 40
2.1
  1
EDV-Nr.:
 41
0.7
 11
148.9259155915
 21
18.1953278706
 31
0.0
 73
     1
  0
TEXT
  5
6F
  8
0
  6
CONTINUOUS
 62
     7
 10
152.6389589689
 20
9.0555969726
 30
0.0
 40
3.1280788177
  1
JSF120  ( 7 )
 41
0.5923076923
 11
152.6389589689
 21
7.9505716557
 31
0.0
 73
     1
  0
TEXT
  5
70
  8
0
  6
CONTINUOUS
 62
     7
 10
68.3652390548
 20
13.9270684586
 30
0.0
 40
2.1
  1
Material:
 41
0.7
 11
68.3652390548
 21
13.1852223286
 31
0.0
 73
     1
  0
TEXT
  5
71
  8
0
  6
CONTINUOUS
 62
     7
 10
66.7040418524
 20
51.600616123
 30
0.0
 40
2.1
  1
Blattformat:
 41
0.7
 11
66.7040418524
 21
50.858769993
 31
0.0
 73
     1
  0
TEXT
  5
72
  8
0
  6
CONTINUOUS
 62
     7
 10
71.9292449531
 20
46.1281032601
 30
0.0
 40
4.0640394089
  1
A4
 41
0.7
 11
71.9292449531
 21
44.6924404469
 31
0.0
 73
     1
  0
INSERT
  5
78
  8
0
  6
CONTINUOUS
 62
     7
  2
SW_NOTE_1
 10
95.1024529786
 20
44.2906585054
 30
0.0
  0
TEXT
  5
79
  8
0
  6
CONTINUOUS
 62
     7
 10
114.9418989165
 20
42.5183805642
 30
0.0
 40
2.1
  1
Benennung:
 41
0.7
 11
114.9418989165
 21
41.7765344342
 31
0.0
 73
     1
  0
TEXT
  5
7A
  8
0
  6
CONTINUOUS
 62
     7
 10
89.0186469263
 20
51.6922051945
 30
0.0
 40
2.1
  1
Freimaßtoleranz:
 41
0.7
 11
89.0186469263
 21
50.9503590645
 31
0.0
 73
     1
  0
TEXT
  5
7B
  8
0
  6
CONTINUOUS
 62
     7
 10
76.3260818058
 20
39.4788937116
 30
0.0
 40
2.2167487685
  1
Datum
 41
0.7
 11
76.3260818058
 21
38.6958049044
 31
0.0
 73
     1
  0
TEXT
  5
7C
  8
0
  6
CONTINUOUS
 62
     7
 10
90.8611900832
 20
39.5475125211
 30
0.0
 40
2.2167487685
  1
Name
 41
0.7
 11
90.8611900832
 21
38.7644237139
 31
0.0
 73
     1
  0
TEXT
  5
7D
  8
0
  6
CONTINUOUS
 62
     7
 10
90.8611900832
 20
33.9813132087
 30
0.0
 40
2.6458333333
  1
Knüpper
 41
0.7
 11
90.8611900832
 21
33.0466459615
 31
0.0
 73
     1
  0
TEXT
  5
7E
  8
0
  6
CONTINUOUS
 62
     7
 10
74.5281046617
 20
33.9813132087
 30
0.0
 40
2.6458333333
  1
28.05.09
 41
0.7
 11
74.5281046617
 21
33.0466459615
 31
0.0
 73
     1
  0
TEXT
  5
7F
  8
0
  6
CONTINUOUS
 62
     7
 10
63.3870836994
 20
34.1584243035
 30
0.0
 40
2.2167487685
  1
Erst.
 41
0.7
 11
63.3870836994
 21
33.3753354963
 31
0.0
 73
     1
  0
TEXT
  5
80
  8
0
  6
CONTINUOUS
 62
     7
 10
63.0902579449
 20
29.0504271078
 30
0.0
 40
2.2167487685
  1
Geänd.
 41
0.7
 11
63.0902579449
 21
28.2673383006
 31
0.0
 73
     1
  0
INSERT
  5
8A
  8
0
  6
CONTINUOUS
 62
     7
  2
SW_NOTE_2
 10
74.4065359037
 20
31.8282468131
 30
0.0
  0
TEXT
  5
8B
  8
0
  6
CONTINUOUS
 62
     7
 10
29.1689154919
 20
6.6393780016
 30
0.0
 40
2.2167487685
  1
Datum
 41
0.7
 11
29.1689154919
 21
5.8562891944
 31
0.0
 73
     1
  0
TEXT
  5
8C
  8
0
  6
CONTINUOUS
 62
     7
 10
18.4614779851
 20
6.4682771982
 30
0.0
 40
2.2167487685
  1
Änd.
 41
0.7
 11
18.4614779851
 21
5.685188391
 31
0.0
 73
     1
  0
TEXT
  5
8D
  8
0
  6
CONTINUOUS
 62
     7
 10
42.3626711617
 20
6.6621586082
 30
0.0
 40
2.2167487685
  1
Änd.
 41
0.7
 11
42.3626711617
 21
5.879069801
 31
0.0
 73
     1
  0
TEXT
  5
8E
  8
0
  6
CONTINUOUS
 62
     7
 10
53.0078194671
 20
6.2494079573
 30
0.0
 40
2.2167487685
  1
Datum
 41
0.7
 11
53.0078194671
 21
5.46631915
 31
0.0
 73
     1
  0
TEXT
  5
8F
  8
0
  6
CONTINUOUS
 62
     7
 10
115.9494504669
 20
32.6875057062
 30
0.0
 40
3.51908867
  1
Schaftfräser
 41
0.7
 11
115.9494504669
 21
31.4443522248
 31
0.0
 73
     1
  0
TEXT
  5
90
  8
0
  6
CONTINUOUS
 62
     7
 10
115.878559322
 20
24.1503992045
 30
0.0
 40
3.51908867
  1
90PP-25-328
 41
0.7
 11
115.878559322
 21
22.907245723
 31
0.0
 73
     1
  0
TEXT
  5
91
  8
0
  6
CONTINUOUS
 62
     7
 10
124.1706477498
 20
9.0555969726
 30
0.0
 40
3.1280788177
  1
DXF
 41
0.7
 11
124.1706477498
 21
7.9505716557
 31
0.0
 73
     1
  0
INSERT
  5
9B
  8
0
  6
CONTINUOUS
 62
     7
  2
SW_NOTE_3
 10
68.7908807293
 20
11.9918177984
 30
0.0
  0
ARC
  5
9C
  8
0
  6
CONTINUOUS
 62
     7
 10
35.7306996143
 20
134.1251296369
 30
0.0
 40
1.950455253466028
 50
270.188207125
 51
54.508277892
  0
ARC
  5
9D
  8
0
  6
CONTINUOUS
 62
     7
 10
34.7140798184
 20
134.1196074936
 30
0.0
 40
0.2567762763635154
 50
117.6596783346
 51
242.9026840536
  0
ARC
  5
9E
  8
0
  6
CONTINUOUS
 62
     7
 10
34.2737073551
 20
134.9612746877
 30
0.0
 40
0.6931351610022063
 50
297.6042261104
 51
3.1336108754
  0
ARC
  5
9F
  8
0
  6
CONTINUOUS
 62
     7
 10
34.282198959
 20
133.2737604453
 30
0.0
 40
0.692949236290585
 50
357.4221148669
 51
62.9697369202
  0
ARC
  5
A0
  8
0
  6
CONTINUOUS
 62
     7
 10
35.2195433348
 20
135.0140355748
 30
0.0
 40
0.2541726145165958
 50
124.3066364466
 51
183.3541370664
  0
ARC
  5
A1
  8
0
  6
CONTINUOUS
 62
     7
 10
35.2295142954
 20
133.2306685564
 30
0.0
 40
0.2553459624161516
 50
177.3232744498
 51
237.4166381083
  0
LINE
  5
A2
  8
0
  6
CONTINUOUS
 62
     7
 10
35.7371065245
 20
136.0746848004
 30
0.0
 11
35.6630242375
 21
136.0746848004
 31
0.0
  0
LINE
  5
A3
  8
0
  6
CONTINUOUS
 62
     7
 10
35.6630242375
 20
132.1746849062
 30
0.0
 11
35.7371065245
 21
132.1746849062
 31
0.0
  0
LINE
  5
A4
  8
0
  6
CONTINUOUS
 62
     7
 10
35.6329299454
 20
135.120318977
 30
0.0
 11
35.7288014554
 21
135.120318977
 31
0.0
  0
LINE
  5
A5
  8
0
  6
CONTINUOUS
 62
     7
 10
35.7454118264
 20
133.129050264
 30
0.0
 11
35.6495405492
 21
133.129050264
 31
0.0
  0
ARC
  5
A6
  8
0
  6
CONTINUOUS
 62
     7
 10
31.8574077378
 20
138.0256348829
 30
0.0
 40
0.588396246974253
 50
90.1073775167
 51
180.0925205885
  0
LINE
  5
A7
  8
0
  6
CONTINUOUS
 62
     7
 10
31.269012258
 20
138.0246847475
 30
0.0
 11
31.269012258
 21
130.2246844935
 31
0.0
  0
ARC
  5
A8
  8
0
  6
CONTINUOUS
 62
     7
 10
31.8572574022
 20
130.2235852433
 30
0.0
 40
0.588246171239351
 50
179.892931841
 51
269.9072379604
  0
LINE
  5
A9
  8
0
  6
CONTINUOUS
 62
     7
 10
32.0625574739
 20
138.6140300965
 30
0.0
 11
31.8563050303
 21
138.6140300965
 31
0.0
  0
LINE
  5
AA
  8
0
  6
CONTINUOUS
 62
     7
 10
31.8563050303
 20
129.635339843
 30
0.0
 11
39.6266234518
 21
129.635339843
 31
0.0
  0
ARC
  5
AB
  8
0
  6
CONTINUOUS
 62
     7
 10
39.6255210371
 20
130.223734938
 30
0.0
 40
0.5883961277350513
 50
270.1073490143
 51
0.0924641483
  0
LINE
  5
AC
  8
0
  6
CONTINUOUS
 62
     7
 10
40.2139163987
 20
130.2246844935
 30
0.0
 11
40.2139163987
 21
137.4260040539
 31
0.0
  0
POLYLINE
  5
AD
  8
0
  6
CONTINUOUS
 62
     7
 66
     1
 10
0.0
 20
0.0
 30
0.0
  0
VERTEX
  5
2DA
  8
0
  6
CONTINUOUS
 62
     7
 10
40.2139163987
 20
148.5133913884
 30
0.0
  0
VERTEX
  5
2DB
  8
0
  6
CONTINUOUS
 62
     7
 10
40.2130614445
 20
148.531232735
 30
0.0
  0
VERTEX
  5
2DC
  8
0
  6
CONTINUOUS
 62
     7
 10
40.2080760748
 20
148.5600846427
 30
0.0
  0
VERTEX
  5
2DD
  8
0
  6
CONTINUOUS
 62
     7
 10
40.1987330467
 20
148.5885942894
 30
0.0
  0
VERTEX
  5
2DE
  8
0
  6
CONTINUOUS
 62
     7
 10
40.1850202531
 20
148.6167886833
 30
0.0
  0
VERTEX
  5
2DF
  8
0
  6
CONTINUOUS
 62
     7
 10
40.1668939219
 20
148.6445691044
 30
0.0
  0
VERTEX
  5
2E0
  8
0
  6
CONTINUOUS
 62
     7
 10
40.1443633661
 20
148.6717390435
 30
0.0
  0
VERTEX
  5
2E1
  8
0
  6
CONTINUOUS
 62
     7
 10
40.1175617651
 20
148.6980200353
 30
0.0
  0
VERTEX
  5
2E2
  8
0
  6
CONTINUOUS
 62
     7
 10
40.086755477
 20
148.7231149877
 30
0.0
  0
VERTEX
  5
2E3
  8
0
  6
CONTINUOUS
 62
     7
 10
40.0522928164
 20
148.7467691841
 30
0.0
  0
VERTEX
  5
2E4
  8
0
  6
CONTINUOUS
 62
     7
 10
40.0145705269
 20
148.7687721456
 30
0.0
  0
VERTEX
  5
2E5
  8
0
  6
CONTINUOUS
 62
     7
 10
39.9739415795
 20
148.7889925557
 30
0.0
  0
VERTEX
  5
2E6
  8
0
  6
CONTINUOUS
 62
     7
 10
39.9307431132
 20
148.8073256406
 30
0.0
  0
VERTEX
  5
2E7
  8
0
  6
CONTINUOUS
 62
     7
 10
39.8853122667
 20
148.8236805963
 30
0.0
  0
VERTEX
  5
2E8
  8
0
  6
CONTINUOUS
 62
     7
 10
39.8379899041
 20
148.8379726725
 30
0.0
  0
VERTEX
  5
2E9
  8
0
  6
CONTINUOUS
 62
     7
 10
39.7891257369
 20
148.8501268978
 30
0.0
  0
VERTEX
  5
2EA
  8
0
  6
CONTINUOUS
 62
     7
 10
39.7390792557
 20
148.8600734229
 30
0.0
  0
VERTEX
  5
2EB
  8
0
  6
CONTINUOUS
 62
     7
 10
39.6882160046
 20
148.8677535745
 30
0.0
  0
VERTEX
  5
2EC
  8
0
  6
CONTINUOUS
 62
     7
 10
39.6396112108
 20
148.8728944751
 30
0.0
  0
VERTEX
  5
2ED
  8
0
  6
CONTINUOUS
 62
     7
 10
39.6304013618
 20
148.8736302199
 30
0.0
  0
SEQEND
  5
2EE
  8
0
  6
CONTINUOUS
 62
     7
  0
LINE
  5
AE
  8
0
  6
CONTINUOUS
 62
     7
 10
39.6304013618
 20
148.8736302199
 30
0.0
 11
31.8600825765
 21
149.4623671825
 31
0.0
  0
POLYLINE
  5
AF
  8
0
  6
CONTINUOUS
 62
     7
 66
     1
 10
0.0
 20
0.0
 30
0.0
  0
VERTEX
  5
2EF
  8
0
  6
CONTINUOUS
 62
     7
 10
31.8600825765
 20
149.4623671825
 30
0.0
  0
VERTEX
  5
2F0
  8
0
  6
CONTINUOUS
 62
     7
 10
31.8329132194
 20
149.4640961828
 30
0.0
  0
VERTEX
  5
2F1
  8
0
  6
CONTINUOUS
 62
     7
 10
31.7817067323
 20
149.4655509087
 30
0.0
  0
VERTEX
  5
2F2
  8
0
  6
CONTINUOUS
 62
     7
 10
31.7310459275
 20
149.4646172578
 30
0.0
  0
VERTEX
  5
2F3
  8
0
  6
CONTINUOUS
 62
     7
 10
31.681306026
 20
149.4612877796
 30
0.0
  0
VERTEX
  5
2F4
  8
0
  6
CONTINUOUS
 62
     7
 10
31.6328431716
 20
149.455565268
 30
0.0
  0
VERTEX
  5
2F5
  8
0
  6
CONTINUOUS
 62
     7
 10
31.5860016333
 20
149.4474613647
 30
0.0
  0
VERTEX
  5
2F6
  8
0
  6
CONTINUOUS
 62
     7
 10
31.5411122344
 20
149.4369909706
 30
0.0
  0
VERTEX
  5
2F7
  8
0
  6
CONTINUOUS
 62
     7
 10
31.4984928179
 20
149.4241713154
 30
0.0
  0
VERTEX
  5
2F8
  8
0
  6
CONTINUOUS
 62
     7
 10
31.458451477
 20
149.4090173001
 30
0.0
  0
VERTEX
  5
2F9
  8
0
  6
CONTINUOUS
 62
     7
 10
31.4212951987
 20
149.3915419633
 30
0.0
  0
VERTEX
  5
2FA
  8
0
  6
CONTINUOUS
 62
     7
 10
31.3873442999
 20
149.3717611375
 30
0.0
  0
VERTEX
  5
2FB
  8
0
  6
CONTINUOUS
 62
     7
 10
31.3569780617
 20
149.3497367556
 30
0.0
  0
VERTEX
  5
2FC
  8
0
  6
CONTINUOUS
 62
     7
 10
31.3306181986
 20
149.3256168979
 30
0.0
  0
VERTEX
  5
2FD
  8
0
  6
CONTINUOUS
 62
     7
 10
31.3086772282
 20
149.2996721136
 30
0.0
  0
VERTEX
  5
2FE
  8
0
  6
CONTINUOUS
 62
     7
 10
31.2914835583
 20
149.2723135816
 30
0.0
  0
VERTEX
  5
2FF
  8
0
  6
CONTINUOUS
 62
     7
 10
31.2791882377
 20
149.2440186048
 30
0.0
  0
VERTEX
  5
300
  8
0
  6
CONTINUOUS
 62
     7
 10
31.2717537224
 20
149.2152207138
 30
0.0
  0
VERTEX
  5
301
  8
0
  6
CONTINUOUS
 62
     7
 10
31.2690637136
 20
149.1879124733
 30
0.0
  0
VERTEX
  5
302
  8
0
  6
CONTINUOUS
 62
     7
 10
31.269012258
 20
149.1835468987
 30
0.0
  0
SEQEND
  5
303
  8
0
  6
CONTINUOUS
 62
     7
  0
LINE
  5
B0
  8
0
  6
CONTINUOUS
 62
     7
 10
40.2139163987
 20
148.42740936
 30
0.0
 11
40.2139163987
 21
148.5133913884
 31
0.0
  0
LINE
  5
B1
  8
0
  6
CONTINUOUS
 62
     7
 10
31.269012258
 20
149.1835468987
 30
0.0
 11
31.269012258
 21
145.2835467717
 31
0.0
  0
LINE
  5
B2
  8
0
  6
CONTINUOUS
 62
     7
 10
31.3610815272
 20
144.5193090549
 30
0.0
 11
31.643964269
 21
143.1409367433
 31
0.0
  0
LINE
  5
B3
  8
0
  6
CONTINUOUS
 62
     7
 10
31.2703984734
 20
145.2608204054
 30
0.0
 11
31.3595858813
 21
144.52845278
 31
0.0
  0
POLYLINE
  5
B4
  8
0
  6
CONTINUOUS
 62
     7
 66
     1
 10
0.0
 20
0.0
 30
0.0
  0
VERTEX
  5
304
  8
0
  6
CONTINUOUS
 62
     7
 10
31.269012258
 20
145.2835467717
 30
0.0
  0
VERTEX
  5
305
  8
0
  6
CONTINUOUS
 62
     7
 10
31.2698672703
 20
145.265705658
 30
0.0
  0
VERTEX
  5
306
  8
0
  6
CONTINUOUS
 62
     7
 10
31.2710380592
 20
145.2589300534
 30
0.0
  0
SEQEND
  5
307
  8
0
  6
CONTINUOUS
 62
     7
  0
POLYLINE
  5
B5
  8
0
  6
CONTINUOUS
 62
     7
 66
     1
 10
0.0
 20
0.0
 30
0.0
  0
VERTEX
  5
308
  8
0
  6
CONTINUOUS
 62
     7
 10
31.269012258
 20
142.9158228639
 30
0.0
  0
VERTEX
  5
309
  8
0
  6
CONTINUOUS
 62
     7
 10
31.2698739642
 20
142.8980073615
 30
0.0
  0
VERTEX
  5
30A
  8
0
  6
CONTINUOUS
 62
     7
 10
31.2749286011
 20
142.8694884599
 30
0.0
  0
VERTEX
  5
30B
  8
0
  6
CONTINUOUS
 62
     7
 10
31.2843587078
 20
142.8419582153
 30
0.0
  0
VERTEX
  5
30C
  8
0
  6
CONTINUOUS
 62
     7
 10
31.2980251681
 20
142.8155662798
 30
0.0
  0
VERTEX
  5
30D
  8
0
  6
CONTINUOUS
 62
     7
 10
31.3159037094
 20
142.790342281
 30
0.0
  0
VERTEX
  5
30E
  8
0
  6
CONTINUOUS
 62
     7
 10
31.3380198265
 20
142.7663682335
 30
0.0
  0
VERTEX
  5
30F
  8
0
  6
CONTINUOUS
 62
     7
 10
31.3643557081
 20
142.7438116007
 30
0.0
  0
VERTEX
  5
310
  8
0
  6
CONTINUOUS
 62
     7
 10
31.3947665916
 20
142.7229085894
 30
0.0
  0
VERTEX
  5
311
  8
0
  6
CONTINUOUS
 62
     7
 10
31.4289646401
 20
142.7039054179
 30
0.0
  0
VERTEX
  5
312
  8
0
  6
CONTINUOUS
 62
     7
 10
31.466571271
 20
142.6870013311
 30
0.0
  0
VERTEX
  5
313
  8
0
  6
CONTINUOUS
 62
     7
 10
31.5071609282
 20
142.6723375408
 30
0.0
  0
VERTEX
  5
314
  8
0
  6
CONTINUOUS
 62
     7
 10
31.5503441441
 20
142.6599888437
 30
0.0
  0
VERTEX
  5
315
  8
0
  6
CONTINUOUS
 62
     7
 10
31.5957663176
 20
142.6499946465
 30
0.0
  0
VERTEX
  5
316
  8
0
  6
CONTINUOUS
 62
     7
 10
31.6430790178
 20
142.6423803278
 30
0.0
  0
VERTEX
  5
317
  8
0
  6
CONTINUOUS
 62
     7
 10
31.6919322129
 20
142.6371617781
 30
0.0
  0
VERTEX
  5
318
  8
0
  6
CONTINUOUS
 62
     7
 10
31.7419699629
 20
142.6343464482
 30
0.0
  0
VERTEX
  5
319
  8
0
  6
CONTINUOUS
 62
     7
 10
31.7656047471
 20
142.6341540719
 30
0.0
  0
SEQEND
  5
31A
  8
0
  6
CONTINUOUS
 62
     7
  0
LINE
  5
B6
  8
0
  6
CONTINUOUS
 62
     7
 10
31.269012258
 20
145.2835467717
 30
0.0
 11
31.269012258
 21
142.9158228639
 31
0.0
  0
LINE
  5
B7
  8
0
  6
CONTINUOUS
 62
     7
 10
74.69542785
 20
129.5746846663
 30
0.0
 11
129.0125594885
 21
129.5746846663
 31
0.0
  0
LINE
  5
B8
  8
0
  6
CONTINUOUS
 62
     7
 10
129.0125594885
 20
154.5746850389
 30
0.0
 11
74.69542785
 21
154.5746850389
 31
0.0
  0
LINE
  5
B9
  8
0
  6
CONTINUOUS
 62
     7
 10
74.69542785
 20
154.5746850389
 30
0.0
 11
68.7732928843
 21
153.5304526406
 31
0.0
  0
LINE
  5
BA
  8
0
  6
CONTINUOUS
 62
     7
 10
68.7732928843
 20
130.6189170646
 30
0.0
 11
74.69542785
 21
129.5746846663
 31
0.0
  0
ARC
  5
BB
  8
0
  6
CONTINUOUS
 62
     7
 10
63.5638466567
 20
101.0746848526
 30
0.0
 40
30.00000000000001
 50
80.0
 51
90.0
  0
ARC
  5
BC
  8
0
  6
CONTINUOUS
 62
     7
 10
63.5638466567
 20
183.0746848526
 30
0.0
 40
30.00000000000001
 50
270.0
 51
280.0
  0
LINE
  5
BD
  8
0
  6
CONTINUOUS
 62
     7
 10
43.2285572813
 20
131.0746849122
 30
0.0
 11
63.5638469309
 21
131.0746849122
 31
0.0
  0
LINE
  5
BE
  8
0
  6
CONTINUOUS
 62
     7
 10
63.5638469309
 20
153.074684793
 30
0.0
 11
50.2935917527
 21
153.074684793
 31
0.0
  0
LINE
  5
BF
  8
0
  6
CONTINUOUS
 62
     7
 10
129.0125594885
 20
129.5746846663
 30
0.0
 11
130.2625582964
 21
129.6746844965
 31
0.0
  0
LINE
  5
C0
  8
0
  6
CONTINUOUS
 62
     7
 10
130.2625582964
 20
154.4746852087
 30
0.0
 11
129.0125594885
 21
154.5746850389
 31
0.0
  0
LINE
  5
C1
  8
0
  6
CONTINUOUS
 62
     7
 10
130.2625582964
 20
129.6746844965
 30
0.0
 11
131.262560323
 21
130.6746846604
 31
0.0
  0
LINE
  5
C2
  8
0
  6
CONTINUOUS
 62
     7
 10
131.262560323
 20
153.4746850448
 30
0.0
 11
130.2625582964
 21
154.4746852087
 31
0.0
  0
LINE
  5
C3
  8
0
  6
CONTINUOUS
 62
     7
 10
40.2139163987
 20
130.2898239883
 30
0.0
 11
41.2835571394
 21
130.2611848878
 31
0.0
  0
ARC
  5
C4
  8
0
  6
CONTINUOUS
 62
     7
 10
41.3103223346
 20
131.2608266095
 30
0.0
 40
0.9999999999999856
 50
268.4663032923
 51
300.7413033444
  0
LINE
  5
C5
  8
0
  6
CONTINUOUS
 62
     7
 10
41.8214853332
 20
130.401342416
 30
0.0
 11
42.7173952983
 21
130.9341688248
 31
0.0
  0
ARC
  5
C6
  8
0
  6
CONTINUOUS
 62
     7
 10
43.2285574739
 20
130.0746848526
 30
0.0
 40
1.0
 50
90.0
 51
120.7413033444
  0
ARC
  5
C7
  8
0
  6
CONTINUOUS
 62
     7
 10
35.7371122085
 20
134.1378772894
 30
0.0
 40
1.936757759738814
 50
54.4550305895
 51
124.9413635158
  0
ARC
  5
C8
  8
0
  6
CONTINUOUS
 62
     7
 10
35.2202985686
 20
135.0148093734
 30
0.0
 40
0.2544863269582059
 50
57.3472085126
 51
124.6216286165
  0
ARC
  5
C9
  8
0
  6
CONTINUOUS
 62
     7
 10
35.2290668613
 20
133.2294490267
 30
0.0
 40
0.2544592492004193
 50
237.2820700192
 51
303.2242558582
  0
ARC
  5
CA
  8
0
  6
CONTINUOUS
 62
     7
 10
35.6688927802
 20
134.1246848533
 30
0.0
 40
1.950008777797434
 50
90.1724316531
 51
269.8275683469
  0
ARC
  5
CB
  8
0
  6
CONTINUOUS
 62
     7
 10
35.7288031893
 20
135.8082500959
 30
0.0
 40
0.6879175832132716
 50
237.3438820647
 51
303.2240887229
  0
ARC
  5
CC
  8
0
  6
CONTINUOUS
 62
     7
 10
35.745410323
 20
132.4411217131
 30
0.0
 40
0.6879156888879558
 50
57.3438037441
 51
123.2242381918
  0
ARC
  5
CD
  8
0
  6
CONTINUOUS
 62
     7
 10
36.2451466524
 20
135.019922669
 30
0.0
 40
0.2544574503717809
 50
57.2818718712
 51
123.2246462438
  0
ARC
  5
CE
  8
0
  6
CONTINUOUS
 62
     7
 10
36.2539145857
 20
133.2345608081
 30
0.0
 40
0.2544866579286114
 50
237.3472903799
 51
304.6215483751
  0
ARC
  5
CF
  8
0
  6
CONTINUOUS
 62
     7
 10
35.1243449791
 20
135.014643524
 30
0.0
 40
0.2546703769779053
 50
57.3517486589
 51
79.1314170574
  0
ARC
  5
D0
  8
0
  6
CONTINUOUS
 62
     7
 10
35.1331111272
 20
133.2296484011
 30
0.0
 40
0.2546723107123713
 50
280.8683223546
 51
303.215574001
  0
ARC
  5
D1
  8
0
  6
CONTINUOUS
 62
     7
 10
35.6330317231
 20
135.8085051412
 30
0.0
 40
0.6881861717150592
 50
237.3483436041
 51
269.9915263796
  0
ARC
  5
D2
  8
0
  6
CONTINUOUS
 62
     7
 10
35.6496124462
 20
132.4409543881
 30
0.0
 40
0.6880958796505364
 50
90.0059866571
 51
123.2217169924
  0
ARC
  5
D3
  8
0
  6
CONTINUOUS
 62
     7
 10
36.1485430787
 20
135.0184941233
 30
0.0
 40
0.2560002419352119
 50
357.3801565482
 51
79.040737756
  0
ARC
  5
D4
  8
0
  6
CONTINUOUS
 62
     7
 10
36.1572978331
 20
133.2359680838
 30
0.0
 40
0.2560142198636927
 50
280.9611306557
 51
3.1832818896
  0
ARC
  5
D5
  8
0
  6
CONTINUOUS
 62
     7
 10
37.0966806595
 20
134.975600025
 30
0.0
 40
0.6931071619847078
 50
177.4205896861
 51
242.9551774857
  0
ARC
  5
D6
  8
0
  6
CONTINUOUS
 62
     7
 10
37.104981119
 20
133.2882143371
 30
0.0
 40
0.6931081954917333
 50
117.6084557932
 51
183.1453074452
  0
ARC
  5
D7
  8
0
  6
CONTINUOUS
 62
     7
 10
36.6647700717
 20
134.1297627254
 30
0.0
 40
0.2566230708165632
 50
297.6286417814
 51
62.9350656998
  0
LINE
  5
D8
  8
0
  6
CONTINUOUS
 62
     7
 10
34.6104048137
 20
134.1196049544
 30
0.0
 11
34.5265599378
 21
133.944575915
 31
0.0
  0
LINE
  5
D9
  8
0
  6
CONTINUOUS
 62
     7
 10
34.6104048137
 20
134.1196049544
 30
0.0
 11
34.5252602772
 21
134.2928980085
 31
0.0
  0
LINE
  5
DA
  8
0
  6
CONTINUOUS
 62
     7
 10
35.1184454691
 20
135.0130785795
 30
0.0
 11
34.9656745736
 21
135.0045509244
 31
0.0
  0
ARC
  5
DB
  8
0
  6
CONTINUOUS
 62
     7
 10
-77.2432210224
 20
71.248183834
 30
0.0
 40
129.1940629388972
 50
29.1227702212
 51
29.5747751192
  0
POLYLINE
  5
DC
  8
0
  6
CONTINUOUS
 62
     7
 66
     1
 10
0.0
 20
0.0
 30
0.0
  0
VERTEX
  5
31B
  8
0
  6
CONTINUOUS
 62
     7
 10
35.6179833823
 20
134.124685319
 30
0.0
  0
VERTEX
  5
31C
  8
0
  6
CONTINUOUS
 62
     7
 10
35.3686885853
 20
134.1234243082
 30
0.0
  0
VERTEX
  5
31D
  8
0
  6
CONTINUOUS
 62
     7
 10
35.1182226502
 20
134.1221595722
 30
0.0
  0
VERTEX
  5
31E
  8
0
  6
CONTINUOUS
 62
     7
 10
34.8655313198
 20
134.1208864542
 30
0.0
  0
VERTEX
  5
31F
  8
0
  6
CONTINUOUS
 62
     7
 10
34.6104048137
 20
134.1196049544
 30
0.0
  0
SEQEND
  5
320
  8
0
  6
CONTINUOUS
 62
     7
  0
ARC
  5
DD
  8
0
  6
CONTINUOUS
 62
     7
 10
-77.2279184004
 20
195.5278332803
 30
0.0
 40
128.4700125659889
 50
330.9933078135
 51
331.4479416045
  0
LINE
  5
DE
  8
0
  6
CONTINUOUS
 62
     7
 10
35.1272108444
 20
133.2312116938
 30
0.0
 11
34.9745393676
 21
133.2381798493
 31
0.0
  0
LINE
  5
DF
  8
0
  6
CONTINUOUS
 62
     7
 10
35.1184454691
 20
135.0130785795
 30
0.0
 11
35.2617345695
 21
135.2290755677
 31
0.0
  0
LINE
  5
E0
  8
0
  6
CONTINUOUS
 62
     7
 10
35.1272108444
 20
133.2312116938
 30
0.0
 11
35.272618238
 21
133.0165856125
 31
0.0
  0
LINE
  5
E1
  8
0
  6
CONTINUOUS
 62
     7
 10
36.1432921552
 20
135.0181584785
 30
0.0
 11
36.0350417384
 21
135.1922687682
 31
0.0
  0
ARC
  5
E2
  8
0
  6
CONTINUOUS
 62
     7
 10
-80.5375866488
 20
203.0183740682
 30
0.0
 40
135.0498307985612
 50
329.327156192
 51
329.766881073
  0
ARC
  5
E3
  8
0
  6
CONTINUOUS
 62
     7
 10
-80.5795192244
 20
63.6657047297
 30
0.0
 40
135.8908663513494
 50
30.7944229286
 51
31.2314743351
  0
LINE
  5
E4
  8
0
  6
CONTINUOUS
 62
     7
 10
36.1520577633
 20
133.2362911271
 30
0.0
 11
36.0450748765
 21
133.0603270399
 31
0.0
  0
LINE
  5
E5
  8
0
  6
CONTINUOUS
 62
     7
 10
36.6600984187
 20
134.1297647523
 30
0.0
 11
36.7815335692
 21
134.3582833725
 31
0.0
  0
POLYLINE
  5
E6
  8
0
  6
CONTINUOUS
 62
     7
 66
     1
 10
0.0
 20
0.0
 30
0.0
  0
VERTEX
  5
321
  8
0
  6
CONTINUOUS
 62
     7
 10
35.6179833823
 20
134.124685319
 30
0.0
  0
VERTEX
  5
322
  8
0
  6
CONTINUOUS
 62
     7
 10
35.8773527612
 20
134.1259453984
 30
0.0
  0
VERTEX
  5
323
  8
0
  6
CONTINUOUS
 62
     7
 10
36.137218535
 20
134.1272101345
 30
0.0
  0
VERTEX
  5
324
  8
0
  6
CONTINUOUS
 62
     7
 10
36.3982975894
 20
134.1284832525
 30
0.0
  0
VERTEX
  5
325
  8
0
  6
CONTINUOUS
 62
     7
 10
36.6600984187
 20
134.1297647523
 30
0.0
  0
SEQEND
  5
326
  8
0
  6
CONTINUOUS
 62
     7
  0
LINE
  5
E7
  8
0
  6
CONTINUOUS
 62
     7
 10
36.1432921552
 20
135.0181584785
 30
0.0
 11
36.404275749
 21
135.0067926178
 31
0.0
  0
LINE
  5
E8
  8
0
  6
CONTINUOUS
 62
     7
 10
36.1520577633
 20
133.2362911271
 30
0.0
 11
36.4129170255
 21
133.2501845973
 31
0.0
  0
LINE
  5
E9
  8
0
  6
CONTINUOUS
 62
     7
 10
36.6600984187
 20
134.1297647523
 30
0.0
 11
36.7837761939
 21
133.9024019035
 31
0.0
  0
LINE
  5
EA
  8
0
  6
CONTINUOUS
 62
     7
 10
40.0792695061
 20
130.2246844935
 30
0.0
 11
40.0792695061
 21
137.4297665971
 31
0.0
  0
LINE
  5
EB
  8
0
  6
CONTINUOUS
 62
     7
 10
31.8606628195
 20
138.4746849144
 30
0.0
 11
32.0625574739
 21
138.4746849144
 31
0.0
  0
ARC
  5
EC
  8
0
  6
CONTINUOUS
 62
     7
 10
31.8615472048
 20
138.0255130404
 30
0.0
 40
0.4491727446359344
 50
90.1128108901
 51
180.1056558191
  0
LINE
  5
ED
  8
0
  6
CONTINUOUS
 62
     7
 10
31.4123752239
 20
130.2246844935
 30
0.0
 11
31.4123752239
 21
138.0246847475
 31
0.0
  0
ARC
  5
EE
  8
0
  6
CONTINUOUS
 62
     7
 10
31.8615458153
 20
130.223855746
 30
0.0
 40
0.4491713559702389
 50
179.8942858643
 51
269.8873660053
  0
LINE
  5
EF
  8
0
  6
CONTINUOUS
 62
     7
 10
31.8606628195
 20
129.7746852579
 30
0.0
 11
39.6309815758
 21
129.7746852579
 31
0.0
  0
ARC
  5
F0
  8
0
  6
CONTINUOUS
 62
     7
 10
39.630097764
 20
130.223856893
 30
0.0
 40
0.4491725045722508
 50
270.1127377978
 51
0.1055675556
  0
ARC
  5
F1
  8
0
  6
CONTINUOUS
 62
     7
 10
99.1091401943
 20
204.7956131837
 30
0.0
 40
94.77389713378788
 50
225.0103428129
 51
225.6065395787
  0
POLYLINE
  5
F2
  8
0
  6
CONTINUOUS
 62
     7
 66
     1
 10
0.0
 20
0.0
 30
0.0
  0
VERTEX
  5
327
  8
0
  6
CONTINUOUS
 62
     7
 10
32.0625574739
 20
137.8116749766
 30
0.0
  0
VERTEX
  5
328
  8
0
  6
CONTINUOUS
 62
     7
 10
32.0631480049
 20
137.8110840524
 30
0.0
  0
VERTEX
  5
329
  8
0
  6
CONTINUOUS
 62
     7
 10
31.9565962188
 20
137.9178867283
 30
0.0
  0
VERTEX
  5
32A
  8
0
  6
CONTINUOUS
 62
     7
 10
31.850379956
 20
138.0246847475
 30
0.0
  0
SEQEND
  5
32B
  8
0
  6
CONTINUOUS
 62
     7
  0
LINE
  5
F3
  8
0
  6
CONTINUOUS
 62
     7
 10
32.807047776
 20
131.1746847423
 30
0.0
 11
32.807047776
 21
137.0746849644
 31
0.0
  0
ARC
  5
F4
  8
0
  6
CONTINUOUS
 62
     7
 10
99.5849169413
 20
62.9714442781
 30
0.0
 40
95.45137935130234
 50
134.3949914582
 51
135.2042863237
  0
ARC
  5
F5
  8
0
  6
CONTINUOUS
 62
     7
 10
101.534139048
 20
76.054128809
 30
0.0
 40
87.59893403576868
 50
135.4953032714
 51
135.8459311422
  0
LINE
  5
F6
  8
0
  6
CONTINUOUS
 62
     7
 10
32.807047776
 20
137.0746849644
 30
0.0
 11
38.6845967212
 21
137.0746849644
 31
0.0
  0
LINE
  5
F7
  8
0
  6
CONTINUOUS
 62
     7
 10
32.807047776
 20
131.1746847423
 30
0.0
 11
38.6845967212
 21
131.1746847423
 31
0.0
  0
ARC
  5
F8
  8
0
  6
CONTINUOUS
 62
     7
 10
104.9957674517
 20
195.5795135214
 30
0.0
 40
92.43999855970159
 50
224.1644664321
 51
224.9911292731
  0
CIRCLE
  5
F9
  8
0
  6
CONTINUOUS
 62
     7
 10
38.1366100671
 20
131.7251201414
 30
0.0
 40
0.1727701259024749
  0
CIRCLE
  5
FA
  8
0
  6
CONTINUOUS
 62
     7
 10
35.7455448285
 20
134.1306925139
 30
0.0
 40
2.340972275708668
  0
LINE
  5
FB
  8
0
  6
CONTINUOUS
 62
     7
 10
38.6845967212
 20
131.1746847423
 30
0.0
 11
38.6845967212
 21
137.0746849644
 31
0.0
  0
CIRCLE
  5
FC
  8
0
  6
CONTINUOUS
 62
     7
 10
35.697612811
 20
134.1303785873
 30
0.0
 40
2.244306185895093
  0
LINE
  5
FD
  8
0
  6
CONTINUOUS
 62
     7
 10
31.643964269
 20
147.0409368704
 30
0.0
 11
31.7822226559
 21
148.6220459993
 31
0.0
  0
LINE
  5
FE
  8
0
  6
CONTINUOUS
 62
     7
 10
31.7822226559
 20
148.6220459993
 30
0.0
 11
39.5525413976
 21
148.0333090367
 31
0.0
  0
LINE
  5
FF
  8
0
  6
CONTINUOUS
 62
     7
 10
39.4142828361
 20
146.4521999078
 30
0.0
 11
39.5525413976
 21
148.0333090367
 31
0.0
  0
LINE
  5
100
  8
0
  6
CONTINUOUS
 62
     7
 10
38.8889396042
 20
145.0034326481
 30
0.0
 11
39.4142828361
 21
146.4521999078
 31
0.0
  0
LINE
  5
101
  8
0
  6
CONTINUOUS
 62
     7
 10
31.9106880404
 20
145.5321568137
 30
0.0
 11
38.8889396042
 21
145.0034326481
 31
0.0
  0
LINE
  5
102
  8
0
  6
CONTINUOUS
 62
     7
 10
31.9106880404
 20
145.5321568137
 30
0.0
 11
31.643964269
 21
147.0409368704
 31
0.0
  0
LINE
  5
103
  8
0
  6
CONTINUOUS
 62
     7
 10
39.4142828361
 20
146.4521999078
 30
0.0
 11
39.975981176
 21
147.7886971625
 31
0.0
  0
LINE
  5
104
  8
0
  6
CONTINUOUS
 62
     7
 10
39.975981176
 20
147.7516826781
 30
0.0
 11
39.975981176
 21
147.7886971625
 31
0.0
  0
LINE
  5
105
  8
0
  6
CONTINUOUS
 62
     7
 10
38.8889396042
 20
145.0034326481
 30
0.0
 11
38.8889396042
 21
144.9255140106
 31
0.0
  0
LINE
  5
106
  8
0
  6
CONTINUOUS
 62
     7
 10
31.643964269
 20
143.1409367433
 30
0.0
 11
31.3587823828
 21
144.5416000279
 31
0.0
  0
LINE
  5
107
  8
0
  6
CONTINUOUS
 62
     7
 10
31.3587823828
 20
144.5416000279
 30
0.0
 11
31.3587823828
 21
148.4415999221
 31
0.0
  0
LINE
  5
108
  8
0
  6
CONTINUOUS
 62
     7
 10
31.643964269
 20
147.0409368704
 30
0.0
 11
31.3587823828
 21
148.4415999221
 31
0.0
  0
LINE
  5
109
  8
0
  6
CONTINUOUS
 62
     7
 10
31.9106880404
 20
142.0297030345
 30
0.0
 11
31.9106880404
 21
145.5321568137
 31
0.0
  0
LINE
  5
10A
  8
0
  6
CONTINUOUS
 62
     7
 10
31.9106880404
 20
142.0297030345
 30
0.0
 11
31.643964269
 21
143.1409367433
 31
0.0
  0
POLYLINE
  5
10B
  8
0
  6
CONTINUOUS
 62
     7
 66
     1
 10
0.0
 20
0.0
 30
0.0
  0
VERTEX
  5
32C
  8
0
  6
CONTINUOUS
 62
     7
 10
39.975981176
 20
147.7886971625
 30
0.0
  0
VERTEX
  5
32D
  8
0
  6
CONTINUOUS
 62
     7
 10
39.9733194561
 20
147.8126945513
 30
0.0
  0
VERTEX
  5
32E
  8
0
  6
CONTINUOUS
 62
     7
 10
39.96536503
 20
147.8367939199
 30
0.0
  0
VERTEX
  5
32F
  8
0
  6
CONTINUOUS
 62
     7
 10
39.9522194118
 20
147.8606916572
 30
0.0
  0
VERTEX
  5
330
  8
0
  6
CONTINUOUS
 62
     7
 10
39.9340474457
 20
147.8840874115
 30
0.0
  0
VERTEX
  5
331
  8
0
  6
CONTINUOUS
 62
     7
 10
39.9110782371
 20
147.9066868851
 30
0.0
  0
VERTEX
  5
332
  8
0
  6
CONTINUOUS
 62
     7
 10
39.8836004958
 20
147.9282064902
 30
0.0
  0
VERTEX
  5
333
  8
0
  6
CONTINUOUS
 62
     7
 10
39.8519588114
 20
147.9483747462
 30
0.0
  0
VERTEX
  5
334
  8
0
  6
CONTINUOUS
 62
     7
 10
39.8165517897
 20
147.9669387991
 30
0.0
  0
VERTEX
  5
335
  8
0
  6
CONTINUOUS
 62
     7
 10
39.7778250688
 20
147.9836644212
 30
0.0
  0
VERTEX
  5
336
  8
0
  6
CONTINUOUS
 62
     7
 10
39.7362652645
 20
147.998342065
 30
0.0
  0
VERTEX
  5
337
  8
0
  6
CONTINUOUS
 62
     7
 10
39.692394849
 20
148.0107863972
 30
0.0
  0
VERTEX
  5
338
  8
0
  6
CONTINUOUS
 62
     7
 10
39.6467656308
 20
148.0208414214
 30
0.0
  0
VERTEX
  5
339
  8
0
  6
CONTINUOUS
 62
     7
 10
39.5999517702
 20
148.0283804777
 30
0.0
  0
VERTEX
  5
33A
  8
0
  6
CONTINUOUS
 62
     7
 10
39.5525413976
 20
148.0333090367
 30
0.0
  0
SEQEND
  5
33B
  8
0
  6
CONTINUOUS
 62
     7
  0
LINE
  5
10C
  8
0
  6
CONTINUOUS
 62
     7
 10
32.0625574739
 20
142.0181962822
 30
0.0
 11
31.9106880404
 21
142.0297030345
 31
0.0
  0
POLYLINE
  5
10D
  8
0
  6
CONTINUOUS
 62
     7
 66
     1
 10
0.0
 20
0.0
 30
0.0
  0
VERTEX
  5
33C
  8
0
  6
CONTINUOUS
 62
     7
 10
31.3587823828
 20
148.4415999221
 30
0.0
  0
VERTEX
  5
33D
  8
0
  6
CONTINUOUS
 62
     7
 10
31.3614449176
 20
148.4651940482
 30
0.0
  0
VERTEX
  5
33E
  8
0
  6
CONTINUOUS
 62
     7
 10
31.3693989362
 20
148.4880878197
 30
0.0
  0
VERTEX
  5
33F
  8
0
  6
CONTINUOUS
 62
     7
 10
31.382544438
 20
148.509993458
 30
0.0
  0
VERTEX
  5
340
  8
0
  6
CONTINUOUS
 62
     7
 10
31.4007161712
 20
148.5306357572
 30
0.0
  0
VERTEX
  5
341
  8
0
  6
CONTINUOUS
 62
     7
 10
31.4236855545
 20
148.5497548784
 30
0.0
  0
VERTEX
  5
342
  8
0
  6
CONTINUOUS
 62
     7
 10
31.4511637614
 20
148.5671100745
 30
0.0
  0
VERTEX
  5
343
  8
0
  6
CONTINUOUS
 62
     7
 10
31.4828051548
 20
148.5824838819
 30
0.0
  0
VERTEX
  5
344
  8
0
  6
CONTINUOUS
 62
     7
 10
31.5182120019
 20
148.5956821198
 30
0.0
  0
VERTEX
  5
345
  8
0
  6
CONTINUOUS
 62
     7
 10
31.5569388392
 20
148.6065394784
 30
0.0
  0
VERTEX
  5
346
  8
0
  6
CONTINUOUS
 62
     7
 10
31.5984988181
 20
148.6149195189
 30
0.0
  0
VERTEX
  5
347
  8
0
  6
CONTINUOUS
 62
     7
 10
31.6423692045
 20
148.6207160706
 30
0.0
  0
VERTEX
  5
348
  8
0
  6
CONTINUOUS
 62
     7
 10
31.6879983354
 20
148.6238564903
 30
0.0
  0
VERTEX
  5
349
  8
0
  6
CONTINUOUS
 62
     7
 10
31.7348123997
 20
148.6243016625
 30
0.0
  0
VERTEX
  5
34A
  8
0
  6
CONTINUOUS
 62
     7
 10
31.7822226559
 20
148.6220459993
 30
0.0
  0
SEQEND
  5
34B
  8
0
  6
CONTINUOUS
 62
     7
  0
LINE
  5
10E
  8
0
  6
CONTINUOUS
 62
     7
 10
31.3587823828
 20
144.5416000279
 30
0.0
 11
31.3610815272
 21
144.5193090549
 31
0.0
  0
LINE
  5
10F
  8
0
  6
CONTINUOUS
 62
     7
 10
31.2703984734
 20
145.2608204054
 30
0.0
 11
31.2705943422
 21
145.2592765054
 31
0.0
  0
LINE
  5
110
  8
0
  6
CONTINUOUS
 62
     7
 10
31.4479827709
 20
144.0958746316
 30
0.0
 11
31.3587823828
 21
143.6577695495
 31
0.0
  0
LINE
  5
111
  8
0
  6
CONTINUOUS
 62
     7
 10
31.3587823828
 20
143.6577695495
 30
0.0
 11
31.3587823828
 21
144.5350507347
 31
0.0
  0
LINE
  5
112
  8
0
  6
CONTINUOUS
 62
     7
 10
31.9106880404
 20
150.0696663352
 30
0.0
 11
31.7656140603
 21
149.4652542824
 31
0.0
  0
LINE
  5
113
  8
0
  6
CONTINUOUS
 62
     7
 10
31.9106880404
 20
149.4585329274
 30
0.0
 11
31.9106880404
 21
150.0696663352
 31
0.0
  0
LINE
  5
114
  8
0
  6
CONTINUOUS
 62
     7
 10
31.9106880404
 20
150.0696663352
 30
0.0
 11
32.0625574739
 21
150.081173757
 31
0.0
  0
POLYLINE
  5
115
  8
0
  6
CONTINUOUS
 62
     7
 66
     1
 10
0.0
 20
0.0
 30
0.0
  0
VERTEX
  5
34C
  8
0
  6
CONTINUOUS
 62
     7
 10
31.3587823828
 20
143.6577695495
 30
0.0
  0
VERTEX
  5
34D
  8
0
  6
CONTINUOUS
 62
     7
 10
31.3614449176
 20
143.6341756562
 30
0.0
  0
VERTEX
  5
34E
  8
0
  6
CONTINUOUS
 62
     7
 10
31.3693989362
 20
143.6112818847
 30
0.0
  0
VERTEX
  5
34F
  8
0
  6
CONTINUOUS
 62
     7
 10
31.382544438
 20
143.58937613
 30
0.0
  0
VERTEX
  5
350
  8
0
  6
CONTINUOUS
 62
     7
 10
31.4007161712
 20
143.5687339472
 30
0.0
  0
VERTEX
  5
351
  8
0
  6
CONTINUOUS
 62
     7
 10
31.4236855545
 20
143.5496149425
 30
0.0
  0
VERTEX
  5
352
  8
0
  6
CONTINUOUS
 62
     7
 10
31.4511637614
 20
143.5322595135
 30
0.0
  0
VERTEX
  5
353
  8
0
  6
CONTINUOUS
 62
     7
 10
31.4828051548
 20
143.5168858225
 30
0.0
  0
VERTEX
  5
354
  8
0
  6
CONTINUOUS
 62
     7
 10
31.5182120019
 20
143.5036873518
 30
0.0
  0
VERTEX
  5
355
  8
0
  6
CONTINUOUS
 62
     7
 10
31.5569388392
 20
143.4928299932
 30
0.0
  0
VERTEX
  5
356
  8
0
  6
CONTINUOUS
 62
     7
 10
31.5724616582
 20
143.4893398619
 30
0.0
  0
SEQEND
  5
357
  8
0
  6
CONTINUOUS
 62
     7
  0
LINE
  5
116
  8
0
  6
CONTINUOUS
 62
     7
 10
114.2625556738
 20
134.1905233058
 30
0.0
 11
129.0125594885
 21
134.1905233058
 31
0.0
  0
LINE
  5
117
  8
0
  6
CONTINUOUS
 62
     7
 10
129.0125594885
 20
149.9588463994
 30
0.0
 11
129.0125594885
 21
154.5746850389
 31
0.0
  0
LINE
  5
118
  8
0
  6
CONTINUOUS
 62
     7
 10
129.0125594885
 20
129.5746846663
 30
0.0
 11
129.0125594885
 21
134.1905233058
 31
0.0
  0
LINE
  5
119
  8
0
  6
CONTINUOUS
 62
     7
 10
129.0125594885
 20
149.9588463994
 30
0.0
 11
114.2625556738
 21
149.9588463994
 31
0.0
  0
ARC
  5
11A
  8
0
  6
CONTINUOUS
 62
     7
 10
123.9625646176
 20
142.0746848526
 30
0.0
 40
12.50000707222331
 50
140.8958093045
 51
219.1041906955
  0
ARC
  5
11B
  8
0
  6
CONTINUOUS
 62
     7
 10
102.9125603734
 20
142.0746848526
 30
0.0
 40
12.50000277039085
 50
140.8957932776
 51
219.1042067224
  0
LINE
  5
11C
  8
0
  6
CONTINUOUS
 62
     7
 10
93.2125569732
 20
134.1905233058
 30
0.0
 11
105.3125606329
 21
134.1905233058
 31
0.0
  0
ARC
  5
11D
  8
0
  6
CONTINUOUS
 62
     7
 10
95.6125516891
 20
142.0746848526
 30
0.0
 40
12.50000707222326
 50
320.8958093045
 51
39.1041906955
  0
LINE
  5
11E
  8
0
  6
CONTINUOUS
 62
     7
 10
105.3125606329
 20
149.9588463994
 30
0.0
 11
93.2125569732
 21
149.9588463994
 31
0.0
  0
LINE
  5
11F
  8
0
  6
CONTINUOUS
 62
     7
 10
74.69542785
 20
154.5746850389
 30
0.0
 11
74.69542785
 21
129.5746846663
 31
0.0
  0
LINE
  5
120
  8
0
  6
CONTINUOUS
 62
     7
 10
114.2625556738
 20
134.1905233058
 30
0.0
 11
114.2625556738
 21
149.9588463994
 31
0.0
  0
LINE
  5
121
  8
0
  6
CONTINUOUS
 62
     7
 10
105.3125606329
 20
134.1905233058
 30
0.0
 11
105.3125606329
 21
149.9588463994
 31
0.0
  0
LINE
  5
122
  8
0
  6
CONTINUOUS
 62
     7
 10
93.2125569732
 20
134.1905233058
 30
0.0
 11
93.2125569732
 21
149.9588463994
 31
0.0
  0
ARC
  5
123
  8
0
  6
CONTINUOUS
 62
     7
 10
41.3941758648
 20
140.7776229255
 30
0.0
 40
3.383316649517002
 50
268.1263604615
 51
277.2557768737
  0
ARC
  5
124
  8
0
  6
CONTINUOUS
 62
     7
 10
41.1767985417
 20
146.4708639251
 30
0.0
 40
1.894795863439584
 50
70.1084566345
 51
86.7700699733
  0
LINE
  5
125
  8
0
  6
CONTINUOUS
 62
     7
 10
40.2006189749
 20
148.4282121601
 30
0.0
 11
41.2835571394
 21
148.3626498448
 31
0.0
  0
LINE
  5
126
  8
0
  6
CONTINUOUS
 62
     7
 10
41.2835571394
 20
137.3961151185
 30
0.0
 11
35.9993320369
 21
137.5437721218
 31
0.0
  0
POLYLINE
  5
127
  8
0
  6
CONTINUOUS
 62
     7
 66
     1
 10
0.0
 20
0.0
 30
0.0
  0
VERTEX
  5
358
  8
0
  6
CONTINUOUS
 62
     7
 10
35.9993320369
 20
137.5437721218
 30
0.0
  0
VERTEX
  5
359
  8
0
  6
CONTINUOUS
 62
     7
 10
36.0792288036
 20
137.6520528066
 30
0.0
  0
VERTEX
  5
35A
  8
0
  6
CONTINUOUS
 62
     7
 10
36.1488321275
 20
137.767115848
 30
0.0
  0
VERTEX
  5
35B
  8
0
  6
CONTINUOUS
 62
     7
 10
36.2080460825
 20
137.8874650764
 30
0.0
  0
VERTEX
  5
35C
  8
0
  6
CONTINUOUS
 62
     7
 10
36.2653736436
 20
138.0366433951
 30
0.0
  0
VERTEX
  5
35D
  8
0
  6
CONTINUOUS
 62
     7
 10
36.3090172821
 20
138.1913335136
 30
0.0
  0
VERTEX
  5
35E
  8
0
  6
CONTINUOUS
 62
     7
 10
36.3393099458
 20
138.3498259893
 30
0.0
  0
VERTEX
  5
35F
  8
0
  6
CONTINUOUS
 62
     7
 10
36.3565841169
 20
138.5104106812
 30
0.0
  0
VERTEX
  5
360
  8
0
  6
CONTINUOUS
 62
     7
 10
36.3612714634
 20
138.6749944723
 30
0.0
  0
VERTEX
  5
361
  8
0
  6
CONTINUOUS
 62
     7
 10
36.3533659317
 20
138.8407650011
 30
0.0
  0
VERTEX
  5
362
  8
0
  6
CONTINUOUS
 62
     7
 10
36.3330435418
 20
139.0063436775
 30
0.0
  0
VERTEX
  5
363
  8
0
  6
CONTINUOUS
 62
     7
 10
36.3004803137
 20
139.1703530753
 30
0.0
  0
VERTEX
  5
364
  8
0
  6
CONTINUOUS
 62
     7
 10
36.2601847798
 20
139.3177693317
 30
0.0
  0
VERTEX
  5
365
  8
0
  6
CONTINUOUS
 62
     7
 10
36.2092339844
 20
139.4633459932
 30
0.0
  0
VERTEX
  5
366
  8
0
  6
CONTINUOUS
 62
     7
 10
36.1473410801
 20
139.6053521967
 30
0.0
  0
VERTEX
  5
367
  8
0
  6
CONTINUOUS
 62
     7
 10
36.0742187538
 20
139.7420570793
 30
0.0
  0
VERTEX
  5
368
  8
0
  6
CONTINUOUS
 62
     7
 10
35.9895810895
 20
139.871729778
 30
0.0
  0
VERTEX
  5
369
  8
0
  6
CONTINUOUS
 62
     7
 10
35.9121458084
 20
139.9704152791
 30
0.0
  0
VERTEX
  5
36A
  8
0
  6
CONTINUOUS
 62
     7
 10
35.8259803095
 20
140.062256025
 30
0.0
  0
VERTEX
  5
36B
  8
0
  6
CONTINUOUS
 62
     7
 10
35.7311944888
 20
140.1449837795
 30
0.0
  0
VERTEX
  5
36C
  8
0
  6
CONTINUOUS
 62
     7
 10
35.6470106115
 20
140.2044184579
 30
0.0
  0
VERTEX
  5
36D
  8
0
  6
CONTINUOUS
 62
     7
 10
35.5568921138
 20
140.2551462016
 30
0.0
  0
VERTEX
  5
36E
  8
0
  6
CONTINUOUS
 62
     7
 10
35.4619312045
 20
140.2953631551
 30
0.0
  0
VERTEX
  5
36F
  8
0
  6
CONTINUOUS
 62
     7
 10
35.3617360295
 20
140.3237099367
 30
0.0
  0
VERTEX
  5
370
  8
0
  6
CONTINUOUS
 62
     7
 10
35.2583012489
 20
140.3391249551
 30
0.0
  0
VERTEX
  5
371
  8
0
  6
CONTINUOUS
 62
     7
 10
35.1542445776
 20
140.3409772393
 30
0.0
  0
VERTEX
  5
372
  8
0
  6
CONTINUOUS
 62
     7
 10
35.0659049061
 20
140.3316502765
 30
0.0
  0
VERTEX
  5
373
  8
0
  6
CONTINUOUS
 62
     7
 10
34.9788362571
 20
140.3130322069
 30
0.0
  0
VERTEX
  5
374
  8
0
  6
CONTINUOUS
 62
     7
 10
34.8943154738
 20
140.2859757727
 30
0.0
  0
VERTEX
  5
375
  8
0
  6
CONTINUOUS
 62
     7
 10
34.7818827201
 20
140.235753388
 30
0.0
  0
VERTEX
  5
376
  8
0
  6
CONTINUOUS
 62
     7
 10
34.6756267306
 20
140.1729896971
 30
0.0
  0
VERTEX
  5
377
  8
0
  6
CONTINUOUS
 62
     7
 10
34.5765414593
 20
140.1002283747
 30
0.0
  0
VERTEX
  5
378
  8
0
  6
CONTINUOUS
 62
     7
 10
34.4740128555
 20
140.0091142932
 30
0.0
  0
VERTEX
  5
379
  8
0
  6
CONTINUOUS
 62
     7
 10
34.3796931618
 20
139.9092997963
 30
0.0
  0
VERTEX
  5
37A
  8
0
  6
CONTINUOUS
 62
     7
 10
34.2935737633
 20
139.8025364688
 30
0.0
  0
VERTEX
  5
37B
  8
0
  6
CONTINUOUS
 62
     7
 10
34.2156460454
 20
139.6905761285
 30
0.0
  0
VERTEX
  5
37C
  8
0
  6
CONTINUOUS
 62
     7
 10
34.1190047973
 20
139.525876155
 30
0.0
  0
VERTEX
  5
37D
  8
0
  6
CONTINUOUS
 62
     7
 10
34.0368330424
 20
139.3536368924
 30
0.0
  0
VERTEX
  5
37E
  8
0
  6
CONTINUOUS
 62
     7
 10
33.9693608173
 20
139.1759587059
 30
0.0
  0
VERTEX
  5
37F
  8
0
  6
CONTINUOUS
 62
     7
 10
33.916818508
 20
138.9949424265
 30
0.0
  0
VERTEX
  5
380
  8
0
  6
CONTINUOUS
 62
     7
 10
33.8789313744
 20
138.8088343738
 30
0.0
  0
VERTEX
  5
381
  8
0
  6
CONTINUOUS
 62
     7
 10
33.8570896481
 20
138.6204511
 30
0.0
  0
VERTEX
  5
382
  8
0
  6
CONTINUOUS
 62
     7
 10
33.8523396701
 20
138.4319495483
 30
0.0
  0
VERTEX
  5
383
  8
0
  6
CONTINUOUS
 62
     7
 10
33.8657274322
 20
138.245487593
 30
0.0
  0
VERTEX
  5
384
  8
0
  6
CONTINUOUS
 62
     7
 10
33.8868447059
 20
138.115507325
 30
0.0
  0
VERTEX
  5
385
  8
0
  6
CONTINUOUS
 62
     7
 10
33.9182128143
 20
137.9874080958
 30
0.0
  0
VERTEX
  5
386
  8
0
  6
CONTINUOUS
 62
     7
 10
33.9601800722
 20
137.8625382277
 30
0.0
  0
VERTEX
  5
387
  8
0
  6
CONTINUOUS
 62
     7
 10
34.0130945613
 20
137.7422462756
 30
0.0
  0
VERTEX
  5
388
  8
0
  6
CONTINUOUS
 62
     7
 10
34.0527696014
 20
137.6683630588
 30
0.0
  0
VERTEX
  5
389
  8
0
  6
CONTINUOUS
 62
     7
 10
34.0971589965
 20
137.5969795118
 30
0.0
  0
SEQEND
  5
38A
  8
0
  6
CONTINUOUS
 62
     7
  0
LINE
  5
128
  8
0
  6
CONTINUOUS
 62
     7
 10
34.0971589965
 20
137.5969795118
 30
0.0
 11
32.5625574976
 21
137.6399269866
 31
0.0
  0
LINE
  5
129
  8
0
  6
CONTINUOUS
 62
     7
 10
32.5625574976
 20
137.6399269866
 30
0.0
 11
32.5625574976
 21
145.3897298852
 31
0.0
  0
POLYLINE
  5
12A
  8
0
  6
CONTINUOUS
 62
     7
 66
     1
 10
0.0
 20
0.0
 30
0.0
  0
VERTEX
  5
38B
  8
0
  6
CONTINUOUS
 62
     7
 10
39.5922292434
 20
144.8731469064
 30
0.0
  0
VERTEX
  5
38C
  8
0
  6
CONTINUOUS
 62
     7
 10
36.0748958253
 20
145.1335263046
 30
0.0
  0
VERTEX
  5
38D
  8
0
  6
CONTINUOUS
 62
     7
 10
32.5625574976
 20
145.3897298852
 30
0.0
  0
SEQEND
  5
38E
  8
0
  6
CONTINUOUS
 62
     7
  0
ARC
  5
12B
  8
0
  6
CONTINUOUS
 62
     7
 10
39.7425692262
 20
146.0602729389
 30
0.0
 40
1.196607842013111
 50
262.7823716905
 51
86.4719834201
  0
ARC
  5
12C
  8
0
  6
CONTINUOUS
 62
     7
 10
100.9462437237
 20
127.8811133092
 30
0.0
 40
64.12654830337353
 50
161.3119844297
 51
162.4154073453
  0
ARC
  5
12D
  8
0
  6
CONTINUOUS
 62
     7
 10
34.9737563416
 20
134.9073754222
 30
0.0
 40
2.828850131128787
 50
68.743636761
 51
108.0518554438
  0
LINE
  5
12E
  8
0
  6
CONTINUOUS
 62
     7
 10
42.7173952983
 20
137.5417288
 30
0.0
 11
41.8214853332
 21
137.4213991294
 31
0.0
  0
LINE
  5
12F
  8
0
  6
CONTINUOUS
 62
     7
 10
41.8214853332
 20
148.2526131513
 30
0.0
 11
42.7173952983
 21
147.9194199274
 31
0.0
  0
LINE
  5
130
  8
0
  6
CONTINUOUS
 62
     7
 10
32.5625574976
 20
137.6399269866
 30
0.0
 11
32.0625574739
 21
137.780559955
 31
0.0
  0
LINE
  5
131
  8
0
  6
CONTINUOUS
 62
     7
 10
32.0625574739
 20
137.780559955
 30
0.0
 11
32.0625574739
 21
145.1757242976
 31
0.0
  0
LINE
  5
132
  8
0
  6
CONTINUOUS
 62
     7
 10
32.5625574976
 20
145.3897298852
 30
0.0
 11
32.0625574739
 21
145.1757242976
 31
0.0
  0
LINE
  5
133
  8
0
  6
CONTINUOUS
 62
     7
 10
39.8162044064
 20
144.878125524
 30
0.0
 11
39.8162044064
 21
147.2546130026
 31
0.0
  0
ARC
  5
134
  8
0
  6
CONTINUOUS
 62
     7
 10
43.1445462904
 20
134.1871849368
 30
0.0
 40
3.381630154320147
 50
88.5764349544
 51
97.256708186
  0
ARC
  5
135
  8
0
  6
CONTINUOUS
 62
     7
 10
43.3591171817
 20
149.6858580314
 30
0.0
 40
1.879391005311624
 50
250.0346353971
 51
266.0164962134
  0
LINE
  5
136
  8
0
  6
CONTINUOUS
 62
     7
 10
43.2285572813
 20
131.0781196299
 30
0.0
 11
45.6198695526
 21
131.0748804899
 31
0.0
  0
ARC
  5
137
  8
0
  6
CONTINUOUS
 62
     7
 10
46.3286282498
 20
140.7519445749
 30
0.0
 40
9.702984499422914
 50
265.8110742739
 51
281.4366144212
  0
POLYLINE
  5
138
  8
0
  6
CONTINUOUS
 62
     7
 66
     1
 10
0.0
 20
0.0
 30
0.0
  0
VERTEX
  5
38F
  8
0
  6
CONTINUOUS
 62
     7
 10
50.4113742561
 20
137.4183076041
 30
0.0
  0
VERTEX
  5
390
  8
0
  6
CONTINUOUS
 62
     7
 10
50.3771854044
 20
137.154438773
 30
0.0
  0
VERTEX
  5
391
  8
0
  6
CONTINUOUS
 62
     7
 10
50.3411227316
 20
136.8940637986
 30
0.0
  0
VERTEX
  5
392
  8
0
  6
CONTINUOUS
 62
     7
 10
50.3032160402
 20
136.637366617
 30
0.0
  0
VERTEX
  5
393
  8
0
  6
CONTINUOUS
 62
     7
 10
50.2634895445
 20
136.3845297674
 30
0.0
  0
VERTEX
  5
394
  8
0
  6
CONTINUOUS
 62
     7
 10
50.2219711841
 20
136.1357329952
 30
0.0
  0
VERTEX
  5
395
  8
0
  6
CONTINUOUS
 62
     7
 10
50.1786926241
 20
135.8911523203
 30
0.0
  0
VERTEX
  5
396
  8
0
  6
CONTINUOUS
 62
     7
 10
50.1336836667
 20
135.6509623657
 30
0.0
  0
VERTEX
  5
397
  8
0
  6
CONTINUOUS
 62
     7
 10
50.0869741143
 20
135.4153330977
 30
0.0
  0
VERTEX
  5
398
  8
0
  6
CONTINUOUS
 62
     7
 10
50.0386012197
 20
135.1844316887
 30
0.0
  0
VERTEX
  5
399
  8
0
  6
CONTINUOUS
 62
     7
 10
49.9885947854
 20
134.9584225173
 30
0.0
  0
VERTEX
  5
39A
  8
0
  6
CONTINUOUS
 62
     7
 10
49.9369939268
 20
134.7374653051
 30
0.0
  0
VERTEX
  5
39B
  8
0
  6
CONTINUOUS
 62
     7
 10
49.8838340343
 20
134.5217179114
 30
0.0
  0
VERTEX
  5
39C
  8
0
  6
CONTINUOUS
 62
     7
 10
49.8291523606
 20
134.3113326075
 30
0.0
  0
VERTEX
  5
39D
  8
0
  6
CONTINUOUS
 62
     7
 10
49.7729898841
 20
134.1064593362
 30
0.0
  0
VERTEX
  5
39E
  8
0
  6
CONTINUOUS
 62
     7
 10
49.7153819949
 20
133.9072429182
 30
0.0
  0
VERTEX
  5
39F
  8
0
  6
CONTINUOUS
 62
     7
 10
49.6563752592
 20
133.713825846
 30
0.0
  0
VERTEX
  5
3A0
  8
0
  6
CONTINUOUS
 62
     7
 10
49.59600693
 20
133.5263450237
 30
0.0
  0
VERTEX
  5
3A1
  8
0
  6
CONTINUOUS
 62
     7
 10
49.5343217105
 20
133.3449326994
 30
0.0
  0
VERTEX
  5
3A2
  8
0
  6
CONTINUOUS
 62
     7
 10
49.4713624419
 20
133.1697192582
 30
0.0
  0
VERTEX
  5
3A3
  8
0
  6
CONTINUOUS
 62
     7
 10
49.40717569
 20
133.0008276346
 30
0.0
  0
VERTEX
  5
3A4
  8
0
  6
CONTINUOUS
 62
     7
 10
49.3418061585
 20
132.8383779692
 30
0.0
  0
VERTEX
  5
3A5
  8
0
  6
CONTINUOUS
 62
     7
 10
49.2753004135
 20
132.6824866774
 30
0.0
  0
VERTEX
  5
3A6
  8
0
  6
CONTINUOUS
 62
     7
 10
49.2077031583
 20
132.5332627239
 30
0.0
  0
VERTEX
  5
3A7
  8
0
  6
CONTINUOUS
 62
     7
 10
49.1390665472
 20
132.3908132108
 30
0.0
  0
VERTEX
  5
3A8
  8
0
  6
CONTINUOUS
 62
     7
 10
49.0694371463
 20
132.2552396523
 30
0.0
  0
VERTEX
  5
3A9
  8
0
  6
CONTINUOUS
 62
     7
 10
48.9988652469
 20
132.1266379746
 30
0.0
  0
VERTEX
  5
3AA
  8
0
  6
CONTINUOUS
 62
     7
 10
48.9273992778
 20
132.005098516
 30
0.0
  0
VERTEX
  5
3AB
  8
0
  6
CONTINUOUS
 62
     7
 10
48.8550913931
 20
131.8907088208
 30
0.0
  0
VERTEX
  5
3AC
  8
0
  6
CONTINUOUS
 62
     7
 10
48.7819918842
 20
131.7835489827
 30
0.0
  0
VERTEX
  5
3AD
  8
0
  6
CONTINUOUS
 62
     7
 10
48.7081547678
 20
131.6836963015
 30
0.0
  0
VERTEX
  5
3AE
  8
0
  6
CONTINUOUS
 62
     7
 10
48.6336284728
 20
131.5912206265
 30
0.0
  0
VERTEX
  5
3AF
  8
0
  6
CONTINUOUS
 62
     7
 10
48.558470741
 20
131.5061880814
 30
0.0
  0
VERTEX
  5
3B0
  8
0
  6
CONTINUOUS
 62
     7
 10
48.4827318639
 20
131.4286592024
 30
0.0
  0
VERTEX
  5
3B1
  8
0
  6
CONTINUOUS
 62
     7
 10
48.4064658583
 20
131.3586889374
 30
0.0
  0
VERTEX
  5
3B2
  8
0
  6
CONTINUOUS
 62
     7
 10
48.3297286034
 20
131.2963266464
 30
0.0
  0
VERTEX
  5
3B3
  8
0
  6
CONTINUOUS
 62
     7
 10
48.2525722534
 20
131.2416161018
 30
0.0
  0
SEQEND
  5
3B4
  8
0
  6
CONTINUOUS
 62
     7
  0
LINE
  5
139
  8
0
  6
CONTINUOUS
 62
     7
 10
50.4113742561
 20
137.4183076041
 30
0.0
 11
43.2285572813
 21
137.5677713732
 31
0.0
  0
LINE
  5
13A
  8
0
  6
CONTINUOUS
 62
     7
 10
43.2285572813
 20
147.8110074604
 30
0.0
 11
45.6198695526
 21
147.6314433458
 31
0.0
  0
ARC
  5
13B
  8
0
  6
CONTINUOUS
 62
     7
 10
45.9106919391
 20
150.1723536056
 30
0.0
 40
2.557499288119383
 50
263.4705684215
 51
336.304118333
  0
POLYLINE
  5
13C
  8
0
  6
CONTINUOUS
 62
     7
 66
     1
 10
0.0
 20
0.0
 30
0.0
  0
VERTEX
  5
3B5
  8
0
  6
CONTINUOUS
 62
     7
 10
50.2935917527
 20
153.074684793
 30
0.0
  0
VERTEX
  5
3B6
  8
0
  6
CONTINUOUS
 62
     7
 10
50.2634895445
 20
153.0724673139
 30
0.0
  0
VERTEX
  5
3B7
  8
0
  6
CONTINUOUS
 62
     7
 10
50.2219711841
 20
153.0626791137
 30
0.0
  0
VERTEX
  5
3B8
  8
0
  6
CONTINUOUS
 62
     7
 10
50.1786926241
 20
153.0450892242
 30
0.0
  0
VERTEX
  5
3B9
  8
0
  6
CONTINUOUS
 62
     7
 10
50.1336836667
 20
153.0197116154
 30
0.0
  0
VERTEX
  5
3BA
  8
0
  6
CONTINUOUS
 62
     7
 10
50.0869741143
 20
152.9865621197
 30
0.0
  0
VERTEX
  5
3BB
  8
0
  6
CONTINUOUS
 62
     7
 10
50.0386012197
 20
152.9456658828
 30
0.0
  0
VERTEX
  5
3BC
  8
0
  6
CONTINUOUS
 62
     7
 10
49.9885947854
 20
152.8970508444
 30
0.0
  0
VERTEX
  5
3BD
  8
0
  6
CONTINUOUS
 62
     7
 10
49.9369939268
 20
152.8407523947
 30
0.0
  0
VERTEX
  5
3BE
  8
0
  6
CONTINUOUS
 62
     7
 10
49.8838340343
 20
152.7768105807
 30
0.0
  0
VERTEX
  5
3BF
  8
0
  6
CONTINUOUS
 62
     7
 10
49.8291523606
 20
152.7052701058
 30
0.0
  0
VERTEX
  5
3C0
  8
0
  6
CONTINUOUS
 62
     7
 10
49.7729898841
 20
152.6261821928
 30
0.0
  0
VERTEX
  5
3C1
  8
0
  6
CONTINUOUS
 62
     7
 10
49.7153819949
 20
152.539602721
 30
0.0
  0
VERTEX
  5
3C2
  8
0
  6
CONTINUOUS
 62
     7
 10
49.6563752592
 20
152.4455931576
 30
0.0
  0
VERTEX
  5
3C3
  8
0
  6
CONTINUOUS
 62
     7
 10
49.59600693
 20
152.344220558
 30
0.0
  0
VERTEX
  5
3C4
  8
0
  6
CONTINUOUS
 62
     7
 10
49.5343217105
 20
152.2355575653
 30
0.0
  0
VERTEX
  5
3C5
  8
0
  6
CONTINUOUS
 62
     7
 10
49.4713624419
 20
152.1196796166
 30
0.0
  0
VERTEX
  5
3C6
  8
0
  6
CONTINUOUS
 62
     7
 10
49.40717569
 20
151.9966695996
 30
0.0
  0
VERTEX
  5
3C7
  8
0
  6
CONTINUOUS
 62
     7
 10
49.3418061585
 20
151.86661599
 30
0.0
  0
VERTEX
  5
3C8
  8
0
  6
CONTINUOUS
 62
     7
 10
49.2753004135
 20
151.7296100574
 30
0.0
  0
VERTEX
  5
3C9
  8
0
  6
CONTINUOUS
 62
     7
 10
49.2077031583
 20
151.5857495906
 30
0.0
  0
VERTEX
  5
3CA
  8
0
  6
CONTINUOUS
 62
     7
 10
49.1390665472
 20
151.4351351725
 30
0.0
  0
VERTEX
  5
3CB
  8
0
  6
CONTINUOUS
 62
     7
 10
49.0694371463
 20
151.2778757679
 30
0.0
  0
VERTEX
  5
3CC
  8
0
  6
CONTINUOUS
 62
     7
 10
48.9988652469
 20
151.1140831354
 30
0.0
  0
VERTEX
  5
3CD
  8
0
  6
CONTINUOUS
 62
     7
 10
48.9273992778
 20
150.9438718277
 30
0.0
  0
VERTEX
  5
3CE
  8
0
  6
CONTINUOUS
 62
     7
 10
48.8550913931
 20
150.7673629167
 30
0.0
  0
VERTEX
  5
3CF
  8
0
  6
CONTINUOUS
 62
     7
 10
48.7819918842
 20
150.5846830624
 30
0.0
  0
VERTEX
  5
3D0
  8
0
  6
CONTINUOUS
 62
     7
 10
48.7081547678
 20
150.3959617185
 30
0.0
  0
VERTEX
  5
3D1
  8
0
  6
CONTINUOUS
 62
     7
 10
48.6336284728
 20
150.2013320642
 30
0.0
  0
VERTEX
  5
3D2
  8
0
  6
CONTINUOUS
 62
     7
 10
48.558470741
 20
150.0009319352
 30
0.0
  0
VERTEX
  5
3D3
  8
0
  6
CONTINUOUS
 62
     7
 10
48.4827318639
 20
149.7949047553
 30
0.0
  0
VERTEX
  5
3D4
  8
0
  6
CONTINUOUS
 62
     7
 10
48.4064658583
 20
149.583396742
 30
0.0
  0
VERTEX
  5
3D5
  8
0
  6
CONTINUOUS
 62
     7
 10
48.3297286034
 20
149.3665573726
 30
0.0
  0
VERTEX
  5
3D6
  8
0
  6
CONTINUOUS
 62
     7
 10
48.2525722534
 20
149.144540781
 30
0.0
  0
SEQEND
  5
3D7
  8
0
  6
CONTINUOUS
 62
     7
  0
LINE
  5
13D
  8
0
  6
CONTINUOUS
 62
     7
 10
50.1558212043
 20
153.0330444294
 30
0.0
 11
43.2285572813
 21
153.0181246417
 31
0.0
  0
ARC
  5
13E
  8
0
  6
CONTINUOUS
 62
     7
 10
47.8302551119
 20
137.5907182599
 30
0.0
 40
0.6460186219559998
 50
310.822881278
 51
348.2166338272
  0
LINE
  5
13F
  8
0
  6
CONTINUOUS
 62
     7
 10
129.0125594885
 20
134.1905233058
 30
0.0
 11
130.2625582964
 21
134.3500490839
 31
0.0
  0
LINE
  5
140
  8
0
  6
CONTINUOUS
 62
     7
 10
130.2625582964
 20
149.7993206213
 30
0.0
 11
130.2625582964
 21
154.4746852087
 31
0.0
  0
LINE
  5
141
  8
0
  6
CONTINUOUS
 62
     7
 10
130.2625582964
 20
129.6746844965
 30
0.0
 11
130.2625582964
 21
134.3500490839
 31
0.0
  0
LINE
  5
142
  8
0
  6
CONTINUOUS
 62
     7
 10
130.2625582964
 20
149.7993206213
 30
0.0
 11
129.0125594885
 21
149.9588463994
 31
0.0
  0
LINE
  5
143
  8
0
  6
CONTINUOUS
 62
     7
 10
131.262560323
 20
149.4415022972
 30
0.0
 11
131.262560323
 21
153.4746850448
 31
0.0
  0
LINE
  5
144
  8
0
  6
CONTINUOUS
 62
     7
 10
131.262560323
 20
130.6746846604
 30
0.0
 11
131.262560323
 21
134.707867408
 31
0.0
  0
LINE
  5
145
  8
0
  6
CONTINUOUS
 62
     7
 10
131.262560323
 20
149.4415022972
 30
0.0
 11
130.2625582964
 21
149.7993206213
 31
0.0
  0
LINE
  5
146
  8
0
  6
CONTINUOUS
 62
     7
 10
130.2625582964
 20
134.3500490839
 30
0.0
 11
131.262560323
 21
134.707867408
 31
0.0
  0
LINE
  5
147
  8
0
  6
CONTINUOUS
 62
     7
 10
130.2625582964
 20
134.3500490839
 30
0.0
 11
130.2625582964
 21
149.7993206213
 31
0.0
  0
LINE
  5
148
  8
0
  6
CONTINUOUS
 62
     7
 10
131.262560323
 20
134.707867408
 30
0.0
 11
131.262560323
 21
149.4415022972
 31
0.0
  0
ARC
  5
149
  8
0
  6
CONTINUOUS
 62
     7
 10
48.2547106284
 20
137.9913834915
 30
0.0
 40
0.8895320896262954
 50
215.2313903487
 51
269.8622646862
  0
LINE
  5
14A
  8
0
  6
CONTINUOUS
 62
     7
 10
47.2149736659
 20
147.9781370217
 30
0.0
 11
40.2139163987
 21
148.5085890236
 31
0.0
  0
ARC
  5
14B
  8
0
  6
CONTINUOUS
 62
     7
 10
43.2262410993
 20
130.0795197871
 30
0.0
 40
0.9986025288553833
 50
89.8671067126
 51
120.6343857344
  0
LINE
  5
14C
  8
0
  6
CONTINUOUS
 62
     7
 10
41.8214853332
 20
130.4081280323
 30
0.0
 11
42.7173952983
 21
130.9387537258
 31
0.0
  0
ARC
  5
14D
  8
0
  6
CONTINUOUS
 62
     7
 10
41.3136682805
 20
131.2661590501
 30
0.0
 40
0.9970433222631464
 50
268.2693794507
 51
300.6187427393
  0
LINE
  5
14E
  8
0
  6
CONTINUOUS
 62
     7
 10
40.2139163987
 20
130.3021388667
 30
0.0
 11
41.2835571394
 21
130.2695705163
 31
0.0
  0
ARC
  5
14F
  8
0
  6
CONTINUOUS
 62
     7
 10
41.3137891595
 20
152.7922887294
 30
0.0
 40
1.016402001918755
 50
60.0328546927
 51
91.7044660164
  0
LINE
  5
150
  8
0
  6
CONTINUOUS
 62
     7
 10
42.7173952983
 20
153.1543659585
 30
0.0
 11
41.8214853332
 21
153.6728099527
 31
0.0
  0
ARC
  5
151
  8
0
  6
CONTINUOUS
 62
     7
 10
43.2255374904
 20
154.033826307
 30
0.0
 40
1.015706154407115
 50
239.9811662983
 51
270.1703460448
  0
LINE
  5
152
  8
0
  6
CONTINUOUS
 62
     7
 10
32.5625574976
 20
153.5560798439
 30
0.0
 11
32.0625574739
 21
153.0673776361
 31
0.0
  0
LINE
  5
153
  8
0
  6
CONTINUOUS
 62
     7
 10
34.0971589965
 20
153.6006194147
 30
0.0
 11
32.5625574976
 21
153.5560798439
 31
0.0
  0
ARC
  5
154
  8
0
  6
CONTINUOUS
 62
     7
 10
35.0342534909
 20
154.1111523413
 30
0.0
 40
1.06714102188268
 50
208.5817296993
 51
334.7370838331
  0
LINE
  5
155
  8
0
  6
CONTINUOUS
 62
     7
 10
41.2835571394
 20
153.8082410189
 30
0.0
 11
35.9993320369
 21
153.6557257714
 31
0.0
  0
LINE
  5
156
  8
0
  6
CONTINUOUS
 62
     7
 10
32.0625574739
 20
153.0673776361
 30
0.0
 11
32.0625574739
 21
149.447026437
 31
0.0
  0
LINE
  5
157
  8
DÜNNE_LINIE
 62
   218
 10
75.2690122563
 20
128.4094106986
 30
0.0
 11
75.2690122563
 21
126.3700448934
 31
0.0
  0
LINE
  5
158
  8
DÜNNE_LINIE
  6
CENTER
 62
     7
 10
26.9909624604
 20
142.0746848526
 30
0.0
 11
132.9132284246
 21
142.0746848526
 31
0.0
  0
DIMENSION
  5
159
  8
DÜNNE_LINIE
 62
   218
  2
*D5
 10
31.2690122563
 20
120.326062393
 30
0.0
 11
53.2690122563
 21
120.326062393
 31
0.0
 70
   160
  3
SLDDIMSTYLE0
 13
75.2690122563
 23
126.3700448934
 33
0.0
 14
31.2690122563
 24
130.2246848563
 34
0.0
  0
DIMENSION
  5
164
  8
DÜNNE_LINIE
 62
     7
  2
*D6
 10
147.2625574739
 20
129.5746848526
 30
0.0
 11
147.2625574739
 21
142.0746848526
 31
0.0
 70
   160
  1
%%c<>
  3
SLDDIMSTYLE1
 13
129.0125574739
 23
154.5746848526
 33
0.0
 14
129.0125574739
 24
129.5746848526
 34
0.0
 50
90.0
  0
DIMENSION
  5
170
  8
DÜNNE_LINIE
 62
   218
  2
*D7
 10
131.2625574739
 20
111.2494099777
 30
0.0
 11
81.2657848651
 21
111.2494099777
 31
0.0
 70
   160
  3
SLDDIMSTYLE2
 13
31.2690122563
 23
130.2246848563
 33
0.0
 14
131.2625574739
 24
130.6746848526
 34
0.0
  0
ARC
  5
17B
  8
0
  6
CONTINUOUS
 62
     7
 10
35.6346940363
 20
204.5974024771
 30
0.0
 40
2.082715416013634
 50
245.4552102988
 51
272.8531162896
  0
LINE
  5
17C
  8
0
  6
CONTINUOUS
 62
     7
 10
31.8584901604
 20
213.8994078049
 30
0.0
 11
32.0625574739
 21
213.9083347646
 31
0.0
  0
ARC
  5
17D
  8
0
  6
CONTINUOUS
 62
     7
 10
31.8008801109
 20
214.4294018976
 30
0.0
 40
0.533115987458501
 50
183.9214099226
 51
276.2036611531
  0
LINE
  5
17E
  8
0
  6
CONTINUOUS
 62
     7
 10
31.269012258
 20
221.1479409961
 30
0.0
 11
31.269012258
 21
214.3929431112
 31
0.0
  0
LINE
  5
17F
  8
0
  6
CONTINUOUS
 62
     7
 10
31.643964269
 20
222.3849776564
 30
0.0
 11
31.3809448332
 21
221.6948033673
 31
0.0
  0
LINE
  5
180
  8
0
  6
CONTINUOUS
 62
     7
 10
31.3662602628
 20
221.6455066008
 30
0.0
 11
31.2796380665
 21
221.2463538525
 31
0.0
  0
LINE
  5
181
  8
0
  6
CONTINUOUS
 62
     7
 10
31.2690566122
 20
221.1516355527
 30
0.0
 11
31.269012258
 21
221.1479409961
 31
0.0
  0
LINE
  5
182
  8
0
  6
CONTINUOUS
 62
     7
 10
31.269069709
 20
207.3829211657
 30
0.0
 11
31.269012258
 21
207.3781374273
 31
0.0
  0
LINE
  5
183
  8
0
  6
CONTINUOUS
 62
     7
 10
31.3662602628
 20
207.8757023336
 30
0.0
 11
31.2796380665
 21
207.4765498181
 31
0.0
  0
LINE
  5
184
  8
0
  6
CONTINUOUS
 62
     7
 10
31.269012258
 20
207.3781374273
 30
0.0
 11
31.269012258
 21
200.6231393096
 31
0.0
  0
LINE
  5
185
  8
0
  6
CONTINUOUS
 62
     7
 10
31.643964269
 20
208.6151738548
 30
0.0
 11
31.3809448332
 21
207.9249997986
 31
0.0
  0
LINE
  5
186
  8
0
  6
CONTINUOUS
 62
     7
 10
40.2139163987
 20
201.010053548
 30
0.0
 11
40.2139163987
 21
202.1285784793
 31
0.0
  0
ARC
  5
187
  8
0
  6
CONTINUOUS
 62
     7
 10
31.800881556
 20
200.6595993219
 30
0.0
 40
0.5331175129449252
 50
183.9215307427
 51
276.2034871151
  0
LINE
  5
188
  8
0
  6
CONTINUOUS
 62
     7
 10
31.8584901604
 20
200.1296035377
 30
0.0
 11
39.6288088002
 21
200.4695111317
 31
0.0
  0
ARC
  5
189
  8
0
  6
CONTINUOUS
 62
     7
 10
39.6362674237
 20
201.0483822732
 30
0.0
 40
0.5789191908122385
 50
269.2617977168
 51
356.2038194954
  0
LINE
  5
18A
  8
0
  6
CONTINUOUS
 62
     7
 10
74.69542785
 20
224.0690435646
 30
0.0
 11
68.7732928843
 21
223.0248111663
 31
0.0
  0
LINE
  5
18B
  8
0
  6
CONTINUOUS
 62
     7
 10
68.7732928843
 20
200.1132755903
 30
0.0
 11
74.69542785
 21
199.069043192
 31
0.0
  0
LINE
  5
18C
  8
0
  6
CONTINUOUS
 62
     7
 10
129.0125594885
 20
199.069043192
 30
0.0
 11
130.2625582964
 21
199.1690430222
 31
0.0
  0
LINE
  5
18D
  8
0
  6
CONTINUOUS
 62
     7
 10
74.69542785
 20
199.069043192
 30
0.0
 11
129.0125594885
 21
199.069043192
 31
0.0
  0
LINE
  5
18E
  8
0
  6
CONTINUOUS
 62
     7
 10
90.4125580043
 20
224.0690435646
 30
0.0
 11
74.69542785
 21
224.0690435646
 31
0.0
  0
LINE
  5
18F
  8
0
  6
CONTINUOUS
 62
     7
 10
111.4625604303
 20
224.0690435646
 30
0.0
 11
108.1125558765
 21
224.0690435646
 31
0.0
  0
LINE
  5
190
  8
0
  6
CONTINUOUS
 62
     7
 10
130.2625582964
 20
199.1690430222
 30
0.0
 11
131.262560323
 21
200.1690431861
 31
0.0
  0
ARC
  5
191
  8
0
  6
CONTINUOUS
 62
     7
 10
63.5638466567
 20
170.5690433783
 30
0.0
 40
30.00000000000004
 50
80.0
 51
90.0
  0
ARC
  5
192
  8
0
  6
CONTINUOUS
 62
     7
 10
63.5638466567
 20
252.5690433783
 30
0.0
 40
30.00000000000004
 50
270.0
 51
280.0
  0
LINE
  5
193
  8
0
  6
CONTINUOUS
 62
     7
 10
49.2147532702
 20
200.5690434379
 30
0.0
 11
63.5638469309
 21
200.5690434379
 31
0.0
  0
LINE
  5
194
  8
0
  6
CONTINUOUS
 62
     7
 10
63.5638469309
 20
222.5690433187
 30
0.0
 11
43.2285572813
 21
222.5690433187
 31
0.0
  0
ARC
  5
195
  8
0
  6
CONTINUOUS
 62
     7
 10
41.3103223346
 20
222.3829016213
 30
0.0
 40
0.9999999999999856
 50
59.2586966556
 51
91.5336967077
  0
LINE
  5
196
  8
0
  6
CONTINUOUS
 62
     7
 10
41.2835571394
 20
223.3825433431
 30
0.0
 11
32.5625574976
 21
223.1490430785
 31
0.0
  0
LINE
  5
197
  8
0
  6
CONTINUOUS
 62
     7
 10
42.7173952983
 20
222.7095594061
 30
0.0
 11
41.8214853332
 21
223.2423858148
 31
0.0
  0
ARC
  5
198
  8
0
  6
CONTINUOUS
 62
     7
 10
43.2285574739
 20
223.5690433783
 30
0.0
 40
0.9999999999999877
 50
239.2586966556
 51
270.0
  0
LINE
  5
199
  8
0
  6
CONTINUOUS
 62
     7
 10
32.5625574976
 20
223.1490430785
 30
0.0
 11
32.0625574739
 21
222.6490429965
 31
0.0
  0
LINE
  5
19A
  8
0
  6
CONTINUOUS
 62
     7
 10
31.8606628195
 20
212.9388521788
 30
0.0
 11
39.6309815758
 21
212.2590373982
 31
0.0
  0
POLYLINE
  5
19B
  8
0
  6
CONTINUOUS
 62
     7
 66
     1
 10
0.0
 20
0.0
 30
0.0
  0
VERTEX
  5
3D8
  8
0
  6
CONTINUOUS
 62
     7
 10
39.6309815758
 20
212.2590373982
 30
0.0
  0
VERTEX
  5
3D9
  8
0
  6
CONTINUOUS
 62
     7
 10
39.6836455391
 20
212.2544299126
 30
0.0
  0
VERTEX
  5
3DA
  8
0
  6
CONTINUOUS
 62
     7
 10
39.7358019316
 20
212.2498667812
 30
0.0
  0
VERTEX
  5
3DB
  8
0
  6
CONTINUOUS
 62
     7
 10
39.786949236
 20
212.2453919509
 30
0.0
  0
VERTEX
  5
3DC
  8
0
  6
CONTINUOUS
 62
     7
 10
39.8365943172
 20
212.2410486116
 30
0.0
  0
VERTEX
  5
3DD
  8
0
  6
CONTINUOUS
 62
     7
 10
39.8842598722
 20
212.2368784402
 30
0.0
  0
VERTEX
  5
3DE
  8
0
  6
CONTINUOUS
 62
     7
 10
39.9294848964
 20
212.2329217162
 30
0.0
  0
VERTEX
  5
3DF
  8
0
  6
CONTINUOUS
 62
     7
 10
39.9718367905
 20
212.2292164494
 30
0.0
  0
VERTEX
  5
3E0
  8
0
  6
CONTINUOUS
 62
     7
 10
40.0109048412
 20
212.2257984373
 30
0.0
  0
VERTEX
  5
3E1
  8
0
  6
CONTINUOUS
 62
     7
 10
40.0463146568
 20
212.222700451
 30
0.0
  0
VERTEX
  5
3E2
  8
0
  6
CONTINUOUS
 62
     7
 10
40.077724442
 20
212.2199524673
 30
0.0
  0
VERTEX
  5
3E3
  8
0
  6
CONTINUOUS
 62
     7
 10
40.1048315168
 20
212.2175809126
 30
0.0
  0
VERTEX
  5
3E4
  8
0
  6
CONTINUOUS
 62
     7
 10
40.1273751111
 20
212.215608546
 30
0.0
  0
VERTEX
  5
3E5
  8
0
  6
CONTINUOUS
 62
     7
 10
40.1451382265
 20
212.2140544597
 30
0.0
  0
VERTEX
  5
3E6
  8
0
  6
CONTINUOUS
 62
     7
 10
40.1579504312
 20
212.2129336129
 30
0.0
  0
VERTEX
  5
3E7
  8
0
  6
CONTINUOUS
 62
     7
 10
40.1656869278
 20
212.212256716
 30
0.0
  0
VERTEX
  5
3E8
  8
0
  6
CONTINUOUS
 62
     7
 10
40.1682741419
 20
212.2120303465
 30
0.0
  0
SEQEND
  5
3E9
  8
0
  6
CONTINUOUS
 62
     7
  0
ARC
  5
19C
  8
0
  6
CONTINUOUS
 62
     7
 10
40.1639164588
 20
212.1622206373
 30
0.0
 40
0.0499999999999976
 50
344.0
 51
85.0
  0
POLYLINE
  5
19D
  8
0
  6
CONTINUOUS
 62
     7
 66
     1
 10
0.0
 20
0.0
 30
0.0
  0
VERTEX
  5
3EA
  8
0
  6
CONTINUOUS
 62
     7
 10
31.3233700642
 20
212.9858591724
 30
0.0
  0
VERTEX
  5
3EB
  8
0
  6
CONTINUOUS
 62
     7
 10
31.3259572783
 20
212.985632861
 30
0.0
  0
VERTEX
  5
3EC
  8
0
  6
CONTINUOUS
 62
     7
 10
31.3336939496
 20
212.9849560223
 30
0.0
  0
VERTEX
  5
3ED
  8
0
  6
CONTINUOUS
 62
     7
 10
31.3465056886
 20
212.9838350592
 30
0.0
  0
VERTEX
  5
3EE
  8
0
  6
CONTINUOUS
 62
     7
 10
31.3642690369
 20
212.982281031
 30
0.0
  0
VERTEX
  5
3EF
  8
0
  6
CONTINUOUS
 62
     7
 10
31.3868129222
 20
212.9803087227
 30
0.0
  0
VERTEX
  5
3F0
  8
0
  6
CONTINUOUS
 62
     7
 10
31.4139202298
 20
212.9779371097
 30
0.0
  0
VERTEX
  5
3F1
  8
0
  6
CONTINUOUS
 62
     7
 10
31.4453298986
 20
212.975189126
 30
0.0
  0
VERTEX
  5
3F2
  8
0
  6
CONTINUOUS
 62
     7
 10
31.4807394814
 20
212.9720911979
 30
0.0
  0
VERTEX
  5
3F3
  8
0
  6
CONTINUOUS
 62
     7
 10
31.5198078813
 20
212.9686731277
 30
0.0
  0
VERTEX
  5
3F4
  8
0
  6
CONTINUOUS
 62
     7
 10
31.5621589605
 20
212.9649678608
 30
0.0
  0
VERTEX
  5
3F5
  8
0
  6
CONTINUOUS
 62
     7
 10
31.6073847705
 20
212.9610111368
 30
0.0
  0
VERTEX
  5
3F6
  8
0
  6
CONTINUOUS
 62
     7
 10
31.6550497725
 20
212.9568410236
 30
0.0
  0
VERTEX
  5
3F7
  8
0
  6
CONTINUOUS
 62
     7
 10
31.7046949701
 20
212.9524975679
 30
0.0
  0
VERTEX
  5
3F8
  8
0
  6
CONTINUOUS
 62
     7
 10
31.7558421873
 20
212.9480227958
 30
0.0
  0
VERTEX
  5
3F9
  8
0
  6
CONTINUOUS
 62
     7
 10
31.807998929
 20
212.9434596644
 30
0.0
  0
VERTEX
  5
3FA
  8
0
  6
CONTINUOUS
 62
     7
 10
31.8606628195
 20
212.9388521788
 30
0.0
  0
SEQEND
  5
3FB
  8
0
  6
CONTINUOUS
 62
     7
  0
ARC
  5
19E
  8
0
  6
CONTINUOUS
 62
     7
 10
31.3190122563
 20
212.9360494849
 30
0.0
 40
0.0500000000000257
 50
85.0
 51
186.0
  0
POLYLINE
  5
19F
  8
0
  6
CONTINUOUS
 62
     7
 66
     1
 10
0.0
 20
0.0
 30
0.0
  0
VERTEX
  5
3FC
  8
0
  6
CONTINUOUS
 62
     7
 10
39.975981176
 20
211.3254159557
 30
0.0
  0
VERTEX
  5
3FD
  8
0
  6
CONTINUOUS
 62
     7
 10
39.9733194561
 20
211.3256488882
 30
0.0
  0
VERTEX
  5
3FE
  8
0
  6
CONTINUOUS
 62
     7
 10
39.96536503
 20
211.3263447753
 30
0.0
  0
VERTEX
  5
3FF
  8
0
  6
CONTINUOUS
 62
     7
 10
39.9522194118
 20
211.3274948568
 30
0.0
  0
VERTEX
  5
400
  8
0
  6
CONTINUOUS
 62
     7
 10
39.9340474457
 20
211.3290846827
 30
0.0
  0
VERTEX
  5
401
  8
0
  6
CONTINUOUS
 62
     7
 10
39.9110782371
 20
211.331094244
 30
0.0
  0
VERTEX
  5
402
  8
0
  6
CONTINUOUS
 62
     7
 10
39.8836004958
 20
211.333498264
 30
0.0
  0
VERTEX
  5
403
  8
0
  6
CONTINUOUS
 62
     7
 10
39.8519588114
 20
211.3362665331
 30
0.0
  0
VERTEX
  5
404
  8
0
  6
CONTINUOUS
 62
     7
 10
39.8165517897
 20
211.3393642284
 30
0.0
  0
VERTEX
  5
405
  8
0
  6
CONTINUOUS
 62
     7
 10
39.7778250688
 20
211.3427523944
 30
0.0
  0
VERTEX
  5
406
  8
0
  6
CONTINUOUS
 62
     7
 10
39.7362652645
 20
211.3463884233
 30
0.0
  0
VERTEX
  5
407
  8
0
  6
CONTINUOUS
 62
     7
 10
39.692394849
 20
211.3502265783
 30
0.0
  0
VERTEX
  5
408
  8
0
  6
CONTINUOUS
 62
     7
 10
39.6467656308
 20
211.3542186052
 30
0.0
  0
VERTEX
  5
409
  8
0
  6
CONTINUOUS
 62
     7
 10
39.5999517702
 20
211.3583143145
 30
0.0
  0
VERTEX
  5
40A
  8
0
  6
CONTINUOUS
 62
     7
 10
39.5525413976
 20
211.3624621778
 30
0.0
  0
SEQEND
  5
40B
  8
0
  6
CONTINUOUS
 62
     7
  0
LINE
  5
1A0
  8
0
  6
CONTINUOUS
 62
     7
 10
39.975981176
 20
211.3254159557
 30
0.0
 11
40.2119792477
 21
212.1484387679
 31
0.0
  0
LINE
  5
1A1
  8
0
  6
CONTINUOUS
 62
     7
 10
31.7822226559
 20
212.0422769584
 30
0.0
 11
39.5525413976
 21
211.3624621778
 31
0.0
  0
POLYLINE
  5
1A2
  8
0
  6
CONTINUOUS
 62
     7
 66
     1
 10
0.0
 20
0.0
 30
0.0
  0
VERTEX
  5
40C
  8
0
  6
CONTINUOUS
 62
     7
 10
31.3587823828
 20
212.079323166
 30
0.0
  0
VERTEX
  5
40D
  8
0
  6
CONTINUOUS
 62
     7
 10
31.3614449176
 20
212.0790902189
 30
0.0
  0
VERTEX
  5
40E
  8
0
  6
CONTINUOUS
 62
     7
 10
31.3693989362
 20
212.0783943464
 30
0.0
  0
VERTEX
  5
40F
  8
0
  6
CONTINUOUS
 62
     7
 10
31.382544438
 20
212.0772442794
 30
0.0
  0
VERTEX
  5
410
  8
0
  6
CONTINUOUS
 62
     7
 10
31.4007161712
 20
212.0756544535
 30
0.0
  0
VERTEX
  5
411
  8
0
  6
CONTINUOUS
 62
     7
 10
31.4236855545
 20
212.0736448923
 30
0.0
  0
VERTEX
  5
412
  8
0
  6
CONTINUOUS
 62
     7
 10
31.4511637614
 20
212.0712408577
 30
0.0
  0
VERTEX
  5
413
  8
0
  6
CONTINUOUS
 62
     7
 10
31.4828051548
 20
212.0684726177
 30
0.0
  0
VERTEX
  5
414
  8
0
  6
CONTINUOUS
 62
     7
 10
31.5182120019
 20
212.0653749224
 30
0.0
  0
VERTEX
  5
415
  8
0
  6
CONTINUOUS
 62
     7
 10
31.5569388392
 20
212.0619867709
 30
0.0
  0
VERTEX
  5
416
  8
0
  6
CONTINUOUS
 62
     7
 10
31.5984988181
 20
212.0583507129
 30
0.0
  0
VERTEX
  5
417
  8
0
  6
CONTINUOUS
 62
     7
 10
31.6423692045
 20
212.054512558
 30
0.0
  0
VERTEX
  5
418
  8
0
  6
CONTINUOUS
 62
     7
 10
31.6879983354
 20
212.0505205311
 30
0.0
  0
VERTEX
  5
419
  8
0
  6
CONTINUOUS
 62
     7
 10
31.7348123997
 20
212.0464248363
 30
0.0
  0
VERTEX
  5
41A
  8
0
  6
CONTINUOUS
 62
     7
 10
31.7822226559
 20
212.0422769584
 30
0.0
  0
SEQEND
  5
41B
  8
0
  6
CONTINUOUS
 62
     7
  0
LINE
  5
1A3
  8
0
  6
CONTINUOUS
 62
     7
 10
31.3587823828
 20
212.079323166
 30
0.0
 11
31.2692861833
 21
212.9308230141
 31
0.0
  0
LINE
  5
1A4
  8
0
  6
CONTINUOUS
 62
     7
 10
31.643964269
 20
210.4619763921
 30
0.0
 11
31.7822226559
 21
212.0422769584
 31
0.0
  0
LINE
  5
1A5
  8
0
  6
CONTINUOUS
 62
     7
 10
39.4142828361
 20
209.7821616698
 30
0.0
 11
39.5525413976
 21
211.3624621778
 31
0.0
  0
LINE
  5
1A6
  8
0
  6
CONTINUOUS
 62
     7
 10
38.8889396042
 20
208.3387929378
 30
0.0
 11
39.4142828361
 21
209.7821616698
 31
0.0
  0
LINE
  5
1A7
  8
0
  6
CONTINUOUS
 62
     7
 10
31.9106880404
 20
208.9493107413
 30
0.0
 11
38.8889396042
 21
208.3387929378
 31
0.0
  0
LINE
  5
1A8
  8
0
  6
CONTINUOUS
 62
     7
 10
31.9106880404
 20
208.9493107413
 30
0.0
 11
31.643964269
 21
210.4619763921
 31
0.0
  0
LINE
  5
1A9
  8
0
  6
CONTINUOUS
 62
     7
 10
39.4142828361
 20
209.7821616698
 30
0.0
 11
39.975981176
 21
211.3254159557
 31
0.0
  0
LINE
  5
1AA
  8
0
  6
CONTINUOUS
 62
     7
 10
31.643964269
 20
210.4619763921
 30
0.0
 11
31.3587823828
 21
212.079323166
 31
0.0
  0
LINE
  5
1AB
  8
0
  6
CONTINUOUS
 62
     7
 10
31.7822226559
 20
214.4717187983
 30
0.0
 11
32.0625574739
 21
214.4839817555
 31
0.0
  0
LINE
  5
1AC
  8
0
  6
CONTINUOUS
 62
     7
 10
31.643964269
 20
215.6299795387
 30
0.0
 11
31.7822226559
 21
214.4717187983
 31
0.0
  0
LINE
  5
1AD
  8
0
  6
CONTINUOUS
 62
     7
 10
31.9106880404
 20
216.7305979309
 30
0.0
 11
31.643964269
 21
215.6299795387
 31
0.0
  0
LINE
  5
1AE
  8
0
  6
CONTINUOUS
 62
     7
 10
32.0625574739
 20
216.7372410548
 30
0.0
 11
31.9106880404
 21
216.7305979309
 31
0.0
  0
LINE
  5
1AF
  8
0
  6
CONTINUOUS
 62
     7
 10
31.9106880404
 20
222.797025497
 30
0.0
 11
32.224256435
 21
222.8107420159
 31
0.0
  0
LINE
  5
1B0
  8
0
  6
CONTINUOUS
 62
     7
 10
31.9106880404
 20
216.7305979309
 30
0.0
 11
31.9106880404
 21
222.797025497
 31
0.0
  0
LINE
  5
1B1
  8
0
  6
CONTINUOUS
 62
     7
 10
31.643964269
 20
215.6299795387
 30
0.0
 11
31.3587823828
 21
214.8213063264
 31
0.0
  0
LINE
  5
1B2
  8
0
  6
CONTINUOUS
 62
     7
 10
31.3587823828
 20
214.8213063264
 30
0.0
 11
31.3587823828
 21
221.5763046769
 31
0.0
  0
LINE
  5
1B3
  8
0
  6
CONTINUOUS
 62
     7
 10
31.643964269
 20
222.3849776564
 30
0.0
 11
31.3587823828
 21
221.5763046769
 31
0.0
  0
LINE
  5
1B4
  8
0
  6
CONTINUOUS
 62
     7
 10
31.9106880404
 20
222.797025497
 30
0.0
 11
31.643964269
 21
222.3849776564
 31
0.0
  0
ARC
  5
1B5
  8
0
  6
CONTINUOUS
 62
     7
 10
31.7371056393
 20
214.8483117256
 30
0.0
 40
0.3792858790482809
 50
184.0829511995
 51
276.8316542322
  0
ARC
  5
1B6
  8
0
  6
CONTINUOUS
 62
     7
 10
31.6914713565
 20
221.5754047008
 30
0.0
 40
0.3326901910235281
 50
158.9680524748
 51
179.8450062749
  0
POLYLINE
  5
1B7
  8
0
  6
CONTINUOUS
 62
     7
 66
     1
 10
0.0
 20
0.0
 30
0.0
  0
VERTEX
  5
41C
  8
0
  6
CONTINUOUS
 62
     7
 10
31.2796380665
 20
221.2463538525
 30
0.0
  0
VERTEX
  5
41D
  8
0
  6
CONTINUOUS
 62
     7
 10
31.2721087891
 20
221.2006268454
 30
0.0
  0
VERTEX
  5
41E
  8
0
  6
CONTINUOUS
 62
     7
 10
31.2693005023
 20
221.15411939
 30
0.0
  0
SEQEND
  5
41F
  8
0
  6
CONTINUOUS
 62
     7
  0
ARC
  5
1B8
  8
0
  6
CONTINUOUS
 62
     7
 10
31.7388425395
 20
207.3778694217
 30
0.0
 40
0.4695920454224258
 50
154.4671746728
 51
179.0888267762
  0
LINE
  5
1B9
  8
0
  6
CONTINUOUS
 62
     7
 10
40.0792695061
 20
200.9812551913
 30
0.0
 11
40.0792695061
 21
202.132994811
 31
0.0
  0
LINE
  5
1BA
  8
0
  6
CONTINUOUS
 62
     7
 10
31.8606628195
 20
207.7664474854
 30
0.0
 11
32.0625574739
 21
207.7752792173
 31
0.0
  0
ARC
  5
1BB
  8
0
  6
CONTINUOUS
 62
     7
 10
31.8587034548
 20
207.3184510679
 30
0.0
 40
0.4480007021826841
 50
89.7494118048
 51
175.0476330496
  0
LINE
  5
1BC
  8
0
  6
CONTINUOUS
 62
     7
 10
31.4123752239
 20
200.602127741
 30
0.0
 11
31.4123752239
 21
207.3571258587
 31
0.0
  0
ARC
  5
1BD
  8
0
  6
CONTINUOUS
 62
     7
 10
31.8161381297
 20
200.6346421466
 30
0.0
 40
0.4050699577640239
 50
184.604006047
 51
276.3106185668
  0
LINE
  5
1BE
  8
0
  6
CONTINUOUS
 62
     7
 10
31.8606628195
 20
200.2320266691
 30
0.0
 11
39.6309815758
 21
200.5719342632
 31
0.0
  0
ARC
  5
1BF
  8
0
  6
CONTINUOUS
 62
     7
 10
39.6329404944
 20
201.0199316001
 30
0.0
 40
0.4480016197112885
 50
269.7494693673
 51
355.0474355157
  0
ARC
  5
1C0
  8
0
  6
CONTINUOUS
 62
     7
 10
31.7839763154
 20
207.7595824077
 30
0.0
 40
0.4335556917048165
 50
90.2317523715
 51
164.4647233805
  0
LINE
  5
1C1
  8
0
  6
CONTINUOUS
 62
     7
 10
31.7822226559
 20
208.1931345527
 30
0.0
 11
32.0625574739
 21
208.2053975099
 31
0.0
  0
POLYLINE
  5
1C2
  8
0
  6
CONTINUOUS
 62
     7
 66
     1
 10
0.0
 20
0.0
 30
0.0
  0
VERTEX
  5
420
  8
0
  6
CONTINUOUS
 62
     7
 10
32.0625574739
 20
207.260437346
 30
0.0
  0
VERTEX
  5
421
  8
0
  6
CONTINUOUS
 62
     7
 10
31.9565962188
 20
207.3486708467
 30
0.0
  0
VERTEX
  5
422
  8
0
  6
CONTINUOUS
 62
     7
 10
31.850379956
 20
207.435502707
 30
0.0
  0
SEQEND
  5
423
  8
0
  6
CONTINUOUS
 62
     7
  0
LINE
  5
1C3
  8
0
  6
CONTINUOUS
 62
     7
 10
32.807047776
 20
201.4858606634
 30
0.0
 11
32.807047776
 21
202.3718008203
 31
0.0
  0
ARC
  5
1C4
  8
0
  6
CONTINUOUS
 62
     7
 10
39.7604967876
 20
192.2550981082
 30
0.0
 40
11.55670500213766
 50
126.9903804739
 51
133.1932527763
  0
ARC
  5
1C5
  8
0
  6
CONTINUOUS
 62
     7
 10
31.0663587896
 20
190.9055973741
 30
0.0
 40
13.24712096386052
 50
49.7780052049
 51
54.8943231421
  0
LINE
  5
1C6
  8
0
  6
CONTINUOUS
 62
     7
 10
38.6845967212
 20
201.7429708866
 30
0.0
 11
38.6845967212
 21
202.1787348566
 31
0.0
  0
LINE
  5
1C7
  8
0
  6
CONTINUOUS
 62
     7
 10
31.643964269
 20
208.6151738548
 30
0.0
 11
31.7822226559
 21
208.1931345527
 31
0.0
  0
POLYLINE
  5
1C8
  8
0
  6
CONTINUOUS
 62
     7
 66
     1
 10
0.0
 20
0.0
 30
0.0
  0
VERTEX
  5
424
  8
0
  6
CONTINUOUS
 62
     7
 10
37.9649479353
 20
202.202272172
 30
0.0
  0
VERTEX
  5
425
  8
0
  6
CONTINUOUS
 62
     7
 10
37.9641432726
 20
202.1877686856
 30
0.0
  0
VERTEX
  5
426
  8
0
  6
CONTINUOUS
 62
     7
 10
37.9667649456
 20
202.1618360085
 30
0.0
  0
VERTEX
  5
427
  8
0
  6
CONTINUOUS
 62
     7
 10
37.9745494054
 20
202.136921267
 30
0.0
  0
VERTEX
  5
428
  8
0
  6
CONTINUOUS
 62
     7
 10
37.9872600959
 20
202.1137797636
 30
0.0
  0
VERTEX
  5
429
  8
0
  6
CONTINUOUS
 62
     7
 10
38.0045114496
 20
202.0931165097
 30
0.0
  0
VERTEX
  5
42A
  8
0
  6
CONTINUOUS
 62
     7
 10
38.0257791319
 20
202.0755582852
 30
0.0
  0
VERTEX
  5
42B
  8
0
  6
CONTINUOUS
 62
     7
 10
38.0504163393
 20
202.061638738
 30
0.0
  0
VERTEX
  5
42C
  8
0
  6
CONTINUOUS
 62
     7
 10
38.0776752197
 20
202.0517816198
 30
0.0
  0
VERTEX
  5
42D
  8
0
  6
CONTINUOUS
 62
     7
 10
38.1067268961
 20
202.046284954
 30
0.0
  0
VERTEX
  5
42E
  8
0
  6
CONTINUOUS
 62
     7
 10
38.136689406
 20
202.0453163785
 30
0.0
  0
VERTEX
  5
42F
  8
0
  6
CONTINUOUS
 62
     7
 10
38.1666519158
 20
202.0489056957
 30
0.0
  0
VERTEX
  5
430
  8
0
  6
CONTINUOUS
 62
     7
 10
38.1957035922
 20
202.0569439409
 30
0.0
  0
VERTEX
  5
431
  8
0
  6
CONTINUOUS
 62
     7
 10
38.2229624727
 20
202.0691871074
 30
0.0
  0
VERTEX
  5
432
  8
0
  6
CONTINUOUS
 62
     7
 10
38.2475996801
 20
202.0852617351
 30
0.0
  0
VERTEX
  5
433
  8
0
  6
CONTINUOUS
 62
     7
 10
38.2688673624
 20
202.1046807421
 30
0.0
  0
VERTEX
  5
434
  8
0
  6
CONTINUOUS
 62
     7
 10
38.2861187161
 20
202.1268536699
 30
0.0
  0
VERTEX
  5
435
  8
0
  6
CONTINUOUS
 62
     7
 10
38.2988294066
 20
202.1511062411
 30
0.0
  0
VERTEX
  5
436
  8
0
  6
CONTINUOUS
 62
     7
 10
38.3066138663
 20
202.1767027107
 30
0.0
  0
VERTEX
  5
437
  8
0
  6
CONTINUOUS
 62
     7
 10
38.3087023572
 20
202.1910590482
 30
0.0
  0
SEQEND
  5
438
  8
0
  6
CONTINUOUS
 62
     7
  0
ARC
  5
1C9
  8
0
  6
CONTINUOUS
 62
     7
 10
35.6405555386
 20
204.7039570738
 30
0.0
 40
2.572431724291004
 50
238.7598015735
 51
287.6703514209
  0
LINE
  5
1CA
  8
0
  6
CONTINUOUS
 62
     7
 10
32.807047776
 20
201.4858606634
 30
0.0
 11
38.6845967212
 21
201.7429708866
 31
0.0
  0
LINE
  5
1CB
  8
0
  6
CONTINUOUS
 62
     7
 10
31.899891276
 20
209.0105421738
 30
0.0
 11
31.643964269
 21
208.6151738548
 31
0.0
  0
ARC
  5
1CC
  8
0
  6
CONTINUOUS
 62
     7
 10
35.5818329487
 20
204.9528290829
 30
0.0
 40
2.461267968153369
 50
247.8437847524
 51
274.3165448785
  0
LINE
  5
1CD
  8
0
  6
CONTINUOUS
 62
     7
 10
74.69542785
 20
224.0690435646
 30
0.0
 11
74.69542785
 21
199.069043192
 31
0.0
  0
LINE
  5
1CE
  8
0
  6
CONTINUOUS
 62
     7
 10
129.0125594885
 20
221.2690436644
 30
0.0
 11
130.2625582964
 21
221.2690436644
 31
0.0
  0
LINE
  5
1CF
  8
0
  6
CONTINUOUS
 62
     7
 10
130.2625582964
 20
199.1690430222
 30
0.0
 11
130.2625582964
 21
221.2690436644
 31
0.0
  0
LINE
  5
1D0
  8
0
  6
CONTINUOUS
 62
     7
 10
129.0125594885
 20
199.069043192
 30
0.0
 11
129.0125594885
 21
221.2690436644
 31
0.0
  0
LINE
  5
1D1
  8
0
  6
CONTINUOUS
 62
     7
 10
114.2625556738
 20
221.2690436644
 30
0.0
 11
129.0125594885
 21
221.2690436644
 31
0.0
  0
POLYLINE
  5
1D2
  8
0
  6
CONTINUOUS
 62
     7
 66
     1
 10
0.0
 20
0.0
 30
0.0
  0
VERTEX
  5
439
  8
0
  6
CONTINUOUS
 62
     7
 10
111.4625604303
 20
224.0690435646
 30
0.0
  0
VERTEX
  5
43A
  8
0
  6
CONTINUOUS
 62
     7
 10
111.4668668658
 20
224.064737129
 30
0.0
  0
VERTEX
  5
43B
  8
0
  6
CONTINUOUS
 62
     7
 10
111.479778722
 20
224.0518206162
 30
0.0
  0
VERTEX
  5
43C
  8
0
  6
CONTINUOUS
 62
     7
 10
111.5012959988
 20
224.0303042707
 30
0.0
  0
VERTEX
  5
43D
  8
0
  6
CONTINUOUS
 62
     7
 10
111.5313963444
 20
224.0002011312
 30
0.0
  0
VERTEX
  5
43E
  8
0
  6
CONTINUOUS
 62
     7
 10
111.5700648577
 20
223.9615326179
 30
0.0
  0
VERTEX
  5
43F
  8
0
  6
CONTINUOUS
 62
     7
 10
111.6172717363
 20
223.9143257392
 30
0.0
  0
VERTEX
  5
440
  8
0
  6
CONTINUOUS
 62
     7
 10
111.672987178
 20
223.8586130915
 30
0.0
  0
VERTEX
  5
441
  8
0
  6
CONTINUOUS
 62
     7
 10
111.7371664793
 20
223.7944319276
 30
0.0
  0
VERTEX
  5
442
  8
0
  6
CONTINUOUS
 62
     7
 10
111.8097723872
 20
223.7218278823
 30
0.0
  0
VERTEX
  5
443
  8
0
  6
CONTINUOUS
 62
     7
 10
111.8907527477
 20
223.6408503157
 30
0.0
  0
VERTEX
  5
444
  8
0
  6
CONTINUOUS
 62
     7
 10
111.9800479562
 20
223.551554176
 30
0.0
  0
VERTEX
  5
445
  8
0
  6
CONTINUOUS
 62
     7
 10
112.0775984079
 20
223.4540027929
 30
0.0
  0
VERTEX
  5
446
  8
0
  6
CONTINUOUS
 62
     7
 10
112.1833370478
 20
223.3482622904
 30
0.0
  0
VERTEX
  5
447
  8
0
  6
CONTINUOUS
 62
     7
 10
112.2971968205
 20
223.2344053117
 30
0.0
  0
VERTEX
  5
448
  8
0
  6
CONTINUOUS
 62
     7
 10
112.419088319
 20
223.1125110192
 30
0.0
  0
VERTEX
  5
449
  8
0
  6
CONTINUOUS
 62
     7
 10
112.5489370377
 20
222.9826632318
 30
0.0
  0
VERTEX
  5
44A
  8
0
  6
CONTINUOUS
 62
     7
 10
112.6866461188
 20
222.8449513567
 30
0.0
  0
VERTEX
  5
44B
  8
0
  6
CONTINUOUS
 62
     7
 10
112.8321336062
 20
222.6994703887
 30
0.0
  0
VERTEX
  5
44C
  8
0
  6
CONTINUOUS
 62
     7
 10
112.9852802903
 20
222.5463199792
 30
0.0
  0
VERTEX
  5
44D
  8
0
  6
CONTINUOUS
 62
     7
 10
113.1459967644
 20
222.3856053678
 30
0.0
  0
VERTEX
  5
44E
  8
0
  6
CONTINUOUS
 62
     7
 10
113.314163819
 20
222.2174383131
 30
0.0
  0
VERTEX
  5
44F
  8
0
  6
CONTINUOUS
 62
     7
 10
113.489662245
 20
222.0419352306
 30
0.0
  0
VERTEX
  5
450
  8
0
  6
CONTINUOUS
 62
     7
 10
113.6723877341
 20
221.8592153293
 30
0.0
  0
VERTEX
  5
451
  8
0
  6
CONTINUOUS
 62
     7
 10
113.8621987254
 20
221.6694052694
 30
0.0
  0
VERTEX
  5
452
  8
0
  6
CONTINUOUS
 62
     7
 10
114.0589611084
 20
221.4726363671
 30
0.0
  0
VERTEX
  5
453
  8
0
  6
CONTINUOUS
 62
     7
 10
114.2625556738
 20
221.2690436644
 30
0.0
  0
SEQEND
  5
454
  8
0
  6
CONTINUOUS
 62
     7
  0
POLYLINE
  5
1D3
  8
0
  6
CONTINUOUS
 62
     7
 66
     1
 10
0.0
 20
0.0
 30
0.0
  0
VERTEX
  5
455
  8
0
  6
CONTINUOUS
 62
     7
 10
90.4125580043
 20
224.0690435646
 30
0.0
  0
VERTEX
  5
456
  8
0
  6
CONTINUOUS
 62
     7
 10
90.4168644399
 20
224.064737129
 30
0.0
  0
VERTEX
  5
457
  8
0
  6
CONTINUOUS
 62
     7
 10
90.4297800214
 20
224.0518206162
 30
0.0
  0
VERTEX
  5
458
  8
0
  6
CONTINUOUS
 62
     7
 10
90.4512972982
 20
224.0303042707
 30
0.0
  0
VERTEX
  5
459
  8
0
  6
CONTINUOUS
 62
     7
 10
90.4814013691
 20
224.0002011312
 30
0.0
  0
VERTEX
  5
45A
  8
0
  6
CONTINUOUS
 62
     7
 10
90.5200698824
 20
223.9615326179
 30
0.0
  0
VERTEX
  5
45B
  8
0
  6
CONTINUOUS
 62
     7
 10
90.567276761
 20
223.9143257392
 30
0.0
  0
VERTEX
  5
45C
  8
0
  6
CONTINUOUS
 62
     7
 10
90.6229884774
 20
223.8586130915
 30
0.0
  0
VERTEX
  5
45D
  8
0
  6
CONTINUOUS
 62
     7
 10
90.6871677787
 20
223.7944319276
 30
0.0
  0
VERTEX
  5
45E
  8
0
  6
CONTINUOUS
 62
     7
 10
90.7597736866
 20
223.7218278823
 30
0.0
  0
VERTEX
  5
45F
  8
0
  6
CONTINUOUS
 62
     7
 10
90.8407503218
 20
223.6408503157
 30
0.0
  0
VERTEX
  5
460
  8
0
  6
CONTINUOUS
 62
     7
 10
90.9300455303
 20
223.551554176
 30
0.0
  0
VERTEX
  5
461
  8
0
  6
CONTINUOUS
 62
     7
 10
91.0275997073
 20
223.4540027929
 30
0.0
  0
VERTEX
  5
462
  8
0
  6
CONTINUOUS
 62
     7
 10
91.1333383472
 20
223.3482622904
 30
0.0
  0
VERTEX
  5
463
  8
0
  6
CONTINUOUS
 62
     7
 10
91.2471943946
 20
223.2344053117
 30
0.0
  0
VERTEX
  5
464
  8
0
  6
CONTINUOUS
 62
     7
 10
91.3690896184
 20
223.1125110192
 30
0.0
  0
VERTEX
  5
465
  8
0
  6
CONTINUOUS
 62
     7
 10
91.498938337
 20
222.9826632318
 30
0.0
  0
VERTEX
  5
466
  8
0
  6
CONTINUOUS
 62
     7
 10
91.6366511435
 20
222.8449513567
 30
0.0
  0
VERTEX
  5
467
  8
0
  6
CONTINUOUS
 62
     7
 10
91.7821311802
 20
222.6994703887
 30
0.0
  0
VERTEX
  5
468
  8
0
  6
CONTINUOUS
 62
     7
 10
91.9352815897
 20
222.5463199792
 30
0.0
  0
VERTEX
  5
469
  8
0
  6
CONTINUOUS
 62
     7
 10
92.0959943385
 20
222.3856053678
 30
0.0
  0
VERTEX
  5
46A
  8
0
  6
CONTINUOUS
 62
     7
 10
92.2641613931
 20
222.2174383131
 30
0.0
  0
VERTEX
  5
46B
  8
0
  6
CONTINUOUS
 62
     7
 10
92.4396672697
 20
222.0419352306
 30
0.0
  0
VERTEX
  5
46C
  8
0
  6
CONTINUOUS
 62
     7
 10
92.6223853082
 20
221.8592153293
 30
0.0
  0
VERTEX
  5
46D
  8
0
  6
CONTINUOUS
 62
     7
 10
92.8121962995
 20
221.6694052694
 30
0.0
  0
VERTEX
  5
46E
  8
0
  6
CONTINUOUS
 62
     7
 10
93.0089661331
 20
221.4726363671
 30
0.0
  0
VERTEX
  5
46F
  8
0
  6
CONTINUOUS
 62
     7
 10
93.2125569732
 20
221.2690436644
 30
0.0
  0
SEQEND
  5
470
  8
0
  6
CONTINUOUS
 62
     7
  0
LINE
  5
1D4
  8
0
  6
CONTINUOUS
 62
     7
 10
93.2125569732
 20
221.2690436644
 30
0.0
 11
105.3125606329
 21
221.2690436644
 31
0.0
  0
POLYLINE
  5
1D5
  8
0
  6
CONTINUOUS
 62
     7
 66
     1
 10
0.0
 20
0.0
 30
0.0
  0
VERTEX
  5
471
  8
0
  6
CONTINUOUS
 62
     7
 10
105.3125606329
 20
221.2690436644
 30
0.0
  0
VERTEX
  5
472
  8
0
  6
CONTINUOUS
 62
     7
 10
105.5161477477
 20
221.4726363671
 30
0.0
  0
VERTEX
  5
473
  8
0
  6
CONTINUOUS
 62
     7
 10
105.7129175813
 20
221.6694052694
 30
0.0
  0
VERTEX
  5
474
  8
0
  6
CONTINUOUS
 62
     7
 10
105.9027285726
 20
221.8592153293
 30
0.0
  0
VERTEX
  5
475
  8
0
  6
CONTINUOUS
 62
     7
 10
106.0854466111
 20
222.0419352306
 30
0.0
  0
VERTEX
  5
476
  8
0
  6
CONTINUOUS
 62
     7
 10
106.2609524877
 20
222.2174383131
 30
0.0
  0
VERTEX
  5
477
  8
0
  6
CONTINUOUS
 62
     7
 10
106.4291195423
 20
222.3856053678
 30
0.0
  0
VERTEX
  5
478
  8
0
  6
CONTINUOUS
 62
     7
 10
106.5898360164
 20
222.5463199792
 30
0.0
  0
VERTEX
  5
479
  8
0
  6
CONTINUOUS
 62
     7
 10
106.7429827005
 20
222.6994703887
 30
0.0
  0
VERTEX
  5
47A
  8
0
  6
CONTINUOUS
 62
     7
 10
106.8884627373
 20
222.8449513567
 30
0.0
  0
VERTEX
  5
47B
  8
0
  6
CONTINUOUS
 62
     7
 10
107.026179269
 20
222.9826632318
 30
0.0
  0
VERTEX
  5
47C
  8
0
  6
CONTINUOUS
 62
     7
 10
107.1560279877
 20
223.1125110192
 30
0.0
  0
VERTEX
  5
47D
  8
0
  6
CONTINUOUS
 62
     7
 10
107.2779194862
 20
223.2344053117
 30
0.0
  0
VERTEX
  5
47E
  8
0
  6
CONTINUOUS
 62
     7
 10
107.3917792589
 20
223.3482622904
 30
0.0
  0
VERTEX
  5
47F
  8
0
  6
CONTINUOUS
 62
     7
 10
107.4975178988
 20
223.4540027929
 30
0.0
  0
VERTEX
  5
480
  8
0
  6
CONTINUOUS
 62
     7
 10
107.5950683505
 20
223.551554176
 30
0.0
  0
VERTEX
  5
481
  8
0
  6
CONTINUOUS
 62
     7
 10
107.684363559
 20
223.6408503157
 30
0.0
  0
VERTEX
  5
482
  8
0
  6
CONTINUOUS
 62
     7
 10
107.7653439195
 20
223.7218278823
 30
0.0
  0
VERTEX
  5
483
  8
0
  6
CONTINUOUS
 62
     7
 10
107.8379423768
 20
223.7944319276
 30
0.0
  0
VERTEX
  5
484
  8
0
  6
CONTINUOUS
 62
     7
 10
107.9021291287
 20
223.8586130915
 30
0.0
  0
VERTEX
  5
485
  8
0
  6
CONTINUOUS
 62
     7
 10
107.9578371198
 20
223.9143257392
 30
0.0
  0
VERTEX
  5
486
  8
0
  6
CONTINUOUS
 62
     7
 10
108.0050439984
 20
223.9615326179
 30
0.0
  0
VERTEX
  5
487
  8
0
  6
CONTINUOUS
 62
     7
 10
108.0437125117
 20
224.0002011312
 30
0.0
  0
VERTEX
  5
488
  8
0
  6
CONTINUOUS
 62
     7
 10
108.0738203079
 20
224.0303042707
 30
0.0
  0
VERTEX
  5
489
  8
0
  6
CONTINUOUS
 62
     7
 10
108.0953375847
 20
224.0518206162
 30
0.0
  0
VERTEX
  5
48A
  8
0
  6
CONTINUOUS
 62
     7
 10
108.1082494409
 20
224.064737129
 30
0.0
  0
VERTEX
  5
48B
  8
0
  6
CONTINUOUS
 62
     7
 10
108.1125558765
 20
224.0690435646
 30
0.0
  0
SEQEND
  5
48C
  8
0
  6
CONTINUOUS
 62
     7
  0
LINE
  5
1D6
  8
0
  6
CONTINUOUS
 62
     7
 10
131.262560323
 20
200.1690431861
 30
0.0
 11
131.262560323
 21
220.2690435005
 31
0.0
  0
LINE
  5
1D7
  8
0
  6
CONTINUOUS
 62
     7
 10
130.2625582964
 20
221.2690436644
 30
0.0
 11
131.262560323
 21
220.2690435005
 31
0.0
  0
POLYLINE
  5
1D8
  8
0
  6
CONTINUOUS
 62
     7
 66
     1
 10
0.0
 20
0.0
 30
0.0
  0
VERTEX
  5
48D
  8
0
  6
CONTINUOUS
 62
     7
 10
41.2835571394
 20
212.014073746
 30
0.0
  0
VERTEX
  5
48E
  8
0
  6
CONTINUOUS
 62
     7
 10
41.3666003794
 20
212.0068084404
 30
0.0
  0
VERTEX
  5
48F
  8
0
  6
CONTINUOUS
 62
     7
 10
41.4492794723
 20
211.9995749744
 30
0.0
  0
VERTEX
  5
490
  8
0
  6
CONTINUOUS
 62
     7
 10
41.5333704502
 20
211.9922179626
 30
0.0
  0
VERTEX
  5
491
  8
0
  6
CONTINUOUS
 62
     7
 10
41.6158614159
 20
211.9850009111
 30
0.0
  0
VERTEX
  5
492
  8
0
  6
CONTINUOUS
 62
     7
 10
41.7206100599
 20
211.9758366388
 30
0.0
  0
VERTEX
  5
493
  8
0
  6
CONTINUOUS
 62
     7
 10
41.8214853332
 20
211.9670111932
 30
0.0
  0
SEQEND
  5
494
  8
0
  6
CONTINUOUS
 62
     7
  0
ARC
  5
1D9
  8
0
  6
CONTINUOUS
 62
     7
 10
41.335337221
 20
203.3989848871
 30
0.0
 40
1.306513019547136
 50
267.7286431093
 51
291.8449338497
  0
POLYLINE
  5
1DA
  8
0
  6
CONTINUOUS
 62
     7
 66
     1
 10
0.0
 20
0.0
 30
0.0
  0
VERTEX
  5
495
  8
0
  6
CONTINUOUS
 62
     7
 10
35.9993320369
 20
202.2668025819
 30
0.0
  0
VERTEX
  5
496
  8
0
  6
CONTINUOUS
 62
     7
 10
36.0904549659
 20
202.3480930728
 30
0.0
  0
VERTEX
  5
497
  8
0
  6
CONTINUOUS
 62
     7
 10
36.1679633559
 20
202.4363330928
 30
0.0
  0
VERTEX
  5
498
  8
0
  6
CONTINUOUS
 62
     7
 10
36.2317584866
 20
202.5301834
 30
0.0
  0
VERTEX
  5
499
  8
0
  6
CONTINUOUS
 62
     7
 10
36.2847251297
 20
202.6347830323
 30
0.0
  0
VERTEX
  5
49A
  8
0
  6
CONTINUOUS
 62
     7
 10
36.323569663
 20
202.744424845
 30
0.0
  0
VERTEX
  5
49B
  8
0
  6
CONTINUOUS
 62
     7
 10
36.3486571648
 20
202.8579558609
 30
0.0
  0
VERTEX
  5
49C
  8
0
  6
CONTINUOUS
 62
     7
 10
36.360353645
 20
202.9742231024
 30
0.0
  0
VERTEX
  5
49D
  8
0
  6
CONTINUOUS
 62
     7
 10
36.3589906544
 20
203.0945546356
 30
0.0
  0
VERTEX
  5
49E
  8
0
  6
CONTINUOUS
 62
     7
 10
36.344598461
 20
203.217008653
 30
0.0
  0
VERTEX
  5
49F
  8
0
  6
CONTINUOUS
 62
     7
 10
36.3173065186
 20
203.3404722241
 30
0.0
  0
VERTEX
  5
4A0
  8
0
  6
CONTINUOUS
 62
     7
 10
36.2772447468
 20
203.4638333497
 30
0.0
  0
VERTEX
  5
4A1
  8
0
  6
CONTINUOUS
 62
     7
 10
36.23013426
 20
203.5743524683
 30
0.0
  0
VERTEX
  5
4A2
  8
0
  6
CONTINUOUS
 62
     7
 10
36.172020197
 20
203.6839216379
 30
0.0
  0
VERTEX
  5
4A3
  8
0
  6
CONTINUOUS
 62
     7
 10
36.102592893
 20
203.7910949802
 30
0.0
  0
VERTEX
  5
4A4
  8
0
  6
CONTINUOUS
 62
     7
 10
36.0215422177
 20
203.8944233572
 30
0.0
  0
VERTEX
  5
4A5
  8
0
  6
CONTINUOUS
 62
     7
 10
35.9419092481
 20
203.9792896611
 30
0.0
  0
VERTEX
  5
4A6
  8
0
  6
CONTINUOUS
 62
     7
 10
35.8523437233
 20
204.0591775802
 30
0.0
  0
VERTEX
  5
4A7
  8
0
  6
CONTINUOUS
 62
     7
 10
35.7528773081
 20
204.1319324998
 30
0.0
  0
VERTEX
  5
4A8
  8
0
  6
CONTINUOUS
 62
     7
 10
35.6693199781
 20
204.1817852659
 30
0.0
  0
VERTEX
  5
4A9
  8
0
  6
CONTINUOUS
 62
     7
 10
35.5796184801
 20
204.2251895545
 30
0.0
  0
VERTEX
  5
4AA
  8
0
  6
CONTINUOUS
 62
     7
 10
35.4847721235
 20
204.2606058893
 30
0.0
  0
VERTEX
  5
4AB
  8
0
  6
CONTINUOUS
 62
     7
 10
35.3842374814
 20
204.2868836214
 30
0.0
  0
VERTEX
  5
4AC
  8
0
  6
CONTINUOUS
 62
     7
 10
35.2800355238
 20
204.3029545238
 30
0.0
  0
VERTEX
  5
4AD
  8
0
  6
CONTINUOUS
 62
     7
 10
35.1748170276
 20
204.3080982184
 30
0.0
  0
VERTEX
  5
4AE
  8
0
  6
CONTINUOUS
 62
     7
 10
35.0857779329
 20
204.3036404428
 30
0.0
  0
VERTEX
  5
4AF
  8
0
  6
CONTINUOUS
 62
     7
 10
34.9978005458
 20
204.2916464051
 30
0.0
  0
VERTEX
  5
4B0
  8
0
  6
CONTINUOUS
 62
     7
 10
34.912246693
 20
204.2727601146
 30
0.0
  0
VERTEX
  5
4B1
  8
0
  6
CONTINUOUS
 62
     7
 10
34.8011899684
 20
204.237289763
 30
0.0
  0
VERTEX
  5
4B2
  8
0
  6
CONTINUOUS
 62
     7
 10
34.6959302612
 20
204.1921127019
 30
0.0
  0
VERTEX
  5
4B3
  8
0
  6
CONTINUOUS
 62
     7
 10
34.5975150765
 20
204.1392196333
 30
0.0
  0
VERTEX
  5
4B4
  8
0
  6
CONTINUOUS
 62
     7
 10
34.4958768171
 20
204.0729732615
 30
0.0
  0
VERTEX
  5
4B5
  8
0
  6
CONTINUOUS
 62
     7
 10
34.4020721448
 20
204.0002812063
 30
0.0
  0
VERTEX
  5
4B6
  8
0
  6
CONTINUOUS
 62
     7
 10
34.3161147964
 20
203.9225600091
 30
0.0
  0
VERTEX
  5
4B7
  8
0
  6
CONTINUOUS
 62
     7
 10
34.2380187419
 20
203.841227143
 30
0.0
  0
VERTEX
  5
4B8
  8
0
  6
CONTINUOUS
 62
     7
 10
34.1393681654
 20
203.7204602165
 30
0.0
  0
VERTEX
  5
4B9
  8
0
  6
CONTINUOUS
 62
     7
 10
34.0548883603
 20
203.5948955817
 30
0.0
  0
VERTEX
  5
4BA
  8
0
  6
CONTINUOUS
 62
     7
 10
33.9847538332
 20
203.4662464065
 30
0.0
  0
VERTEX
  5
4BB
  8
0
  6
CONTINUOUS
 62
     7
 10
33.929138858
 20
203.3362263245
 30
0.0
  0
VERTEX
  5
4BC
  8
0
  6
CONTINUOUS
 62
     7
 10
33.8875295772
 20
203.2033787472
 30
0.0
  0
VERTEX
  5
4BD
  8
0
  6
CONTINUOUS
 62
     7
 10
33.8614507989
 20
203.0701437396
 30
0.0
  0
VERTEX
  5
4BE
  8
0
  6
CONTINUOUS
 62
     7
 10
33.8518771521
 20
202.937988135
 30
0.0
  0
VERTEX
  5
4BF
  8
0
  6
CONTINUOUS
 62
     7
 10
33.8597829166
 20
202.8083843542
 30
0.0
  0
VERTEX
  5
4C0
  8
0
  6
CONTINUOUS
 62
     7
 10
33.877331595
 20
202.7155920295
 30
0.0
  0
VERTEX
  5
4C1
  8
0
  6
CONTINUOUS
 62
     7
 10
33.9054371641
 20
202.6246986715
 30
0.0
  0
VERTEX
  5
4C2
  8
0
  6
CONTINUOUS
 62
     7
 10
33.9445028865
 20
202.53658438
 30
0.0
  0
VERTEX
  5
4C3
  8
0
  6
CONTINUOUS
 62
     7
 10
33.9949321412
 20
202.4521311176
 30
0.0
  0
VERTEX
  5
4C4
  8
0
  6
CONTINUOUS
 62
     7
 10
34.0423716177
 20
202.3893124787
 30
0.0
  0
VERTEX
  5
4C5
  8
0
  6
CONTINUOUS
 62
     7
 10
34.0971589965
 20
202.3293380988
 30
0.0
  0
SEQEND
  5
4C6
  8
0
  6
CONTINUOUS
 62
     7
  0
LINE
  5
1DB
  8
0
  6
CONTINUOUS
 62
     7
 10
34.0971589965
 20
202.3293380988
 30
0.0
 11
32.5625574976
 21
202.3798483787
 31
0.0
  0
LINE
  5
1DC
  8
0
  6
CONTINUOUS
 62
     7
 10
32.5625574976
 20
202.3798483787
 30
0.0
 11
32.5625574976
 21
208.8922795737
 31
0.0
  0
LINE
  5
1DD
  8
0
  6
CONTINUOUS
 62
     7
 10
39.5922292434
 20
208.2772630164
 30
0.0
 11
38.8889396042
 21
208.3387929378
 31
0.0
  0
POLYLINE
  5
1DE
  8
0
  6
CONTINUOUS
 62
     7
 66
     1
 10
0.0
 20
0.0
 30
0.0
  0
VERTEX
  5
4C7
  8
0
  6
CONTINUOUS
 62
     7
 10
39.975981176
 20
211.3254159557
 30
0.0
  0
VERTEX
  5
4C8
  8
0
  6
CONTINUOUS
 62
     7
 10
39.9121920989
 20
211.1029547594
 30
0.0
  0
VERTEX
  5
4C9
  8
0
  6
CONTINUOUS
 62
     7
 10
39.8162044064
 20
210.7682066052
 30
0.0
  0
SEQEND
  5
4CA
  8
0
  6
CONTINUOUS
 62
     7
  0
LINE
  5
1DF
  8
0
  6
CONTINUOUS
 62
     7
 10
41.2835571394
 20
202.0934983519
 30
0.0
 11
35.9993320369
 21
202.2668025819
 31
0.0
  0
ARC
  5
1E0
  8
0
  6
CONTINUOUS
 62
     7
 10
39.7011382368
 20
209.5230116245
 30
0.0
 40
1.250500205261699
 50
265.0036463798
 51
84.7203966906
  0
LINE
  5
1E1
  8
0
  6
CONTINUOUS
 62
     7
 10
40.2006189749
 20
212.1088186176
 30
0.0
 11
41.2835571394
 21
212.014073746
 31
0.0
  0
LINE
  5
1E2
  8
0
  6
CONTINUOUS
 62
     7
 10
42.7173952983
 20
202.5550832403
 30
0.0
 11
41.8214853332
 21
202.1862869514
 31
0.0
  0
LINE
  5
1E3
  8
0
  6
CONTINUOUS
 62
     7
 10
41.8214853332
 20
211.9670111932
 30
0.0
 11
42.7173952983
 21
211.8886292227
 31
0.0
  0
LINE
  5
1E4
  8
0
  6
CONTINUOUS
 62
     7
 10
32.0625574739
 20
202.7431954992
 30
0.0
 11
32.0625574739
 21
208.9360240278
 31
0.0
  0
LINE
  5
1E5
  8
0
  6
CONTINUOUS
 62
     7
 10
32.5625574976
 20
202.3798483787
 30
0.0
 11
32.0625574739
 21
202.7431954992
 31
0.0
  0
ARC
  5
1E6
  8
0
  6
CONTINUOUS
 62
     7
 10
43.2036514169
 20
201.3434575302
 30
0.0
 40
1.305558070128225
 50
88.9069138223
 51
111.8668427142
  0
POLYLINE
  5
1E7
  8
0
  6
CONTINUOUS
 62
     7
 66
     1
 10
0.0
 20
0.0
 30
0.0
  0
VERTEX
  5
4CB
  8
0
  6
CONTINUOUS
 62
     7
 10
42.7173952983
 20
211.8886292227
 30
0.0
  0
VERTEX
  5
4CC
  8
0
  6
CONTINUOUS
 62
     7
 10
42.7907099427
 20
211.8822150295
 30
0.0
  0
VERTEX
  5
4CD
  8
0
  6
CONTINUOUS
 62
     7
 10
42.867029965
 20
211.8755378832
 30
0.0
  0
VERTEX
  5
4CE
  8
0
  6
CONTINUOUS
 62
     7
 10
42.9481593371
 20
211.8684399537
 30
0.0
  0
VERTEX
  5
4CF
  8
0
  6
CONTINUOUS
 62
     7
 10
43.0313143358
 20
211.861164811
 30
0.0
  0
VERTEX
  5
4D0
  8
0
  6
CONTINUOUS
 62
     7
 10
43.1289774776
 20
211.8526203921
 30
0.0
  0
VERTEX
  5
4D1
  8
0
  6
CONTINUOUS
 62
     7
 10
43.2285572813
 20
211.8439083059
 30
0.0
  0
SEQEND
  5
4D2
  8
0
  6
CONTINUOUS
 62
     7
  0
ARC
  5
1E8
  8
0
  6
CONTINUOUS
 62
     7
 10
45.8374800741
 20
214.1255790098
 30
0.0
 40
2.50037083377069
 50
265.007157303
 51
344.9928670128
  0
POLYLINE
  5
1E9
  8
0
  6
CONTINUOUS
 62
     7
 66
     1
 10
0.0
 20
0.0
 30
0.0
  0
VERTEX
  5
4D3
  8
0
  6
CONTINUOUS
 62
     7
 10
50.4113742561
 20
221.5348924873
 30
0.0
  0
VERTEX
  5
4D4
  8
0
  6
CONTINUOUS
 62
     7
 10
50.3771854044
 20
221.407293844
 30
0.0
  0
VERTEX
  5
4D5
  8
0
  6
CONTINUOUS
 62
     7
 10
50.3411227316
 20
221.2727112127
 30
0.0
  0
VERTEX
  5
4D6
  8
0
  6
CONTINUOUS
 62
     7
 10
50.3032160402
 20
221.1312377257
 30
0.0
  0
VERTEX
  5
4D7
  8
0
  6
CONTINUOUS
 62
     7
 10
50.2634895445
 20
220.9829767597
 30
0.0
  0
VERTEX
  5
4D8
  8
0
  6
CONTINUOUS
 62
     7
 10
50.2219711841
 20
220.8280307603
 30
0.0
  0
VERTEX
  5
4D9
  8
0
  6
CONTINUOUS
 62
     7
 10
50.1786926241
 20
220.6665114862
 30
0.0
  0
VERTEX
  5
4DA
  8
0
  6
CONTINUOUS
 62
     7
 10
50.1336836667
 20
220.4985334901
 30
0.0
  0
VERTEX
  5
4DB
  8
0
  6
CONTINUOUS
 62
     7
 10
50.0869741143
 20
220.3242150498
 30
0.0
  0
VERTEX
  5
4DC
  8
0
  6
CONTINUOUS
 62
     7
 10
50.0386012197
 20
220.1436809627
 30
0.0
  0
VERTEX
  5
4DD
  8
0
  6
CONTINUOUS
 62
     7
 10
49.9885947854
 20
219.9570588199
 30
0.0
  0
VERTEX
  5
4DE
  8
0
  6
CONTINUOUS
 62
     7
 10
49.9369939268
 20
219.7644818006
 30
0.0
  0
VERTEX
  5
4DF
  8
0
  6
CONTINUOUS
 62
     7
 10
49.8838340343
 20
219.5660858778
 30
0.0
  0
VERTEX
  5
4E0
  8
0
  6
CONTINUOUS
 62
     7
 10
49.8291523606
 20
219.3620121469
 30
0.0
  0
VERTEX
  5
4E1
  8
0
  6
CONTINUOUS
 62
     7
 10
49.7729898841
 20
219.1524054286
 30
0.0
  0
VERTEX
  5
4E2
  8
0
  6
CONTINUOUS
 62
     7
 10
49.7153819949
 20
218.9374147346
 30
0.0
  0
VERTEX
  5
4E3
  8
0
  6
CONTINUOUS
 62
     7
 10
49.6563752592
 20
218.7171928016
 30
0.0
  0
VERTEX
  5
4E4
  8
0
  6
CONTINUOUS
 62
     7
 10
49.59600693
 20
218.4918956262
 30
0.0
  0
VERTEX
  5
4E5
  8
0
  6
CONTINUOUS
 62
     7
 10
49.5343217105
 20
218.261683396
 30
0.0
  0
VERTEX
  5
4E6
  8
0
  6
CONTINUOUS
 62
     7
 10
49.4713624419
 20
218.026719558
 30
0.0
  0
VERTEX
  5
4E7
  8
0
  6
CONTINUOUS
 62
     7
 10
49.40717569
 20
217.787170819
 30
0.0
  0
VERTEX
  5
4E8
  8
0
  6
CONTINUOUS
 62
     7
 10
49.3418061585
 20
217.5432071452
 30
0.0
  0
VERTEX
  5
4E9
  8
0
  6
CONTINUOUS
 62
     7
 10
49.2753004135
 20
217.2950022285
 30
0.0
  0
VERTEX
  5
4EA
  8
0
  6
CONTINUOUS
 62
     7
 10
49.2077031583
 20
217.0427316231
 30
0.0
  0
VERTEX
  5
4EB
  8
0
  6
CONTINUOUS
 62
     7
 10
49.1390665472
 20
216.7865750743
 30
0.0
  0
VERTEX
  5
4EC
  8
0
  6
CONTINUOUS
 62
     7
 10
49.0694371463
 20
216.5267141899
 30
0.0
  0
VERTEX
  5
4ED
  8
0
  6
CONTINUOUS
 62
     7
 10
48.9988652469
 20
216.2633333718
 30
0.0
  0
VERTEX
  5
4EE
  8
0
  6
CONTINUOUS
 62
     7
 10
48.9273992778
 20
215.9966198159
 30
0.0
  0
VERTEX
  5
4EF
  8
0
  6
CONTINUOUS
 62
     7
 10
48.8550913931
 20
215.7267625806
 30
0.0
  0
VERTEX
  5
4F0
  8
0
  6
CONTINUOUS
 62
     7
 10
48.7819918842
 20
215.4539532856
 30
0.0
  0
VERTEX
  5
4F1
  8
0
  6
CONTINUOUS
 62
     7
 10
48.7081547678
 20
215.1783858789
 30
0.0
  0
VERTEX
  5
4F2
  8
0
  6
CONTINUOUS
 62
     7
 10
48.6336284728
 20
214.900255938
 30
0.0
  0
VERTEX
  5
4F3
  8
0
  6
CONTINUOUS
 62
     7
 10
48.558470741
 20
214.6197609035
 30
0.0
  0
VERTEX
  5
4F4
  8
0
  6
CONTINUOUS
 62
     7
 10
48.4827318639
 20
214.3370998455
 30
0.0
  0
VERTEX
  5
4F5
  8
0
  6
CONTINUOUS
 62
     7
 10
48.4064658583
 20
214.0524736968
 30
0.0
  0
VERTEX
  5
4F6
  8
0
  6
CONTINUOUS
 62
     7
 10
48.3297286034
 20
213.7660840889
 30
0.0
  0
VERTEX
  5
4F7
  8
0
  6
CONTINUOUS
 62
     7
 10
48.2525722534
 20
213.4781347485
 30
0.0
  0
SEQEND
  5
4F8
  8
0
  6
CONTINUOUS
 62
     7
  0
LINE
  5
1EA
  8
0
  6
CONTINUOUS
 62
     7
 10
50.4113742561
 20
221.5348924873
 30
0.0
 11
43.2285572813
 21
221.6033707736
 31
0.0
  0
LINE
  5
1EB
  8
0
  6
CONTINUOUS
 62
     7
 10
43.2285572813
 20
201.9083057893
 30
0.0
 11
45.6198695526
 21
202.0101077286
 31
0.0
  0
ARC
  5
1EC
  8
0
  6
CONTINUOUS
 62
     7
 10
46.016811405
 20
198.5075123602
 30
0.0
 40
3.525015907581381
 50
50.6352093064
 51
96.465625947
  0
POLYLINE
  5
1ED
  8
0
  6
CONTINUOUS
 62
     7
 66
     1
 10
0.0
 20
0.0
 30
0.0
  0
VERTEX
  5
4F9
  8
0
  6
CONTINUOUS
 62
     7
 10
50.4113742561
 20
202.5535772917
 30
0.0
  0
VERTEX
  5
4FA
  8
0
  6
CONTINUOUS
 62
     7
 10
50.3771854044
 20
202.3888598559
 30
0.0
  0
VERTEX
  5
4FB
  8
0
  6
CONTINUOUS
 62
     7
 10
50.3411227316
 20
202.2306598154
 30
0.0
  0
VERTEX
  5
4FC
  8
0
  6
CONTINUOUS
 62
     7
 10
50.3032160402
 20
202.0790898604
 30
0.0
  0
VERTEX
  5
4FD
  8
0
  6
CONTINUOUS
 62
     7
 10
50.2634895445
 20
201.9342580242
 30
0.0
  0
VERTEX
  5
4FE
  8
0
  6
CONTINUOUS
 62
     7
 10
50.2219711841
 20
201.7962667522
 30
0.0
  0
VERTEX
  5
4FF
  8
0
  6
CONTINUOUS
 62
     7
 10
50.1786926241
 20
201.6652129022
 30
0.0
  0
VERTEX
  5
500
  8
0
  6
CONTINUOUS
 62
     7
 10
50.1336836667
 20
201.5411914689
 30
0.0
  0
VERTEX
  5
501
  8
0
  6
CONTINUOUS
 62
     7
 10
50.0869741143
 20
201.4242899967
 30
0.0
  0
VERTEX
  5
502
  8
0
  6
CONTINUOUS
 62
     7
 10
50.0386012197
 20
201.3145904419
 30
0.0
  0
VERTEX
  5
503
  8
0
  6
CONTINUOUS
 62
     7
 10
49.9885947854
 20
201.2121710358
 30
0.0
  0
VERTEX
  5
504
  8
0
  6
CONTINUOUS
 62
     7
 10
49.9369939268
 20
201.1171053526
 30
0.0
  0
VERTEX
  5
505
  8
0
  6
CONTINUOUS
 62
     7
 10
49.8838340343
 20
201.0294604478
 30
0.0
  0
VERTEX
  5
506
  8
0
  6
CONTINUOUS
 62
     7
 10
49.8291523606
 20
200.9492987198
 30
0.0
  0
VERTEX
  5
507
  8
0
  6
CONTINUOUS
 62
     7
 10
49.7729898841
 20
200.8766769794
 30
0.0
  0
VERTEX
  5
508
  8
0
  6
CONTINUOUS
 62
     7
 10
49.7153819949
 20
200.811645518
 30
0.0
  0
VERTEX
  5
509
  8
0
  6
CONTINUOUS
 62
     7
 10
49.6563752592
 20
200.7542527643
 30
0.0
  0
VERTEX
  5
50A
  8
0
  6
CONTINUOUS
 62
     7
 10
49.59600693
 20
200.704537834
 30
0.0
  0
VERTEX
  5
50B
  8
0
  6
CONTINUOUS
 62
     7
 10
49.5343217105
 20
200.6625361172
 30
0.0
  0
VERTEX
  5
50C
  8
0
  6
CONTINUOUS
 62
     7
 10
49.4713624419
 20
200.6282783476
 30
0.0
  0
VERTEX
  5
50D
  8
0
  6
CONTINUOUS
 62
     7
 10
49.40717569
 20
200.6017887396
 30
0.0
  0
VERTEX
  5
50E
  8
0
  6
CONTINUOUS
 62
     7
 10
49.3418061585
 20
200.5830849884
 30
0.0
  0
VERTEX
  5
50F
  8
0
  6
CONTINUOUS
 62
     7
 10
49.2753004135
 20
200.5721810637
 30
0.0
  0
VERTEX
  5
510
  8
0
  6
CONTINUOUS
 62
     7
 10
49.2077031583
 20
200.5690853474
 30
0.0
  0
VERTEX
  5
511
  8
0
  6
CONTINUOUS
 62
     7
 10
49.1390665472
 20
200.573798771
 30
0.0
  0
VERTEX
  5
512
  8
0
  6
CONTINUOUS
 62
     7
 10
49.0694371463
 20
200.5863194717
 30
0.0
  0
VERTEX
  5
513
  8
0
  6
CONTINUOUS
 62
     7
 10
48.9988652469
 20
200.6066372049
 30
0.0
  0
VERTEX
  5
514
  8
0
  6
CONTINUOUS
 62
     7
 10
48.9273992778
 20
200.634738001
 30
0.0
  0
VERTEX
  5
515
  8
0
  6
CONTINUOUS
 62
     7
 10
48.8550913931
 20
200.6706013707
 30
0.0
  0
VERTEX
  5
516
  8
0
  6
CONTINUOUS
 62
     7
 10
48.7819918842
 20
200.7142030997
 30
0.0
  0
VERTEX
  5
517
  8
0
  6
CONTINUOUS
 62
     7
 10
48.7081547678
 20
200.7655115229
 30
0.0
  0
VERTEX
  5
518
  8
0
  6
CONTINUOUS
 62
     7
 10
48.6336284728
 20
200.824490319
 30
0.0
  0
VERTEX
  5
519
  8
0
  6
CONTINUOUS
 62
     7
 10
48.558470741
 20
200.8910975782
 30
0.0
  0
VERTEX
  5
51A
  8
0
  6
CONTINUOUS
 62
     7
 10
48.4827318639
 20
200.9652867345
 30
0.0
  0
VERTEX
  5
51B
  8
0
  6
CONTINUOUS
 62
     7
 10
48.4064658583
 20
201.0470037711
 30
0.0
  0
VERTEX
  5
51C
  8
0
  6
CONTINUOUS
 62
     7
 10
48.3297286034
 20
201.1361909462
 30
0.0
  0
VERTEX
  5
51D
  8
0
  6
CONTINUOUS
 62
     7
 10
48.2525722534
 20
201.2327849296
 30
0.0
  0
SEQEND
  5
51E
  8
0
  6
CONTINUOUS
 62
     7
  0
LINE
  5
1EE
  8
0
  6
CONTINUOUS
 62
     7
 10
50.4113742561
 20
202.5535772917
 30
0.0
 11
43.2285572813
 21
202.6487780166
 31
0.0
  0
LINE
  5
1EF
  8
0
  6
CONTINUOUS
 62
     7
 10
43.2285572813
 20
211.8439083059
 30
0.0
 11
45.6198695526
 21
211.634695639
 31
0.0
  0
ARC
  5
1F0
  8
0
  6
CONTINUOUS
 62
     7
 10
35.0213892768
 20
201.4811711119
 30
0.0
 40
1.254427697694723
 50
38.7766953381
 51
137.4573684592
  0
POLYLINE
  5
1F1
  8
0
  6
CONTINUOUS
 62
     7
 66
     1
 10
0.0
 20
0.0
 30
0.0
  0
VERTEX
  5
51F
  8
0
  6
CONTINUOUS
 62
     7
 10
47.2996029482
 20
212.0971262119
 30
0.0
  0
VERTEX
  5
520
  8
0
  6
CONTINUOUS
 62
     7
 10
47.1822628231
 20
212.1235010344
 30
0.0
  0
VERTEX
  5
521
  8
0
  6
CONTINUOUS
 62
     7
 10
47.0667704419
 20
212.1522142332
 30
0.0
  0
VERTEX
  5
522
  8
0
  6
CONTINUOUS
 62
     7
 10
46.9533251078
 20
212.1832162737
 30
0.0
  0
VERTEX
  5
523
  8
0
  6
CONTINUOUS
 62
     7
 10
46.8421223984
 20
212.216453663
 30
0.0
  0
VERTEX
  5
524
  8
0
  6
CONTINUOUS
 62
     7
 10
46.7333550976
 20
212.2518689502
 30
0.0
  0
VERTEX
  5
525
  8
0
  6
CONTINUOUS
 62
     7
 10
46.6272094698
 20
212.2894010753
 30
0.0
  0
VERTEX
  5
526
  8
0
  6
CONTINUOUS
 62
     7
 10
46.5238699169
 20
212.3289852533
 30
0.0
  0
VERTEX
  5
527
  8
0
  6
CONTINUOUS
 62
     7
 10
46.4235152529
 20
212.3705531484
 30
0.0
  0
VERTEX
  5
528
  8
0
  6
CONTINUOUS
 62
     7
 10
46.326316841
 20
212.4140329323
 30
0.0
  0
VERTEX
  5
529
  8
0
  6
CONTINUOUS
 62
     7
 10
46.2324441821
 20
212.4593495754
 30
0.0
  0
VERTEX
  5
52A
  8
0
  6
CONTINUOUS
 62
     7
 10
46.1420583949
 20
212.506424963
 30
0.0
  0
VERTEX
  5
52B
  8
0
  6
CONTINUOUS
 62
     7
 10
46.0553159417
 20
212.5551776625
 30
0.0
  0
VERTEX
  5
52C
  8
0
  6
CONTINUOUS
 62
     7
 10
45.9723667652
 20
212.6055236803
 30
0.0
  0
VERTEX
  5
52D
  8
0
  6
CONTINUOUS
 62
     7
 10
45.893353358
 20
212.6573758795
 30
0.0
  0
VERTEX
  5
52E
  8
0
  6
CONTINUOUS
 62
     7
 10
45.8184126244
 20
212.7106450861
 30
0.0
  0
VERTEX
  5
52F
  8
0
  6
CONTINUOUS
 62
     7
 10
45.7476740182
 20
212.7652389826
 30
0.0
  0
VERTEX
  5
530
  8
0
  6
CONTINUOUS
 62
     7
 10
45.6812595428
 20
212.8210636218
 30
0.0
  0
VERTEX
  5
531
  8
0
  6
CONTINUOUS
 62
     7
 10
45.6192828194
 20
212.8780224956
 30
0.0
  0
VERTEX
  5
532
  8
0
  6
CONTINUOUS
 62
     7
 10
45.5618528128
 20
212.9360172329
 30
0.0
  0
VERTEX
  5
533
  8
0
  6
CONTINUOUS
 62
     7
 10
45.509067312
 20
212.994947833
 30
0.0
  0
VERTEX
  5
534
  8
0
  6
CONTINUOUS
 62
     7
 10
45.4610175864
 20
213.0547125488
 30
0.0
  0
VERTEX
  5
535
  8
0
  6
CONTINUOUS
 62
     7
 10
45.4177865238
 20
213.11520812
 30
0.0
  0
VERTEX
  5
536
  8
0
  6
CONTINUOUS
 62
     7
 10
45.3794495613
 20
213.1763302385
 30
0.0
  0
VERTEX
  5
537
  8
0
  6
CONTINUOUS
 62
     7
 10
45.3460718916
 20
213.2379733156
 30
0.0
  0
VERTEX
  5
538
  8
0
  6
CONTINUOUS
 62
     7
 10
45.3177112565
 20
213.300031064
 30
0.0
  0
VERTEX
  5
539
  8
0
  6
CONTINUOUS
 62
     7
 10
45.2944170163
 20
213.3623961489
 30
0.0
  0
VERTEX
  5
53A
  8
0
  6
CONTINUOUS
 62
     7
 10
45.2762292177
 20
213.4249610025
 30
0.0
  0
VERTEX
  5
53B
  8
0
  6
CONTINUOUS
 62
     7
 10
45.2631795258
 20
213.4876177078
 30
0.0
  0
VERTEX
  5
53C
  8
0
  6
CONTINUOUS
 62
     7
 10
45.2552902923
 20
213.5502579985
 30
0.0
  0
VERTEX
  5
53D
  8
0
  6
CONTINUOUS
 62
     7
 10
45.2525745557
 20
213.6127739576
 30
0.0
  0
VERTEX
  5
53E
  8
0
  6
CONTINUOUS
 62
     7
 10
45.2550379039
 20
213.6750573189
 30
0.0
  0
VERTEX
  5
53F
  8
0
  6
CONTINUOUS
 62
     7
 10
45.2626756803
 20
213.7370007475
 30
0.0
  0
VERTEX
  5
540
  8
0
  6
CONTINUOUS
 62
     7
 10
45.2754739151
 20
213.7984973741
 30
0.0
  0
VERTEX
  5
541
  8
0
  6
CONTINUOUS
 62
     7
 10
45.2934121192
 20
213.8594410279
 30
0.0
  0
VERTEX
  5
542
  8
0
  6
CONTINUOUS
 62
     7
 10
45.3164586277
 20
213.9197262367
 30
0.0
  0
VERTEX
  5
543
  8
0
  6
CONTINUOUS
 62
     7
 10
45.3445733935
 20
213.9792493907
 30
0.0
  0
VERTEX
  5
544
  8
0
  6
CONTINUOUS
 62
     7
 10
45.3777079881
 20
214.0379073461
 30
0.0
  0
VERTEX
  5
545
  8
0
  6
CONTINUOUS
 62
     7
 10
45.4158046693
 20
214.0955992871
 30
0.0
  0
VERTEX
  5
546
  8
0
  6
CONTINUOUS
 62
     7
 10
45.458799176
 20
214.1522250967
 30
0.0
  0
VERTEX
  5
547
  8
0
  6
CONTINUOUS
 62
     7
 10
45.5066160709
 20
214.2076872186
 30
0.0
  0
VERTEX
  5
548
  8
0
  6
CONTINUOUS
 62
     7
 10
45.5591724665
 20
214.2618901925
 30
0.0
  0
VERTEX
  5
549
  8
0
  6
CONTINUOUS
 62
     7
 10
45.6163789556
 20
214.3147399546
 30
0.0
  0
VERTEX
  5
54A
  8
0
  6
CONTINUOUS
 62
     7
 10
45.6781358869
 20
214.3661457011
 30
0.0
  0
VERTEX
  5
54B
  8
0
  6
CONTINUOUS
 62
     7
 10
45.7443370894
 20
214.4160187235
 30
0.0
  0
VERTEX
  5
54C
  8
0
  6
CONTINUOUS
 62
     7
 10
45.8148680107
 20
214.4642724087
 30
0.0
  0
VERTEX
  5
54D
  8
0
  6
CONTINUOUS
 62
     7
 10
45.8896075786
 20
214.5108241019
 30
0.0
  0
VERTEX
  5
54E
  8
0
  6
CONTINUOUS
 62
     7
 10
45.9684254081
 20
214.5555927781
 30
0.0
  0
VERTEX
  5
54F
  8
0
  6
CONTINUOUS
 62
     7
 10
46.0511864574
 20
214.5985018359
 30
0.0
  0
VERTEX
  5
550
  8
0
  6
CONTINUOUS
 62
     7
 10
46.1377473027
 20
214.6394767696
 30
0.0
  0
VERTEX
  5
551
  8
0
  6
CONTINUOUS
 62
     7
 10
46.2279589326
 20
214.6784467985
 30
0.0
  0
VERTEX
  5
552
  8
0
  6
CONTINUOUS
 62
     7
 10
46.3216658161
 20
214.7153451004
 30
0.0
  0
VERTEX
  5
553
  8
0
  6
CONTINUOUS
 62
     7
 10
46.4187049718
 20
214.7501076469
 30
0.0
  0
VERTEX
  5
554
  8
0
  6
CONTINUOUS
 62
     7
 10
46.5189106242
 20
214.7826743675
 30
0.0
  0
VERTEX
  5
555
  8
0
  6
CONTINUOUS
 62
     7
 10
46.622108616
 20
214.8129891501
 30
0.0
  0
VERTEX
  5
556
  8
0
  6
CONTINUOUS
 62
     7
 10
46.728121996
 20
214.8409996079
 30
0.0
  0
VERTEX
  5
557
  8
0
  6
CONTINUOUS
 62
     7
 10
46.8367663623
 20
214.8666575448
 30
0.0
  0
VERTEX
  5
558
  8
0
  6
CONTINUOUS
 62
     7
 10
46.947854519
 20
214.8899184903
 30
0.0
  0
VERTEX
  5
559
  8
0
  6
CONTINUOUS
 62
     7
 10
47.0611946137
 20
214.9107426302
 30
0.0
  0
VERTEX
  5
55A
  8
0
  6
CONTINUOUS
 62
     7
 10
47.1765919999
 20
214.9290934102
 30
0.0
  0
VERTEX
  5
55B
  8
0
  6
CONTINUOUS
 62
     7
 10
47.2938464434
 20
214.9449398638
 30
0.0
  0
VERTEX
  5
55C
  8
0
  6
CONTINUOUS
 62
     7
 10
47.4127558471
 20
214.9582540513
 30
0.0
  0
VERTEX
  5
55D
  8
0
  6
CONTINUOUS
 62
     7
 10
47.53311532
 20
214.9690131554
 30
0.0
  0
VERTEX
  5
55E
  8
0
  6
CONTINUOUS
 62
     7
 10
47.6547162459
 20
214.9771987823
 30
0.0
  0
VERTEX
  5
55F
  8
0
  6
CONTINUOUS
 62
     7
 10
47.7773500086
 20
214.9827967295
 30
0.0
  0
VERTEX
  5
560
  8
0
  6
CONTINUOUS
 62
     7
 10
47.9008024038
 20
214.985797218
 30
0.0
  0
VERTEX
  5
561
  8
0
  6
CONTINUOUS
 62
     7
 10
48.0248638839
 20
214.9861951256
 30
0.0
  0
VERTEX
  5
562
  8
0
  6
CONTINUOUS
 62
     7
 10
48.1493183822
 20
214.9839897537
 30
0.0
  0
VERTEX
  5
563
  8
0
  6
CONTINUOUS
 62
     7
 10
48.2739498318
 20
214.9791848277
 30
0.0
  0
VERTEX
  5
564
  8
0
  6
CONTINUOUS
 62
     7
 10
48.3985458911
 20
214.9717889623
 30
0.0
  0
VERTEX
  5
565
  8
0
  6
CONTINUOUS
 62
     7
 10
48.5228886307
 20
214.9618147304
 30
0.0
  0
VERTEX
  5
566
  8
0
  6
CONTINUOUS
 62
     7
 10
48.646765709
 20
214.9492791285
 30
0.0
  0
SEQEND
  5
567
  8
0
  6
CONTINUOUS
 62
     7
  0
ARC
  5
1F2
  8
0
  6
CONTINUOUS
 62
     7
 10
41.3011974804
 20
221.3921966456
 30
0.0
 40
1.024568047119031
 50
59.4818084977
 51
90.9865299146
  0
LINE
  5
1F3
  8
0
  6
CONTINUOUS
 62
     7
 10
42.7173952983
 20
221.7456545112
 30
0.0
 11
41.8214853332
 21
222.2748292041
 31
0.0
  0
ARC
  5
1F4
  8
0
  6
CONTINUOUS
 62
     7
 10
43.2381981968
 20
222.6273366135
 30
0.0
 40
1.024011224876009
 50
239.4299771732
 51
269.4605606672
  0
LINE
  5
1F5
  8
0
  6
CONTINUOUS
 62
     7
 10
49.0236943067
 20
216.355998571
 30
0.0
 11
32.0625574739
 21
217.8399060284
 31
0.0
  0
LINE
  5
1F6
  8
0
  6
CONTINUOUS
 62
     7
 10
32.5625574976
 20
222.2662079511
 30
0.0
 11
32.0625574739
 21
221.783097404
 31
0.0
  0
LINE
  5
1F7
  8
0
  6
CONTINUOUS
 62
     7
 10
34.0971589965
 20
222.2928409827
 30
0.0
 11
32.5625574976
 21
222.2662079511
 31
0.0
  0
ARC
  5
1F8
  8
0
  6
CONTINUOUS
 62
     7
 10
35.0399104205
 20
222.7910166594
 30
0.0
 40
1.066282913831747
 50
207.8531998302
 51
334.1293583733
  0
LINE
  5
1F9
  8
0
  6
CONTINUOUS
 62
     7
 10
41.2835571394
 20
222.4166128216
 30
0.0
 11
35.9993320369
 21
222.3257539225
 31
0.0
  0
LINE
  5
1FA
  8
0
  6
CONTINUOUS
 62
     7
 10
32.0625574739
 20
221.783097404
 30
0.0
 11
32.0625574739
 21
217.8399060284
 31
0.0
  0
POLYLINE
  5
1FB
  8
0
  6
CONTINUOUS
 62
     7
 66
     1
 10
0.0
 20
0.0
 30
0.0
  0
VERTEX
  5
568
  8
0
  6
CONTINUOUS
 62
     7
 10
35.9993320369
 20
222.3257539225
 30
0.0
  0
VERTEX
  5
569
  8
0
  6
CONTINUOUS
 62
     7
 10
36.0792288036
 20
222.3730250624
 30
0.0
  0
VERTEX
  5
56A
  8
0
  6
CONTINUOUS
 62
     7
 10
36.1488321275
 20
222.4214193774
 30
0.0
  0
VERTEX
  5
56B
  8
0
  6
CONTINUOUS
 62
     7
 10
36.2080460825
 20
222.4701294107
 30
0.0
  0
VERTEX
  5
56C
  8
0
  6
CONTINUOUS
 62
     7
 10
36.2653736436
 20
222.5278611658
 30
0.0
  0
VERTEX
  5
56D
  8
0
  6
CONTINUOUS
 62
     7
 10
36.3090172821
 20
222.5848338929
 30
0.0
  0
VERTEX
  5
56E
  8
0
  6
CONTINUOUS
 62
     7
 10
36.3393099458
 20
222.6403174353
 30
0.0
  0
VERTEX
  5
56F
  8
0
  6
CONTINUOUS
 62
     7
 10
36.3565841169
 20
222.6935807047
 30
0.0
  0
VERTEX
  5
570
  8
0
  6
CONTINUOUS
 62
     7
 10
36.3612714634
 20
222.7450763238
 30
0.0
  0
VERTEX
  5
571
  8
0
  6
CONTINUOUS
 62
     7
 10
36.3533659317
 20
222.7939204676
 30
0.0
  0
VERTEX
  5
572
  8
0
  6
CONTINUOUS
 62
     7
 10
36.3330435418
 20
222.8397676153
 30
0.0
  0
VERTEX
  5
573
  8
0
  6
CONTINUOUS
 62
     7
 10
36.3004803137
 20
222.8822722462
 30
0.0
  0
VERTEX
  5
574
  8
0
  6
CONTINUOUS
 62
     7
 10
36.2601847798
 20
222.9179316563
 30
0.0
  0
VERTEX
  5
575
  8
0
  6
CONTINUOUS
 62
     7
 10
36.2092339844
 20
222.9508436648
 30
0.0
  0
VERTEX
  5
576
  8
0
  6
CONTINUOUS
 62
     7
 10
36.1473410801
 20
222.980801518
 30
0.0
  0
VERTEX
  5
577
  8
0
  6
CONTINUOUS
 62
     7
 10
36.0742187538
 20
223.0075956685
 30
0.0
  0
VERTEX
  5
578
  8
0
  6
CONTINUOUS
 62
     7
 10
35.9895810895
 20
223.0310193626
 30
0.0
  0
VERTEX
  5
579
  8
0
  6
CONTINUOUS
 62
     7
 10
35.9121458084
 20
223.0474292663
 30
0.0
  0
VERTEX
  5
57A
  8
0
  6
CONTINUOUS
 62
     7
 10
35.8259803095
 20
223.0615453226
 30
0.0
  0
VERTEX
  5
57B
  8
0
  6
CONTINUOUS
 62
     7
 10
35.7311944888
 20
223.0731607777
 30
0.0
  0
VERTEX
  5
57C
  8
0
  6
CONTINUOUS
 62
     7
 10
35.6470106115
 20
223.0806877268
 30
0.0
  0
VERTEX
  5
57D
  8
0
  6
CONTINUOUS
 62
     7
 10
35.5568921138
 20
223.0863725198
 30
0.0
  0
VERTEX
  5
57E
  8
0
  6
CONTINUOUS
 62
     7
 10
35.4619312045
 20
223.0900819776
 30
0.0
  0
VERTEX
  5
57F
  8
0
  6
CONTINUOUS
 62
     7
 10
35.3617360295
 20
223.0917183114
 30
0.0
  0
VERTEX
  5
580
  8
0
  6
CONTINUOUS
 62
     7
 10
35.2583012489
 20
223.0912498561
 30
0.0
  0
VERTEX
  5
581
  8
0
  6
CONTINUOUS
 62
     7
 10
35.1542445776
 20
223.0887036202
 30
0.0
  0
VERTEX
  5
582
  8
0
  6
CONTINUOUS
 62
     7
 10
35.0659049061
 20
223.0849066181
 30
0.0
  0
VERTEX
  5
583
  8
0
  6
CONTINUOUS
 62
     7
 10
34.9788362571
 20
223.0797144947
 30
0.0
  0
VERTEX
  5
584
  8
0
  6
CONTINUOUS
 62
     7
 10
34.8943154738
 20
223.0732483221
 30
0.0
  0
VERTEX
  5
585
  8
0
  6
CONTINUOUS
 62
     7
 10
34.7818827201
 20
223.0622754795
 30
0.0
  0
VERTEX
  5
586
  8
0
  6
CONTINUOUS
 62
     7
 10
34.6756267306
 20
223.0491727022
 30
0.0
  0
VERTEX
  5
587
  8
0
  6
CONTINUOUS
 62
     7
 10
34.5765414593
 20
223.0341942412
 30
0.0
  0
VERTEX
  5
588
  8
0
  6
CONTINUOUS
 62
     7
 10
34.4740128555
 20
223.0153228519
 30
0.0
  0
VERTEX
  5
589
  8
0
  6
CONTINUOUS
 62
     7
 10
34.3796931618
 20
222.9942749617
 30
0.0
  0
VERTEX
  5
58A
  8
0
  6
CONTINUOUS
 62
     7
 10
34.2935737633
 20
222.9711856124
 30
0.0
  0
VERTEX
  5
58B
  8
0
  6
CONTINUOUS
 62
     7
 10
34.2156460454
 20
222.9461898459
 30
0.0
  0
VERTEX
  5
58C
  8
0
  6
CONTINUOUS
 62
     7
 10
34.1190047973
 20
222.9077318115
 30
0.0
  0
VERTEX
  5
58D
  8
0
  6
CONTINUOUS
 62
     7
 10
34.0368330424
 20
222.8653361452
 30
0.0
  0
VERTEX
  5
58E
  8
0
  6
CONTINUOUS
 62
     7
 10
33.9693608173
 20
222.8192217079
 30
0.0
  0
VERTEX
  5
58F
  8
0
  6
CONTINUOUS
 62
     7
 10
33.916818508
 20
222.7696092231
 30
0.0
  0
VERTEX
  5
590
  8
0
  6
CONTINUOUS
 62
     7
 10
33.8789313744
 20
222.7156502557
 30
0.0
  0
VERTEX
  5
591
  8
0
  6
CONTINUOUS
 62
     7
 10
33.8570896481
 20
222.6580600617
 30
0.0
  0
VERTEX
  5
592
  8
0
  6
CONTINUOUS
 62
     7
 10
33.8523396701
 20
222.5974859101
 30
0.0
  0
VERTEX
  5
593
  8
0
  6
CONTINUOUS
 62
     7
 10
33.8657274322
 20
222.5345778642
 30
0.0
  0
VERTEX
  5
594
  8
0
  6
CONTINUOUS
 62
     7
 10
33.8868447059
 20
222.4888955606
 30
0.0
  0
VERTEX
  5
595
  8
0
  6
CONTINUOUS
 62
     7
 10
33.9182128143
 20
222.4424747182
 30
0.0
  0
VERTEX
  5
596
  8
0
  6
CONTINUOUS
 62
     7
 10
33.9601800722
 20
222.3959411857
 30
0.0
  0
VERTEX
  5
597
  8
0
  6
CONTINUOUS
 62
     7
 10
34.0130945613
 20
222.3499226747
 30
0.0
  0
VERTEX
  5
598
  8
0
  6
CONTINUOUS
 62
     7
 10
34.0527696014
 20
222.3210842711
 30
0.0
  0
VERTEX
  5
599
  8
0
  6
CONTINUOUS
 62
     7
 10
34.0971589965
 20
222.2928409827
 30
0.0
  0
SEQEND
  5
59A
  8
0
  6
CONTINUOUS
 62
     7
  0
LINE
  5
1FC
  8
0
  6
CONTINUOUS
 62
     7
 10
32.5625574976
 20
222.2662079511
 30
0.0
 11
32.5625574976
 21
223.1490430785
 31
0.0
  0
LINE
  5
1FD
  8
0
  6
CONTINUOUS
 62
     7
 10
32.0625574739
 20
221.783097404
 30
0.0
 11
32.0625574739
 21
222.6490429965
 31
0.0
  0
LINE
  5
1FE
  8
0
  6
CONTINUOUS
 62
     7
 10
39.8075035252
 20
210.7378639411
 30
0.0
 11
39.7635301986
 21
210.7417111182
 31
0.0
  0
LINE
  5
1FF
  8
0
  6
CONTINUOUS
 62
     7
 10
39.8075035252
 20
210.7378639411
 30
0.0
 11
39.8162044064
 21
210.7682066052
 31
0.0
  0
LINE
  5
200
  8
0
  6
CONTINUOUS
 62
     7
 10
32.0625574739
 20
217.8399060284
 30
0.0
 11
32.0625574739
 21
212.9211887149
 31
0.0
  0
ARC
  5
201
  8
0
  6
CONTINUOUS
 62
     7
 10
43.2751789002
 20
200.7569515519
 30
0.0
 40
1.15229777198136
 50
92.318802824
 51
118.951037615
  0
LINE
  5
202
  8
0
  6
CONTINUOUS
 62
     7
 10
41.8214853332
 20
201.2665248839
 30
0.0
 11
42.7173952983
 21
201.7652509165
 31
0.0
  0
ARC
  5
203
  8
0
  6
CONTINUOUS
 62
     7
 10
41.2642841729
 20
202.2750588504
 30
0.0
 40
1.152221287250496
 50
270.9584193196
 51
298.9200472536
  0
LINE
  5
204
  8
0
  6
CONTINUOUS
 62
     7
 10
40.2139163987
 20
201.1044132886
 30
0.0
 11
41.2835571394
 21
201.1229987619
 31
0.0
  0
LINE
  5
205
  8
DÜNNE_LINIE
  6
CENTER
 62
     7
 10
26.4837041684
 20
211.5690433783
 30
0.0
 11
94.7175923755
 21
211.5690433783
 31
0.0
  0
LINE
  5
206
  8
DÜNNE_LINIE
  6
CONTINUOUS
 62
     7
 10
32.0625574739
 20
208.9360239444
 30
0.0
 11
38.8889396532
 21
208.3387928908
 31
0.0
  0
LINE
  5
207
  8
DÜNNE_LINIE
  6
CENTER
 62
     7
 10
102.3183480494
 20
211.5690433783
 30
0.0
 11
133.7572413512
 21
211.5690433783
 31
0.0
  0
POLYLINE
  5
208
  8
0
  6
CONTINUOUS
 62
     7
 66
     1
 10
0.0
 20
0.0
 30
0.0
  0
VERTEX
  5
59B
  8
0
  6
CONTINUOUS
 62
     7
 10
178.2794209539
 20
212.9774372223
 30
0.0
  0
VERTEX
  5
59C
  8
0
  6
CONTINUOUS
 62
     7
 10
178.2436139293
 20
212.9750808598
 30
0.0
  0
VERTEX
  5
59D
  8
0
  6
CONTINUOUS
 62
     7
 10
178.2060420483
 20
212.9720962038
 30
0.0
  0
VERTEX
  5
59E
  8
0
  6
CONTINUOUS
 62
     7
 10
178.1714860227
 20
212.9687916384
 30
0.0
  0
VERTEX
  5
59F
  8
0
  6
CONTINUOUS
 62
     7
 10
178.1401423614
 20
212.9651690265
 30
0.0
  0
VERTEX
  5
5A0
  8
0
  6
CONTINUOUS
 62
     7
 10
178.1121202621
 20
212.9612079951
 30
0.0
  0
VERTEX
  5
5A1
  8
0
  6
CONTINUOUS
 62
     7
 10
178.0873708304
 20
212.9568297313
 30
0.0
  0
VERTEX
  5
5A2
  8
0
  6
CONTINUOUS
 62
     7
 10
178.0654863797
 20
212.9517726497
 30
0.0
  0
VERTEX
  5
5A3
  8
0
  6
CONTINUOUS
 62
     7
 10
178.0448899481
 20
212.94495467
 30
0.0
  0
VERTEX
  5
5A4
  8
0
  6
CONTINUOUS
 62
     7
 10
178.0325762339
 20
212.9388696411
 30
0.0
  0
VERTEX
  5
5A5
  8
0
  6
CONTINUOUS
 62
     7
 10
178.0237880412
 20
212.9327550427
 30
0.0
  0
VERTEX
  5
5A6
  8
0
  6
CONTINUOUS
 62
     7
 10
178.0154329136
 20
212.9245225004
 30
0.0
  0
VERTEX
  5
5A7
  8
0
  6
CONTINUOUS
 62
     7
 10
178.0082587029
 20
212.9136419752
 30
0.0
  0
VERTEX
  5
5A8
  8
0
  6
CONTINUOUS
 62
     7
 10
178.0035352677
 20
212.9002046203
 30
0.0
  0
VERTEX
  5
5A9
  8
0
  6
CONTINUOUS
 62
     7
 10
178.0023720458
 20
212.8890424864
 30
0.0
  0
SEQEND
  5
5AA
  8
0
  6
CONTINUOUS
 62
     7
  0
LINE
  5
209
  8
0
  6
CONTINUOUS
 62
     7
 10
186.3917176488
 20
212.9860495114
 30
0.0
 11
178.5917173948
 21
212.9860495114
 31
0.0
  0
POLYLINE
  5
20A
  8
0
  6
CONTINUOUS
 62
     7
 66
     1
 10
0.0
 20
0.0
 30
0.0
  0
VERTEX
  5
5AB
  8
0
  6
CONTINUOUS
 62
     7
 10
186.9810622993
 20
212.8890424864
 30
0.0
  0
VERTEX
  5
5AC
  8
0
  6
CONTINUOUS
 62
     7
 10
186.9788513396
 20
212.9043623935
 30
0.0
  0
VERTEX
  5
5AD
  8
0
  6
CONTINUOUS
 62
     7
 10
186.9733882013
 20
212.9169083563
 30
0.0
  0
VERTEX
  5
5AE
  8
0
  6
CONTINUOUS
 62
     7
 10
186.9662403006
 20
212.926535787
 30
0.0
  0
VERTEX
  5
5AF
  8
0
  6
CONTINUOUS
 62
     7
 10
186.9583138141
 20
212.9338154699
 30
0.0
  0
VERTEX
  5
5B0
  8
0
  6
CONTINUOUS
 62
     7
 10
186.9496869731
 20
212.9395516021
 30
0.0
  0
VERTEX
  5
5B1
  8
0
  6
CONTINUOUS
 62
     7
 10
186.9394508067
 20
212.9445758545
 30
0.0
  0
VERTEX
  5
5B2
  8
0
  6
CONTINUOUS
 62
     7
 10
186.9248644325
 20
212.9497913774
 30
0.0
  0
VERTEX
  5
5B3
  8
0
  6
CONTINUOUS
 62
     7
 10
186.9032372597
 20
212.9553310004
 30
0.0
  0
VERTEX
  5
5B4
  8
0
  6
CONTINUOUS
 62
     7
 10
186.8800221819
 20
212.9597842358
 30
0.0
  0
VERTEX
  5
5B5
  8
0
  6
CONTINUOUS
 62
     7
 10
186.8515134666
 20
212.9640905549
 30
0.0
  0
VERTEX
  5
5B6
  8
0
  6
CONTINUOUS
 62
     7
 10
186.8202275473
 20
212.9679011777
 30
0.0
  0
VERTEX
  5
5B7
  8
0
  6
CONTINUOUS
 62
     7
 10
186.7859567392
 20
212.9713331013
 30
0.0
  0
VERTEX
  5
5B8
  8
0
  6
CONTINUOUS
 62
     7
 10
186.7487578529
 20
212.97441997
 30
0.0
  0
VERTEX
  5
5B9
  8
0
  6
CONTINUOUS
 62
     7
 10
186.708819947
 20
212.9771653925
 30
0.0
  0
VERTEX
  5
5BA
  8
0
  6
CONTINUOUS
 62
     7
 10
186.6941860754
 20
212.9779921742
 30
0.0
  0
SEQEND
  5
5BB
  8
0
  6
CONTINUOUS
 62
     7
  0
LINE
  5
20B
  8
0
  6
CONTINUOUS
 62
     7
 10
178.0023720458
 20
212.8890424864
 30
0.0
 11
178.0023720458
 21
212.8208066932
 31
0.0
  0
LINE
  5
20C
  8
0
  6
CONTINUOUS
 62
     7
 10
186.9810622993
 20
212.2092276476
 30
0.0
 11
186.9810622993
 21
212.8890424864
 31
0.0
  0
LINE
  5
20D
  8
0
  6
CONTINUOUS
 62
     7
 10
178.2832878053
 20
210.9285410623
 30
0.0
 11
178.5917173948
 21
209.7821616698
 31
0.0
  0
LINE
  5
20E
  8
0
  6
CONTINUOUS
 62
     7
 10
186.3917176488
 20
209.7821616698
 30
0.0
 11
186.8166577879
 21
211.3615937195
 31
0.0
  0
LINE
  5
20F
  8
0
  6
CONTINUOUS
 62
     7
 10
186.8167136672
 20
211.3618321672
 30
0.0
 11
186.9800583336
 21
212.1988513753
 31
0.0
  0
LINE
  5
210
  8
0
  6
CONTINUOUS
 62
     7
 10
186.9799791712
 20
212.198828849
 30
0.0
 11
186.9810622993
 21
212.2092276476
 31
0.0
  0
POLYLINE
  5
211
  8
0
  6
CONTINUOUS
 62
     7
 66
     1
 10
0.0
 20
0.0
 30
0.0
  0
VERTEX
  5
5BC
  8
0
  6
CONTINUOUS
 62
     7
 10
167.1788919594
 20
221.6818328378
 30
0.0
  0
VERTEX
  5
5BD
  8
0
  6
CONTINUOUS
 62
     7
 10
167.1667298179
 20
221.6722579104
 30
0.0
  0
VERTEX
  5
5BE
  8
0
  6
CONTINUOUS
 62
     7
 10
167.1585965778
 20
221.6612534029
 30
0.0
  0
VERTEX
  5
5BF
  8
0
  6
CONTINUOUS
 62
     7
 10
167.1538328629
 20
221.6502498267
 30
0.0
  0
VERTEX
  5
5C0
  8
0
  6
CONTINUOUS
 62
     7
 10
167.1514919836
 20
221.6397454394
 30
0.0
  0
VERTEX
  5
5C1
  8
0
  6
CONTINUOUS
 62
     7
 10
167.1508372638
 20
221.6294058961
 30
0.0
  0
VERTEX
  5
5C2
  8
0
  6
CONTINUOUS
 62
     7
 10
167.1516046736
 20
221.6180288596
 30
0.0
  0
VERTEX
  5
5C3
  8
0
  6
CONTINUOUS
 62
     7
 10
167.1543809462
 20
221.6027886969
 30
0.0
  0
VERTEX
  5
5C4
  8
0
  6
CONTINUOUS
 62
     7
 10
167.1603968244
 20
221.5812900466
 30
0.0
  0
VERTEX
  5
5C5
  8
0
  6
CONTINUOUS
 62
     7
 10
167.1681477565
 20
221.5589587939
 30
0.0
  0
VERTEX
  5
5C6
  8
0
  6
CONTINUOUS
 62
     7
 10
167.1786726329
 20
221.5321162147
 30
0.0
  0
VERTEX
  5
5C7
  8
0
  6
CONTINUOUS
 62
     7
 10
167.1910159166
 20
221.503115761
 30
0.0
  0
VERTEX
  5
5C8
  8
0
  6
CONTINUOUS
 62
     7
 10
167.2051790047
 20
221.4717208771
 30
0.0
  0
VERTEX
  5
5C9
  8
0
  6
CONTINUOUS
 62
     7
 10
167.2211050864
 20
221.4379622964
 30
0.0
  0
VERTEX
  5
5CA
  8
0
  6
CONTINUOUS
 62
     7
 10
167.2386968385
 20
221.4020020691
 30
0.0
  0
VERTEX
  5
5CB
  8
0
  6
CONTINUOUS
 62
     7
 10
167.2452971216
 20
221.3889160556
 30
0.0
  0
SEQEND
  5
5CC
  8
0
  6
CONTINUOUS
 62
     7
  0
LINE
  5
212
  8
0
  6
CONTINUOUS
 62
     7
 10
167.3895538661
 20
221.1229415042
 30
0.0
 11
171.2895539932
 21
214.3679431537
 31
0.0
  0
POLYLINE
  5
213
  8
0
  6
CONTINUOUS
 62
     7
 66
     1
 10
0.0
 20
0.0
 30
0.0
  0
VERTEX
  5
5CD
  8
0
  6
CONTINUOUS
 62
     7
 10
171.453160594
 20
214.1017928151
 30
0.0
  0
VERTEX
  5
5CE
  8
0
  6
CONTINUOUS
 62
     7
 10
171.4731048669
 20
214.071961156
 30
0.0
  0
VERTEX
  5
5CF
  8
0
  6
CONTINUOUS
 62
     7
 10
171.4944754604
 20
214.0409152852
 30
0.0
  0
VERTEX
  5
5D0
  8
0
  6
CONTINUOUS
 62
     7
 10
171.5146153111
 20
214.0126410303
 30
0.0
  0
VERTEX
  5
5D1
  8
0
  6
CONTINUOUS
 62
     7
 10
171.5334245346
 20
213.987308125
 30
0.0
  0
VERTEX
  5
5D2
  8
0
  6
CONTINUOUS
 62
     7
 10
171.5508658781
 20
213.9650206444
 30
0.0
  0
VERTEX
  5
5D3
  8
0
  6
CONTINUOUS
 62
     7
 10
171.567032241
 20
213.9457762604
 30
0.0
  0
VERTEX
  5
5D4
  8
0
  6
CONTINUOUS
 62
     7
 10
171.5823541272
 20
213.929352154
 30
0.0
  0
VERTEX
  5
5D5
  8
0
  6
CONTINUOUS
 62
     7
 10
171.5985568117
 20
213.9149243375
 30
0.0
  0
VERTEX
  5
5D6
  8
0
  6
CONTINUOUS
 62
     7
 10
171.6099834412
 20
213.9073026264
 30
0.0
  0
VERTEX
  5
5D7
  8
0
  6
CONTINUOUS
 62
     7
 10
171.6196729213
 20
213.9027491575
 30
0.0
  0
VERTEX
  5
5D8
  8
0
  6
CONTINUOUS
 62
     7
 10
171.6309801086
 20
213.8996296925
 30
0.0
  0
VERTEX
  5
5D9
  8
0
  6
CONTINUOUS
 62
     7
 10
171.6439899865
 20
213.8988571604
 30
0.0
  0
VERTEX
  5
5DA
  8
0
  6
CONTINUOUS
 62
     7
 10
171.657988929
 20
213.9014851199
 30
0.0
  0
VERTEX
  5
5DB
  8
0
  6
CONTINUOUS
 62
     7
 10
171.6682372026
 20
213.9060588451
 30
0.0
  0
SEQEND
  5
5DC
  8
0
  6
CONTINUOUS
 62
     7
  0
LINE
  5
214
  8
0
  6
CONTINUOUS
 62
     7
 10
167.7676289219
 20
222.0217404318
 30
0.0
 11
167.1788919594
 21
221.6818328378
 31
0.0
  0
LINE
  5
215
  8
0
  6
CONTINUOUS
 62
     7
 10
171.6682372026
 20
213.9060588451
 30
0.0
 11
171.7273310169
 21
213.9401766834
 31
0.0
  0
LINE
  5
216
  8
0
  6
CONTINUOUS
 62
     7
 10
170.1642022345
 20
222.7248852504
 30
0.0
 11
168.5839033562
 21
222.3031786633
 31
0.0
  0
LINE
  5
217
  8
0
  6
CONTINUOUS
 62
     7
 10
173.2256233336
 20
215.1295896982
 30
0.0
 11
174.0642022742
 21
215.9698871327
 31
0.0
  0
LINE
  5
218
  8
0
  6
CONTINUOUS
 62
     7
 10
168.5836691286
 20
222.3031078828
 30
0.0
 11
167.7771167706
 21
222.0260589746
 31
0.0
  0
LINE
  5
219
  8
0
  6
CONTINUOUS
 62
     7
 10
167.7771763753
 20
222.0260012326
 30
0.0
 11
167.7676289219
 21
222.0217404318
 31
0.0
  0
POLYLINE
  5
21A
  8
0
  6
CONTINUOUS
 62
     7
 66
     1
 10
0.0
 20
0.0
 30
0.0
  0
VERTEX
  5
5DD
  8
0
  6
CONTINUOUS
 62
     7
 10
169.4651976104
 20
200.1362550435
 30
0.0
  0
VERTEX
  5
5DE
  8
0
  6
CONTINUOUS
 62
     7
 10
169.4795702461
 20
200.1305097145
 30
0.0
  0
VERTEX
  5
5DF
  8
0
  6
CONTINUOUS
 62
     7
 10
169.49316709
 20
200.1289683757
 30
0.0
  0
VERTEX
  5
5E0
  8
0
  6
CONTINUOUS
 62
     7
 10
169.5050787057
 20
200.1303448704
 30
0.0
  0
VERTEX
  5
5E1
  8
0
  6
CONTINUOUS
 62
     7
 10
169.5153465371
 20
200.1335691092
 30
0.0
  0
VERTEX
  5
5E2
  8
0
  6
CONTINUOUS
 62
     7
 10
169.5246271666
 20
200.1381726367
 30
0.0
  0
VERTEX
  5
5E3
  8
0
  6
CONTINUOUS
 62
     7
 10
169.5340968545
 20
200.144525188
 30
0.0
  0
VERTEX
  5
5E4
  8
0
  6
CONTINUOUS
 62
     7
 10
169.5459064904
 20
200.1545499442
 30
0.0
  0
VERTEX
  5
5E5
  8
0
  6
CONTINUOUS
 62
     7
 10
169.5615173194
 20
200.1705090878
 30
0.0
  0
VERTEX
  5
5E6
  8
0
  6
CONTINUOUS
 62
     7
 10
169.5769819308
 20
200.1883876873
 30
0.0
  0
VERTEX
  5
5E7
  8
0
  6
CONTINUOUS
 62
     7
 10
169.594965304
 20
200.2109228996
 30
0.0
  0
VERTEX
  5
5E8
  8
0
  6
CONTINUOUS
 62
     7
 10
169.6139088708
 20
200.2361133126
 30
0.0
  0
VERTEX
  5
5E9
  8
0
  6
CONTINUOUS
 62
     7
 10
169.6340161252
 20
200.2640762729
 30
0.0
  0
VERTEX
  5
5EA
  8
0
  6
CONTINUOUS
 62
     7
 10
169.6552889298
 20
200.2947475193
 30
0.0
  0
VERTEX
  5
5EB
  8
0
  6
CONTINUOUS
 62
     7
 10
169.6776355493
 20
200.3279631389
 30
0.0
  0
VERTEX
  5
5EC
  8
0
  6
CONTINUOUS
 62
     7
 10
169.6856682065
 20
200.3402221379
 30
0.0
  0
SEQEND
  5
5ED
  8
0
  6
CONTINUOUS
 62
     7
  0
LINE
  5
21B
  8
0
  6
CONTINUOUS
 62
     7
 10
169.8438803542
 20
200.5981388865
 30
0.0
 11
173.7438805976
 21
207.3531374698
 31
0.0
  0
POLYLINE
  5
21C
  8
0
  6
CONTINUOUS
 62
     7
 66
     1
 10
0.0
 20
0.0
 30
0.0
  0
VERTEX
  5
5EE
  8
0
  6
CONTINUOUS
 62
     7
 10
173.8925703212
 20
207.6278999811
 30
0.0
  0
VERTEX
  5
5EF
  8
0
  6
CONTINUOUS
 62
     7
 10
173.9084331312
 20
207.6600883519
 30
0.0
  0
VERTEX
  5
5F0
  8
0
  6
CONTINUOUS
 62
     7
 10
173.9246342441
 20
207.6941186459
 30
0.0
  0
VERTEX
  5
5F1
  8
0
  6
CONTINUOUS
 62
     7
 10
173.9390505354
 20
207.7256974661
 30
0.0
  0
VERTEX
  5
5F2
  8
0
  6
CONTINUOUS
 62
     7
 10
173.9515850896
 20
207.7546529835
 30
0.0
  0
VERTEX
  5
5F3
  8
0
  6
CONTINUOUS
 62
     7
 10
173.9621657289
 20
207.7809013789
 30
0.0
  0
VERTEX
  5
5F4
  8
0
  6
CONTINUOUS
 62
     7
 10
173.9707487978
 20
207.8045241432
 30
0.0
  0
VERTEX
  5
5F5
  8
0
  6
CONTINUOUS
 62
     7
 10
173.9773114787
 20
207.8260050984
 30
0.0
  0
VERTEX
  5
5F6
  8
0
  6
CONTINUOUS
 62
     7
 10
173.9817051094
 20
207.8472511274
 30
0.0
  0
VERTEX
  5
5F7
  8
0
  6
CONTINUOUS
 62
     7
 10
173.9825921941
 20
207.8609578674
 30
0.0
  0
VERTEX
  5
5F8
  8
0
  6
CONTINUOUS
 62
     7
 10
173.9816909067
 20
207.8716259347
 30
0.0
  0
VERTEX
  5
5F9
  8
0
  6
CONTINUOUS
 62
     7
 10
173.9787389052
 20
207.8829778255
 30
0.0
  0
VERTEX
  5
5FA
  8
0
  6
CONTINUOUS
 62
     7
 10
173.9729030633
 20
207.8946309993
 30
0.0
  0
VERTEX
  5
5FB
  8
0
  6
CONTINUOUS
 62
     7
 10
173.9636277889
 20
207.9054403947
 30
0.0
  0
VERTEX
  5
5FC
  8
0
  6
CONTINUOUS
 62
     7
 10
173.9545426208
 20
207.9120288034
 30
0.0
  0
SEQEND
  5
5FD
  8
0
  6
CONTINUOUS
 62
     7
  0
LINE
  5
21D
  8
0
  6
CONTINUOUS
 62
     7
 10
168.8764606479
 20
200.4761626375
 30
0.0
 11
169.4651976104
 21
200.1362550435
 31
0.0
  0
LINE
  5
21E
  8
0
  6
CONTINUOUS
 62
     7
 10
173.9545426208
 20
207.9120288034
 30
0.0
 11
173.8954486901
 21
207.9461466418
 31
0.0
  0
LINE
  5
21F
  8
0
  6
CONTINUOUS
 62
     7
 10
167.0692324515
 20
202.200083564
 30
0.0
 11
168.2245902594
 21
201.0423574028
 31
0.0
  0
LINE
  5
220
  8
0
  6
CONTINUOUS
 62
     7
 10
172.1162408467
 20
208.6489994907
 30
0.0
 11
170.9692323457
 21
208.9550814488
 31
0.0
  0
LINE
  5
221
  8
0
  6
CONTINUOUS
 62
     7
 10
168.2247690733
 20
201.0421906961
 30
0.0
 11
168.8679762993
 21
200.4822199596
 31
0.0
  0
LINE
  5
222
  8
0
  6
CONTINUOUS
 62
     7
 10
168.8679967884
 20
200.4823000533
 30
0.0
 11
168.8764606479
 21
200.4761626375
 31
0.0
  0
ARC
  5
223
  8
0
  6
CONTINUOUS
 62
     7
 10
174.5417172897
 20
211.5690433783
 30
0.0
 40
11.81385824305345
 50
186.6658206842
 51
224.1315901535
  0
ARC
  5
224
  8
0
  6
CONTINUOUS
 62
     7
 10
174.5417172897
 20
211.5690433783
 30
0.0
 40
11.81385824305346
 50
66.6659137513
 51
104.1315901535
  0
ARC
  5
225
  8
0
  6
CONTINUOUS
 62
     7
 10
174.5417172897
 20
211.5690433783
 30
0.0
 40
11.81385824305344
 50
306.6658565096
 51
344.1315901535
  0
LINE
  5
226
  8
0
  6
CONTINUOUS
 62
     7
 10
178.5917173948
 20
210.4619763921
 30
0.0
 11
178.5917173948
 21
212.079323166
 31
0.0
  0
LINE
  5
227
  8
0
  6
CONTINUOUS
 62
     7
 10
178.5917173948
 20
212.079323166
 30
0.0
 11
186.3917176488
 21
212.079323166
 31
0.0
  0
LINE
  5
228
  8
0
  6
CONTINUOUS
 62
     7
 10
186.3917176488
 20
210.4619763921
 30
0.0
 11
186.3917176488
 21
212.079323166
 31
0.0
  0
LINE
  5
229
  8
0
  6
CONTINUOUS
 62
     7
 10
185.994171432
 20
208.9493107413
 30
0.0
 11
186.3917176488
 21
210.4619763921
 31
0.0
  0
LINE
  5
22A
  8
0
  6
CONTINUOUS
 62
     7
 10
178.9892636116
 20
208.9493107413
 30
0.0
 11
185.994171432
 21
208.9493107413
 31
0.0
  0
LINE
  5
22B
  8
0
  6
CONTINUOUS
 62
     7
 10
178.9892636116
 20
208.9493107413
 30
0.0
 11
178.5917173948
 21
210.4619763921
 31
0.0
  0
ARC
  5
22C
  8
0
  6
CONTINUOUS
 62
     7
 10
178.4862599023
 20
210.8322934518
 30
0.0
 40
1.251480879158834
 50
85.1661722587
 51
104.795962893
  0
ARC
  5
22D
  8
0
  6
CONTINUOUS
 62
     7
 10
186.4971749168
 20
210.8322928854
 30
0.0
 40
1.2514814245776
 50
75.2040441006
 51
94.8338153182
  0
LINE
  5
22E
  8
0
  6
CONTINUOUS
 62
     7
 10
178.5917173948
 20
210.4619763921
 30
0.0
 11
178.1666596762
 21
212.0422769584
 31
0.0
  0
LINE
  5
22F
  8
0
  6
CONTINUOUS
 62
     7
 10
186.3917176488
 20
210.4619763921
 30
0.0
 11
186.8167751345
 21
212.0422769584
 31
0.0
  0
ARC
  5
230
  8
0
  6
CONTINUOUS
 62
     7
 10
178.5807695453
 20
207.742437892
 30
0.0
 40
5.243432709427009
 50
89.8803711122
 51
93.22184879
  0
ARC
  5
231
  8
0
  6
CONTINUOUS
 62
     7
 10
186.4022557245
 20
207.7121833834
 30
0.0
 40
5.273686317798476
 50
86.8646817925
 51
90.1144906281
  0
LINE
  5
232
  8
0
  6
CONTINUOUS
 62
     7
 10
178.5917173948
 20
209.7821616698
 30
0.0
 11
178.2832878053
 21
210.9288561404
 31
0.0
  0
LINE
  5
233
  8
0
  6
CONTINUOUS
 62
     7
 10
178.1666596762
 20
212.0422769584
 30
0.0
 11
178.1666596762
 21
212.0177508403
 31
0.0
  0
LINE
  5
234
  8
0
  6
CONTINUOUS
 62
     7
 10
178.9892636116
 20
208.9360240278
 30
0.0
 11
178.9892636116
 21
208.9493107413
 31
0.0
  0
LINE
  5
235
  8
0
  6
CONTINUOUS
 62
     7
 10
178.8247687619
 20
208.9360240278
 30
0.0
 11
178.5917173948
 21
209.7821616698
 31
0.0
  0
LINE
  5
236
  8
0
  6
CONTINUOUS
 62
     7
 10
186.8167751345
 20
212.0422769584
 30
0.0
 11
186.8167751345
 21
211.3624621778
 31
0.0
  0
LINE
  5
237
  8
0
  6
CONTINUOUS
 62
     7
 10
186.3917176488
 20
209.7821616698
 30
0.0
 11
186.8167751345
 21
211.3624621778
 31
0.0
  0
LINE
  5
238
  8
0
  6
CONTINUOUS
 62
     7
 10
185.994171432
 20
208.3387929378
 30
0.0
 11
186.3917176488
 21
209.7821616698
 31
0.0
  0
LINE
  5
239
  8
0
  6
CONTINUOUS
 62
     7
 10
185.994171432
 20
208.9493107413
 30
0.0
 11
185.994171432
 21
208.3387929378
 31
0.0
  0
LINE
  5
23A
  8
0
  6
CONTINUOUS
 62
     7
 10
185.994171432
 20
208.3387929378
 30
0.0
 11
185.8383332256
 21
208.3387929378
 31
0.0
  0
LINE
  5
23B
  8
0
  6
CONTINUOUS
 62
     7
 10
186.8166577879
 20
211.3615937195
 30
0.0
 11
186.8167751345
 21
211.3624621778
 31
0.0
  0
LINE
  5
23C
  8
0
  6
CONTINUOUS
 62
     7
 10
173.475465399
 20
215.6299795387
 30
0.0
 11
172.0748021144
 21
214.8213063264
 31
0.0
  0
LINE
  5
23D
  8
0
  6
CONTINUOUS
 62
     7
 10
172.0748021144
 20
214.8213063264
 30
0.0
 11
168.1748022202
 21
221.5763046769
 31
0.0
  0
LINE
  5
23E
  8
0
  6
CONTINUOUS
 62
     7
 10
169.575465272
 20
222.3849776564
 30
0.0
 11
168.1748022202
 21
221.5763046769
 31
0.0
  0
LINE
  5
23F
  8
0
  6
CONTINUOUS
 62
     7
 10
171.0842453286
 20
222.797025497
 30
0.0
 11
169.575465272
 21
222.3849776564
 31
0.0
  0
LINE
  5
240
  8
0
  6
CONTINUOUS
 62
     7
 10
174.5866991078
 20
216.7305979309
 30
0.0
 11
171.0842453286
 21
222.797025497
 31
0.0
  0
LINE
  5
241
  8
0
  6
CONTINUOUS
 62
     7
 10
174.5866991078
 20
216.7305979309
 30
0.0
 11
173.475465399
 21
215.6299795387
 31
0.0
  0
ARC
  5
242
  8
0
  6
CONTINUOUS
 62
     7
 10
169.2020265699
 20
222.2911459792
 30
0.0
 40
1.251474311432093
 50
195.2040027585
 51
214.8339018791
  0
ARC
  5
243
  8
0
  6
CONTINUOUS
 62
     7
 10
173.2074880647
 20
215.3534907069
 30
0.0
 40
1.251478196764366
 50
205.1661485644
 51
224.7959713052
  0
LINE
  5
244
  8
0
  6
CONTINUOUS
 62
     7
 10
169.575465272
 20
222.3849776564
 30
0.0
 11
167.9943561431
 21
221.9629385871
 31
0.0
  0
LINE
  5
245
  8
0
  6
CONTINUOUS
 62
     7
 10
173.475465399
 20
215.6299795387
 30
0.0
 11
172.3194137558
 21
214.4717187983
 31
0.0
  0
ARC
  5
246
  8
0
  6
CONTINUOUS
 62
     7
 10
171.9526285392
 20
223.7695695001
 30
0.0
 40
5.274872797847092
 50
206.8650806344
 51
210.1141587913
  0
ARC
  5
247
  8
0
  6
CONTINUOUS
 62
     7
 10
175.8360792673
 20
216.9802372163
 30
0.0
 40
5.243374477672297
 50
209.8803499527
 51
213.2218641877
  0
LINE
  5
248
  8
0
  6
CONTINUOUS
 62
     7
 10
167.9943561431
 20
221.9629385871
 30
0.0
 11
168.5830931056
 21
222.3028461812
 31
0.0
  0
LINE
  5
249
  8
0
  6
CONTINUOUS
 62
     7
 10
170.1642022345
 20
222.7248852504
 30
0.0
 11
168.5830931056
 21
222.3028461812
 31
0.0
  0
LINE
  5
24A
  8
0
  6
CONTINUOUS
 62
     7
 10
171.6129694942
 20
223.102284166
 30
0.0
 11
170.1642022345
 21
222.7248852504
 31
0.0
  0
LINE
  5
24B
  8
0
  6
CONTINUOUS
 62
     7
 10
171.0842453286
 20
222.797025497
 30
0.0
 11
171.6129694942
 21
223.102284166
 31
0.0
  0
LINE
  5
24C
  8
0
  6
CONTINUOUS
 62
     7
 10
174.0642022742
 20
215.9698871327
 30
0.0
 11
173.2253504561
 21
215.1294320719
 31
0.0
  0
LINE
  5
24D
  8
0
  6
CONTINUOUS
 62
     7
 10
172.3194137558
 20
214.4717187983
 30
0.0
 11
172.3406541969
 21
214.4839817555
 31
0.0
  0
LINE
  5
24E
  8
0
  6
CONTINUOUS
 62
     7
 10
174.5982058601
 20
216.7372410548
 30
0.0
 11
174.5866991078
 21
216.7305979309
 31
0.0
  0
LINE
  5
24F
  8
0
  6
CONTINUOUS
 62
     7
 10
174.6804533723
 20
216.5947840912
 30
0.0
 11
174.0642022742
 21
215.9698871327
 31
0.0
  0
LINE
  5
250
  8
0
  6
CONTINUOUS
 62
     7
 10
171.6129694942
 20
223.102284166
 30
0.0
 11
171.6908881317
 21
222.9673252804
 31
0.0
  0
LINE
  5
251
  8
0
  6
CONTINUOUS
 62
     7
 10
168.5839033562
 20
222.3031786633
 30
0.0
 11
168.5830931056
 21
222.3028461812
 31
0.0
  0
LINE
  5
252
  8
0
  6
CONTINUOUS
 62
     7
 10
171.5579693082
 20
208.6151738548
 30
0.0
 11
172.9586325928
 21
207.8065006425
 31
0.0
  0
LINE
  5
253
  8
0
  6
CONTINUOUS
 62
     7
 10
172.9586325928
 20
207.8065006425
 30
0.0
 11
169.0586324658
 21
201.0515020592
 31
0.0
  0
LINE
  5
254
  8
0
  6
CONTINUOUS
 62
     7
 10
167.657969414
 20
201.86017597
 30
0.0
 11
169.0586324658
 21
201.0515020592
 31
0.0
  0
LINE
  5
255
  8
0
  6
CONTINUOUS
 62
     7
 10
166.5467358071
 20
202.9607934309
 30
0.0
 11
167.657969414
 21
201.86017597
 31
0.0
  0
LINE
  5
256
  8
0
  6
CONTINUOUS
 62
     7
 10
170.0491890188
 20
209.0272216955
 30
0.0
 11
166.5467358071
 21
202.9607934309
 31
0.0
  0
LINE
  5
257
  8
0
  6
CONTINUOUS
 62
     7
 10
170.0491890188
 20
209.0272216955
 30
0.0
 11
171.5579693082
 21
208.6151738548
 31
0.0
  0
ARC
  5
258
  8
0
  6
CONTINUOUS
 62
     7
 10
167.9259505484
 20
201.5836859711
 30
0.0
 40
1.251474347316867
 50
315.2039290079
 51
334.8337923375
  0
ARC
  5
259
  8
0
  6
CONTINUOUS
 62
     7
 10
171.9314042129
 20
208.5213430984
 30
0.0
 40
1.251478278356436
 50
325.1661601599
 51
344.7959918669
  0
LINE
  5
25A
  8
0
  6
CONTINUOUS
 62
     7
 10
167.657969414
 20
201.86017597
 30
0.0
 11
168.8140205916
 21
200.7019152296
 31
0.0
  0
LINE
  5
25B
  8
0
  6
CONTINUOUS
 62
     7
 10
171.5579693082
 20
208.6151738548
 30
0.0
 11
173.1390784371
 21
208.1931345527
 31
0.0
  0
ARC
  5
25C
  8
0
  6
CONTINUOUS
 62
     7
 10
165.2704281423
 20
203.22648454
 30
0.0
 40
5.274718782692919
 50
326.8650143203
 51
330.1141945923
  0
ARC
  5
25D
  8
0
  6
CONTINUOUS
 62
     7
 10
169.2083805054
 20
209.9843504228
 30
0.0
 40
5.24328599740709
 50
329.8803733439
 51
333.2219468575
  0
LINE
  5
25E
  8
0
  6
CONTINUOUS
 62
     7
 10
168.8140205916
 20
200.7019152296
 30
0.0
 11
168.225283629
 21
201.0418218923
 31
0.0
  0
LINE
  5
25F
  8
0
  6
CONTINUOUS
 62
     7
 10
167.0692324515
 20
202.200083564
 30
0.0
 11
168.225283629
 21
201.0418218923
 31
0.0
  0
LINE
  5
260
  8
0
  6
CONTINUOUS
 62
     7
 10
166.0180118743
 20
203.2660530311
 30
0.0
 11
167.0692324515
 21
202.200083564
 31
0.0
  0
LINE
  5
261
  8
0
  6
CONTINUOUS
 62
     7
 10
166.5467358071
 20
202.9607934309
 30
0.0
 11
166.0180118743
 21
203.2660530311
 31
0.0
  0
LINE
  5
262
  8
0
  6
CONTINUOUS
 62
     7
 10
170.9692323457
 20
208.9550814488
 30
0.0
 11
172.1165137242
 21
208.6488418644
 31
0.0
  0
LINE
  5
263
  8
0
  6
CONTINUOUS
 62
     7
 10
173.1390784371
 20
208.1931345527
 30
0.0
 11
173.1178382288
 21
208.2053975099
 31
0.0
  0
LINE
  5
264
  8
0
  6
CONTINUOUS
 62
     7
 10
170.0376825284
 20
209.0338650522
 30
0.0
 11
170.0491890188
 21
209.0272216955
 31
0.0
  0
LINE
  5
265
  8
0
  6
CONTINUOUS
 62
     7
 10
170.1199299533
 20
209.1763217831
 30
0.0
 11
170.9692323457
 21
208.9550814488
 31
0.0
  0
LINE
  5
266
  8
0
  6
CONTINUOUS
 62
     7
 10
166.0180118743
 20
203.2660530311
 30
0.0
 11
166.0959300462
 21
203.4010119168
 31
0.0
  0
LINE
  5
267
  8
0
  6
CONTINUOUS
 62
     7
 10
168.2245902594
 20
201.0423574028
 30
0.0
 11
168.225283629
 21
201.0418218923
 31
0.0
  0
ARC
  5
268
  8
0
  6
CONTINUOUS
 62
     7
 10
163.097882786
 20
209.6078559215
 30
0.0
 40
0.6565451942924703
 50
103.5918450558
 51
116.1857147997
  0
LINE
  5
269
  8
0
  6
CONTINUOUS
 62
     7
 10
163.4620361838
 20
210.4063929654
 30
0.0
 11
162.9435921896
 21
210.2460142122
 31
0.0
  0
ARC
  5
26A
  8
0
  6
CONTINUOUS
 62
     7
 10
163.2997818296
 20
211.0766578153
 30
0.0
 40
0.6896241327889183
 50
283.6080931889
 51
295.6478150077
  0
LINE
  5
26B
  8
0
  6
CONTINUOUS
 62
     7
 10
163.5828501422
 20
210.6186597738
 30
0.0
 11
163.5982775006
 21
210.4549812283
 31
0.0
  0
LINE
  5
26C
  8
0
  6
CONTINUOUS
 62
     7
 10
168.7753069091
 20
211.9828480717
 30
0.0
 11
163.5828501422
 21
210.6186597738
 31
0.0
  0
LINE
  5
26D
  8
0
  6
CONTINUOUS
 62
     7
 10
163.5490245062
 20
210.1808376973
 30
0.0
 11
167.4902056221
 21
211.2408944885
 31
0.0
  0
LINE
  5
26E
  8
0
  6
CONTINUOUS
 62
     7
 10
163.0603222984
 20
210.0610742708
 30
0.0
 11
163.5490245062
 21
210.1808376973
 31
0.0
  0
LINE
  5
26F
  8
0
  6
CONTINUOUS
 62
     7
 10
163.0157827276
 20
210.0849509369
 30
0.0
 11
163.0603222984
 21
210.0610742708
 31
0.0
  0
POLYLINE
  5
270
  8
0
  6
CONTINUOUS
 62
     7
 66
     1
 10
0.0
 20
0.0
 30
0.0
  0
VERTEX
  5
5FE
  8
0
  6
CONTINUOUS
 62
     7
 10
162.9606763709
 20
210.114573514
 30
0.0
  0
VERTEX
  5
5FF
  8
0
  6
CONTINUOUS
 62
     7
 10
163.0301874939
 20
210.132316024
 30
0.0
  0
VERTEX
  5
600
  8
0
  6
CONTINUOUS
 62
     7
 10
163.0963561002
 20
210.1490924032
 30
0.0
  0
VERTEX
  5
601
  8
0
  6
CONTINUOUS
 62
     7
 10
163.1589875433
 20
210.1648538736
 30
0.0
  0
VERTEX
  5
602
  8
0
  6
CONTINUOUS
 62
     7
 10
163.2179011467
 20
210.1795544512
 30
0.0
  0
VERTEX
  5
603
  8
0
  6
CONTINUOUS
 62
     7
 10
163.2729236845
 20
210.1931512951
 30
0.0
  0
VERTEX
  5
604
  8
0
  6
CONTINUOUS
 62
     7
 10
163.3238968316
 20
210.2056048242
 30
0.0
  0
VERTEX
  5
605
  8
0
  6
CONTINUOUS
 62
     7
 10
163.3706697139
 20
210.2168788332
 30
0.0
  0
VERTEX
  5
606
  8
0
  6
CONTINUOUS
 62
     7
 10
163.413108221
 20
210.226940493
 30
0.0
  0
VERTEX
  5
607
  8
0
  6
CONTINUOUS
 62
     7
 10
163.4510884869
 20
210.2357603507
 30
0.0
  0
VERTEX
  5
608
  8
0
  6
CONTINUOUS
 62
     7
 10
163.484498753
 20
210.2433129111
 30
0.0
  0
VERTEX
  5
609
  8
0
  6
CONTINUOUS
 62
     7
 10
163.5132421616
 20
210.2495760554
 30
0.0
  0
VERTEX
  5
60A
  8
0
  6
CONTINUOUS
 62
     7
 10
163.5372358251
 20
210.2545316228
 30
0.0
  0
VERTEX
  5
60B
  8
0
  6
CONTINUOUS
 62
     7
 10
163.5564089629
 20
210.2581650614
 30
0.0
  0
VERTEX
  5
60C
  8
0
  6
CONTINUOUS
 62
     7
 10
163.5707056958
 20
210.2604658938
 30
0.0
  0
VERTEX
  5
60D
  8
0
  6
CONTINUOUS
 62
     7
 10
163.5800850454
 20
210.2614274844
 30
0.0
  0
VERTEX
  5
60E
  8
0
  6
CONTINUOUS
 62
     7
 10
163.5845190722
 20
210.2610469227
 30
0.0
  0
VERTEX
  5
60F
  8
0
  6
CONTINUOUS
 62
     7
 10
163.5839956689
 20
210.2593252565
 30
0.0
  0
VERTEX
  5
610
  8
0
  6
CONTINUOUS
 62
     7
 10
163.5785157669
 20
210.2562676081
 30
0.0
  0
VERTEX
  5
611
  8
0
  6
CONTINUOUS
 62
     7
 10
163.5680951986
 20
210.2518829414
 30
0.0
  0
VERTEX
  5
612
  8
0
  6
CONTINUOUS
 62
     7
 10
163.5527646977
 20
210.2461838293
 30
0.0
  0
VERTEX
  5
613
  8
0
  6
CONTINUOUS
 62
     7
 10
163.5325689677
 20
210.2391870357
 30
0.0
  0
VERTEX
  5
614
  8
0
  6
CONTINUOUS
 62
     7
 10
163.5075666818
 20
210.2309128167
 30
0.0
  0
VERTEX
  5
615
  8
0
  6
CONTINUOUS
 62
     7
 10
163.477829552
 20
210.2213853867
 30
0.0
  0
VERTEX
  5
616
  8
0
  6
CONTINUOUS
 62
     7
 10
163.4434460539
 20
210.2106324527
 30
0.0
  0
VERTEX
  5
617
  8
0
  6
CONTINUOUS
 62
     7
 10
163.404515839
 20
210.1986853303
 30
0.0
  0
VERTEX
  5
618
  8
0
  6
CONTINUOUS
 62
     7
 10
163.3611506659
 20
210.1855788277
 30
0.0
  0
VERTEX
  5
619
  8
0
  6
CONTINUOUS
 62
     7
 10
163.3134790573
 20
210.1713510127
 30
0.0
  0
VERTEX
  5
61A
  8
0
  6
CONTINUOUS
 62
     7
 10
163.2616388488
 20
210.1560433292
 30
0.0
  0
VERTEX
  5
61B
  8
0
  6
CONTINUOUS
 62
     7
 10
163.2057809148
 20
210.1397004807
 30
0.0
  0
VERTEX
  5
61C
  8
0
  6
CONTINUOUS
 62
     7
 10
163.1460673052
 20
210.122370081
 30
0.0
  0
VERTEX
  5
61D
  8
0
  6
CONTINUOUS
 62
     7
 10
163.0826740402
 20
210.1041024215
 30
0.0
  0
VERTEX
  5
61E
  8
0
  6
CONTINUOUS
 62
     7
 10
163.0157827276
 20
210.0849509369
 30
0.0
  0
SEQEND
  5
61F
  8
0
  6
CONTINUOUS
 62
     7
  0
LINE
  5
271
  8
0
  6
CONTINUOUS
 62
     7
 10
162.8081611234
 20
210.197018845
 30
0.0
 11
162.9606763709
 21
210.114573514
 31
0.0
  0
LINE
  5
272
  8
0
  6
CONTINUOUS
 62
     7
 10
171.4406778447
 20
222.2062400905
 30
0.0
 11
174.9511937778
 21
216.1258482737
 31
0.0
  0
ARC
  5
273
  8
0
  6
CONTINUOUS
 62
     7
 10
174.5417172897
 20
211.5690433783
 30
0.0
 40
11.08000000000001
 50
67.1974641857
 51
106.2528761085
  0
LINE
  5
274
  8
0
  6
CONTINUOUS
 62
     7
 10
178.8358421873
 20
221.783097404
 30
0.0
 11
177.7832877233
 21
217.8399060284
 31
0.0
  0
LINE
  5
275
  8
0
  6
CONTINUOUS
 62
     7
 10
177.7832877233
 20
217.8399060284
 30
0.0
 11
177.7832877233
 21
212.8208066932
 31
0.0
  0
LINE
  5
276
  8
0
  6
CONTINUOUS
 62
     7
 10
177.7832877233
 20
212.8208066932
 30
0.0
 11
178.011155349
 21
212.8208066932
 31
0.0
  0
LINE
  5
277
  8
0
  6
CONTINUOUS
 62
     7
 10
178.2832878053
 20
211.4154589434
 30
0.0
 11
178.011155349
 21
212.8208066932
 31
0.0
  0
LINE
  5
278
  8
0
  6
CONTINUOUS
 62
     7
 10
178.2832878053
 20
211.4154589434
 30
0.0
 11
178.2832878053
 21
208.9360240278
 31
0.0
  0
LINE
  5
279
  8
0
  6
CONTINUOUS
 62
     7
 10
185.3043193806
 20
208.9360240278
 30
0.0
 11
178.2832878053
 21
208.9360240278
 31
0.0
  0
ARC
  5
27A
  8
0
  6
CONTINUOUS
 62
     7
 10
174.5417172897
 20
211.5690433783
 30
0.0
 40
11.08
 50
307.1974641857
 51
346.2528761085
  0
LINE
  5
27B
  8
0
  6
CONTINUOUS
 62
     7
 10
181.24028471
 20
202.7431954992
 30
0.0
 11
178.351658291
 21
205.626329909
 31
0.0
  0
LINE
  5
27C
  8
0
  6
CONTINUOUS
 62
     7
 10
178.351658291
 20
205.626329909
 30
0.0
 11
174.0049909095
 21
208.135879402
 31
0.0
  0
LINE
  5
27D
  8
0
  6
CONTINUOUS
 62
     7
 10
174.0049909095
 20
208.135879402
 30
0.0
 11
173.8910571549
 21
207.9385402975
 31
0.0
  0
LINE
  5
27E
  8
0
  6
CONTINUOUS
 62
     7
 10
172.5379241507
 20
208.4055405938
 30
0.0
 11
173.8910571549
 21
207.9385402975
 31
0.0
  0
LINE
  5
27F
  8
0
  6
CONTINUOUS
 62
     7
 10
172.5379241507
 20
208.4055405938
 30
0.0
 11
170.390670548
 21
209.6452580662
 31
0.0
  0
LINE
  5
280
  8
0
  6
CONTINUOUS
 62
     7
 10
166.8801544111
 20
203.5648660166
 30
0.0
 11
170.390670548
 21
209.6452580662
 31
0.0
  0
ARC
  5
281
  8
0
  6
CONTINUOUS
 62
     7
 10
174.5417172897
 20
211.5690433783
 30
0.0
 40
11.07999999999999
 50
187.1974641857
 51
226.2528761085
  0
LINE
  5
282
  8
0
  6
CONTINUOUS
 62
     7
 10
167.4902056221
 20
211.2408944885
 30
0.0
 11
171.8368731781
 21
213.7504441561
 31
0.0
  0
LINE
  5
283
  8
0
  6
CONTINUOUS
 62
     7
 10
171.8368731781
 20
213.7504441561
 30
0.0
 11
171.7229393653
 21
213.9477832606
 31
0.0
  0
LINE
  5
284
  8
0
  6
CONTINUOUS
 62
     7
 10
172.8039400296
 20
214.8861305685
 30
0.0
 11
171.7229393653
 21
213.9477832606
 31
0.0
  0
LINE
  5
285
  8
0
  6
CONTINUOUS
 62
     7
 10
172.8039400296
 20
214.8861305685
 30
0.0
 11
174.9511937778
 21
216.1258482737
 31
0.0
  0
CIRCLE
  5
286
  8
0
  6
CONTINUOUS
 62
     7
 10
174.5417172897
 20
211.5690433783
 30
0.0
 40
2.125
  0
LINE
  5
287
  8
0
  6
CONTINUOUS
 62
     7
 10
166.5903813082
 20
203.1504535479
 30
0.0
 11
166.8801544111
 21
203.5648660166
 31
0.0
  0
ARC
  5
288
  8
0
  6
CONTINUOUS
 62
     7
 10
174.5417172897
 20
211.5690433783
 30
0.0
 40
11.57999999999999
 50
187.4824127889
 51
226.6349756687
  0
LINE
  5
289
  8
0
  6
CONTINUOUS
 62
     7
 10
178.9764751557
 20
222.2662079511
 30
0.0
 11
178.8358421873
 21
221.783097404
 31
0.0
  0
ARC
  5
28A
  8
0
  6
CONTINUOUS
 62
     7
 10
174.5417172897
 20
211.5690433783
 30
0.0
 40
11.58000000000003
 50
67.4824127889
 51
106.6349756687
  0
LINE
  5
28B
  8
0
  6
CONTINUOUS
 62
     7
 10
171.2266722571
 20
222.6643967805
 30
0.0
 11
171.4406778447
 21
222.2062400905
 31
0.0
  0
CIRCLE
  5
28C
  8
0
  6
CONTINUOUS
 62
     7
 10
174.5417172897
 20
211.5690433783
 30
0.0
 40
1.0
  0
LINE
  5
28D
  8
0
  6
CONTINUOUS
 62
     7
 10
177.0665570039
 20
206.3682834049
 30
0.0
 11
180.8442071888
 21
202.5535772917
 31
0.0
  0
LINE
  5
28E
  8
0
  6
CONTINUOUS
 62
     7
 10
181.588354415
 20
202.3798483787
 30
0.0
 11
181.24028471
 21
202.7431954992
 31
0.0
  0
LINE
  5
28F
  8
0
  6
CONTINUOUS
 62
     7
 10
181.5899460453
 20
202.3293380988
 30
0.0
 11
181.588354415
 21
202.3798483787
 31
0.0
  0
POLYLINE
  5
290
  8
0
  6
CONTINUOUS
 62
     7
 66
     1
 10
0.0
 20
0.0
 30
0.0
  0
VERTEX
  5
620
  8
0
  6
CONTINUOUS
 62
     7
 10
181.5899460453
 20
202.3293380988
 30
0.0
  0
VERTEX
  5
621
  8
0
  6
CONTINUOUS
 62
     7
 10
181.5399153966
 20
202.3776905043
 30
0.0
  0
VERTEX
  5
622
  8
0
  6
CONTINUOUS
 62
     7
 10
181.4923979219
 20
202.4234575582
 30
0.0
  0
VERTEX
  5
623
  8
0
  6
CONTINUOUS
 62
     7
 10
181.4475328538
 20
202.4665060816
 30
0.0
  0
VERTEX
  5
624
  8
0
  6
CONTINUOUS
 62
     7
 10
181.4054505776
 20
202.5067084832
 30
0.0
  0
VERTEX
  5
625
  8
0
  6
CONTINUOUS
 62
     7
 10
181.3662735622
 20
202.5439502103
 30
0.0
  0
VERTEX
  5
626
  8
0
  6
CONTINUOUS
 62
     7
 10
181.3301158946
 20
202.5781213669
 30
0.0
  0
VERTEX
  5
627
  8
0
  6
CONTINUOUS
 62
     7
 10
181.2970832798
 20
202.6091223014
 30
0.0
  0
VERTEX
  5
628
  8
0
  6
CONTINUOUS
 62
     7
 10
181.2672711785
 20
202.6368645383
 30
0.0
  0
VERTEX
  5
629
  8
0
  6
CONTINUOUS
 62
     7
 10
181.2407671351
 20
202.6612651897
 30
0.0
  0
VERTEX
  5
62A
  8
0
  6
CONTINUOUS
 62
     7
 10
181.2176479835
 20
202.6822534752
 30
0.0
  0
VERTEX
  5
62B
  8
0
  6
CONTINUOUS
 62
     7
 10
181.197980779
 20
202.6997697902
 30
0.0
  0
VERTEX
  5
62C
  8
0
  6
CONTINUOUS
 62
     7
 10
181.1818232636
 20
202.7137610493
 30
0.0
  0
VERTEX
  5
62D
  8
0
  6
CONTINUOUS
 62
     7
 10
181.1692224692
 20
202.7241881368
 30
0.0
  0
VERTEX
  5
62E
  8
0
  6
CONTINUOUS
 62
     7
 10
181.1602151829
 20
202.7310203192
 30
0.0
  0
VERTEX
  5
62F
  8
0
  6
CONTINUOUS
 62
     7
 10
181.1548270162
 20
202.7342371074
 30
0.0
  0
VERTEX
  5
630
  8
0
  6
CONTINUOUS
 62
     7
 10
181.1530742671
 20
202.7338301194
 30
0.0
  0
VERTEX
  5
631
  8
0
  6
CONTINUOUS
 62
     7
 10
181.154962058
 20
202.7297993553
 30
0.0
  0
VERTEX
  5
632
  8
0
  6
CONTINUOUS
 62
     7
 10
181.1604843352
 20
202.7221569223
 30
0.0
  0
VERTEX
  5
633
  8
0
  6
CONTINUOUS
 62
     7
 10
181.1696257319
 20
202.7109261034
 30
0.0
  0
VERTEX
  5
634
  8
0
  6
CONTINUOUS
 62
     7
 10
181.1823587741
 20
202.6961385635
 30
0.0
  0
VERTEX
  5
635
  8
0
  6
CONTINUOUS
 62
     7
 10
181.1986471403
 20
202.6778371436
 30
0.0
  0
VERTEX
  5
636
  8
0
  6
CONTINUOUS
 62
     7
 10
181.2184428673
 20
202.6560758603
 30
0.0
  0
VERTEX
  5
637
  8
0
  6
CONTINUOUS
 62
     7
 10
181.2416886787
 20
202.6309180436
 30
0.0
  0
VERTEX
  5
638
  8
0
  6
CONTINUOUS
 62
     7
 10
181.2683170538
 20
202.602437268
 30
0.0
  0
VERTEX
  5
639
  8
0
  6
CONTINUOUS
 62
     7
 10
181.2982497613
 20
202.5707145584
 30
0.0
  0
VERTEX
  5
63A
  8
0
  6
CONTINUOUS
 62
     7
 10
181.3314001884
 20
202.5358449099
 30
0.0
  0
VERTEX
  5
63B
  8
0
  6
CONTINUOUS
 62
     7
 10
181.3676714774
 20
202.4979279739
 30
0.0
  0
VERTEX
  5
63C
  8
0
  6
CONTINUOUS
 62
     7
 10
181.4069583889
 20
202.4570755092
 30
0.0
  0
VERTEX
  5
63D
  8
0
  6
CONTINUOUS
 62
     7
 10
181.4491459045
 20
202.4134048623
 30
0.0
  0
VERTEX
  5
63E
  8
0
  6
CONTINUOUS
 62
     7
 10
181.4941115554
 20
202.3670454872
 30
0.0
  0
VERTEX
  5
63F
  8
0
  6
CONTINUOUS
 62
     7
 10
181.5417244907
 20
202.3181296316
 30
0.0
  0
VERTEX
  5
640
  8
0
  6
CONTINUOUS
 62
     7
 10
181.5918459434
 20
202.2668025819
 30
0.0
  0
SEQEND
  5
641
  8
0
  6
CONTINUOUS
 62
     7
  0
LINE
  5
291
  8
0
  6
CONTINUOUS
 62
     7
 10
181.5967032563
 20
202.0934983519
 30
0.0
 11
181.5918459434
 21
202.2668025819
 31
0.0
  0
ARC
  5
292
  8
0
  6
CONTINUOUS
 62
     7
 10
181.9619860728
 20
202.6388849024
 30
0.0
 40
0.6564129992095739
 50
223.5906857392
 51
236.1870641287
  0
LINE
  5
293
  8
0
  6
CONTINUOUS
 62
     7
 10
181.0884428087
 20
202.5550832403
 30
0.0
 11
181.4865566667
 21
202.1862869514
 31
0.0
  0
ARC
  5
294
  8
0
  6
CONTINUOUS
 62
     7
 10
180.5890500794
 20
202.0793728701
 30
0.0
 40
0.689705338828423
 50
43.6087291398
 51
55.6470754515
  0
LINE
  5
295
  8
0
  6
CONTINUOUS
 62
     7
 10
180.8442071888
 20
202.5535772917
 30
0.0
 11
180.9782431338
 21
202.6487780166
 31
0.0
  0
ARC
  5
296
  8
0
  6
CONTINUOUS
 62
     7
 10
178.5652447551
 20
222.4602790666
 30
0.0
 40
0.6564960888732384
 50
343.5914661774
 51
356.1862072707
  0
LINE
  5
297
  8
0
  6
CONTINUOUS
 62
     7
 10
179.0746733423
 20
221.7456545112
 30
0.0
 11
179.1950030129
 21
222.2748292041
 31
0.0
  0
ARC
  5
298
  8
0
  6
CONTINUOUS
 62
     7
 10
179.7363046504
 20
221.5510291731
 30
0.0
 40
0.6896629685396021
 50
163.6082364107
 51
175.6473822657
  0
LINE
  5
299
  8
0
  6
CONTINUOUS
 62
     7
 10
179.1980945382
 20
221.5348924873
 30
0.0
 11
179.0486307691
 21
221.6033707736
 31
0.0
  0
LINE
  5
29A
  8
0
  6
CONTINUOUS
 62
     7
 10
177.7832877233
 20
216.355998571
 30
0.0
 11
179.1980945382
 21
221.5348924873
 31
0.0
  0
LINE
  5
29B
  8
0
  6
CONTINUOUS
 62
     7
 10
179.0194226306
 20
222.2928409827
 30
0.0
 11
178.9764751557
 21
222.2662079511
 31
0.0
  0
POLYLINE
  5
29C
  8
0
  6
CONTINUOUS
 62
     7
 66
     1
 10
0.0
 20
0.0
 30
0.0
  0
VERTEX
  5
642
  8
0
  6
CONTINUOUS
 62
     7
 10
179.0726300206
 20
222.3257539225
 30
0.0
  0
VERTEX
  5
643
  8
0
  6
CONTINUOUS
 62
     7
 10
179.0532394189
 20
222.2566842464
 30
0.0
  0
VERTEX
  5
644
  8
0
  6
CONTINUOUS
 62
     7
 10
179.0346842136
 20
222.1909924773
 30
0.0
  0
VERTEX
  5
645
  8
0
  6
CONTINUOUS
 62
     7
 10
179.0170184213
 20
222.1288713989
 30
0.0
  0
VERTEX
  5
646
  8
0
  6
CONTINUOUS
 62
     7
 10
179.0002927992
 20
222.0705007566
 30
0.0
  0
VERTEX
  5
647
  8
0
  6
CONTINUOUS
 62
     7
 10
178.9845562417
 20
222.0160509822
 30
0.0
  0
VERTEX
  5
648
  8
0
  6
CONTINUOUS
 62
     7
 10
178.9698553148
 20
221.9656804008
 30
0.0
  0
VERTEX
  5
649
  8
0
  6
CONTINUOUS
 62
     7
 10
178.9562319282
 20
221.9195361612
 30
0.0
  0
VERTEX
  5
64A
  8
0
  6
CONTINUOUS
 62
     7
 10
178.9437265943
 20
221.8777533052
 30
0.0
  0
VERTEX
  5
64B
  8
0
  6
CONTINUOUS
 62
     7
 10
178.9323747035
 20
221.8404519734
 30
0.0
  0
VERTEX
  5
64C
  8
0
  6
CONTINUOUS
 62
     7
 10
178.9222102489
 20
221.8077411306
 30
0.0
  0
VERTEX
  5
64D
  8
0
  6
CONTINUOUS
 62
     7
 10
178.9132625673
 20
221.7797167031
 30
0.0
  0
VERTEX
  5
64E
  8
0
  6
CONTINUOUS
 62
     7
 10
178.9055577356
 20
221.7564597157
 30
0.0
  0
VERTEX
  5
64F
  8
0
  6
CONTINUOUS
 62
     7
 10
178.89911764
 20
221.7380390865
 30
0.0
  0
VERTEX
  5
650
  8
0
  6
CONTINUOUS
 62
     7
 10
178.8939618382
 20
221.7245069695
 30
0.0
  0
VERTEX
  5
651
  8
0
  6
CONTINUOUS
 62
     7
 10
178.8901047658
 20
221.7159034116
 30
0.0
  0
VERTEX
  5
652
  8
0
  6
CONTINUOUS
 62
     7
 10
178.8875580642
 20
221.7122535584
 30
0.0
  0
VERTEX
  5
653
  8
0
  6
CONTINUOUS
 62
     7
 10
178.8863287184
 20
221.7135676545
 30
0.0
  0
VERTEX
  5
654
  8
0
  6
CONTINUOUS
 62
     7
 10
178.8864209193
 20
221.7198419747
 30
0.0
  0
VERTEX
  5
655
  8
0
  6
CONTINUOUS
 62
     7
 10
178.8878337357
 20
221.7310588238
 30
0.0
  0
VERTEX
  5
656
  8
0
  6
CONTINUOUS
 62
     7
 10
178.8905634421
 20
221.7471846742
 30
0.0
  0
VERTEX
  5
657
  8
0
  6
CONTINUOUS
 62
     7
 10
178.8946021225
 20
221.7681738911
 30
0.0
  0
VERTEX
  5
658
  8
0
  6
CONTINUOUS
 62
     7
 10
178.8999376695
 20
221.7939640758
 30
0.0
  0
VERTEX
  5
659
  8
0
  6
CONTINUOUS
 62
     7
 10
178.9065551821
 20
221.8244797913
 30
0.0
  0
VERTEX
  5
65A
  8
0
  6
CONTINUOUS
 62
     7
 10
178.9144346367
 20
221.8596334932
 30
0.0
  0
VERTEX
  5
65B
  8
0
  6
CONTINUOUS
 62
     7
 10
178.923553216
 20
221.8993218047
 30
0.0
  0
VERTEX
  5
65C
  8
0
  6
CONTINUOUS
 62
     7
 10
178.933884843
 20
221.9434301732
 30
0.0
  0
VERTEX
  5
65D
  8
0
  6
CONTINUOUS
 62
     7
 10
178.9453992497
 20
221.9918291447
 30
0.0
  0
VERTEX
  5
65E
  8
0
  6
CONTINUOUS
 62
     7
 10
178.9580624427
 20
222.0443780897
 30
0.0
  0
VERTEX
  5
65F
  8
0
  6
CONTINUOUS
 62
     7
 10
178.9718385662
 20
222.1009242711
 30
0.0
  0
VERTEX
  5
660
  8
0
  6
CONTINUOUS
 62
     7
 10
178.9866861764
 20
222.1613019136
 30
0.0
  0
VERTEX
  5
661
  8
0
  6
CONTINUOUS
 62
     7
 10
179.002562898
 20
222.2253368599
 30
0.0
  0
VERTEX
  5
662
  8
0
  6
CONTINUOUS
 62
     7
 10
179.0194226306
 20
222.2928409827
 30
0.0
  0
SEQEND
  5
663
  8
0
  6
CONTINUOUS
 62
     7
  0
LINE
  5
29D
  8
0
  6
CONTINUOUS
 62
     7
 10
179.2202870238
 20
222.4166128216
 30
0.0
 11
179.0726300206
 21
222.3257539225
 31
0.0
  0
ARC
  5
29E
  8
0
  6
CONTINUOUS
 62
     7
 10
174.5417172897
 20
211.5690433783
 30
0.0
 40
11.58000000000004
 50
307.4824127889
 51
346.6349756687
  0
LINE
  5
29F
  8
0
  6
CONTINUOUS
 62
     7
 10
185.8080978382
 20
208.8922795737
 30
0.0
 11
185.3043193806
 21
208.9360240278
 31
0.0
  0
POLYLINE
  5
2A0
  8
0
  6
CONTINUOUS
 62
     7
 66
     1
 10
0.0
 20
0.0
 30
0.0
  0
VERTEX
  5
664
  8
0
  6
CONTINUOUS
 62
     7
 10
162.9606763709
 20
210.114573514
 30
0.0
  0
VERTEX
  5
665
  8
0
  6
CONTINUOUS
 62
     7
 10
162.9729670349
 20
210.0049042273
 30
0.0
  0
VERTEX
  5
666
  8
0
  6
CONTINUOUS
 62
     7
 10
162.9874006722
 20
209.88937762
 30
0.0
  0
VERTEX
  5
667
  8
0
  6
CONTINUOUS
 62
     7
 10
163.0039288539
 20
209.7693314207
 30
0.0
  0
VERTEX
  5
668
  8
0
  6
CONTINUOUS
 62
     7
 10
163.02250222
 20
209.6461035907
 30
0.0
  0
VERTEX
  5
669
  8
0
  6
CONTINUOUS
 62
     7
 10
163.0502062726
 20
209.4796472592
 30
0.0
  0
VERTEX
  5
66A
  8
0
  6
CONTINUOUS
 62
     7
 10
163.0815061617
 20
209.3094955561
 30
0.0
  0
VERTEX
  5
66B
  8
0
  6
CONTINUOUS
 62
     7
 10
163.1161299411
 20
209.1375303352
 30
0.0
  0
VERTEX
  5
66C
  8
0
  6
CONTINUOUS
 62
     7
 10
163.1538028705
 20
208.9656333336
 30
0.0
  0
VERTEX
  5
66D
  8
0
  6
CONTINUOUS
 62
     7
 10
163.1950334522
 20
208.7921735728
 30
0.0
  0
VERTEX
  5
66E
  8
0
  6
CONTINUOUS
 62
     7
 10
163.2391539279
 20
208.6197950774
 30
0.0
  0
VERTEX
  5
66F
  8
0
  6
CONTINUOUS
 62
     7
 10
163.2856781471
 20
208.4500135751
 30
0.0
  0
VERTEX
  5
670
  8
0
  6
CONTINUOUS
 62
     7
 10
163.3341199595
 20
208.2843440948
 30
0.0
  0
VERTEX
  5
671
  8
0
  6
CONTINUOUS
 62
     7
 10
163.3769952569
 20
208.1460210392
 30
0.0
  0
VERTEX
  5
672
  8
0
  6
CONTINUOUS
 62
     7
 10
163.4207888383
 20
208.0116088399
 30
0.0
  0
VERTEX
  5
673
  8
0
  6
CONTINUOUS
 62
     7
 10
163.4648105938
 20
207.8826970318
 30
0.0
  0
VERTEX
  5
674
  8
0
  6
CONTINUOUS
 62
     7
 10
163.5083694819
 20
207.7608751496
 30
0.0
  0
VERTEX
  5
675
  8
0
  6
CONTINUOUS
 62
     7
 10
163.545440777
 20
207.6615649638
 30
0.0
  0
VERTEX
  5
676
  8
0
  6
CONTINUOUS
 62
     7
 10
163.5810051921
 20
207.5699004707
 30
0.0
  0
VERTEX
  5
677
  8
0
  6
CONTINUOUS
 62
     7
 10
163.6139721486
 20
207.4882444357
 30
0.0
  0
VERTEX
  5
678
  8
0
  6
CONTINUOUS
 62
     7
 10
163.6370140004
 20
207.4333718409
 30
0.0
  0
VERTEX
  5
679
  8
0
  6
CONTINUOUS
 62
     7
 10
163.6573438409
 20
207.386826667
 30
0.0
  0
VERTEX
  5
67A
  8
0
  6
CONTINUOUS
 62
     7
 10
163.674190535
 20
207.3502024067
 30
0.0
  0
VERTEX
  5
67B
  8
0
  6
CONTINUOUS
 62
     7
 10
163.6869757313
 20
207.3246958097
 30
0.0
  0
VERTEX
  5
67C
  8
0
  6
CONTINUOUS
 62
     7
 10
163.6951983783
 20
207.3112377328
 30
0.0
  0
VERTEX
  5
67D
  8
0
  6
CONTINUOUS
 62
     7
 10
163.6985157493
 20
207.3103729998
 30
0.0
  0
VERTEX
  5
67E
  8
0
  6
CONTINUOUS
 62
     7
 10
163.697331107
 20
207.3198701618
 30
0.0
  0
VERTEX
  5
67F
  8
0
  6
CONTINUOUS
 62
     7
 10
163.6926921893
 20
207.3381510926
 30
0.0
  0
VERTEX
  5
680
  8
0
  6
CONTINUOUS
 62
     7
 10
163.6849165771
 20
207.3644264964
 30
0.0
  0
VERTEX
  5
681
  8
0
  6
CONTINUOUS
 62
     7
 10
163.6695832822
 20
207.4126410661
 30
0.0
  0
VERTEX
  5
682
  8
0
  6
CONTINUOUS
 62
     7
 10
163.6498280678
 20
207.4727472281
 30
0.0
  0
VERTEX
  5
683
  8
0
  6
CONTINUOUS
 62
     7
 10
163.6266921524
 20
207.542435768
 30
0.0
  0
VERTEX
  5
684
  8
0
  6
CONTINUOUS
 62
     7
 10
163.5978015948
 20
207.6297663515
 30
0.0
  0
VERTEX
  5
685
  8
0
  6
CONTINUOUS
 62
     7
 10
163.5664318565
 20
207.7256983974
 30
0.0
  0
VERTEX
  5
686
  8
0
  6
CONTINUOUS
 62
     7
 10
163.5333391714
 20
207.8286561081
 30
0.0
  0
VERTEX
  5
687
  8
0
  6
CONTINUOUS
 62
     7
 10
163.4992760483
 20
207.9370620558
 30
0.0
  0
VERTEX
  5
688
  8
0
  6
CONTINUOUS
 62
     7
 10
163.4504076901
 20
208.0979945966
 30
0.0
  0
VERTEX
  5
689
  8
0
  6
CONTINUOUS
 62
     7
 10
163.4011342067
 20
208.2674634074
 30
0.0
  0
VERTEX
  5
68A
  8
0
  6
CONTINUOUS
 62
     7
 10
163.3523189339
 20
208.4435420474
 30
0.0
  0
VERTEX
  5
68B
  8
0
  6
CONTINUOUS
 62
     7
 10
163.3048233453
 20
208.6243031444
 30
0.0
  0
VERTEX
  5
68C
  8
0
  6
CONTINUOUS
 62
     7
 10
163.2584760774
 20
208.8118105092
 30
0.0
  0
VERTEX
  5
68D
  8
0
  6
CONTINUOUS
 62
     7
 10
163.214102282
 20
209.0031591141
 30
0.0
  0
VERTEX
  5
68E
  8
0
  6
CONTINUOUS
 62
     7
 10
163.1722179118
 20
209.1961929472
 30
0.0
  0
VERTEX
  5
68F
  8
0
  6
CONTINUOUS
 62
     7
 10
163.1333398509
 20
209.3887550653
 30
0.0
  0
VERTEX
  5
690
  8
0
  6
CONTINUOUS
 62
     7
 10
163.1076008889
 20
209.5250930068
 30
0.0
  0
VERTEX
  5
691
  8
0
  6
CONTINUOUS
 62
     7
 10
163.0834535572
 20
209.6602387391
 30
0.0
  0
VERTEX
  5
692
  8
0
  6
CONTINUOUS
 62
     7
 10
163.0610338289
 20
209.7927042413
 30
0.0
  0
VERTEX
  5
693
  8
0
  6
CONTINUOUS
 62
     7
 10
163.0404758144
 20
209.9210014929
 30
0.0
  0
VERTEX
  5
694
  8
0
  6
CONTINUOUS
 62
     7
 10
163.0277166951
 20
210.00434718
 30
0.0
  0
VERTEX
  5
695
  8
0
  6
CONTINUOUS
 62
     7
 10
163.0157827276
 20
210.0849509369
 30
0.0
  0
SEQEND
  5
696
  8
0
  6
CONTINUOUS
 62
     7
  0
POLYLINE
  5
2A1
  8
0
  6
CONTINUOUS
 62
     7
 66
     1
 10
0.0
 20
0.0
 30
0.0
  0
VERTEX
  5
697
  8
0
  6
CONTINUOUS
 62
     7
 10
166.0790451679
 20
203.3717655939
 30
0.0
  0
VERTEX
  5
698
  8
0
  6
CONTINUOUS
 62
     7
 10
166.0538677934
 20
203.4029881833
 30
0.0
  0
VERTEX
  5
699
  8
0
  6
CONTINUOUS
 62
     7
 10
166.0407491836
 20
203.4214358208
 30
0.0
  0
VERTEX
  5
69A
  8
0
  6
CONTINUOUS
 62
     7
 10
166.0366727847
 20
203.4305720953
 30
0.0
  0
VERTEX
  5
69B
  8
0
  6
CONTINUOUS
 62
     7
 10
166.0417242784
 20
203.4301846651
 30
0.0
  0
SEQEND
  5
69C
  8
0
  6
CONTINUOUS
 62
     7
  0
POLYLINE
  5
2A2
  8
0
  6
CONTINUOUS
 62
     7
 66
     1
 10
0.0
 20
0.0
 30
0.0
  0
VERTEX
  5
69D
  8
0
  6
CONTINUOUS
 62
     7
 10
166.0417242784
 20
203.4301846651
 30
0.0
  0
VERTEX
  5
69E
  8
0
  6
CONTINUOUS
 62
     7
 10
166.3143438164
 20
203.2869211761
 30
0.0
  0
VERTEX
  5
69F
  8
0
  6
CONTINUOUS
 62
     7
 10
166.5903813082
 20
203.1504535479
 30
0.0
  0
SEQEND
  5
6A0
  8
0
  6
CONTINUOUS
 62
     7
  0
POLYLINE
  5
2A3
  8
0
  6
CONTINUOUS
 62
     7
 66
     1
 10
0.0
 20
0.0
 30
0.0
  0
VERTEX
  5
6A1
  8
0
  6
CONTINUOUS
 62
     7
 10
179.0726300206
 20
222.3257539225
 30
0.0
  0
VERTEX
  5
6A2
  8
0
  6
CONTINUOUS
 62
     7
 10
178.9643493358
 20
222.3730250624
 30
0.0
  0
VERTEX
  5
6A3
  8
0
  6
CONTINUOUS
 62
     7
 10
178.8492862943
 20
222.4214193774
 30
0.0
  0
VERTEX
  5
6A4
  8
0
  6
CONTINUOUS
 62
     7
 10
178.7289370659
 20
222.4701294107
 30
0.0
  0
VERTEX
  5
6A5
  8
0
  6
CONTINUOUS
 62
     7
 10
178.5797587473
 20
222.5278611658
 30
0.0
  0
VERTEX
  5
6A6
  8
0
  6
CONTINUOUS
 62
     7
 10
178.4250686287
 20
222.5848338929
 30
0.0
  0
VERTEX
  5
6A7
  8
0
  6
CONTINUOUS
 62
     7
 10
178.266576153
 20
222.6403174353
 30
0.0
  0
VERTEX
  5
6A8
  8
0
  6
CONTINUOUS
 62
     7
 10
178.1059914611
 20
222.6935807047
 30
0.0
  0
VERTEX
  5
6A9
  8
0
  6
CONTINUOUS
 62
     7
 10
177.94140767
 20
222.7450763238
 30
0.0
  0
VERTEX
  5
6AA
  8
0
  6
CONTINUOUS
 62
     7
 10
177.7756371412
 20
222.7939204676
 30
0.0
  0
VERTEX
  5
6AB
  8
0
  6
CONTINUOUS
 62
     7
 10
177.6100584648
 20
222.8397676153
 30
0.0
  0
VERTEX
  5
6AC
  8
0
  6
CONTINUOUS
 62
     7
 10
177.446049067
 20
222.8822722462
 30
0.0
  0
VERTEX
  5
6AD
  8
0
  6
CONTINUOUS
 62
     7
 10
177.2986328106
 20
222.9179316563
 30
0.0
  0
VERTEX
  5
6AE
  8
0
  6
CONTINUOUS
 62
     7
 10
177.1530561491
 20
222.9508436648
 30
0.0
  0
VERTEX
  5
6AF
  8
0
  6
CONTINUOUS
 62
     7
 10
177.0110499456
 20
222.980801518
 30
0.0
  0
VERTEX
  5
6B0
  8
0
  6
CONTINUOUS
 62
     7
 10
176.874345063
 20
223.0075956685
 30
0.0
  0
VERTEX
  5
6B1
  8
0
  6
CONTINUOUS
 62
     7
 10
176.7446723643
 20
223.0310193626
 30
0.0
  0
VERTEX
  5
6B2
  8
0
  6
CONTINUOUS
 62
     7
 10
176.6459868632
 20
223.0474292663
 30
0.0
  0
VERTEX
  5
6B3
  8
0
  6
CONTINUOUS
 62
     7
 10
176.5541461173
 20
223.0615453226
 30
0.0
  0
VERTEX
  5
6B4
  8
0
  6
CONTINUOUS
 62
     7
 10
176.4714183628
 20
223.0731607777
 30
0.0
  0
VERTEX
  5
6B5
  8
0
  6
CONTINUOUS
 62
     7
 10
176.4119836844
 20
223.0806877268
 30
0.0
  0
VERTEX
  5
6B6
  8
0
  6
CONTINUOUS
 62
     7
 10
176.3612559408
 20
223.0863725198
 30
0.0
  0
VERTEX
  5
6B7
  8
0
  6
CONTINUOUS
 62
     7
 10
176.3210389873
 20
223.0900819776
 30
0.0
  0
VERTEX
  5
6B8
  8
0
  6
CONTINUOUS
 62
     7
 10
176.2926922056
 20
223.0917183114
 30
0.0
  0
VERTEX
  5
6B9
  8
0
  6
CONTINUOUS
 62
     7
 10
176.2772771872
 20
223.0912498561
 30
0.0
  0
VERTEX
  5
6BA
  8
0
  6
CONTINUOUS
 62
     7
 10
176.275424903
 20
223.0887036202
 30
0.0
  0
VERTEX
  5
6BB
  8
0
  6
CONTINUOUS
 62
     7
 10
176.2847518658
 20
223.0849066181
 30
0.0
  0
VERTEX
  5
6BC
  8
0
  6
CONTINUOUS
 62
     7
 10
176.3033699354
 20
223.0797144947
 30
0.0
  0
VERTEX
  5
6BD
  8
0
  6
CONTINUOUS
 62
     7
 10
176.3304263696
 20
223.0732483221
 30
0.0
  0
VERTEX
  5
6BE
  8
0
  6
CONTINUOUS
 62
     7
 10
176.3806487543
 20
223.0622754795
 30
0.0
  0
VERTEX
  5
6BF
  8
0
  6
CONTINUOUS
 62
     7
 10
176.4434124453
 20
223.0491727022
 30
0.0
  0
VERTEX
  5
6C0
  8
0
  6
CONTINUOUS
 62
     7
 10
176.5161737676
 20
223.0341942412
 30
0.0
  0
VERTEX
  5
6C1
  8
0
  6
CONTINUOUS
 62
     7
 10
176.6072878491
 20
223.0153228519
 30
0.0
  0
VERTEX
  5
6C2
  8
0
  6
CONTINUOUS
 62
     7
 10
176.707102346
 20
222.9942749617
 30
0.0
  0
VERTEX
  5
6C3
  8
0
  6
CONTINUOUS
 62
     7
 10
176.8138656735
 20
222.9711856124
 30
0.0
  0
VERTEX
  5
6C4
  8
0
  6
CONTINUOUS
 62
     7
 10
176.9258260138
 20
222.9461898459
 30
0.0
  0
VERTEX
  5
6C5
  8
0
  6
CONTINUOUS
 62
     7
 10
177.0905259873
 20
222.9077318115
 30
0.0
  0
VERTEX
  5
6C6
  8
0
  6
CONTINUOUS
 62
     7
 10
177.2627652499
 20
222.8653361452
 30
0.0
  0
VERTEX
  5
6C7
  8
0
  6
CONTINUOUS
 62
     7
 10
177.4404434364
 20
222.8192217079
 30
0.0
  0
VERTEX
  5
6C8
  8
0
  6
CONTINUOUS
 62
     7
 10
177.6214597158
 20
222.7696092231
 30
0.0
  0
VERTEX
  5
6C9
  8
0
  6
CONTINUOUS
 62
     7
 10
177.8075677685
 20
222.7156502557
 30
0.0
  0
VERTEX
  5
6CA
  8
0
  6
CONTINUOUS
 62
     7
 10
177.9959510423
 20
222.6580600617
 30
0.0
  0
VERTEX
  5
6CB
  8
0
  6
CONTINUOUS
 62
     7
 10
178.184452594
 20
222.5974859101
 30
0.0
  0
VERTEX
  5
6CC
  8
0
  6
CONTINUOUS
 62
     7
 10
178.3709145493
 20
222.5345778642
 30
0.0
  0
VERTEX
  5
6CD
  8
0
  6
CONTINUOUS
 62
     7
 10
178.5008948173
 20
222.4888955606
 30
0.0
  0
VERTEX
  5
6CE
  8
0
  6
CONTINUOUS
 62
     7
 10
178.6289940465
 20
222.4424747182
 30
0.0
  0
VERTEX
  5
6CF
  8
0
  6
CONTINUOUS
 62
     7
 10
178.7538639146
 20
222.3959411857
 30
0.0
  0
VERTEX
  5
6D0
  8
0
  6
CONTINUOUS
 62
     7
 10
178.8741558667
 20
222.3499226747
 30
0.0
  0
VERTEX
  5
6D1
  8
0
  6
CONTINUOUS
 62
     7
 10
178.9480390835
 20
222.3210842711
 30
0.0
  0
VERTEX
  5
6D2
  8
0
  6
CONTINUOUS
 62
     7
 10
179.0194226306
 20
222.2928409827
 30
0.0
  0
SEQEND
  5
6D3
  8
0
  6
CONTINUOUS
 62
     7
  0
POLYLINE
  5
2A4
  8
0
  6
CONTINUOUS
 62
     7
 66
     1
 10
0.0
 20
0.0
 30
0.0
  0
VERTEX
  5
6D4
  8
0
  6
CONTINUOUS
 62
     7
 10
171.6740225784
 20
222.9965371442
 30
0.0
  0
VERTEX
  5
6D5
  8
0
  6
CONTINUOUS
 62
     7
 10
171.7097460169
 20
223.002241495
 30
0.0
  0
VERTEX
  5
6D6
  8
0
  6
CONTINUOUS
 62
     7
 10
171.7355103574
 20
223.0048855198
 30
0.0
  0
VERTEX
  5
6D7
  8
0
  6
CONTINUOUS
 62
     7
 10
171.7460878536
 20
223.0039327768
 30
0.0
  0
VERTEX
  5
6D8
  8
0
  6
CONTINUOUS
 62
     7
 10
171.743255236
 20
222.9996822206
 30
0.0
  0
SEQEND
  5
6D9
  8
0
  6
CONTINUOUS
 62
     7
  0
POLYLINE
  5
2A5
  8
0
  6
CONTINUOUS
 62
     7
 66
     1
 10
0.0
 20
0.0
 30
0.0
  0
VERTEX
  5
6DA
  8
0
  6
CONTINUOUS
 62
     7
 10
171.743255236
 20
222.9996822206
 30
0.0
  0
VERTEX
  5
6DB
  8
0
  6
CONTINUOUS
 62
     7
 10
171.4828758377
 20
222.8352190358
 30
0.0
  0
VERTEX
  5
6DC
  8
0
  6
CONTINUOUS
 62
     7
 10
171.2266722571
 20
222.6643967805
 30
0.0
  0
SEQEND
  5
6DD
  8
0
  6
CONTINUOUS
 62
     7
  0
POLYLINE
  5
2A6
  8
0
  6
CONTINUOUS
 62
     7
 66
     1
 10
0.0
 20
0.0
 30
0.0
  0
VERTEX
  5
6DE
  8
0
  6
CONTINUOUS
 62
     7
 10
181.5918459434
 20
202.2668025819
 30
0.0
  0
VERTEX
  5
6DF
  8
0
  6
CONTINUOUS
 62
     7
 10
181.7017881076
 20
202.3480930728
 30
0.0
  0
VERTEX
  5
6E0
  8
0
  6
CONTINUOUS
 62
     7
 10
181.8173335742
 20
202.4363330928
 30
0.0
  0
VERTEX
  5
6E1
  8
0
  6
CONTINUOUS
 62
     7
 10
181.9363314535
 20
202.5301834
 30
0.0
  0
VERTEX
  5
6E2
  8
0
  6
CONTINUOUS
 62
     7
 10
182.0645163644
 20
202.6347830323
 30
0.0
  0
VERTEX
  5
6E3
  8
0
  6
CONTINUOUS
 62
     7
 10
182.1943767245
 20
202.744424845
 30
0.0
  0
VERTEX
  5
6E4
  8
0
  6
CONTINUOUS
 62
     7
 10
182.3244191583
 20
202.8579558609
 30
0.0
  0
VERTEX
  5
6E5
  8
0
  6
CONTINUOUS
 62
     7
 10
182.4531526181
 20
202.9742231024
 30
0.0
  0
VERTEX
  5
6E6
  8
0
  6
CONTINUOUS
 62
     7
 10
182.5818139005
 20
203.0945546356
 30
0.0
  0
VERTEX
  5
6E7
  8
0
  6
CONTINUOUS
 62
     7
 10
182.7083582867
 20
203.217008653
 30
0.0
  0
VERTEX
  5
6E8
  8
0
  6
CONTINUOUS
 62
     7
 10
182.8317510772
 20
203.3404722241
 30
0.0
  0
VERTEX
  5
6E9
  8
0
  6
CONTINUOUS
 62
     7
 10
182.9509585041
 20
203.4638333497
 30
0.0
  0
VERTEX
  5
6EA
  8
0
  6
CONTINUOUS
 62
     7
 10
183.054324134
 20
203.5743524683
 30
0.0
  0
VERTEX
  5
6EB
  8
0
  6
CONTINUOUS
 62
     7
 10
183.1537754152
 20
203.6839216379
 30
0.0
  0
VERTEX
  5
6EC
  8
0
  6
CONTINUOUS
 62
     7
 10
183.2482301507
 20
203.7910949802
 30
0.0
  0
VERTEX
  5
6ED
  8
0
  6
CONTINUOUS
 62
     7
 10
183.3366070751
 20
203.8944233572
 30
0.0
  0
VERTEX
  5
6EE
  8
0
  6
CONTINUOUS
 62
     7
 10
183.4071258891
 20
203.9792896611
 30
0.0
  0
VERTEX
  5
6EF
  8
0
  6
CONTINUOUS
 62
     7
 10
183.4717671264
 20
204.0591775802
 30
0.0
  0
VERTEX
  5
6F0
  8
0
  6
CONTINUOUS
 62
     7
 10
183.5290071431
 20
204.1319324998
 30
0.0
  0
VERTEX
  5
6F1
  8
0
  6
CONTINUOUS
 62
     7
 10
183.5671354893
 20
204.1817852659
 30
0.0
  0
VERTEX
  5
6F2
  8
0
  6
CONTINUOUS
 62
     7
 10
183.5993974346
 20
204.2251895545
 30
0.0
  0
VERTEX
  5
6F3
  8
0
  6
CONTINUOUS
 62
     7
 10
183.6247405845
 20
204.2606058893
 30
0.0
  0
VERTEX
  5
6F4
  8
0
  6
CONTINUOUS
 62
     7
 10
183.6423835594
 20
204.2868836214
 30
0.0
  0
VERTEX
  5
6F5
  8
0
  6
CONTINUOUS
 62
     7
 10
183.6516520816
 20
204.3029545238
 30
0.0
  0
VERTEX
  5
6F6
  8
0
  6
CONTINUOUS
 62
     7
 10
183.652141026
 20
204.3080982184
 30
0.0
  0
VERTEX
  5
6F7
  8
0
  6
CONTINUOUS
 62
     7
 10
183.6455398116
 20
204.3036404428
 30
0.0
  0
VERTEX
  5
6F8
  8
0
  6
CONTINUOUS
 62
     7
 10
183.6329380858
 20
204.2916464051
 30
0.0
  0
VERTEX
  5
6F9
  8
0
  6
CONTINUOUS
 62
     7
 10
183.6148452822
 20
204.2727601146
 30
0.0
  0
VERTEX
  5
6FA
  8
0
  6
CONTINUOUS
 62
     7
 10
183.5823756519
 20
204.237289763
 30
0.0
  0
VERTEX
  5
6FB
  8
0
  6
CONTINUOUS
 62
     7
 10
183.5419050294
 20
204.1921127019
 30
0.0
  0
VERTEX
  5
6FC
  8
0
  6
CONTINUOUS
 62
     7
 10
183.4948704455
 20
204.1392196333
 30
0.0
  0
VERTEX
  5
6FD
  8
0
  6
CONTINUOUS
 62
     7
 10
183.4359000314
 20
204.0729732615
 30
0.0
  0
VERTEX
  5
6FE
  8
0
  6
CONTINUOUS
 62
     7
 10
183.3707959268
 20
204.0002812063
 30
0.0
  0
VERTEX
  5
6FF
  8
0
  6
CONTINUOUS
 62
     7
 10
183.3005332265
 20
203.9225600091
 30
0.0
  0
VERTEX
  5
700
  8
0
  6
CONTINUOUS
 62
     7
 10
183.2260832998
 20
203.841227143
 30
0.0
  0
VERTEX
  5
701
  8
0
  6
CONTINUOUS
 62
     7
 10
183.1134565983
 20
203.7204602165
 30
0.0
  0
VERTEX
  5
702
  8
0
  6
CONTINUOUS
 62
     7
 10
182.9936149407
 20
203.5948955817
 30
0.0
  0
VERTEX
  5
703
  8
0
  6
CONTINUOUS
 62
     7
 10
182.8677858103
 20
203.4662464065
 30
0.0
  0
VERTEX
  5
704
  8
0
  6
CONTINUOUS
 62
     7
 10
182.7371957589
 20
203.3362263245
 30
0.0
  0
VERTEX
  5
705
  8
0
  6
CONTINUOUS
 62
     7
 10
182.5998638633
 20
203.2033787472
 30
0.0
  0
VERTEX
  5
706
  8
0
  6
CONTINUOUS
 62
     7
 10
182.4581305373
 20
203.0701437396
 30
0.0
  0
VERTEX
  5
707
  8
0
  6
CONTINUOUS
 62
     7
 10
182.3135110426
 20
202.937988135
 30
0.0
  0
VERTEX
  5
708
  8
0
  6
CONTINUOUS
 62
     7
 10
182.1675192441
 20
202.8083843542
 30
0.0
  0
VERTEX
  5
709
  8
0
  6
CONTINUOUS
 62
     7
 10
182.060275587
 20
202.7155920295
 30
0.0
  0
VERTEX
  5
70A
  8
0
  6
CONTINUOUS
 62
     7
 10
181.9530612666
 20
202.6246986715
 30
0.0
  0
VERTEX
  5
70B
  8
0
  6
CONTINUOUS
 62
     7
 10
181.8471116822
 20
202.53658438
 30
0.0
  0
VERTEX
  5
70C
  8
0
  6
CONTINUOUS
 62
     7
 10
181.7436613019
 20
202.4521311176
 30
0.0
  0
VERTEX
  5
70D
  8
0
  6
CONTINUOUS
 62
     7
 10
181.6654879476
 20
202.3893124787
 30
0.0
  0
VERTEX
  5
70E
  8
0
  6
CONTINUOUS
 62
     7
 10
181.5899460453
 20
202.3293380988
 30
0.0
  0
SEQEND
  5
70F
  8
0
  6
CONTINUOUS
 62
     7
  0
POLYLINE
  5
2A7
  8
0
  6
CONTINUOUS
 62
     7
 66
     1
 10
0.0
 20
0.0
 30
0.0
  0
VERTEX
  5
710
  8
0
  6
CONTINUOUS
 62
     7
 10
185.8719334814
 20
208.3387929378
 30
0.0
  0
VERTEX
  5
711
  8
0
  6
CONTINUOUS
 62
     7
 10
185.8647129375
 20
208.3190461052
 30
0.0
  0
VERTEX
  5
712
  8
0
  6
CONTINUOUS
 62
     7
 10
185.8522369403
 20
208.288953443
 30
0.0
  0
VERTEX
  5
713
  8
0
  6
CONTINUOUS
 62
     7
 10
185.8440310571
 20
208.2741379635
 30
0.0
  0
VERTEX
  5
714
  8
0
  6
CONTINUOUS
 62
     7
 10
185.8403532642
 20
208.2749801119
 30
0.0
  0
VERTEX
  5
715
  8
0
  6
CONTINUOUS
 62
     7
 10
185.8401716563
 20
208.2772630164
 30
0.0
  0
SEQEND
  5
716
  8
0
  6
CONTINUOUS
 62
     7
  0
POLYLINE
  5
2A8
  8
0
  6
CONTINUOUS
 62
     7
 66
     1
 10
0.0
 20
0.0
 30
0.0
  0
VERTEX
  5
717
  8
0
  6
CONTINUOUS
 62
     7
 10
185.8401716563
 20
208.2772630164
 30
0.0
  0
VERTEX
  5
718
  8
0
  6
CONTINUOUS
 62
     7
 10
185.8279322151
 20
208.584989923
 30
0.0
  0
VERTEX
  5
719
  8
0
  6
CONTINUOUS
 62
     7
 10
185.8080978382
 20
208.8922795737
 30
0.0
  0
SEQEND
  5
71A
  8
0
  6
CONTINUOUS
 62
     7
  0
LINE
  5
2A9
  8
0
  6
CONTINUOUS
 62
     7
 10
171.9773871701
 20
208.7291668066
 30
0.0
 11
171.9558184377
 21
208.6918086642
 31
0.0
  0
LINE
  5
2AA
  8
0
  6
CONTINUOUS
 62
     7
 10
178.2832878053
 20
210.7682066052
 30
0.0
 11
178.32642527
 21
210.7682066052
 31
0.0
  0
LINE
  5
2AB
  8
0
  6
CONTINUOUS
 62
     7
 10
173.3644770102
 20
215.2097567813
 30
0.0
 11
173.3429082779
 21
215.2471149237
 31
0.0
  0
ARC
  5
2AC
  8
0
  6
CONTINUOUS
 62
     7
 10
171.6287665135
 20
213.5421423116
 30
0.0
 40
1.845675317922156
 50
131.657904348
 51
207.6294418445
  0
ARC
  5
2AD
  8
0
  6
CONTINUOUS
 62
     7
 10
171.408667739
 20
213.6093219411
 30
0.0
 40
1.653532706558877
 50
110.3860276622
 51
127.5035265746
  0
ARC
  5
2AE
  8
0
  6
CONTINUOUS
 62
     7
 10
174.289438755
 20
208.059804812
 30
0.0
 40
1.84567547643741
 50
251.6579082126
 51
327.6294425622
  0
ARC
  5
2AF
  8
0
  6
CONTINUOUS
 62
     7
 10
174.3413034657
 20
207.8355951533
 30
0.0
 40
1.653522734464577
 50
230.3859902138
 51
247.5035889603
  0
ARC
  5
2B0
  8
0
  6
CONTINUOUS
 62
     7
 10
177.7069464799
 20
213.1051835571
 30
0.0
 40
1.845675069423883
 50
11.6578946493
 51
87.629442314
  0
ARC
  5
2B1
  8
0
  6
CONTINUOUS
 62
     7
 10
177.8751775336
 20
213.2622039382
 30
0.0
 40
1.653530223102086
 50
350.3860387827
 51
7.5035581099
  0
ARC
  5
2B2
  8
0
  6
CONTINUOUS
 62
     7
 10
173.9423592032
 20
212.302686786
 30
0.0
 40
10.05274281217434
 50
127.2277229733
 51
130.0649042597
  0
ARC
  5
2B3
  8
0
  6
CONTINUOUS
 62
     7
 10
174.2060047204
 20
210.6830055309
 30
0.0
 40
10.05258304123606
 50
247.2275751319
 51
250.0648007218
  0
ARC
  5
2B4
  8
0
  6
CONTINUOUS
 62
     7
 10
175.476064969
 20
211.7211907551
 30
0.0
 40
10.05343379389922
 50
7.2277429057
 51
10.0647260687
  0
ARC
  5
2B5
  8
0
  6
CONTINUOUS
 62
     7
 10
174.5417127802
 20
211.569045136
 30
0.0
 40
10.99999557523872
 50
129.994496421
 51
184.9564606348
  0
ARC
  5
2B6
  8
0
  6
CONTINUOUS
 62
     7
 10
174.5417166521
 20
211.5690482276
 30
0.0
 40
11.00000468910229
 50
249.9945191552
 51
304.956436032
  0
ARC
  5
2B7
  8
0
  6
CONTINUOUS
 62
     7
 10
174.5417168396
 20
211.5690423583
 30
0.0
 40
11.00000100296819
 50
9.9945113867
 51
64.9564494294
  0
ARC
  5
2B8
  8
0
  6
CONTINUOUS
 62
     7
 10
174.5417172897
 20
211.5690433783
 30
0.0
 40
12.50000000000003
 50
126.2390203545
 51
180.0
  0
ARC
  5
2B9
  8
0
  6
CONTINUOUS
 62
     7
 10
174.5417172897
 20
211.5690433783
 30
0.0
 40
12.50000000000002
 50
6.2401339043
 51
125.6466539666
  0
ARC
  5
2BA
  8
0
  6
CONTINUOUS
 62
     7
 10
174.5417172897
 20
211.5690433783
 30
0.0
 40
12.5
 50
246.2405318375
 51
5.6466539666
  0
ARC
  5
2BB
  8
0
  6
CONTINUOUS
 62
     7
 10
174.5417172897
 20
211.5690433783
 30
0.0
 40
12.50000000000003
 50
180.0
 51
245.6466539666
  0
CIRCLE
  5
2BC
  8
DÜNNE_LINIE
  6
CENTERX2
 62
   218
 10
174.5417172897
 20
211.5690433783
 30
0.0
 40
12.50000000000001
  0
DIMENSION
  5
2BD
  8
DÜNNE_LINIE
 62
   218
  2
*D8
 10
187.0417172897
 20
188.3333141561
 30
0.0
 11
174.5417172897
 21
188.3333141561
 31
0.0
 70
   160
  1
%%c<>
  3
SLDDIMSTYLE3
 13
162.0417172897
 23
211.5690433783
 33
0.0
 14
187.0417172897
 24
211.5690433783
 34
0.0
  0
INSERT
  5
2D4
  8
DÜNNE_LINIE
 62
   218
  2
SW_CENTERMARKSYMBOL_0
 10
174.5417172897
 20
211.5690433783
 30
0.0
  0
ENDSEC
  0
EOF
