  0
SECTION
  2
HEADER
  9
$ACADVER
  1
AC1015
  9
$ACADMAINTVER
 70
     6
  9
$DWGCODEPAGE
  3
ANSI_1252
  9
$INSBASE
 10
0.0
 20
0.0
 30
0.0
  9
$EXTMIN
 10
0.0
 20
0.0
 30
0.0
  9
$EXTMAX
 10
210.0
 20
297.0
 30
0.0
  9
$LIMMIN
 10
0.0
 20
0.0
  9
$LIMMAX
 10
210.0
 20
297.0
  9
$ORTHOMODE
 70
     0
  9
$REGENMODE
 70
     1
  9
$FILLMODE
 70
     1
  9
$QTEXTMODE
 70
     0
  9
$MIRRTEXT
 70
     1
  9
$LTSCALE
 40
1.0
  9
$ATTMODE
 70
     1
  9
$TEXTSIZE
 40
3.5
  9
$TRACEWID
 40
1.0
  9
$TEXTSTYLE
  7
Standard
  9
$CLAYER
  8
0
  9
$CELTYPE
  6
ByLayer
  9
$CECOLOR
 62
   256
  9
$CELTSCALE
 40
1.0
  9
$DISPSILH
 70
     0
  9
$DIMSCALE
 40
1.0
  9
$DIMASZ
 40
3.0
  9
$DIMEXO
 40
1.0
  9
$DIMDLI
 40
3.75
  9
$DIMRND
 40
0.0
  9
$DIMDLE
 40
0.0
  9
$DIMEXE
 40
1.0
  9
$DIMTP
 40
0.0
  9
$DIMTM
 40
0.0
  9
$DIMTXT
 40
3.0
  9
$DIMCEN
 40
2.5
  9
$DIMTSZ
 40
0.0
  9
$DIMTOL
 70
     0
  9
$DIMLIM
 70
     0
  9
$DIMTIH
 70
     1
  9
$DIMTOH
 70
     1
  9
$DIMSE1
 70
     0
  9
$DIMSE2
 70
     0
  9
$DIMTAD
 70
     1
  9
$DIMZIN
 70
     0
  9
$DIMBLK
  1

  9
$DIMASO
 70
     1
  9
$DIMSHO
 70
     1
  9
$DIMPOST
  1

  9
$DIMAPOST
  1

  9
$DIMALT
 70
     0
  9
$DIMALTD
 70
     3
  9
$DIMALTF
 40
0.0393700787
  9
$DIMLFAC
 40
1.0
  9
$DIMTOFL
 70
     1
  9
$DIMTVP
 40
0.0
  9
$DIMTIX
 70
     0
  9
$DIMSOXD
 70
     0
  9
$DIMSAH
 70
     0
  9
$DIMBLK1
  1

  9
$DIMBLK2
  1

  9
$DIMSTYLE
  2
ISO-25
  9
$DIMCLRD
 70
     0
  9
$DIMCLRE
 70
     0
  9
$DIMCLRT
 70
     0
  9
$DIMTFAC
 40
1.0
  9
$DIMGAP
 40
2.0
  9
$DIMJUST
 70
     0
  9
$DIMSD1
 70
     0
  9
$DIMSD2
 70
     0
  9
$DIMTOLJ
 70
     0
  9
$DIMTZIN
 70
     0
  9
$DIMALTZ
 70
     0
  9
$DIMALTTZ
 70
     0
  9
$DIMUPT
 70
     0
  9
$DIMDEC
 70
     3
  9
$DIMTDEC
 70
     2
  9
$DIMALTU
 70
     2
  9
$DIMALTTD
 70
     3
  9
$DIMTXSTY
  7
Standard
  9
$DIMAUNIT
 70
     0
  9
$DIMADEC
 70
     3
  9
$DIMALTRND
 40
0.0
  9
$DIMAZIN
 70
     0
  9
$DIMDSEP
 70
    44
  9
$DIMATFIT
 70
     3
  9
$DIMFRAC
 70
     0
  9
$DIMLDRBLK
  1

  9
$DIMLUNIT
 70
     2
  9
$DIMLWD
 70
    -2
  9
$DIMLWE
 70
    -2
  9
$DIMTMOVE
 70
     0
  9
$LUNITS
 70
     2
  9
$LUPREC
 70
     3
  9
$SKETCHINC
 40
1.0
  9
$FILLETRAD
 40
10.0
  9
$AUNITS
 70
     0
  9
$AUPREC
 70
     3
  9
$MENU
  1
.
  9
$ELEVATION
 40
0.0
  9
$PELEVATION
 40
0.0
  9
$THICKNESS
 40
0.0
  9
$LIMCHECK
 70
     0
  9
$CHAMFERA
 40
10.0
  9
$CHAMFERB
 40
10.0
  9
$CHAMFERC
 40
20.0
  9
$CHAMFERD
 40
0.0
  9
$SKPOLY
 70
     0
  9
$TDCREATE
 40
2456160.365072882
  9
$TDUCREATE
 40
2456160.281739549
  9
$TDUPDATE
 40
2456160.365074502
  9
$TDUUPDATE
 40
2456160.281741169
  9
$TDINDWG
 40
0.0000000116
  9
$TDUSRTIMER
 40
0.0000000116
  9
$USRTIMER
 70
     1
  9
$ANGBASE
 50
0.0
  9
$ANGDIR
 70
     0
  9
$PDMODE
 70
     0
  9
$PDSIZE
 40
-1.0
  9
$PLINEWID
 40
0.0
  9
$SPLFRAME
 70
     0
  9
$SPLINETYPE
 70
     6
  9
$SPLINESEGS
 70
     8
  9
$HANDSEED
  5
29A
  9
$SURFTAB1
 70
     6
  9
$SURFTAB2
 70
     6
  9
$SURFTYPE
 70
     6
  9
$SURFU
 70
     6
  9
$SURFV
 70
     6
  9
$UCSBASE
  2

  9
$UCSNAME
  2

  9
$UCSORG
 10
0.0
 20
0.0
 30
0.0
  9
$UCSXDIR
 10
1.0
 20
0.0
 30
0.0
  9
$UCSYDIR
 10
0.0
 20
1.0
 30
0.0
  9
$UCSORTHOREF
  2

  9
$UCSORTHOVIEW
 70
     0
  9
$UCSORGTOP
 10
0.0
 20
0.0
 30
0.0
  9
$UCSORGBOTTOM
 10
0.0
 20
0.0
 30
0.0
  9
$UCSORGLEFT
 10
0.0
 20
0.0
 30
0.0
  9
$UCSORGRIGHT
 10
0.0
 20
0.0
 30
0.0
  9
$UCSORGFRONT
 10
0.0
 20
0.0
 30
0.0
  9
$UCSORGBACK
 10
0.0
 20
0.0
 30
0.0
  9
$PUCSBASE
  2

  9
$PUCSNAME
  2

  9
$PUCSORG
 10
0.0
 20
0.0
 30
0.0
  9
$PUCSXDIR
 10
1.0
 20
0.0
 30
0.0
  9
$PUCSYDIR
 10
0.0
 20
1.0
 30
0.0
  9
$PUCSORTHOREF
  2

  9
$PUCSORTHOVIEW
 70
     0
  9
$PUCSORGTOP
 10
0.0
 20
0.0
 30
0.0
  9
$PUCSORGBOTTOM
 10
0.0
 20
0.0
 30
0.0
  9
$PUCSORGLEFT
 10
0.0
 20
0.0
 30
0.0
  9
$PUCSORGRIGHT
 10
0.0
 20
0.0
 30
0.0
  9
$PUCSORGFRONT
 10
0.0
 20
0.0
 30
0.0
  9
$PUCSORGBACK
 10
0.0
 20
0.0
 30
0.0
  9
$USERI1
 70
     0
  9
$USERI2
 70
     0
  9
$USERI3
 70
     0
  9
$USERI4
 70
     0
  9
$USERI5
 70
     0
  9
$USERR1
 40
0.0
  9
$USERR2
 40
0.0
  9
$USERR3
 40
0.0
  9
$USERR4
 40
0.0
  9
$USERR5
 40
0.0
  9
$WORLDVIEW
 70
     1
  9
$SHADEDGE
 70
     3
  9
$SHADEDIF
 70
    70
  9
$TILEMODE
 70
     1
  9
$MAXACTVP
 70
    64
  9
$PINSBASE
 10
0.0
 20
0.0
 30
0.0
  9
$PLIMCHECK
 70
     0
  9
$PEXTMIN
 10
1.0000000000E+20
 20
1.0000000000E+20
 30
1.0000000000E+20
  9
$PEXTMAX
 10
-1.0000000000E+20
 20
-1.0000000000E+20
 30
-1.0000000000E+20
  9
$PLIMMIN
 10
0.0
 20
0.0
  9
$PLIMMAX
 10
420.0
 20
297.0
  9
$UNITMODE
 70
     0
  9
$VISRETAIN
 70
     1
  9
$PLINEGEN
 70
     0
  9
$PSLTSCALE
 70
     1
  9
$TREEDEPTH
 70
  3020
  9
$CMLSTYLE
  2
Standard
  9
$CMLJUST
 70
     0
  9
$CMLSCALE
 40
20.0
  9
$PROXYGRAPHICS
 70
     1
  9
$MEASUREMENT
 70
     1
  9
$CELWEIGHT
370
    -1
  9
$ENDCAPS
280
     0
  9
$JOINSTYLE
280
     0
  9
$LWDISPLAY
290
     1
  9
$INSUNITS
 70
     4
  9
$HYPERLINKBASE
  1

  9
$STYLESHEET
  1

  9
$XEDIT
290
     1
  9
$CEPSNTYPE
380
     0
  9
$PSTYLEMODE
290
     1
  9
$FINGERPRINTGUID
  2
{99705980-6B30-4484-8CD3-E94CD618004A}
  9
$VERSIONGUID
  2
{FAEB1C32-E019-11D5-929B-00C0DF256EC4}
  9
$EXTNAMES
290
     1
  9
$PSVPSCALE
 40
0.0
  9
$OLESTARTUP
290
     0
  0
ENDSEC
  0
SECTION
  2
CLASSES
  0
CLASS
  1
ACDBDICTIONARYWDFLT
  2
AcDbDictionaryWithDefault
  3
ObjectDBX Classes
 90
        0
280
     0
281
     0
  0
CLASS
  1
VISUALSTYLE
  2
AcDbVisualStyle
  3
ObjectDBX Classes
 90
     4095
280
     0
281
     0
  0
CLASS
  1
MATERIAL
  2
AcDbMaterial
  3
ObjectDBX Classes
 90
     1153
280
     0
281
     0
  0
CLASS
  1
ACDBPLACEHOLDER
  2
AcDbPlaceHolder
  3
ObjectDBX Classes
 90
        0
280
     0
281
     0
  0
CLASS
  1
LAYOUT
  2
AcDbLayout
  3
ObjectDBX Classes
 90
        0
280
     0
281
     0
  0
ENDSEC
  0
SECTION
  2
TABLES
  0
TABLE
  2
VPORT
  5
8
330
0
100
AcDbSymbolTable
 70
     1
  0
VPORT
  5
29
330
8
100
AcDbSymbolTableRecord
100
AcDbViewportTableRecord
  2
*Active
 70
     0
 10
0.0
 20
0.0
 11
1.0
 21
1.0
 12
105.0
 22
148.5
 13
0.0
 23
0.0
 14
10.0
 24
10.0
 15
10.0
 25
10.0
 16
0.0
 26
0.0
 36
1.0
 17
0.0
 27
0.0
 37
0.0
 40
297.0
 41
0.7070707071
 42
50.0
 43
0.0
 44
0.0
 50
0.0
 51
0.0
 71
     0
 72
  2000
 73
     1
 74
     3
 75
     0
 76
     0
 77
     0
 78
     0
281
     0
 65
     1
110
0.0
120
0.0
130
0.0
111
1.0
121
0.0
131
0.0
112
0.0
122
1.0
132
0.0
 79
     0
146
0.0
  0
ENDTAB
  0
TABLE
  2
LTYPE
  5
5
330
0
100
AcDbSymbolTable
 70
     6
  0
LTYPE
  5
14
330
5
100
AcDbSymbolTableRecord
100
AcDbLinetypeTableRecord
  2
ByBlock
 70
     0
  3

 72
    65
 73
     0
 40
0.0
  0
LTYPE
  5
15
330
5
100
AcDbSymbolTableRecord
100
AcDbLinetypeTableRecord
  2
ByLayer
 70
     0
  3

 72
    65
 73
     0
 40
0.0
  0
LTYPE
  5
16
330
5
100
AcDbSymbolTableRecord
100
AcDbLinetypeTableRecord
  2
Continuous
 70
     0
  3
Solid line
 72
    65
 73
     0
 40
0.0
  0
LTYPE
  5
3F
330
5
100
AcDbSymbolTableRecord
100
AcDbLinetypeTableRecord
  2
HIDDEN
 70
     0
  3
Hidden __ __ __ __ __ __ __ __ __ __ __ __ __ __
 72
    65
 73
     2
 40
1.905
 49
1.27
 74
     0
 49
-0.635
 74
     0
  0
LTYPE
  5
40
330
5
100
AcDbSymbolTableRecord
100
AcDbLinetypeTableRecord
  2
PHANTOM
 70
     0
  3
Phantom ______  __  __  ______  __  __  ______
 72
    65
 73
     6
 40
12.7
 49
6.35
 74
     0
 49
-1.27
 74
     0
 49
1.27
 74
     0
 49
-1.27
 74
     0
 49
1.27
 74
     0
 49
-1.27
 74
     0
  0
LTYPE
  5
41
330
5
100
AcDbSymbolTableRecord
100
AcDbLinetypeTableRecord
  2
CENTER
 70
     0
  3
Center ____ _ ____ _ ____ _ ____ _ ____ _ ____
 72
    65
 73
     4
 40
10.16
 49
6.35
 74
     0
 49
-1.27
 74
     0
 49
1.27
 74
     0
 49
-1.27
 74
     0
  0
LTYPE
  5
42
330
5
100
AcDbSymbolTableRecord
100
AcDbLinetypeTableRecord
  2
CENTERX2
 70
     0
  3
Center (2x) ________  __  ________  __  _____
 72
    65
 73
     4
 40
20.32
 49
12.7
 74
     0
 49
-2.54
 74
     0
 49
2.54
 74
     0
 49
-2.54
 74
     0
  0
LTYPE
  5
43
330
5
100
AcDbSymbolTableRecord
100
AcDbLinetypeTableRecord
  2
DOT2
 70
     0
  3
Dot (.5x) ........................................
 72
    65
 73
     2
 40
0.635
 49
0.0
 74
     0
 49
-0.635
 74
     0
  0
ENDTAB
  0
TABLE
  2
LAYER
  5
2
330
0
100
AcDbSymbolTable
 70
     2
  0
LAYER
  5
10
330
2
100
AcDbSymbolTableRecord
100
AcDbLayerTableRecord
  2
0
 70
     0
 62
     7
  6
Continuous
370
    -3
390
F
  0
LAYER
  5
44
330
2
100
AcDbSymbolTableRecord
100
AcDbLayerTableRecord
  2
DÜNNE_LINIE
 70
     0
 62
     7
  6
Continuous
370
    -3
390
F
  0
ENDTAB
  0
TABLE
  2
STYLE
  5
3
330
0
100
AcDbSymbolTable
 70
     4
  0
STYLE
  5
11
330
3
100
AcDbSymbolTableRecord
100
AcDbTextStyleTableRecord
  2
Standard
 70
     0
 40
0.0
 41
1.0
 50
0.0
 71
     0
 42
3.5
  3
txt
  4

  0
STYLE
  5
67
330
3
100
AcDbSymbolTableRecord
100
AcDbTextStyleTableRecord
  2
SLDTEXTSTYLE0
 70
     0
 40
0.0
 41
0.605
 50
0.0
 71
     0
 42
0.2
  3
TXT
  4

  0
STYLE
  5
69
330
3
100
AcDbSymbolTableRecord
100
AcDbTextStyleTableRecord
  2
SLDTEXTSTYLE1
 70
     0
 40
0.0
 41
0.75
 50
0.0
 71
     0
 42
0.2
  3
TXT
  4

  0
STYLE
  5
6F
330
3
100
AcDbSymbolTableRecord
100
AcDbTextStyleTableRecord
  2
SLDTEXTSTYLE2
 70
     0
 40
0.0
 41
0.575
 50
0.0
 71
     0
 42
0.2
  3
TXT
  4

  0
ENDTAB
  0
TABLE
  2
VIEW
  5
6
330
0
100
AcDbSymbolTable
 70
     0
  0
ENDTAB
  0
TABLE
  2
UCS
  5
7
330
0
100
AcDbSymbolTable
 70
     0
  0
ENDTAB
  0
TABLE
  2
APPID
  5
9
330
0
100
AcDbSymbolTable
 70
     1
  0
APPID
  5
12
330
9
100
AcDbSymbolTableRecord
100
AcDbRegAppTableRecord
  2
ACAD
 70
     0
  0
ENDTAB
  0
TABLE
  2
DIMSTYLE
  5
A
330
0
100
AcDbSymbolTable
 70
     4
100
AcDbDimStyleTable
  0
DIMSTYLE
105
27
330
A
100
AcDbSymbolTableRecord
100
AcDbDimStyleTableRecord
  2
ISO-25
 70
     0
 41
2.5
 42
0.625
 43
3.75
 44
1.25
 73
     0
 74
     0
 77
     1
 78
     8
140
2.5
141
2.5
143
0.0393700787
147
0.625
171
     3
172
     1
178
     0
271
     2
272
     2
274
     3
278
    44
283
     0
284
     8
340
11
  0
DIMSTYLE
105
F9
102
{ACAD_REACTORS
330
F8
102
}
330
A
100
AcDbSymbolTableRecord
100
AcDbDimStyleTableRecord
  2
SLDDIMSTYLE0
 70
     0
 41
3.0
 44
0.0
 45
0.000000001
 73
     0
 74
     0
 77
     1
 78
    12
 79
     3
140
3.0
147
0.75
173
     1
178
     0
271
     3
272
     2
276
     2
284
    12
340
69
  0
DIMSTYLE
105
105
102
{ACAD_REACTORS
330
104
330
282
102
}
330
A
100
AcDbSymbolTableRecord
100
AcDbDimStyleTableRecord
  2
SLDDIMSTYLE1
 70
     0
 41
3.0
 44
0.0
 45
0.000000001
 73
     0
 74
     0
 77
     1
 78
    12
 79
     3
140
3.0
147
0.75
173
     1
178
     0
271
     3
272
     2
276
     2
284
    12
340
69
  0
DIMSTYLE
105
229
102
{ACAD_REACTORS
330
228
102
}
330
A
100
AcDbSymbolTableRecord
100
AcDbDimStyleTableRecord
  2
SLDDIMSTYLE2
 70
     0
 41
3.0
 44
0.0
 45
0.000000001
 73
     0
 74
     0
 77
     1
 78
    12
 79
     3
140
3.0
147
0.75
173
     1
178
     0
271
     0
272
     2
276
     2
284
    12
340
69
  0
ENDTAB
  0
TABLE
  2
BLOCK_RECORD
  5
1
330
0
100
AcDbSymbolTable
 70
     8
  0
BLOCK_RECORD
  5
1F
330
1
100
AcDbSymbolTableRecord
100
AcDbBlockTableRecord
  2
*Model_Space
340
22
  0
BLOCK_RECORD
  5
1B
330
1
100
AcDbSymbolTableRecord
100
AcDbBlockTableRecord
  2
*Paper_Space
340
1E
  0
BLOCK_RECORD
  5
23
330
1
100
AcDbSymbolTableRecord
100
AcDbBlockTableRecord
  2
*Paper_Space0
340
26
  0
BLOCK_RECORD
  5
74
330
1
100
AcDbSymbolTableRecord
100
AcDbBlockTableRecord
  2
SW_NOTE_0
340
0
102
{BLKREFS
331
79
102
}
  0
BLOCK_RECORD
  5
FA
330
1
100
AcDbSymbolTableRecord
100
AcDbBlockTableRecord
  2
_D
340
0
  0
BLOCK_RECORD
  5
106
330
1
100
AcDbSymbolTableRecord
100
AcDbBlockTableRecord
  2
_D_1
340
0
  0
BLOCK_RECORD
  5
22A
330
1
100
AcDbSymbolTableRecord
100
AcDbBlockTableRecord
  2
_D_2
340
0
  0
BLOCK_RECORD
  5
233
330
1
100
AcDbSymbolTableRecord
100
AcDbBlockTableRecord
  2
SW_CENTERMARKSYMBOL_0
340
0
102
{BLKREFS
331
23E
102
}
  0
BLOCK_RECORD
  5
283
330
1
100
AcDbSymbolTableRecord
100
AcDbBlockTableRecord
  2
_D_3
340
0
  0
BLOCK_RECORD
  5
28D
330
1
100
AcDbSymbolTableRecord
100
AcDbBlockTableRecord
  2
SW_CENTERMARKSYMBOL_1
340
0
102
{BLKREFS
331
298
102
}
  0
ENDTAB
  0
ENDSEC
  0
SECTION
  2
BLOCKS
  0
BLOCK
  5
20
330
1F
100
AcDbEntity
  8
0
100
AcDbBlockBegin
  2
*Model_Space
 70
     0
 10
0.0
 20
0.0
 30
0.0
  3
*Model_Space
  1

  0
ENDBLK
  5
21
330
1F
100
AcDbEntity
  8
0
100
AcDbBlockEnd
  0
BLOCK
  5
1C
330
1B
100
AcDbEntity
 67
     1
  8
0
100
AcDbBlockBegin
  2
*Paper_Space
 70
     0
 10
0.0
 20
0.0
 30
0.0
  3
*Paper_Space
  1

  0
ENDBLK
  5
1D
330
1B
100
AcDbEntity
 67
     1
  8
0
100
AcDbBlockEnd
  0
BLOCK
  5
24
330
23
100
AcDbEntity
  8
0
100
AcDbBlockBegin
  2
*Paper_Space0
 70
     0
 10
0.0
 20
0.0
 30
0.0
  3
*Paper_Space0
  1

  0
ENDBLK
  5
25
330
23
100
AcDbEntity
  8
0
100
AcDbBlockEnd
  0
BLOCK
  5
75
330
74
100
AcDbEntity
  8
0
100
AcDbBlockBegin
  2
SW_NOTE_0
 70
     0
 10
0.0
 20
0.0
 30
0.0
  3
SW_NOTE_0
  1

  0
MTEXT
  5
77
330
74
100
AcDbEntity
  8
0
  6
Continuous
 62
     0
370
     0
100
AcDbMText
 10
1.5875
 20
4.0323054914
 30
0.0
 40
3.1280788177
 41
0.0
 71
     2
 72
     1
  1
%%p
  7
SLDTEXTSTYLE0
 73
     1
 44
1.0
  0
MTEXT
  5
78
330
74
100
AcDbEntity
  8
0
  6
Continuous
 62
     0
370
     0
100
AcDbMText
 10
7.178439886
 20
4.032305375
 30
0.0
 40
3.1280788177
 41
0.0
 71
     2
 72
     1
  1
0,1
  7
SLDTEXTSTYLE0
 73
     1
 44
1.0
  0
ENDBLK
  5
76
330
74
100
AcDbEntity
  8
0
100
AcDbBlockEnd
  0
BLOCK
  5
FB
330
FA
100
AcDbEntity
  8
0
100
AcDbBlockBegin
  2
_D
 70
     0
 10
0.0
 20
0.0
 30
0.0
  3
_D
  1

  0
SOLID
  5
FD
330
FA
100
AcDbEntity
  8
DÜNNE_LINIE
 62
     7
100
AcDbTrace
 10
106.1860416289
 20
225.0710787911
 30
0.0
 11
105.4360416289
 21
222.0710787911
 31
0.0
 12
106.9360416289
 22
222.0710787911
 32
0.0
 13
106.9360416289
 23
222.0710787911
 33
0.0
  0
SOLID
  5
FE
330
FA
100
AcDbEntity
  8
DÜNNE_LINIE
 62
     7
100
AcDbTrace
 10
106.1860416289
 20
213.0710787911
 30
0.0
 11
106.9360416289
 21
216.0710787911
 31
0.0
 12
105.4360416289
 22
216.0710787911
 32
0.0
 13
105.4360416289
 23
216.0710787911
 33
0.0
  0
LINE
  5
FF
330
FA
100
AcDbEntity
  8
DÜNNE_LINIE
 62
     7
100
AcDbLine
 10
96.8782784702
 20
225.0710787911
 30
0.0
 11
107.1860416289
 21
225.0710787911
 31
0.0
  0
LINE
  5
100
330
FA
100
AcDbEntity
  8
DÜNNE_LINIE
 62
     7
100
AcDbLine
 10
96.8782784702
 20
213.0710787911
 30
0.0
 11
107.1860416289
 21
213.0710787911
 31
0.0
  0
LINE
  5
101
330
FA
100
AcDbEntity
  8
DÜNNE_LINIE
 62
     7
100
AcDbLine
 10
106.1860416289
 20
225.0710787911
 30
0.0
 11
106.1860416289
 21
213.0710787911
 31
0.0
  0
MTEXT
  5
102
330
FA
100
AcDbEntity
  8
DÜNNE_LINIE
 62
     7
100
AcDbMText
 10
102.3188382932
 20
214.9849136396
 30
0.0
 40
3.0
 41
0.0
 71
     1
 72
     1
  1
M
  7
SLDTEXTSTYLE1
 11
-7.044195017643634E-15
 21
1.0
 31
0.0
 73
     1
 44
1.0
  0
MTEXT
  5
103
330
FA
100
AcDbEntity
  8
DÜNNE_LINIE
 62
     7
100
AcDbMText
 10
102.3188382932
 20
218.6583309793
 30
0.0
 40
3.0
 41
0.0
 71
     1
 72
     1
  1
12
  7
SLDTEXTSTYLE1
 11
-7.044195017643634E-15
 21
1.0
 31
0.0
 73
     1
 44
1.0
  0
ENDBLK
  5
FC
330
FA
100
AcDbEntity
  8
0
100
AcDbBlockEnd
  0
BLOCK
  5
107
330
106
100
AcDbEntity
  8
0
100
AcDbBlockBegin
  2
_D_1
 70
     0
 10
0.0
 20
0.0
 30
0.0
  3
_D_1
  1

  0
SOLID
  5
109
330
106
100
AcDbEntity
  8
DÜNNE_LINIE
 62
     7
100
AcDbTrace
 10
115.7728945153
 20
229.5710787911
 30
0.0
 11
115.0228945153
 21
226.5710787911
 31
0.0
 12
116.5228945153
 22
226.5710787911
 32
0.0
 13
116.5228945153
 23
226.5710787911
 33
0.0
  0
SOLID
  5
10A
330
106
100
AcDbEntity
  8
DÜNNE_LINIE
 62
     7
100
AcDbTrace
 10
115.7728945153
 20
208.5710787911
 30
0.0
 11
116.5228945153
 21
211.5710787911
 31
0.0
 12
115.0228945153
 22
211.5710787911
 32
0.0
 13
115.0228945153
 23
211.5710787911
 33
0.0
  0
LINE
  5
10B
330
106
100
AcDbEntity
  8
DÜNNE_LINIE
 62
     7
100
AcDbLine
 10
75.3782784702
 20
229.5710787911
 30
0.0
 11
116.7728945153
 21
229.5710787911
 31
0.0
  0
LINE
  5
10C
330
106
100
AcDbEntity
  8
DÜNNE_LINIE
 62
     7
100
AcDbLine
 10
75.3782784702
 20
208.5710787911
 30
0.0
 11
116.7728945153
 21
208.5710787911
 31
0.0
  0
LINE
  5
10D
330
106
100
AcDbEntity
  8
DÜNNE_LINIE
 62
     7
100
AcDbLine
 10
115.7728945153
 20
229.5710787911
 30
0.0
 11
115.7728945153
 21
208.5710787911
 31
0.0
  0
MTEXT
  5
10E
330
106
100
AcDbEntity
  8
DÜNNE_LINIE
 62
     7
100
AcDbMText
 10
111.9056913542
 20
213.3734740566
 30
20.7803789028
 40
3.0
 41
0.0
 71
     1
 72
     1
  1
%%c
  7
SLDTEXTSTYLE1
 11
-7.044195017643634E-15
 21
1.0
 31
0.0
 73
     1
 44
1.0
  0
MTEXT
  5
10F
330
106
100
AcDbEntity
  8
DÜNNE_LINIE
 62
     7
100
AcDbMText
 10
111.8598580017
 20
217.8978493687
 30
20.7803789028
 40
3.0
 41
0.0
 71
     1
 72
     1
  1
21
  7
SLDTEXTSTYLE1
 11
-7.044195017643634E-15
 21
1.0
 31
0.0
 73
     1
 44
1.0
  0
ENDBLK
  5
108
330
106
100
AcDbEntity
  8
0
100
AcDbBlockEnd
  0
BLOCK
  5
22B
330
22A
100
AcDbEntity
  8
0
100
AcDbBlockBegin
  2
_D_2
 70
     0
 10
0.0
 20
0.0
 30
0.0
  3
_D_2
  1

  0
SOLID
  5
22D
330
22A
100
AcDbEntity
  8
DÜNNE_LINIE
 62
     7
100
AcDbTrace
 10
39.7700483829
 20
116.7662994465
 30
0.0
 11
42.7700483829
 21
116.0162994465
 31
0.0
 12
42.7700483829
 22
117.5162994465
 32
0.0
 13
42.7700483829
 23
117.5162994465
 33
0.0
  0
SOLID
  5
22E
330
22A
100
AcDbEntity
  8
DÜNNE_LINIE
 62
     7
100
AcDbTrace
 10
74.8782784702
 20
116.7662994465
 30
0.0
 11
71.8782784702
 21
117.5162994465
 31
0.0
 12
71.8782784702
 22
116.0162994465
 32
0.0
 13
71.8782784702
 23
116.0162994465
 33
0.0
  0
LINE
  5
22F
330
22A
100
AcDbEntity
  8
DÜNNE_LINIE
 62
     7
100
AcDbLine
 10
39.7700483829
 20
126.7513463738
 30
0.0
 11
39.7700483829
 21
115.7662994465
 31
0.0
  0
LINE
  5
230
330
22A
100
AcDbEntity
  8
DÜNNE_LINIE
 62
     7
100
AcDbLine
 10
74.8782784702
 20
128.2461579798
 30
0.0
 11
74.8782784702
 21
115.7662994465
 31
0.0
  0
LINE
  5
231
330
22A
100
AcDbEntity
  8
DÜNNE_LINIE
 62
     7
100
AcDbLine
 10
39.7700483829
 20
116.7662994465
 30
0.0
 11
74.8782784702
 21
116.7662994465
 31
0.0
  0
MTEXT
  5
232
330
22A
100
AcDbEntity
  8
DÜNNE_LINIE
 62
     7
100
AcDbMText
 10
54.9096404223
 20
120.6335027823
 30
0.0
 40
3.0
 41
0.0
 71
     1
 72
     1
  1
35
  7
SLDTEXTSTYLE1
 73
     1
 44
1.0
  0
ENDBLK
  5
22C
330
22A
100
AcDbEntity
  8
0
100
AcDbBlockEnd
  0
BLOCK
  5
234
330
233
100
AcDbEntity
  8
0
100
AcDbBlockBegin
  2
SW_CENTERMARKSYMBOL_0
 70
     0
 10
0.0
 20
0.0
 30
0.0
  3
SW_CENTERMARKSYMBOL_0
  1

  0
LINE
  5
236
330
233
100
AcDbEntity
  8
DÜNNE_LINIE
 62
     0
100
AcDbLine
 10
0.0
 20
0.0
 30
0.0
 11
0.0
 21
2.5
 31
0.0
  0
LINE
  5
237
330
233
100
AcDbEntity
  8
DÜNNE_LINIE
 62
     0
100
AcDbLine
 10
0.0
 20
0.0
 30
0.0
 11
-2.5
 21
0.0
 31
0.0
  0
LINE
  5
238
330
233
100
AcDbEntity
  8
DÜNNE_LINIE
 62
     0
100
AcDbLine
 10
0.0
 20
0.0
 30
0.0
 11
0.0
 21
-2.5
 31
0.0
  0
LINE
  5
239
330
233
100
AcDbEntity
  8
DÜNNE_LINIE
 62
     0
100
AcDbLine
 10
0.0
 20
0.0
 30
0.0
 11
2.5
 21
0.0
 31
0.0
  0
LINE
  5
23A
330
233
100
AcDbEntity
  8
DÜNNE_LINIE
 62
     0
100
AcDbLine
 10
0.0
 20
5.0
 30
0.0
 11
0.0
 21
5.3381634904
 31
0.0
  0
LINE
  5
23B
330
233
100
AcDbEntity
  8
DÜNNE_LINIE
 62
     0
100
AcDbLine
 10
-5.0
 20
0.0
 30
0.0
 11
-5.3381634904
 21
0.0
 31
0.0
  0
LINE
  5
23C
330
233
100
AcDbEntity
  8
DÜNNE_LINIE
 62
     0
100
AcDbLine
 10
0.0
 20
-5.0
 30
0.0
 11
0.0
 21
-5.3381634904
 31
0.0
  0
LINE
  5
23D
330
233
100
AcDbEntity
  8
DÜNNE_LINIE
 62
     0
100
AcDbLine
 10
5.0
 20
0.0
 30
0.0
 11
5.3381634904
 21
0.0
 31
0.0
  0
ENDBLK
  5
235
330
233
100
AcDbEntity
  8
0
100
AcDbBlockEnd
  0
BLOCK
  5
284
330
283
100
AcDbEntity
  8
0
100
AcDbBlockBegin
  2
_D_3
 70
     0
 10
0.0
 20
0.0
 30
0.0
  3
_D_3
  1

  0
SOLID
  5
286
330
283
100
AcDbEntity
  8
DÜNNE_LINIE
 62
     7
100
AcDbTrace
 10
145.3485386668
 20
197.0310787911
 30
0.0
 11
148.3485386668
 21
196.2810787911
 31
0.0
 12
148.3485386668
 22
197.7810787911
 32
0.0
 13
148.3485386668
 23
197.7810787911
 33
0.0
  0
SOLID
  5
287
330
283
100
AcDbEntity
  8
DÜNNE_LINIE
 62
     7
100
AcDbTrace
 10
170.3485386668
 20
197.0310787911
 30
0.0
 11
167.3485386668
 21
197.7810787911
 31
0.0
 12
167.3485386668
 22
196.2810787911
 32
0.0
 13
167.3485386668
 23
196.2810787911
 33
0.0
  0
LINE
  5
288
330
283
100
AcDbEntity
  8
DÜNNE_LINIE
 62
     7
100
AcDbLine
 10
145.3485386668
 20
218.0710787911
 30
0.0
 11
145.3485386668
 21
196.0310787911
 31
0.0
  0
LINE
  5
289
330
283
100
AcDbEntity
  8
DÜNNE_LINIE
 62
     7
100
AcDbLine
 10
170.3485386668
 20
218.0710787911
 30
0.0
 11
170.3485386668
 21
196.0310787911
 31
0.0
  0
LINE
  5
28A
330
283
100
AcDbEntity
  8
DÜNNE_LINIE
 62
     7
100
AcDbLine
 10
145.3485386668
 20
197.0310787911
 30
0.0
 11
170.3485386668
 21
197.0310787911
 31
0.0
  0
MTEXT
  5
28B
330
283
100
AcDbEntity
  8
DÜNNE_LINIE
 62
     7
100
AcDbMText
 10
152.1509339324
 20
200.8982819522
 30
0.1
 40
3.0
 41
0.0
 71
     1
 72
     1
  1
%%c
  7
SLDTEXTSTYLE1
 73
     1
 44
1.0
  0
MTEXT
  5
28C
330
283
100
AcDbEntity
  8
DÜNNE_LINIE
 62
     7
100
AcDbMText
 10
156.6753092444
 20
200.9441153047
 30
0.1
 40
3.0
 41
0.0
 71
     1
 72
     1
  1
25
  7
SLDTEXTSTYLE1
 73
     1
 44
1.0
  0
ENDBLK
  5
285
330
283
100
AcDbEntity
  8
0
100
AcDbBlockEnd
  0
BLOCK
  5
28E
330
28D
100
AcDbEntity
  8
0
100
AcDbBlockBegin
  2
SW_CENTERMARKSYMBOL_1
 70
     0
 10
0.0
 20
0.0
 30
0.0
  3
SW_CENTERMARKSYMBOL_1
  1

  0
LINE
  5
290
330
28D
100
AcDbEntity
  8
DÜNNE_LINIE
 62
     0
100
AcDbLine
 10
0.0
 20
0.0
 30
0.0
 11
0.0
 21
2.5
 31
0.0
  0
LINE
  5
291
330
28D
100
AcDbEntity
  8
DÜNNE_LINIE
 62
     0
100
AcDbLine
 10
0.0
 20
0.0
 30
0.0
 11
-2.5
 21
0.0
 31
0.0
  0
LINE
  5
292
330
28D
100
AcDbEntity
  8
DÜNNE_LINIE
 62
     0
100
AcDbLine
 10
0.0
 20
0.0
 30
0.0
 11
0.0
 21
-2.5
 31
0.0
  0
LINE
  5
293
330
28D
100
AcDbEntity
  8
DÜNNE_LINIE
 62
     0
100
AcDbLine
 10
0.0
 20
0.0
 30
0.0
 11
2.5
 21
0.0
 31
0.0
  0
LINE
  5
294
330
28D
100
AcDbEntity
  8
DÜNNE_LINIE
 62
     0
100
AcDbLine
 10
0.0
 20
5.0
 30
0.0
 11
0.0
 21
14.54
 31
0.0
  0
LINE
  5
295
330
28D
100
AcDbEntity
  8
DÜNNE_LINIE
 62
     0
100
AcDbLine
 10
-5.0
 20
0.0
 30
0.0
 11
-14.54
 21
0.0
 31
0.0
  0
LINE
  5
296
330
28D
100
AcDbEntity
  8
DÜNNE_LINIE
 62
     0
100
AcDbLine
 10
0.0
 20
-5.0
 30
0.0
 11
0.0
 21
-14.54
 31
0.0
  0
LINE
  5
297
330
28D
100
AcDbEntity
  8
DÜNNE_LINIE
 62
     0
100
AcDbLine
 10
5.0
 20
0.0
 30
0.0
 11
14.54
 21
0.0
 31
0.0
  0
ENDBLK
  5
28F
330
28D
100
AcDbEntity
  8
0
100
AcDbBlockEnd
  0
ENDSEC
  0
SECTION
  2
ENTITIES
  0
LINE
  5
45
330
1F
100
AcDbEntity
  8
0
  6
Continuous
 62
     7
370
    60
100
AcDbLine
 10
14.7198675497
 20
54.4522204694
 30
0.0
 11
203.9021502667
 21
54.4522204694
 31
0.0
  0
LINE
  5
46
330
1F
100
AcDbEntity
  8
0
  6
Continuous
 62
     7
370
    60
100
AcDbLine
 10
14.7198675497
 20
291.4435430464
 30
0.0
 11
203.9021502667
 21
291.4435430464
 31
0.0
  0
LINE
  5
47
330
1F
100
AcDbEntity
  8
0
  6
Continuous
 62
     7
370
    60
100
AcDbLine
 10
14.7198675497
 20
291.4435430464
 30
0.0
 11
14.7198675497
 21
5.5564569536
 31
0.0
  0
LINE
  5
48
330
1F
100
AcDbEntity
  8
0
  6
Continuous
 62
     7
370
    60
100
AcDbLine
 10
14.7198675497
 20
5.5564569536
 30
0.0
 11
203.9021502667
 21
5.5564569536
 31
0.0
  0
LINE
  5
49
330
1F
100
AcDbEntity
  8
0
  6
Continuous
 62
     7
370
    60
100
AcDbLine
 10
203.9021502667
 20
291.4435430464
 30
0.0
 11
203.9021502667
 21
5.5564569536
 31
0.0
  0
LINE
  5
4A
330
1F
100
AcDbEntity
  8
DÜNNE_LINIE
 62
     7
370
    40
100
AcDbLine
 10
87.7133682192
 20
43.6739122185
 30
0.0
 11
87.7133682192
 21
54.4522204694
 31
0.0
  0
LINE
  5
4B
330
1F
100
AcDbEntity
  8
0
  6
Continuous
 62
     7
370
    40
100
AcDbLine
 10
112.5985152085
 20
54.4522204694
 30
0.0
 11
112.5985152085
 21
5.5564569536
 31
0.0
  0
LINE
  5
4C
330
1F
100
AcDbEntity
  8
0
  6
Continuous
 62
     7
370
    40
100
AcDbLine
 10
62.7198675497
 20
27.7011934068
 30
0.0
 11
112.5985152085
 21
27.7011934068
 31
0.0
  0
LINE
  5
4D
330
1F
100
AcDbEntity
  8
0
  6
Continuous
 62
     7
370
    40
100
AcDbLine
 10
112.5985152085
 20
21.5564569536
 30
0.0
 11
203.9021502667
 21
21.5564569536
 31
0.0
  0
LINE
  5
4E
330
1F
100
AcDbEntity
  8
DÜNNE_LINIE
 62
     7
370
     0
100
AcDbLine
 10
112.5985152085
 20
37.7011934068
 30
0.0
 11
62.7198675497
 21
37.7011934068
 31
0.0
  0
LINE
  5
4F
330
1F
100
AcDbEntity
  8
0
  6
Continuous
 62
     7
370
    40
100
AcDbLine
 10
112.5985152085
 20
46.3471968457
 30
0.0
 11
203.9021502667
 21
46.3471968457
 31
0.0
  0
LINE
  5
50
330
1F
100
AcDbEntity
  8
DÜNNE_LINIE
 62
     7
370
    40
100
AcDbLine
 10
62.7198675497
 20
54.4522204694
 30
0.0
 11
62.7198675497
 21
5.5564569536
 31
0.0
  0
LINE
  5
51
330
1F
100
AcDbEntity
  8
0
  6
Continuous
 62
     7
370
     0
100
AcDbLine
 10
26.7198675497
 20
54.4522204694
 30
0.0
 11
26.7198675497
 21
5.5564569536
 31
0.0
  0
LINE
  5
52
330
1F
100
AcDbEntity
  8
0
  6
Continuous
 62
     7
370
     0
100
AcDbLine
 10
14.7198675497
 20
13.7522204694
 30
0.0
 11
62.7198675497
 21
13.7522204694
 31
0.0
  0
LINE
  5
53
330
1F
100
AcDbEntity
  8
DÜNNE_LINIE
 62
     7
370
     0
100
AcDbLine
 10
14.7198675497
 20
17.4522204694
 30
0.0
 11
62.7198675497
 21
17.4522204694
 31
0.0
  0
LINE
  5
54
330
1F
100
AcDbEntity
  8
DÜNNE_LINIE
 62
     7
370
     0
100
AcDbLine
 10
14.7198675497
 20
21.1522204694
 30
0.0
 11
62.7198675497
 21
21.1522204694
 31
0.0
  0
LINE
  5
55
330
1F
100
AcDbEntity
  8
DÜNNE_LINIE
 62
     7
370
    40
100
AcDbLine
 10
148.481516348
 20
21.5564569536
 30
0.0
 11
148.481516348
 21
5.5564569536
 31
0.0
  0
LINE
  5
56
330
1F
100
AcDbEntity
  8
DÜNNE_LINIE
 62
     7
370
     0
100
AcDbLine
 10
71.8404271395
 20
43.6739122185
 30
0.0
 11
71.8404271395
 21
27.7011934068
 31
0.0
  0
LINE
  5
57
330
1F
100
AcDbEntity
  8
DÜNNE_LINIE
 62
     7
370
    40
100
AcDbLine
 10
112.5985152085
 20
43.6739122185
 30
0.0
 11
62.7198675497
 21
43.6739122185
 31
0.0
  0
LINE
  5
58
330
1F
100
AcDbEntity
  8
DÜNNE_LINIE
 62
     7
370
    40
100
AcDbLine
 10
87.7133682192
 20
5.5564569536
 30
0.0
 11
87.7133682192
 21
27.7011934068
 31
0.0
  0
LINE
  5
59
330
1F
100
AcDbEntity
  8
DÜNNE_LINIE
 62
     7
370
     0
100
AcDbLine
 10
112.5985152085
 20
32.7011934068
 30
0.0
 11
62.7198675497
 21
32.7011934068
 31
0.0
  0
LINE
  5
5A
330
1F
100
AcDbEntity
  8
DÜNNE_LINIE
 62
     7
370
    40
100
AcDbLine
 10
87.7133682192
 20
17.2472848232
 30
0.0
 11
62.7198675497
 21
17.2472848232
 31
0.0
  0
LINE
  5
5B
330
1F
100
AcDbEntity
  8
DÜNNE_LINIE
 62
     7
370
     0
100
AcDbLine
 10
87.7133682192
 20
43.6739122185
 30
0.0
 11
87.7133682192
 21
27.7011934068
 31
0.0
  0
LINE
  5
5C
330
1F
100
AcDbEntity
  8
DÜNNE_LINIE
 62
     7
370
    30
100
AcDbLine
 10
38.7198675497
 20
5.5564569536
 30
0.0
 11
38.7198675497
 21
54.4522204694
 31
0.0
  0
LINE
  5
5D
330
1F
100
AcDbEntity
  8
DÜNNE_LINIE
 62
     7
370
    30
100
AcDbLine
 10
14.7198675497
 20
10.0522204694
 30
0.0
 11
62.7198675497
 21
10.0522204694
 31
0.0
  0
LINE
  5
5E
330
1F
100
AcDbEntity
  8
DÜNNE_LINIE
 62
     7
370
     0
100
AcDbLine
 10
14.7198675497
 20
24.8522204694
 30
0.0
 11
62.7198675497
 21
24.8522204694
 31
0.0
  0
LINE
  5
5F
330
1F
100
AcDbEntity
  8
DÜNNE_LINIE
 62
     7
370
     0
100
AcDbLine
 10
14.7198675497
 20
28.5522204694
 30
0.0
 11
62.7198675497
 21
28.5522204694
 31
0.0
  0
LINE
  5
60
330
1F
100
AcDbEntity
  8
DÜNNE_LINIE
 62
     7
370
     0
100
AcDbLine
 10
14.7198675497
 20
32.2522204694
 30
0.0
 11
62.7198675497
 21
32.2522204694
 31
0.0
  0
LINE
  5
61
330
1F
100
AcDbEntity
  8
DÜNNE_LINIE
 62
     7
370
     0
100
AcDbLine
 10
14.7198675497
 20
35.9522204694
 30
0.0
 11
62.7198675497
 21
35.9522204694
 31
0.0
  0
LINE
  5
62
330
1F
100
AcDbEntity
  8
DÜNNE_LINIE
 62
     7
370
     0
100
AcDbLine
 10
14.7198675497
 20
39.6522204694
 30
0.0
 11
62.7198675497
 21
39.6522204694
 31
0.0
  0
LINE
  5
63
330
1F
100
AcDbEntity
  8
DÜNNE_LINIE
 62
     7
370
     0
100
AcDbLine
 10
14.7198675497
 20
43.3522204694
 30
0.0
 11
62.7198675497
 21
43.3522204694
 31
0.0
  0
LINE
  5
64
330
1F
100
AcDbEntity
  8
DÜNNE_LINIE
 62
     7
370
     0
100
AcDbLine
 10
50.7198675497
 20
54.4522204694
 30
0.0
 11
50.7198675497
 21
5.5564569536
 31
0.0
  0
LINE
  5
65
330
1F
100
AcDbEntity
  8
DÜNNE_LINIE
 62
     7
370
     0
100
AcDbLine
 10
14.7198675497
 20
47.0522204694
 30
0.0
 11
62.7198675497
 21
47.0522204694
 31
0.0
  0
LINE
  5
66
330
1F
100
AcDbEntity
  8
DÜNNE_LINIE
 62
     7
370
     0
100
AcDbLine
 10
14.7198675497
 20
50.7522204694
 30
0.0
 11
62.7198675497
 21
50.7522204694
 31
0.0
  0
MTEXT
  5
68
330
1F
100
AcDbEntity
  8
0
  6
Continuous
 62
     7
370
     0
100
AcDbMText
 10
159.8847207045
 20
52.5587087898
 30
0.0
 40
2.7370689655
 41
0.0
 71
     2
 72
     1
  1
Jongen Werkzeugtechnik GmbH & Co. KG
  7
SLDTEXTSTYLE0
 73
     1
 44
1.0
  0
MTEXT
  5
6A
330
1F
100
AcDbEntity
  8
0
  6
Continuous
 62
     7
370
     0
100
AcDbMText
 10
67.8948579237
 20
26.6927350568
 30
0.0
 40
2.1
 41
0.0
 71
     1
 72
     1
  1
Maßstab:
  7
SLDTEXTSTYLE1
 73
     1
 44
1.0
  0
MTEXT
  5
6B
330
1F
100
AcDbEntity
  8
0
  6
Continuous
 62
     7
370
     0
100
AcDbMText
 10
69.5866628203
 20
21.390892249
 30
0.0
 40
3.51908867
 41
0.0
 71
     1
 72
     1
  1
1:1
  7
SLDTEXTSTYLE0
 73
     1
 44
1.0
  0
MTEXT
  5
6C
330
1F
100
AcDbEntity
  8
0
  6
Continuous
 62
     7
370
     0
100
AcDbMText
 10
112.798427099
 20
20.6392790808
 30
0.0
 40
2.1
 41
0.0
 71
     1
 72
     1
  1
Verwendungsbereich:
  7
SLDTEXTSTYLE1
 73
     1
 44
1.0
  0
MTEXT
  5
6D
330
1F
100
AcDbEntity
  8
0
  6
Continuous
 62
     7
370
     0
100
AcDbMText
 10
93.2262200981
 20
19.5251396102
 30
0.0
 40
2.1
 41
0.0
 71
     1
 72
     1
  1
EDV-Nr.:
  7
SLDTEXTSTYLE1
 73
     1
 44
1.0
  0
MTEXT
  5
6E
330
1F
100
AcDbEntity
  8
0
  6
Continuous
 62
     7
370
     0
100
AcDbMText
 10
148.9259155915
 20
20.902370066
 30
0.0
 40
2.1
 41
0.0
 71
     1
 72
     1
  1
EDV-Nr.:
  7
SLDTEXTSTYLE1
 73
     1
 44
1.0
  0
MTEXT
  5
70
330
1F
100
AcDbEntity
  8
0
  6
Continuous
 62
     7
370
     0
100
AcDbMText
 10
152.6389589689
 20
11.9828770307
 30
0.0
 40
3.1280788177
 41
0.0
 71
     1
 72
     1
  1
JESF031  ( 7 )
  7
SLDTEXTSTYLE2
 73
     1
 44
1.0
  0
MTEXT
  5
71
330
1F
100
AcDbEntity
  8
0
  6
Continuous
 62
     7
370
     0
100
AcDbMText
 10
68.3652390548
 20
15.8922645239
 30
0.0
 40
2.1
 41
0.0
 71
     1
 72
     1
  1
Material:
  7
SLDTEXTSTYLE1
 73
     1
 44
1.0
  0
MTEXT
  5
72
330
1F
100
AcDbEntity
  8
0
  6
Continuous
 62
     7
370
     0
100
AcDbMText
 10
74.4826099555
 20
53.5658121883
 30
0.0
 40
2.1
 41
0.0
 71
     2
 72
     1
  1
Blattformat:
  7
SLDTEXTSTYLE1
 73
     1
 44
1.0
  0
MTEXT
  5
73
330
1F
100
AcDbEntity
  8
0
  6
Continuous
 62
     7
370
     0
100
AcDbMText
 10
74.7250783117
 20
49.3423737739
 30
0.0
 40
4.0640394089
 41
0.0
 71
     2
 72
     1
  1
A4
  7
SLDTEXTSTYLE0
 73
     1
 44
1.0
  0
INSERT
  5
79
330
1F
100
AcDbEntity
  8
0
  6
Continuous
 62
     7
370
     0
100
AcDbBlockReference
  2
SW_NOTE_0
 10
95.10343273
 20
44.2906585054
 30
0.0
  0
MTEXT
  5
7A
330
1F
100
AcDbEntity
  8
0
  6
Continuous
 62
     7
370
     0
100
AcDbMText
 10
114.9418989165
 20
44.4835766295
 30
0.0
 40
2.1
 41
0.0
 71
     1
 72
     1
  1
Benennung:
  7
SLDTEXTSTYLE1
 73
     1
 44
1.0
  0
MTEXT
  5
7B
330
1F
100
AcDbEntity
  8
0
  6
Continuous
 62
     7
370
     0
100
AcDbMText
 10
100.012476348
 20
53.6574012598
 30
0.0
 40
2.1
 41
0.0
 71
     2
 72
     1
  1
Freimaßtoleranz:
  7
SLDTEXTSTYLE1
 73
     1
 44
1.0
  0
MTEXT
  5
7C
330
1F
100
AcDbEntity
  8
0
  6
Continuous
 62
     7
370
     0
100
AcDbMText
 10
76.3260818058
 20
41.5533444618
 30
0.0
 40
2.2167487685
 41
0.0
 71
     1
 72
     1
  1
Datum
  7
SLDTEXTSTYLE0
 73
     1
 44
1.0
  0
MTEXT
  5
7D
330
1F
100
AcDbEntity
  8
0
  6
Continuous
 62
     7
370
     0
100
AcDbMText
 10
90.8611900832
 20
41.6219632714
 30
0.0
 40
2.2167487685
 41
0.0
 71
     1
 72
     1
  1
Name
  7
SLDTEXTSTYLE0
 73
     1
 44
1.0
  0
MTEXT
  5
7E
330
1F
100
AcDbEntity
  8
0
  6
Continuous
 62
     7
370
     0
100
AcDbMText
 10
89.4086336272
 20
36.4892603805
 30
0.0
 40
2.6458333333
 41
0.0
 71
     1
 72
     1
  1
Knüpper
  7
SLDTEXTSTYLE0
 73
     1
 44
1.0
  0
MTEXT
  5
7F
330
1F
100
AcDbEntity
  8
0
  6
Continuous
 62
     7
370
     0
100
AcDbMText
 10
74.5281046617
 20
36.4573043563
 30
0.0
 40
2.6458333333
 41
0.0
 71
     1
 72
     1
  1
25.02.04
  7
SLDTEXTSTYLE0
 73
     1
 44
1.0
  0
MTEXT
  5
80
330
1F
100
AcDbEntity
  8
0
  6
Continuous
 62
     7
370
     0
100
AcDbMText
 10
63.3870836994
 20
36.2328750538
 30
0.0
 40
2.2167487685
 41
0.0
 71
     1
 72
     1
  1
Erst.
  7
SLDTEXTSTYLE0
 73
     1
 44
1.0
  0
MTEXT
  5
81
330
1F
100
AcDbEntity
  8
0
  6
Continuous
 62
     7
370
     0
100
AcDbMText
 10
63.0902579449
 20
31.124877858
 30
0.0
 40
2.2167487685
 41
0.0
 71
     1
 72
     1
  1
Geänd.
  7
SLDTEXTSTYLE0
 73
     1
 44
1.0
  0
MTEXT
  5
82
330
1F
100
AcDbEntity
  8
0
  6
Continuous
 62
     7
370
     0
100
AcDbMText
 10
29.1689154919
 20
8.7138287518
 30
0.0
 40
2.2167487685
 41
0.0
 71
     1
 72
     1
  1
Datum
  7
SLDTEXTSTYLE0
 73
     1
 44
1.0
  0
MTEXT
  5
83
330
1F
100
AcDbEntity
  8
0
  6
Continuous
 62
     7
370
     0
100
AcDbMText
 10
18.4614779851
 20
8.5427279485
 30
0.0
 40
2.2167487685
 41
0.0
 71
     1
 72
     1
  1
Änd.
  7
SLDTEXTSTYLE0
 73
     1
 44
1.0
  0
MTEXT
  5
84
330
1F
100
AcDbEntity
  8
0
  6
Continuous
 62
     7
370
     0
100
AcDbMText
 10
42.3626711617
 20
8.7366093584
 30
0.0
 40
2.2167487685
 41
0.0
 71
     1
 72
     1
  1
Änd.
  7
SLDTEXTSTYLE0
 73
     1
 44
1.0
  0
MTEXT
  5
85
330
1F
100
AcDbEntity
  8
0
  6
Continuous
 62
     7
370
     0
100
AcDbMText
 10
53.0078194671
 20
8.3238587075
 30
0.0
 40
2.2167487685
 41
0.0
 71
     1
 72
     1
  1
Datum
  7
SLDTEXTSTYLE0
 73
     1
 44
1.0
  0
MTEXT
  5
86
330
1F
100
AcDbEntity
  8
0
  6
Continuous
 62
     7
370
     0
100
AcDbMText
 10
115.9494504669
 20
35.9806959026
 30
0.0
 40
3.51908867
 41
0.0
 71
     1
 72
     1
  1
Einschraubfräser
  7
SLDTEXTSTYLE0
 73
     1
 44
1.0
  0
MTEXT
  5
87
330
1F
100
AcDbEntity
  8
0
  6
Continuous
 62
     7
370
     0
100
AcDbMText
 10
115.878559322
 20
27.4435894009
 30
0.0
 40
3.51908867
 41
0.0
 71
     1
 72
     1
  1
90ESF-25-M12-422-2
  7
SLDTEXTSTYLE0
 73
     1
 44
1.0
  0
MTEXT
  5
88
330
1F
100
AcDbEntity
  8
0
  6
Continuous
 62
     7
370
     0
100
AcDbMText
 10
115.2057627119
 20
12.1707847276
 30
0.0
 40
3.1280788177
 41
0.0
 71
     1
 72
     1
  1
DXF
  7
SLDTEXTSTYLE0
 73
     1
 44
1.0
  0
LINE
  5
89
330
1F
100
AcDbEntity
  8
0
  6
Continuous
 62
     7
370
    30
100
AcDbLine
 10
41.2782784845
 20
207.0310783822
 30
0.0
 11
54.0778808939
 21
207.0310783822
 31
0.0
  0
LINE
  5
8A
330
1F
100
AcDbEntity
  8
0
  6
Continuous
 62
     7
370
    30
100
AcDbLine
 10
54.0778808939
 20
207.0310783822
 30
0.0
 11
56.7452399703
 21
208.5710789327
 31
0.0
  0
ARC
  5
8B
330
1F
100
AcDbEntity
  8
0
  6
Continuous
 62
     7
370
    30
100
AcDbCircle
 10
41.2782784702
 20
207.2310787911
 30
0.0
 40
0.2000000000000171
100
AcDbArc
 50
180.0
 51
270.0
  0
LINE
  5
8C
330
1F
100
AcDbEntity
  8
0
  6
Continuous
 62
     7
370
    30
100
AcDbLine
 10
41.0782784677
 20
215.0709323835
 30
0.0
 11
41.0782784677
 21
207.2310789738
 31
0.0
  0
LINE
  5
8D
330
1F
100
AcDbEntity
  8
0
  6
Continuous
 62
     7
370
    30
100
AcDbLine
 10
56.7452399703
 20
208.5710789327
 30
0.0
 11
74.3782776119
 21
208.5710789327
 31
0.0
  0
LINE
  5
8E
330
1F
100
AcDbEntity
  8
0
  6
Continuous
 62
     7
370
    30
100
AcDbLine
 10
74.3782776119
 20
229.5710786495
 30
0.0
 11
56.7452399703
 21
229.5710786495
 31
0.0
  0
LINE
  5
8F
330
1F
100
AcDbEntity
  8
0
  6
Continuous
 62
     7
370
    30
100
AcDbLine
 10
74.3782776119
 20
208.5710789327
 30
0.0
 11
74.8782786252
 21
209.0710790146
 31
0.0
  0
LINE
  5
90
330
1F
100
AcDbEntity
  8
0
  6
Continuous
 62
     7
370
    30
100
AcDbLine
 10
74.8782786252
 20
229.0710785676
 30
0.0
 11
74.3782776119
 21
229.5710786495
 31
0.0
  0
ARC
  5
91
330
1F
100
AcDbEntity
  8
0
  6
Continuous
 62
     7
370
    30
100
AcDbCircle
 10
75.371742346
 20
212.4210787911
 30
0.0
 40
0.600000000000017
100
AcDbArc
 50
90.0
 51
145.3297774582
  0
ARC
  5
92
330
1F
100
AcDbEntity
  8
0
  6
Continuous
 62
     7
370
    30
100
AcDbCircle
 10
75.371742346
 20
225.7210787911
 30
0.0
 40
0.6000000000000008
100
AcDbArc
 50
214.6702225418
 51
270.0
  0
LINE
  5
93
330
1F
100
AcDbEntity
  8
0
  6
Continuous
 62
     7
370
    30
100
AcDbLine
 10
76.7050715806
 20
225.3210788842
 30
0.0
 11
76.0349626364
 21
225.1415231515
 31
0.0
  0
LINE
  5
94
330
1F
100
AcDbEntity
  8
0
  6
Continuous
 62
     7
370
    30
100
AcDbLine
 10
76.0349626364
 20
213.0006344307
 30
0.0
 11
76.7050715806
 21
212.821078698
 31
0.0
  0
LINE
  5
95
330
1F
100
AcDbEntity
  8
0
  6
Continuous
 62
     7
370
    30
100
AcDbLine
 10
76.7050715806
 20
212.821078698
 30
0.0
 11
79.4782782616
 21
212.821078698
 31
0.0
  0
LINE
  5
96
330
1F
100
AcDbEntity
  8
0
  6
Continuous
 62
     7
370
    30
100
AcDbLine
 10
79.4782782616
 20
225.3210788842
 30
0.0
 11
76.7050715806
 21
225.3210788842
 31
0.0
  0
LINE
  5
97
330
1F
100
AcDbEntity
  8
0
  6
Continuous
 62
     7
370
    30
100
AcDbLine
 10
79.4782782616
 20
212.821078698
 30
0.0
 11
79.8782775821
 21
213.2210789498
 31
0.0
  0
LINE
  5
98
330
1F
100
AcDbEntity
  8
0
  6
Continuous
 62
     7
370
    30
100
AcDbLine
 10
79.8782775821
 20
224.9210786324
 30
0.0
 11
79.4782782616
 21
225.3210788842
 31
0.0
  0
ARC
  5
99
330
1F
100
AcDbEntity
  8
0
  6
Continuous
 62
     7
370
    30
100
AcDbCircle
 10
75.8796717294
 20
212.4210787911
 30
0.0
 40
0.5999999999999971
100
AcDbArc
 50
75.0
 51
90.0
  0
ARC
  5
9A
330
1F
100
AcDbEntity
  8
0
  6
Continuous
 62
     7
370
    30
100
AcDbCircle
 10
75.8796717294
 20
225.7210787911
 30
0.0
 40
0.5999999999999971
100
AcDbArc
 50
270.0
 51
285.0
  0
LINE
  5
9B
330
1F
100
AcDbEntity
  8
0
  6
Continuous
 62
     7
370
    30
100
AcDbLine
 10
75.371741754
 20
213.0210788239
 30
0.0
 11
75.8796701851
 21
213.0210788239
 31
0.0
  0
LINE
  5
9C
330
1F
100
AcDbEntity
  8
0
  6
Continuous
 62
     7
370
    30
100
AcDbLine
 10
75.8796701851
 20
225.1210787583
 30
0.0
 11
75.371741754
 21
225.1210787583
 31
0.0
  0
LINE
  5
9D
330
1F
100
AcDbEntity
  8
0
  6
Continuous
 62
     7
370
    30
100
AcDbLine
 10
84.1782795908
 20
225.0710788432
 30
0.0
 11
82.1586618843
 21
223.9050532009
 31
0.0
  0
LINE
  5
9E
330
1F
100
AcDbEntity
  8
0
  6
Continuous
 62
     7
370
    30
100
AcDbLine
 10
82.1586618843
 20
214.2371043812
 30
0.0
 11
84.1782795908
 21
213.0710787389
 31
0.0
  0
LINE
  5
9F
330
1F
100
AcDbEntity
  8
0
  6
Continuous
 62
     7
370
    30
100
AcDbLine
 10
84.1782795908
 20
213.0710787389
 30
0.0
 11
95.8782802047
 21
213.0710787389
 31
0.0
  0
LINE
  5
A0
330
1F
100
AcDbEntity
  8
0
  6
Continuous
 62
     7
370
    30
100
AcDbLine
 10
95.8782802047
 20
225.0710788432
 30
0.0
 11
84.1782795908
 21
225.0710788432
 31
0.0
  0
LINE
  5
A1
330
1F
100
AcDbEntity
  8
0
  6
Continuous
 62
     7
370
    30
100
AcDbLine
 10
95.8782802047
 20
213.0710787389
 30
0.0
 11
96.878278506
 21
214.0710789029
 31
0.0
  0
LINE
  5
A2
330
1F
100
AcDbEntity
  8
0
  6
Continuous
 62
     7
370
    30
100
AcDbLine
 10
96.878278506
 20
224.0710786793
 30
0.0
 11
95.8782802047
 21
225.0710788432
 31
0.0
  0
ARC
  5
A3
330
1F
100
AcDbEntity
  8
0
  6
Continuous
 62
     7
370
    30
100
AcDbCircle
 10
80.8782784702
 20
213.3710787911
 30
0.0
 40
1.000000000000014
100
AcDbArc
 50
90.0
 51
180.0
  0
ARC
  5
A4
330
1F
100
AcDbEntity
  8
0
  6
Continuous
 62
     7
370
    30
100
AcDbCircle
 10
80.8782784702
 20
224.7710787911
 30
0.0
 40
1.000000000000014
100
AcDbArc
 50
180.0
 51
270.0
  0
ARC
  5
A5
330
1F
100
AcDbEntity
  8
0
  6
Continuous
 62
     7
370
    30
100
AcDbCircle
 10
81.658663228
 20
213.3710787911
 30
0.0
 40
1.000000000000008
100
AcDbArc
 50
60.0
 51
90.0
  0
ARC
  5
A6
330
1F
100
AcDbEntity
  8
0
  6
Continuous
 62
     7
370
    30
100
AcDbCircle
 10
81.658663228
 20
224.7710787911
 30
0.0
 40
0.9999999999999836
100
AcDbArc
 50
270.0
 51
300.0
  0
LINE
  5
A7
330
1F
100
AcDbEntity
  8
0
  6
Continuous
 62
     7
370
    30
100
AcDbLine
 10
80.8782796087
 20
214.3710788589
 30
0.0
 11
81.6586645963
 21
214.3710788589
 31
0.0
  0
LINE
  5
A8
330
1F
100
AcDbEntity
  8
0
  6
Continuous
 62
     7
370
    30
100
AcDbLine
 10
81.6586645963
 20
223.7710787233
 30
0.0
 11
80.8782796087
 21
223.7710787233
 31
0.0
  0
ARC
  5
A9
330
1F
100
AcDbEntity
  8
0
  6
Continuous
 62
     7
370
    30
100
AcDbCircle
 10
41.2782784702
 20
230.9110787911
 30
0.0
 40
0.2000000000000171
100
AcDbArc
 50
90.0
 51
180.0
  0
LINE
  5
AA
330
1F
100
AcDbEntity
  8
0
  6
Continuous
 62
     7
370
    30
100
AcDbLine
 10
41.0782784677
 20
230.9110786084
 30
0.0
 11
41.0782784677
 21
230.8464401651
 31
0.0
  0
LINE
  5
AB
330
1F
100
AcDbEntity
  8
0
  6
Continuous
 62
     7
370
    30
100
AcDbLine
 10
41.0782784677
 20
230.8464401651
 30
0.0
 11
41.0782784677
 21
223.0715269472
 31
0.0
  0
LINE
  5
AC
330
1F
100
AcDbEntity
  8
0
  6
Continuous
 62
     7
370
    30
100
AcDbLine
 10
54.0778808939
 20
231.1110792
 30
0.0
 11
41.2782784845
 21
231.1110792
 31
0.0
  0
LINE
  5
AD
330
1F
100
AcDbEntity
  8
0
  6
Continuous
 62
     7
370
    30
100
AcDbLine
 10
56.7452399703
 20
229.5710786495
 30
0.0
 11
54.0778808939
 21
231.1110792
 31
0.0
  0
ARC
  5
AE
330
1F
100
AcDbEntity
  8
0
  6
Continuous
 62
     7
370
    30
100
AcDbCircle
 10
39.8150270229
 20
218.5191273206
 30
0.0
 40
0.0300000000000299
100
AcDbArc
 50
110.0
 51
195.0
  0
LINE
  5
AF
330
1F
100
AcDbEntity
  8
0
  6
Continuous
 62
     7
370
    30
100
AcDbLine
 10
39.7860492524
 20
218.5113627713
 30
0.0
 11
40.7078705614
 21
215.0710786011
 31
0.0
  0
LINE
  5
B0
330
1F
100
AcDbEntity
  8
0
  6
Continuous
 62
     7
370
    30
100
AcDbLine
 10
39.8650775608
 20
218.5692695568
 30
0.0
 11
39.8047663914
 21
218.5473181091
 31
0.0
  0
ARC
  5
B1
330
1F
100
AcDbEntity
  8
0
  6
Continuous
 62
     7
370
    30
100
AcDbCircle
 10
39.8753381923
 20
218.5410787911
 30
0.0
 40
0.0300000000000032
100
AcDbArc
 50
90.0
 51
110.0
  0
ARC
  5
B2
330
1F
100
AcDbEntity
  8
0
  6
Continuous
 62
     7
370
    30
100
AcDbCircle
 10
57.3132933983
 20
218.5191273206
 30
0.0
 40
0.0300000000000299
100
AcDbArc
 50
345.0
 51
70.0
  0
LINE
  5
B3
330
1F
100
AcDbEntity
  8
0
  6
Continuous
 62
     7
370
    30
100
AcDbLine
 10
57.2778875651
 20
218.2710788113
 30
0.0
 11
57.3422717573
 21
218.5113627713
 31
0.0
  0
LINE
  5
B4
330
1F
100
AcDbEntity
  8
0
  6
Continuous
 62
     7
370
    30
100
AcDbLine
 10
57.3235540362
 20
218.5473181091
 30
0.0
 11
57.2632434489
 21
218.5692695568
 31
0.0
  0
ARC
  5
B5
330
1F
100
AcDbEntity
  8
0
  6
Continuous
 62
     7
370
    30
100
AcDbCircle
 10
57.2529822288
 20
218.5410787911
 30
0.0
 40
0.0300000000000032
100
AcDbArc
 50
70.0
 51
90.0
  0
ARC
  5
B6
330
1F
100
AcDbEntity
  8
0
  6
Continuous
 62
     7
370
    30
100
AcDbCircle
 10
39.8150270229
 20
219.6230302616
 30
0.0
 40
0.0300000000000323
100
AcDbArc
 50
165.0
 51
250.0
  0
LINE
  5
B7
330
1F
100
AcDbEntity
  8
0
  6
Continuous
 62
     7
370
    30
100
AcDbLine
 10
40.7078705614
 20
223.0710789811
 30
0.0
 11
39.7860492524
 21
219.6307948109
 31
0.0
  0
LINE
  5
B8
330
1F
100
AcDbEntity
  8
0
  6
Continuous
 62
     7
370
    30
100
AcDbLine
 10
39.8047663914
 20
219.5948394731
 30
0.0
 11
39.8650775608
 21
219.5728880254
 31
0.0
  0
ARC
  5
B9
330
1F
100
AcDbEntity
  8
0
  6
Continuous
 62
     7
370
    30
100
AcDbCircle
 10
39.8753381923
 20
219.6010787911
 30
0.0
 40
0.0300000000000323
100
AcDbArc
 50
250.0
 51
270.0
  0
LINE
  5
BA
330
1F
100
AcDbEntity
  8
0
  6
Continuous
 62
     7
370
    30
100
AcDbLine
 10
51.3140582191
 20
215.0710786011
 30
0.0
 11
51.8148480626
 21
215.0710786011
 31
0.0
  0
ELLIPSE
  5
BB
330
1F
100
AcDbEntity
  8
0
  6
Continuous
 62
     7
370
    30
100
AcDbEllipse
 10
58.3709177724
 20
219.0710787911
 30
0.0
 11
0.0
 21
12.03999999999999
 31
0.0
210
0.0
220
0.0
230
1.0
 40
0.5773156612
 41
1.771476141157874
 42
1.909458883790424
  0
ELLIPSE
  5
BC
330
1F
100
AcDbEntity
  8
0
  6
Continuous
 62
     7
370
    30
100
AcDbEllipse
 10
59.1048359553
 20
219.0710787911
 30
0.0
 11
5.094424966230676
 21
11.75658824887591
 31
0.0
210
0.0
220
0.0
230
1.0
 40
0.5097662804
 41
1.854693879647895
 42
1.988879521732035
  0
LINE
  5
BD
330
1F
100
AcDbEntity
  8
0
  6
Continuous
 62
     7
370
    30
100
AcDbLine
 10
51.9246770712
 20
218.2710788113
 30
0.0
 11
54.0778808939
 21
218.2710788113
 31
0.0
  0
LINE
  5
BE
330
1F
100
AcDbEntity
  8
0
  6
Continuous
 62
     7
370
    30
100
AcDbLine
 10
54.0778808939
 20
207.0310783822
 30
0.0
 11
54.0778808939
 21
218.2710788113
 31
0.0
  0
SPLINE
  5
BF
330
1F
100
AcDbEntity
  8
0
  6
Continuous
 62
     7
370
    30
100
AcDbSpline
210
0.0
220
0.0
230
1.0
 70
     8
 71
     3
 72
    50
 73
    46
 74
     0
 42
0.00000001
 43
0.00000001
 12
1.0
 22
0.0
 32
0.0
 13
1.0
 23
0.0
 33
0.0
 40
-0.0312499999999997
 40
-0.0312499999999997
 40
0.0
 40
0.0
 40
0.0312500000000002
 40
0.0312500000000002
 40
0.0625000000000004
 40
0.0625000000000004
 40
0.1250000000000008
 40
0.1250000000000008
 40
0.1875000000000011
 40
0.1875000000000011
 40
0.2500000000000014
 40
0.2500000000000014
 40
0.3125000000000018
 40
0.3125000000000018
 40
0.3750000000000021
 40
0.3750000000000021
 40
0.4062500000000021
 40
0.4062500000000021
 40
0.4375000000000021
 40
0.4375000000000021
 40
0.5000000000000019
 40
0.5000000000000019
 40
0.531250000000002
 40
0.531250000000002
 40
0.562500000000002
 40
0.562500000000002
 40
0.593750000000002
 40
0.593750000000002
 40
0.625000000000002
 40
0.625000000000002
 40
0.6875000000000018
 40
0.6875000000000018
 40
0.7500000000000014
 40
0.7500000000000014
 40
0.8125000000000012
 40
0.8125000000000012
 40
0.843750000000001
 40
0.843750000000001
 40
0.8750000000000008
 40
0.8750000000000008
 40
0.9375000000000007
 40
0.9375000000000007
 40
0.9687500000000003
 40
0.9687500000000003
 40
1.0
 40
1.0
 40
1.03125
 40
1.03125
 10
48.79489931308516
 20
208.1855048627232
 30
0.0
 10
48.55165762741132
 20
208.1855048627232
 30
0.0
 10
48.43258069662149
 20
208.1917545972689
 30
0.0
 10
48.19927624378534
 20
208.2164429745617
 30
0.0
 10
48.08448793785561
 20
208.2352006431122
 30
0.0
 10
47.7647872273305
 20
208.3080059461787
 30
0.0
 10
47.57728201674109
 20
208.3801919254065
 30
0.0
 10
47.2834810620228
 20
208.5614234957201
 30
0.0
 10
47.17657358449046
 20
208.6700123716254
 30
0.0
 10
47.04277100648336
 20
208.9120932250704
 30
0.0
 10
47.0162401952859
 20
209.0435287223141
 30
0.0
 10
47.03342967688901
 20
209.3180762122932
 30
0.0
 10
47.0769205115291
 20
209.459828084301
 30
0.0
 10
47.22845746440324
 20
209.7422563283955
 30
0.0
 10
47.33375444930233
 20
209.8796616800972
 30
0.0
 10
47.54433027721544
 20
210.0745830720242
 30
0.0
 10
47.62215094865252
 20
210.1362220358613
 30
0.0
 10
47.79363147313401
 20
210.2495484100822
 30
0.0
 10
47.88876891259059
 20
210.302007937562
 30
0.0
 10
48.19537613185292
 20
210.4344268973452
 30
0.0
 10
48.43275263482481
 20
210.489022121091
 30
0.0
 10
48.793738166914
 20
210.4889938804303
 30
0.0
 10
48.91535421210043
 20
210.4755637446666
 30
0.0
 10
49.14547203695396
 20
210.4258188809897
 30
0.0
 10
49.25659007113803
 20
210.3890907133338
 30
0.0
 10
49.45980678191641
 20
210.3009426994812
 30
0.0
 10
49.55442758670271
 20
210.2487174487329
 30
0.0
 10
49.7269651978246
 20
210.1343651372828
 30
0.0
 10
49.80400508857078
 20
210.0730330290232
 30
0.0
 10
50.01219503169305
 20
209.8800295785356
 30
0.0
 10
50.12020864764967
 20
209.7391188356446
 30
0.0
 10
50.27047787955387
 20
209.4574506385363
 30
0.0
 10
50.31376330077395
 20
209.3144697569755
 30
0.0
 10
50.3299796822321
 20
209.0422411919508
 30
0.0
 10
50.30239517171603
 20
208.9091030471129
 30
0.0
 10
50.20326222777054
 20
208.7304619134917
 30
0.0
 10
50.16069026786013
 20
208.673868130241
 30
0.0
 10
50.05391705472923
 20
208.5665461440241
 30
0.0
 10
49.98973817817102
 20
208.5162292119915
 30
0.0
 10
49.77043195151209
 20
208.3808176773091
 30
0.0
 10
49.58256023153368
 20
208.3082594797802
 30
0.0
 10
49.26289400278807
 20
208.2353519754553
 30
0.0
 10
49.14770671937966
 20
208.2165036204089
 30
0.0
 10
48.91439231863092
 20
208.1917831186037
 30
0.0
 10
48.79489931308516
 20
208.1855048627232
 30
0.0
 10
48.55165762741132
 20
208.1855048627232
 30
0.0
  0
LINE
  5
C0
330
1F
100
AcDbEntity
  8
0
  6
Continuous
 62
     7
370
    30
100
AcDbLine
 10
56.7452399703
 20
208.5710789327
 30
0.0
 11
56.7452399703
 21
218.2710788113
 31
0.0
  0
SPLINE
  5
C1
330
1F
100
AcDbEntity
  8
0
  6
Continuous
 62
     7
370
    30
100
AcDbSpline
210
0.0
220
0.0
230
1.0
 70
    24
 71
     3
 72
     8
 73
     4
 74
     0
 42
0.00000001
 43
0.00000001
 12
1.0
 22
0.0
 32
0.0
 13
1.0
 23
0.0
 33
0.0
 40
0.0
 40
0.0
 40
0.0
 40
0.0
 40
1.0
 40
1.0
 40
1.0
 40
1.0
 10
56.74523925428274
 20
218.2710787910928
 30
0.0
 10
55.8562031948276
 20
218.2710787910928
 30
0.0
 10
54.96707299704752
 20
218.2710787910928
 30
0.0
 10
54.07788101062668
 20
218.2710787910928
 30
0.0
  0
SPLINE
  5
C2
330
1F
100
AcDbEntity
  8
0
  6
Continuous
 62
     7
370
    30
100
AcDbSpline
210
0.0
220
0.0
230
1.0
 70
     8
 71
     3
 72
    36
 73
    32
 74
     0
 42
0.00000001
 43
0.00000001
 12
1.0
 22
0.0
 32
0.0
 13
1.0
 23
0.0
 33
0.0
 40
0.0
 40
0.0
 40
0.0
 40
0.0
 40
0.1250000000000015
 40
0.1250000000000015
 40
0.187500000000002
 40
0.187500000000002
 40
0.2500000000000026
 40
0.2500000000000026
 40
0.2812500000000026
 40
0.2812500000000026
 40
0.3125000000000026
 40
0.3125000000000026
 40
0.3750000000000024
 40
0.3750000000000024
 40
0.4375000000000022
 40
0.4375000000000022
 40
0.500000000000002
 40
0.500000000000002
 40
0.5625000000000019
 40
0.5625000000000019
 40
0.6250000000000016
 40
0.6250000000000016
 40
0.6875000000000013
 40
0.6875000000000013
 40
0.7500000000000011
 40
0.7500000000000011
 40
0.8125000000000009
 40
0.8125000000000009
 40
0.8750000000000006
 40
0.8750000000000006
 40
1.0
 40
1.0
 40
1.0
 40
1.0
 10
58.14227847024824
 20
229.4981368493372
 30
0.0
 10
59.03892411533553
 20
229.4981368493372
 30
0.0
 10
59.91459063116979
 20
229.4856071809347
 30
0.0
 10
61.19689666345862
 20
229.428494946996
 30
0.0
 10
61.61918915832076
 20
229.4023837773248
 30
0.0
 10
62.42527629490319
 20
229.3300775602248
 30
0.0
 10
62.81269964356137
 20
229.2837905374668
 30
0.0
 10
63.3700852499679
 20
229.1915060415521
 30
0.0
 10
63.55190877247209
 20
229.1569086372238
 30
0.0
 10
63.90739650544705
 20
229.0783662367947
 30
0.0
 10
64.08132958262702
 20
229.0342734841446
 30
0.0
 10
64.58076324698597
 20
228.8881770970351
 30
0.0
 10
64.88740700851974
 20
228.7717609522372
 30
0.0
 10
65.45045734112607
 20
228.4907059921595
 30
0.0
 10
65.70743469243628
 20
228.3256034197507
 30
0.0
 10
66.16970222064744
 20
227.9367106708234
 30
0.0
 10
66.36896624012213
 20
227.718194895186
 30
0.0
 10
66.71385713992298
 20
227.2291834257063
 30
0.0
 10
66.85964991721582
 20
226.958202273508
 30
0.0
 10
67.10514607890428
 20
226.3616758353517
 30
0.0
 10
67.20225378714572
 20
226.0430492082474
 30
0.0
 10
67.35906875590709
 20
225.3657389491754
 30
0.0
 10
67.41882627867803
 20
225.0061932510012
 30
0.0
 10
67.51123880332
 20
224.2500043782142
 30
0.0
 10
67.54329799787371
 20
223.8595035555977
 30
0.0
 10
67.59023297251879
 20
223.0546543731962
 30
0.0
 10
67.60506832441496
 20
222.6403059204359
 30
0.0
 10
67.6253130835368
 20
221.7875462660139
 30
0.0
 10
67.63062007111905
 20
221.3528805545855
 30
0.0
 10
67.64043022113943
 20
220.0469622050888
 30
0.0
 10
67.6404665400785
 20
219.1649468530644
 30
0.0
 10
67.63855316447162
 20
218.2710787910928
 30
0.0
  0
LINE
  5
C3
330
1F
100
AcDbEntity
  8
0
  6
Continuous
 62
     7
370
    30
100
AcDbLine
 10
56.7452399703
 20
229.4981365342
 30
0.0
 11
58.1422778489
 21
229.4981365342
 31
0.0
  0
LINE
  5
C4
330
1F
100
AcDbEntity
  8
0
  6
Continuous
 62
     7
370
    30
100
AcDbLine
 10
56.7452399703
 20
229.4981365342
 30
0.0
 11
56.7452399703
 21
229.5710786495
 31
0.0
  0
LINE
  5
C5
330
1F
100
AcDbEntity
  8
0
  6
Continuous
 62
     7
370
    30
100
AcDbLine
 10
74.3782776119
 20
219.0710787911
 30
0.0
 11
74.3782776119
 21
229.5710786495
 31
0.0
  0
LINE
  5
C6
330
1F
100
AcDbEntity
  8
0
  6
Continuous
 62
     7
370
    30
100
AcDbLine
 10
74.3782776119
 20
208.5710789327
 30
0.0
 11
74.3782776119
 21
219.0710787911
 31
0.0
  0
LINE
  5
C7
330
1F
100
AcDbEntity
  8
0
  6
Continuous
 62
     7
370
    30
100
AcDbLine
 10
71.8782781335
 20
215.6530844297
 30
0.0
 11
61.878278357
 21
215.6530844297
 31
0.0
  0
LINE
  5
C8
330
1F
100
AcDbEntity
  8
0
  6
Continuous
 62
     7
370
    30
100
AcDbLine
 10
61.878278357
 20
215.6530844297
 30
0.0
 11
61.878278357
 21
208.7002729315
 31
0.0
  0
LINE
  5
C9
330
1F
100
AcDbEntity
  8
0
  6
Continuous
 62
     7
370
    30
100
AcDbLine
 10
61.878278357
 20
208.7002729315
 30
0.0
 11
71.8782781335
 21
208.7002729315
 31
0.0
  0
LINE
  5
CA
330
1F
100
AcDbEntity
  8
0
  6
Continuous
 62
     7
370
    30
100
AcDbLine
 10
71.8782781335
 20
208.7002729315
 30
0.0
 11
71.8782781335
 21
215.6530844297
 31
0.0
  0
LINE
  5
CB
330
1F
100
AcDbEntity
  8
0
  6
Continuous
 62
     7
370
    30
100
AcDbLine
 10
67.6385531845
 20
218.2710788113
 30
0.0
 11
56.7452399703
 21
218.2710788113
 31
0.0
  0
SPLINE
  5
CC
330
1F
100
AcDbEntity
  8
0
  6
Continuous
 62
     7
370
    30
100
AcDbSpline
210
0.0
220
0.0
230
1.0
 70
     8
 71
     3
 72
    56
 73
    52
 74
     0
 42
0.00000001
 43
0.00000001
 12
1.0
 22
0.0
 32
0.0
 13
1.0
 23
0.0
 33
0.0
 40
-0.0312500000000002
 40
-0.0312500000000002
 40
0.0
 40
0.0
 40
0.0312499999999996
 40
0.0312499999999996
 40
0.0624999999999992
 40
0.0624999999999992
 40
0.0937499999999988
 40
0.0937499999999988
 40
0.1249999999999984
 40
0.1249999999999984
 40
0.1874999999999977
 40
0.1874999999999977
 40
0.2499999999999969
 40
0.2499999999999969
 40
0.3124999999999962
 40
0.3124999999999962
 40
0.3437499999999962
 40
0.3437499999999962
 40
0.3749999999999963
 40
0.3749999999999963
 40
0.4062499999999963
 40
0.4062499999999963
 40
0.4374999999999963
 40
0.4374999999999963
 40
0.4687499999999964
 40
0.4687499999999964
 40
0.4999999999999964
 40
0.4999999999999964
 40
0.5312499999999964
 40
0.5312499999999964
 40
0.5624999999999966
 40
0.5624999999999966
 40
0.6249999999999969
 40
0.6249999999999969
 40
0.6562499999999971
 40
0.6562499999999971
 40
0.6874999999999973
 40
0.6874999999999973
 40
0.7499999999999979
 40
0.7499999999999979
 40
0.8124999999999984
 40
0.8124999999999984
 40
0.8749999999999989
 40
0.8749999999999989
 40
0.9062499999999992
 40
0.9062499999999992
 40
0.9374999999999994
 40
0.9374999999999994
 40
0.9687499999999998
 40
0.9687499999999998
 40
1.0
 40
1.0
 40
1.03125
 40
1.03125
 10
58.78473658054078
 20
220.1377931939832
 30
0.0
 10
58.78473658054077
 20
220.380177785551
 30
0.0
 10
58.81210712123732
 20
220.498947563248
 30
0.0
 10
58.9119025945926
 20
220.7170690240099
 30
0.0
 10
58.98360564998364
 20
220.8161028938723
 30
0.0
 10
59.14754658392144
 20
220.9886021515908
 30
0.0
 10
59.24114529483833
 20
221.064152896018
 30
0.0
 10
59.4392938045469
 20
221.1962051987397
 30
0.0
 10
59.54297309212749
 20
221.2523080411099
 30
0.0
 10
59.86402998966436
 20
221.3982398689004
 30
0.0
 10
60.09236500782415
 20
221.4657102682307
 30
0.0
 10
60.5463422619864
 20
221.5459386015377
 30
0.0
 10
60.7783019282834
 20
221.5596231277863
 30
0.0
 10
61.23082168354907
 20
221.5292727194798
 30
0.0
 10
61.44923762349173
 20
221.4862659612169
 30
0.0
 10
61.76411188134104
 20
221.3707543171038
 30
0.0
 10
61.86658064040893
 20
221.3234717416782
 30
0.0
 10
62.05924889089523
 20
221.212722977884
 30
0.0
 10
62.15041991486325
 20
221.1489753533365
 30
0.0
 10
62.32143362465983
 20
221.002067155538
 30
0.0
 10
62.40012532491749
 20
220.9196174410308
 30
0.0
 10
62.53868628765567
 20
220.7396795726029
 30
0.0
 10
62.59993919779333
 20
220.640189738523
 30
0.0
 10
62.69909023148774
 20
220.4292446612492
 30
0.0
 10
62.73691034954053
 20
220.3189015630568
 30
0.0
 10
62.78750310902792
 20
220.0875967000921
 30
0.0
 10
62.7997247006606
 20
219.9662533678764
 30
0.0
 10
62.79489751344502
 20
219.7286522550814
 30
0.0
 10
62.77782696142359
 20
219.6083771458632
 30
0.0
 10
62.71469186592764
 20
219.3800663361225
 30
0.0
 10
62.66904687880275
 20
219.2719137348325
 30
0.0
 10
62.49124978178843
 20
218.9711176145144
 30
0.0
 10
62.32307247603801
 20
218.8131259112426
 30
0.0
 10
62.03251259168097
 20
218.6498517891798
 30
0.0
 10
61.92849770944277
 20
218.6070937865724
 30
0.0
 10
61.71660149741625
 20
218.5445871944726
 30
0.0
 10
61.60759749176382
 20
218.5241631569319
 30
0.0
 10
61.27206194552485
 20
218.4909423043419
 30
0.0
 10
61.04575600462152
 20
218.5065239534784
 30
0.0
 10
60.5959243152942
 20
218.592629467377
 30
0.0
 10
60.37236156665605
 20
218.6638068955568
 30
0.0
 10
59.94640286574156
 20
218.849008348849
 30
0.0
 10
59.73887762290747
 20
218.9648748075327
 30
0.0
 10
59.45060394184575
 20
219.1732132256353
 30
0.0
 10
59.35883084348166
 20
219.2480948904922
 30
0.0
 10
59.1862065201865
 20
219.4113321364005
 30
0.0
 10
59.10466713347819
 20
219.5005126286171
 30
0.0
 10
58.96238703698007
 20
219.6923578665342
 30
0.0
 10
58.90050383201009
 20
219.7964656068
 30
0.0
 10
58.81148677854009
 20
220.0191094259087
 30
0.0
 10
58.78473658054078
 20
220.1377931939832
 30
0.0
 10
58.78473658054077
 20
220.380177785551
 30
0.0
  0
LINE
  5
CD
330
1F
100
AcDbEntity
  8
0
  6
Continuous
 62
     7
370
    30
100
AcDbLine
 10
74.8782786252
 20
219.0710787911
 30
0.0
 11
74.8782786252
 21
229.0710785676
 31
0.0
  0
LINE
  5
CE
330
1F
100
AcDbEntity
  8
0
  6
Continuous
 62
     7
370
    30
100
AcDbLine
 10
74.8782786252
 20
209.0710790146
 30
0.0
 11
74.8782786252
 21
219.0710787911
 31
0.0
  0
LINE
  5
CF
330
1F
100
AcDbEntity
  8
0
  6
Continuous
 62
     7
370
    30
100
AcDbLine
 10
76.7050715806
 20
225.3210788842
 30
0.0
 11
76.7050715806
 21
212.821078698
 31
0.0
  0
LINE
  5
D0
330
1F
100
AcDbEntity
  8
0
  6
Continuous
 62
     7
370
    30
100
AcDbLine
 10
79.4782782616
 20
219.0710787911
 30
0.0
 11
79.4782782616
 21
225.3210788842
 31
0.0
  0
LINE
  5
D1
330
1F
100
AcDbEntity
  8
0
  6
Continuous
 62
     7
370
    30
100
AcDbLine
 10
79.4782782616
 20
212.821078698
 30
0.0
 11
79.4782782616
 21
219.0710787911
 31
0.0
  0
LINE
  5
D2
330
1F
100
AcDbEntity
  8
0
  6
Continuous
 62
     7
370
    30
100
AcDbLine
 10
79.8782775821
 20
219.0710787911
 30
0.0
 11
79.8782775821
 21
224.9210786324
 31
0.0
  0
LINE
  5
D3
330
1F
100
AcDbEntity
  8
0
  6
Continuous
 62
     7
370
    30
100
AcDbLine
 10
79.8782775821
 20
213.2210789498
 30
0.0
 11
79.8782775821
 21
219.0710787911
 31
0.0
  0
LINE
  5
D4
330
1F
100
AcDbEntity
  8
0
  6
Continuous
 62
     7
370
    30
100
AcDbLine
 10
84.1782795908
 20
219.0710787911
 30
0.0
 11
84.1782795908
 21
225.0710788432
 31
0.0
  0
LINE
  5
D5
330
1F
100
AcDbEntity
  8
0
  6
Continuous
 62
     7
370
    30
100
AcDbLine
 10
84.1782795908
 20
213.0710787389
 30
0.0
 11
84.1782795908
 21
219.0710787911
 31
0.0
  0
LINE
  5
D6
330
1F
100
AcDbEntity
  8
0
  6
Continuous
 62
     7
370
    30
100
AcDbLine
 10
95.8782802047
 20
219.0710787911
 30
0.0
 11
95.8782802047
 21
225.0710788432
 31
0.0
  0
LINE
  5
D7
330
1F
100
AcDbEntity
  8
0
  6
Continuous
 62
     7
370
    30
100
AcDbLine
 10
95.8782802047
 20
213.0710787389
 30
0.0
 11
95.8782802047
 21
219.0710787911
 31
0.0
  0
LINE
  5
D8
330
1F
100
AcDbEntity
  8
0
  6
Continuous
 62
     7
370
    30
100
AcDbLine
 10
96.878278506
 20
219.0710787911
 30
0.0
 11
96.878278506
 21
224.0710786793
 31
0.0
  0
LINE
  5
D9
330
1F
100
AcDbEntity
  8
0
  6
Continuous
 62
     7
370
    30
100
AcDbLine
 10
96.878278506
 20
214.0710789029
 30
0.0
 11
96.878278506
 21
219.0710787911
 31
0.0
  0
SPLINE
  5
DA
330
1F
100
AcDbEntity
  8
0
  6
Continuous
 62
     7
370
    30
100
AcDbSpline
210
0.0
220
0.0
230
1.0
 70
     8
 71
     3
 72
    12
 73
     8
 74
     0
 42
0.00000001
 43
0.00000001
 12
1.0
 22
0.0
 32
0.0
 13
1.0
 23
0.0
 33
0.0
 40
0.0
 40
0.0
 40
0.0
 40
0.0
 40
0.2022247611087381
 40
0.3995263630141664
 40
0.5968279688569694
 40
0.7984109153050382
 40
1.0
 40
1.0
 40
1.0
 40
1.0
 10
62.74668264111902
 20
220.2631816983183
 30
0.0
 10
62.7355915563198
 20
220.2358404723894
 30
0.0
 10
62.71367939903788
 20
220.1818236423246
 30
0.0
 10
62.67931101506694
 20
220.0998150502499
 30
0.0
 10
62.64408880396086
 20
220.0178326074715
 30
0.0
 10
62.60763743543278
 20
219.9354002350814
 30
0.0
 10
62.58241154460964
 20
219.8807880924874
 30
0.0
 10
62.56979840716745
 20
219.8534816054587
 30
0.0
  0
SPLINE
  5
DB
330
1F
100
AcDbEntity
  8
0
  6
Continuous
 62
     7
370
    30
100
AcDbSpline
210
0.0
220
0.0
230
1.0
 70
     8
 71
     3
 72
    32
 73
    28
 74
     0
 42
0.00000001
 43
0.00000001
 12
1.0
 22
0.0
 32
0.0
 13
1.0
 23
0.0
 33
0.0
 40
0.0
 40
0.0
 40
0.0
 40
0.0
 40
0.028716725348658
 40
0.0609548761367994
 40
0.0931887219324818
 40
0.1260680002796078
 40
0.1589406456200651
 40
0.1912632077845205
 40
0.223579303741157
 40
0.2571707491426077
 40
0.2907577568901626
 40
0.3184879120248856
 40
0.3462188001526853
 40
0.3748631084779028
 40
0.4035108045208142
 40
0.435854145221417
 40
0.4682039931511008
 40
0.5014699184924731
 40
0.5347417845666821
 40
0.5827091828722175
 40
0.6306915824544866
 40
0.6799436926135922
 40
0.7292033708321353
 40
0.7960715534645653
 40
0.8629496465145312
 40
0.9314751559935586
 40
1.0
 40
1.0
 40
1.0
 40
1.0
 10
61.79910103699589
 20
218.5692429559265
 30
0.0
 10
61.78311470821006
 20
218.5810597558754
 30
0.0
 10
61.74918170647704
 20
218.6061424060895
 30
0.0
 10
61.70234391984316
 20
218.6494819794434
 30
0.0
 10
61.65661135414554
 20
218.6972134157035
 30
0.0
 10
61.61526770265182
 20
218.7485706950876
 30
0.0
 10
61.57911177833105
 20
218.8029633714262
 30
0.0
 10
61.54919812833317
 20
218.8598546416486
 30
0.0
 10
61.52573914621324
 20
218.9195514452011
 30
0.0
 10
61.50973865465215
 20
218.9819873815617
 30
0.0
 10
61.50238631110948
 20
219.0427085281793
 30
0.0
 10
61.50268324382082
 20
219.0999576247325
 30
0.0
 10
61.50895316868121
 20
219.1537480966805
 30
0.0
 10
61.52140417704734
 20
219.2073033277723
 30
0.0
 10
61.54061188000055
 20
219.2623895972073
 30
0.0
 10
61.5669509276161
 20
219.3177457565512
 30
0.0
 10
61.60080643531898
 20
219.3732056386631
 30
0.0
 10
61.64063688939962
 20
219.4261816536602
 30
0.0
 10
61.69243987807114
 20
219.4838347586254
 30
0.0
 10
61.75765856274763
 20
219.5437029564898
 30
0.0
 10
61.83801785649717
 20
219.6041130217046
 30
0.0
 10
61.92483075923538
 20
219.6582290842522
 30
0.0
 10
62.02801171812597
 20
219.7117387064262
 30
0.0
 10
62.14746816711332
 20
219.7614771472436
 30
0.0
 10
62.28428193596639
 20
219.8043710624278
 30
0.0
 10
62.42540979885102
 20
219.8366296455387
 30
0.0
 10
62.52166902686331
 20
219.8478643036694
 30
0.0
 10
62.56979840716746
 20
219.8534816054587
 30
0.0
  0
SPLINE
  5
DC
330
1F
100
AcDbEntity
  8
0
  6
Continuous
 62
     7
370
    30
100
AcDbSpline
210
0.0
220
0.0
230
1.0
 70
     8
 71
     3
 72
     8
 73
     4
 74
     0
 42
0.00000001
 43
0.00000001
 12
1.0
 22
0.0
 32
0.0
 13
1.0
 23
0.0
 33
0.0
 40
0.0
 40
0.0
 40
0.0
 40
0.0
 40
1.0
 40
1.0
 40
1.0
 40
1.0
 10
41.11099922052911
 20
230.7362078562944
 30
0.0
 10
41.93496678007356
 20
229.4718654397522
 30
0.0
 10
42.75812744775764
 20
228.2069960436431
 30
0.0
 10
43.57827847024824
 20
226.940178485467
 30
0.0
  0
SPLINE
  5
DD
330
1F
100
AcDbEntity
  8
0
  6
Continuous
 62
     7
370
    30
100
AcDbSpline
210
0.0
220
0.0
230
1.0
 70
     8
 71
     3
 72
    10
 73
     6
 74
     0
 42
0.00000001
 43
0.00000001
 12
1.0
 22
0.0
 32
0.0
 13
1.0
 23
0.0
 33
0.0
 40
0.0
 40
0.0
 40
0.0
 40
0.0
 40
0.5
 40
0.5
 40
1.0
 40
1.0
 40
1.0
 40
1.0
 10
41.27827847024824
 20
231.0475198212987
 30
0.0
 10
41.20652046314587
 20
231.0475198212987
 30
0.0
 10
41.13592905931279
 20
231.0048497101151
 30
0.0
 10
41.06835714904011
 20
230.8785498291434
 30
0.0
 10
41.07182275210516
 20
230.7963224447693
 30
0.0
 10
41.11099922052913
 20
230.7362078562944
 30
0.0
  0
LINE
  5
DE
330
1F
100
AcDbEntity
  8
0
  6
Continuous
 62
     7
370
    30
100
AcDbLine
 10
54.0778808939
 20
231.0475201596
 30
0.0
 11
41.2782784845
 21
231.0475201596
 31
0.0
  0
SPLINE
  5
DF
330
1F
100
AcDbEntity
  8
0
  6
Continuous
 62
     7
370
    30
100
AcDbSpline
210
0.0
220
0.0
230
1.0
 70
     8
 71
     3
 72
     8
 73
     4
 74
     0
 42
0.00000001
 43
0.00000001
 12
1.0
 22
0.0
 32
0.0
 13
1.0
 23
0.0
 33
0.0
 40
0.0
 40
0.0
 40
0.0
 40
0.0
 40
1.0
 40
1.0
 40
1.0
 40
1.0
 10
54.07788101062668
 20
231.0475198212987
 30
0.0
 10
54.96717569550844
 20
230.5313604986835
 30
0.0
 10
55.85632218537777
 20
230.0149435377247
 30
0.0
 10
56.74523925428274
 20
229.4981368493372
 30
0.0
  0
LINE
  5
E0
330
1F
100
AcDbEntity
  8
0
  6
Continuous
 62
     7
370
    30
100
AcDbLine
 10
43.5782784773
 20
226.9401780579
 30
0.0
 11
43.5782784773
 21
218.5710787673
 31
0.0
  0
LINE
  5
E1
330
1F
100
AcDbEntity
  8
0
  6
Continuous
 62
     7
370
    30
100
AcDbLine
 10
54.0778808939
 20
231.0475201596
 30
0.0
 11
54.0778808939
 21
231.1110792
 31
0.0
  0
SPLINE
  5
E2
330
1F
100
AcDbEntity
  8
0
  6
Continuous
 62
     7
370
    30
100
AcDbSpline
210
0.0
220
0.0
230
1.0
 70
     8
 71
     3
 72
    14
 73
    10
 74
     0
 42
0.00000001
 43
0.00000001
 12
1.0
 22
0.0
 32
0.0
 13
1.0
 23
0.0
 33
0.0
 40
0.0
 40
0.0
 40
0.0
 40
0.0
 40
0.1298762740461954
 40
0.2597535221963235
 40
0.3909626133971147
 40
0.5221732195381042
 40
0.7364685053585437
 40
0.9507679993315503
 40
1.0
 40
1.0
 40
1.0
 40
1.0
 10
62.56979840716745
 20
219.8534816054587
 30
0.0
 10
62.5798192472619
 20
219.8531009753093
 30
0.0
 10
62.59986100260956
 20
219.8523397121556
 30
0.0
 10
62.62957009931038
 20
219.8464179126225
 30
0.0
 10
62.65901473299813
 20
219.8369467364566
 30
0.0
 10
62.6943138331868
 20
219.8209300051951
 30
0.0
 10
62.73489060807347
 20
219.7944880778167
 30
0.0
 10
62.76895181003088
 20
219.7670155553345
 30
0.0
 10
62.78703078692353
 20
219.746725915606
 30
0.0
 10
62.79040823599721
 20
219.742935478497
 30
0.0
  0
SPLINE
  5
E3
330
1F
100
AcDbEntity
  8
0
  6
Continuous
 62
     7
370
    30
100
AcDbSpline
210
0.0
220
0.0
230
1.0
 70
     8
 71
     3
 72
    17
 73
    13
 74
     0
 42
0.00000001
 43
0.00000001
 12
1.0
 22
0.0
 32
0.0
 13
1.0
 23
0.0
 33
0.0
 40
0.0
 40
0.0
 40
0.0
 40
0.0
 40
0.0607429280094242
 40
0.1705803153217281
 40
0.2804248141615781
 40
0.3939187224657188
 40
0.507420948113006
 40
0.6234384854961245
 40
0.7394632602448002
 40
0.8463126784792863
 40
0.9532598354809614
 40
1.0
 40
1.0
 40
1.0
 40
1.0
 10
62.54250693044091
 20
219.071167890331
 30
0.0
 10
62.53145562197779
 20
219.0865932510199
 30
0.0
 10
62.50042096915258
 20
219.1299112631161
 30
0.0
 10
62.44279421431519
 20
219.1949098266668
 30
0.0
 10
62.36992085934892
 20
219.2669555835766
 30
0.0
 10
62.29080971774659
 20
219.3329291870358
 30
0.0
 10
62.20566465212082
 20
219.3933028791764
 30
0.0
 10
62.11565568276139
 20
219.4469723074156
 30
0.0
 10
62.02386483253244
 20
219.4927926510868
 30
0.0
 10
61.93158202763274
 20
219.5306548796143
 30
0.0
 10
61.85717740199736
 20
219.5568536259267
 30
0.0
 10
61.81216182698789
 20
219.5688333405084
 30
0.0
 10
61.79847146293545
 20
219.5724766718184
 30
0.0
  0
LINE
  5
E4
330
1F
100
AcDbEntity
  8
0
  6
Continuous
 62
     7
370
    30
100
AcDbLine
 10
40.770049993
 20
215.0710786011
 30
0.0
 11
40.7078705614
 21
215.0710786011
 31
0.0
  0
LINE
  5
E5
330
1F
100
AcDbEntity
  8
0
  6
Continuous
 62
     7
370
    30
100
AcDbLine
 10
51.1623550849
 20
215.0710786011
 30
0.0
 11
40.770049993
 21
215.0710786011
 31
0.0
  0
LINE
  5
E6
330
1F
100
AcDbEntity
  8
0
  6
Continuous
 62
     7
370
    30
100
AcDbLine
 10
51.2162013622
 20
215.0710786011
 30
0.0
 11
51.1623550849
 21
215.0710786011
 31
0.0
  0
LINE
  5
E7
330
1F
100
AcDbEntity
  8
0
  6
Continuous
 62
     7
370
    30
100
AcDbLine
 10
39.8753381744
 20
218.5710787673
 30
0.0
 11
40.7700716026
 21
218.5710787673
 31
0.0
  0
LINE
  5
E8
330
1F
100
AcDbEntity
  8
0
  6
Continuous
 62
     7
370
    30
100
AcDbLine
 10
40.7700716026
 20
218.5710787673
 30
0.0
 11
51.1623765053
 21
218.5710787673
 31
0.0
  0
LINE
  5
E9
330
1F
100
AcDbEntity
  8
0
  6
Continuous
 62
     7
370
    30
100
AcDbLine
 10
51.1623765053
 20
218.5710787673
 30
0.0
 11
51.9372061538
 21
218.5710787673
 31
0.0
  0
LINE
  5
EA
330
1F
100
AcDbEntity
  8
0
  6
Continuous
 62
     7
370
    30
100
AcDbLine
 10
51.3140582191
 20
215.0710786011
 30
0.0
 11
51.2162013622
 21
215.0710786011
 31
0.0
  0
LINE
  5
EB
330
1F
100
AcDbEntity
  8
0
  6
Continuous
 62
     7
370
    30
100
AcDbLine
 10
51.9372061538
 20
218.5710787673
 30
0.0
 11
57.1331246468
 21
218.5710787673
 31
0.0
  0
LINE
  5
EC
330
1F
100
AcDbEntity
  8
0
  6
Continuous
 62
     7
370
    30
100
AcDbLine
 10
57.1331246468
 20
218.5710787673
 30
0.0
 11
57.2529821368
 21
218.5710787673
 31
0.0
  0
LINE
  5
ED
330
1F
100
AcDbEntity
  8
0
  6
Continuous
 62
     7
370
    30
100
AcDbLine
 10
40.7161999904
 20
223.0710789811
 30
0.0
 11
43.5782784773
 21
223.0710789811
 31
0.0
  0
LINE
  5
EE
330
1F
100
AcDbEntity
  8
0
  6
Continuous
 62
     7
370
    30
100
AcDbLine
 10
43.5782784773
 20
219.5710788148
 30
0.0
 11
39.995194966
 21
219.5710788148
 31
0.0
  0
LINE
  5
EF
330
1F
100
AcDbEntity
  8
0
  6
Continuous
 62
     7
370
    30
100
AcDbLine
 10
40.7078705614
 20
223.0710789811
 30
0.0
 11
40.7161999904
 21
223.0710789811
 31
0.0
  0
LINE
  5
F0
330
1F
100
AcDbEntity
  8
0
  6
Continuous
 62
     7
370
    30
100
AcDbLine
 10
39.995194966
 20
219.5710788148
 30
0.0
 11
39.8753381744
 21
219.5710788148
 31
0.0
  0
LINE
  5
F1
330
1F
100
AcDbEntity
  8
DÜNNE_LINIE
 62
     7
100
AcDbLine
 10
41.0782784702
 20
226.5999210581
 30
0.0
 11
41.0782784702
 21
225.5797813019
 31
0.0
  0
LINE
  5
F2
330
1F
100
AcDbEntity
  8
DÜNNE_LINIE
 62
     7
100
AcDbLine
 10
41.0782784702
 20
208.2699753161
 30
0.0
 11
41.0782784702
 21
205.4749465784
 31
0.0
  0
LINE
  5
F3
330
1F
100
AcDbEntity
  8
DÜNNE_LINIE
 62
     7
100
AcDbLine
 10
61.8782784702
 20
208.7002732741
 30
0.0
 11
71.8782784702
 21
215.653084332
 31
0.0
  0
LINE
  5
F4
330
1F
100
AcDbEntity
  8
DÜNNE_LINIE
 62
     7
100
AcDbLine
 10
61.8782784702
 20
215.653084332
 30
0.0
 11
71.8782784702
 21
208.7002732741
 31
0.0
  0
LINE
  5
F5
330
1F
100
AcDbEntity
  8
DÜNNE_LINIE
 62
     7
370
     0
100
AcDbLine
 10
40.9782784702
 20
219.0710787911
 30
0.0
 11
65.2414144767
 21
219.0710787911
 31
0.0
  0
LINE
  5
F6
330
1F
100
AcDbEntity
  8
DÜNNE_LINIE
 62
     7
370
     0
100
AcDbLine
 10
73.9622542547
 20
219.0710787911
 30
0.0
 11
97.8153890717
 21
219.0710787911
 31
0.0
  0
LINE
  5
F7
330
1F
100
AcDbEntity
  8
DÜNNE_LINIE
 62
     7
370
     0
100
AcDbLine
 10
68.4062353639
 20
219.0710787911
 30
0.0
 11
70.5512806319
 21
219.0710787911
 31
0.0
  0
DIMENSION
  5
F8
330
1F
100
AcDbEntity
  8
DÜNNE_LINIE
 62
     7
100
AcDbDimension
  2
_D
 10
106.1860416289
 20
213.0710787911
 30
0.0
 11
106.1860416289
 21
219.0379054448
 31
0.0
 70
   160
  1
M<>
 71
     2
 42
-1.0
  3
SLDDIMSTYLE0
100
AcDbAlignedDimension
 13
95.8782784702
 23
225.0710787911
 33
0.0
 14
95.8782784702
 24
213.0710787911
 34
0.0
 50
90.0
100
AcDbRotatedDimension
  0
DIMENSION
  5
104
330
1F
100
AcDbEntity
  8
DÜNNE_LINIE
 62
     7
100
AcDbDimension
  2
_D_1
 10
115.7728945153
 20
208.5710787911
 30
0.0
 11
115.7728945153
 21
219.0710787911
 31
0.0
 70
   160
  1
%%c<>
 71
     2
 42
-1.0
  3
SLDDIMSTYLE1
100
AcDbAlignedDimension
 13
74.3782784702
 23
229.5710787911
 33
0.0
 14
74.3782784702
 24
208.5710787911
 34
0.0
 50
90.0
100
AcDbRotatedDimension
  0
LINE
  5
110
330
1F
100
AcDbEntity
  8
0
  6
Continuous
 62
     7
370
     0
100
AcDbLine
 10
82.3163238521
 20
223.9960787911
 30
0.0
 11
96.8782784702
 21
223.9960787911
 31
0.0
  0
LINE
  5
111
330
1F
100
AcDbEntity
  8
0
  6
Continuous
 62
     7
370
     0
100
AcDbLine
 10
82.3163238521
 20
214.1460787911
 30
0.0
 11
96.8782784702
 21
214.1460787911
 31
0.0
  0
LINE
  5
112
330
1F
100
AcDbEntity
  8
0
  6
Continuous
 62
     7
370
    30
100
AcDbLine
 10
41.0782784677
 20
150.3899438812
 30
0.0
 11
41.0782784677
 21
138.0105500848
 31
0.0
  0
LINE
  5
113
330
1F
100
AcDbEntity
  8
0
  6
Continuous
 62
     7
370
    30
100
AcDbLine
 10
67.6394342156
 20
128.7461581214
 30
0.0
 11
74.3782776119
 21
128.7461581214
 31
0.0
  0
LINE
  5
114
330
1F
100
AcDbEntity
  8
0
  6
Continuous
 62
     7
370
    30
100
AcDbLine
 10
74.3782776119
 20
149.7461578383
 30
0.0
 11
67.6394342156
 21
149.7461578383
 31
0.0
  0
LINE
  5
115
330
1F
100
AcDbEntity
  8
0
  6
Continuous
 62
     7
370
    30
100
AcDbLine
 10
74.3782776119
 20
128.7461581214
 30
0.0
 11
74.8782786252
 21
129.2461582034
 31
0.0
  0
LINE
  5
116
330
1F
100
AcDbEntity
  8
0
  6
Continuous
 62
     7
370
    30
100
AcDbLine
 10
74.8782786252
 20
149.2461577563
 30
0.0
 11
74.3782776119
 21
149.7461578383
 31
0.0
  0
ARC
  5
117
330
1F
100
AcDbEntity
  8
0
  6
Continuous
 62
     7
370
    30
100
AcDbCircle
 10
75.371742346
 20
132.5961579798
 30
0.0
 40
0.6000000000000227
100
AcDbArc
 50
90.0
 51
145.3297774582
  0
ARC
  5
118
330
1F
100
AcDbEntity
  8
0
  6
Continuous
 62
     7
370
    30
100
AcDbCircle
 10
75.371742346
 20
145.8961579798
 30
0.0
 40
0.6000000000000227
100
AcDbArc
 50
214.6702225418
 51
270.0
  0
LINE
  5
119
330
1F
100
AcDbEntity
  8
0
  6
Continuous
 62
     7
370
    30
100
AcDbLine
 10
79.4782782616
 20
132.9961578867
 30
0.0
 11
79.8782775821
 21
133.3961581385
 31
0.0
  0
LINE
  5
11A
330
1F
100
AcDbEntity
  8
0
  6
Continuous
 62
     7
370
    30
100
AcDbLine
 10
79.8782775821
 20
145.0961578211
 30
0.0
 11
79.4782782616
 21
145.496158073
 31
0.0
  0
LINE
  5
11B
330
1F
100
AcDbEntity
  8
0
  6
Continuous
 62
     7
370
    30
100
AcDbLine
 10
76.7050715806
 20
145.496158073
 30
0.0
 11
76.0349626364
 21
145.3166023402
 31
0.0
  0
LINE
  5
11C
330
1F
100
AcDbEntity
  8
0
  6
Continuous
 62
     7
370
    30
100
AcDbLine
 10
76.0349626364
 20
133.1757136195
 30
0.0
 11
76.7050715806
 21
132.9961578867
 31
0.0
  0
LINE
  5
11D
330
1F
100
AcDbEntity
  8
0
  6
Continuous
 62
     7
370
    30
100
AcDbLine
 10
76.7050715806
 20
132.9961578867
 30
0.0
 11
79.4782782616
 21
132.9961578867
 31
0.0
  0
LINE
  5
11E
330
1F
100
AcDbEntity
  8
0
  6
Continuous
 62
     7
370
    30
100
AcDbLine
 10
79.4782782616
 20
145.496158073
 30
0.0
 11
76.7050715806
 21
145.496158073
 31
0.0
  0
ARC
  5
11F
330
1F
100
AcDbEntity
  8
0
  6
Continuous
 62
     7
370
    30
100
AcDbCircle
 10
75.8796717294
 20
132.5961579798
 30
0.0
 40
0.6000000000000245
100
AcDbArc
 50
75.0
 51
90.0
  0
ARC
  5
120
330
1F
100
AcDbEntity
  8
0
  6
Continuous
 62
     7
370
    30
100
AcDbCircle
 10
75.8796717294
 20
145.8961579798
 30
0.0
 40
0.6000000000000245
100
AcDbArc
 50
270.0
 51
285.0
  0
LINE
  5
121
330
1F
100
AcDbEntity
  8
0
  6
Continuous
 62
     7
370
    30
100
AcDbLine
 10
75.371741754
 20
133.1961580126
 30
0.0
 11
75.8796701851
 21
133.1961580126
 31
0.0
  0
LINE
  5
122
330
1F
100
AcDbEntity
  8
0
  6
Continuous
 62
     7
370
    30
100
AcDbLine
 10
75.8796701851
 20
145.2961579471
 30
0.0
 11
75.371741754
 21
145.2961579471
 31
0.0
  0
LINE
  5
123
330
1F
100
AcDbEntity
  8
0
  6
Continuous
 62
     7
370
    30
100
AcDbLine
 10
84.1782795908
 20
133.2461579277
 30
0.0
 11
95.8782802047
 21
133.2461579277
 31
0.0
  0
LINE
  5
124
330
1F
100
AcDbEntity
  8
0
  6
Continuous
 62
     7
370
    30
100
AcDbLine
 10
95.8782802047
 20
145.246158032
 30
0.0
 11
84.1782795908
 21
145.246158032
 31
0.0
  0
LINE
  5
125
330
1F
100
AcDbEntity
  8
0
  6
Continuous
 62
     7
370
    30
100
AcDbLine
 10
84.1782795908
 20
145.246158032
 30
0.0
 11
82.1586618843
 21
144.0801323897
 31
0.0
  0
LINE
  5
126
330
1F
100
AcDbEntity
  8
0
  6
Continuous
 62
     7
370
    30
100
AcDbLine
 10
82.1586618843
 20
134.41218357
 30
0.0
 11
84.1782795908
 21
133.2461579277
 31
0.0
  0
LINE
  5
127
330
1F
100
AcDbEntity
  8
0
  6
Continuous
 62
     7
370
    30
100
AcDbLine
 10
95.8782802047
 20
133.2461579277
 30
0.0
 11
96.878278506
 21
134.2461580916
 31
0.0
  0
LINE
  5
128
330
1F
100
AcDbEntity
  8
0
  6
Continuous
 62
     7
370
    30
100
AcDbLine
 10
96.878278506
 20
144.2461578681
 30
0.0
 11
95.8782802047
 21
145.246158032
 31
0.0
  0
ARC
  5
129
330
1F
100
AcDbEntity
  8
0
  6
Continuous
 62
     7
370
    30
100
AcDbCircle
 10
80.8782784702
 20
133.5461579798
 30
0.0
 40
1.000000000000014
100
AcDbArc
 50
90.0
 51
180.0
  0
ARC
  5
12A
330
1F
100
AcDbEntity
  8
0
  6
Continuous
 62
     7
370
    30
100
AcDbCircle
 10
80.8782784702
 20
144.9461579798
 30
0.0
 40
1.000000000000014
100
AcDbArc
 50
180.0
 51
270.0
  0
ARC
  5
12B
330
1F
100
AcDbEntity
  8
0
  6
Continuous
 62
     7
370
    30
100
AcDbCircle
 10
81.658663228
 20
133.5461579798
 30
0.0
 40
1.000000000000008
100
AcDbArc
 50
60.0
 51
90.0
  0
ARC
  5
12C
330
1F
100
AcDbEntity
  8
0
  6
Continuous
 62
     7
370
    30
100
AcDbCircle
 10
81.658663228
 20
144.9461579798
 30
0.0
 40
1.000000000000008
100
AcDbArc
 50
270.0
 51
300.0
  0
LINE
  5
12D
330
1F
100
AcDbEntity
  8
0
  6
Continuous
 62
     7
370
    30
100
AcDbLine
 10
80.8782796087
 20
134.5461580476
 30
0.0
 11
81.6586645963
 21
134.5461580476
 31
0.0
  0
LINE
  5
12E
330
1F
100
AcDbEntity
  8
0
  6
Continuous
 62
     7
370
    30
100
AcDbLine
 10
81.6586645963
 20
143.946157912
 30
0.0
 11
80.8782796087
 21
143.946157912
 31
0.0
  0
LINE
  5
12F
330
1F
100
AcDbEntity
  8
0
  6
Continuous
 62
     7
370
    30
100
AcDbLine
 10
41.0782784677
 20
138.0105500848
 30
0.0
 11
41.0782784677
 21
130.2553793921
 31
0.0
  0
ARC
  5
130
330
1F
100
AcDbEntity
  8
0
  6
Continuous
 62
     7
370
    30
100
AcDbCircle
 10
45.9659671963
 20
136.7514812442
 30
0.0
 40
0.9850213600287226
100
AcDbArc
 50
90.0014871919
 51
150.0014871919
  0
LINE
  5
131
330
1F
100
AcDbEntity
  8
0
  6
Continuous
 62
     7
370
    30
100
AcDbLine
 10
45.1129008727
 20
137.2439697425
 30
0.0
 11
39.9169820305
 21
128.2438353209
 31
0.0
  0
ARC
  5
132
330
1F
100
AcDbEntity
  8
0
  6
Continuous
 62
     7
370
    30
100
AcDbCircle
 10
56.3582720382
 20
136.7517509909
 30
0.0
 40
0.9850213600287033
100
AcDbArc
 50
330.0014871919
 51
90.0014871919
  0
LINE
  5
133
330
1F
100
AcDbEntity
  8
0
  6
Continuous
 62
     7
370
    30
100
AcDbLine
 10
56.3582465695
 20
137.7367723307
 30
0.0
 11
45.965941594
 21
137.7365025964
 31
0.0
  0
LINE
  5
134
330
1F
100
AcDbEntity
  8
0
  6
Continuous
 62
     7
370
    30
100
AcDbLine
 10
52.0154195549
 20
127.2591274737
 30
0.0
 11
57.2113389792
 21
136.2592623609
 31
0.0
  0
ARC
  5
135
330
1F
100
AcDbEntity
  8
0
  6
Continuous
 62
     7
370
    30
100
AcDbCircle
 10
40.7700483829
 20
127.7513463738
 30
0.0
 40
0.9850213600287061
100
AcDbArc
 50
150.0014871919
 51
270.0014871919
  0
ARC
  5
136
330
1F
100
AcDbEntity
  8
0
  6
Continuous
 62
     7
370
    30
100
AcDbCircle
 10
51.1623532248
 20
127.7516161206
 30
0.0
 40
0.9850213600287085
100
AcDbArc
 50
270.0014871919
 51
330.0014871919
  0
LINE
  5
137
330
1F
100
AcDbEntity
  8
0
  6
Continuous
 62
     7
370
    30
100
AcDbLine
 10
40.7700739454
 20
126.7663246526
 30
0.0
 11
51.162378368
 21
126.7665947362
 31
0.0
  0
ARC
  5
138
330
1F
100
AcDbEntity
  8
0
  6
Continuous
 62
     7
370
    30
100
AcDbCircle
 10
51.1623532248
 20
150.7406998391
 30
0.0
 40
0.9850213600287226
100
AcDbArc
 50
31.7854885502
 51
89.9985128081
  0
LINE
  5
139
330
1F
100
AcDbEntity
  8
0
  6
Continuous
 62
     7
370
    30
100
AcDbLine
 10
51.162378368
 20
151.7257212235
 30
0.0
 11
40.7700739454
 21
151.7259913071
 31
0.0
  0
ARC
  5
13A
330
1F
100
AcDbEntity
  8
0
  6
Continuous
 62
     7
370
    30
100
AcDbCircle
 10
40.7700483829
 20
150.7409695859
 30
0.0
 40
0.9850213600287226
100
AcDbArc
 50
89.9985128081
 51
209.9985128081
  0
LINE
  5
13B
330
1F
100
AcDbEntity
  8
0
  6
Continuous
 62
     7
370
    30
100
AcDbLine
 10
39.9169820305
 20
150.2484806387
 30
0.0
 11
41.0782784677
 21
148.2369365676
 31
0.0
  0
LINE
  5
13C
330
1F
100
AcDbEntity
  8
0
  6
Continuous
 62
     7
370
    30
100
AcDbLine
 10
48.7815639647
 20
130.7122936978
 30
0.0
 11
48.9838025244
 21
131.0161395504
 31
0.0
  0
ARC
  5
13D
330
1F
100
AcDbEntity
  8
0
  6
Continuous
 62
     7
370
    30
100
AcDbCircle
 10
48.573448486
 20
130.8508140548
 30
0.0
 40
0.2499999999999903
100
AcDbArc
 50
214.407390345
 51
326.3524554786
  0
ARC
  5
13E
330
1F
100
AcDbEntity
  8
0
  6
Continuous
 62
     7
370
    30
100
AcDbCircle
 10
49.4624063958
 20
133.8314586212
 30
0.0
 40
0.6000000000001213
100
AcDbArc
 50
214.407390345
 51
266.3524554785
  0
LINE
  5
13F
330
1F
100
AcDbEntity
  8
0
  6
Continuous
 62
     7
370
    30
100
AcDbLine
 10
48.9673823761
 20
133.4924145176
 30
0.0
 11
48.7611321444
 21
133.7935516185
 31
0.0
  0
LINE
  5
140
330
1F
100
AcDbEntity
  8
0
  6
Continuous
 62
     7
370
    30
100
AcDbLine
 10
48.346756463
 20
133.7908037512
 30
0.0
 11
48.1445183689
 21
133.4869583643
 31
0.0
  0
ARC
  5
141
330
1F
100
AcDbEntity
  8
0
  6
Continuous
 62
     7
370
    30
100
AcDbCircle
 10
47.6450411605
 20
133.8194076671
 30
0.0
 40
0.5999999999999386
100
AcDbArc
 50
274.407390345
 51
326.3524554786
  0
LINE
  5
142
330
1F
100
AcDbEntity
  8
0
  6
Continuous
 62
     7
370
    30
100
AcDbLine
 10
50.0058964538
 20
131.6701980813
 30
0.0
 11
49.8438770594
 21
131.9972645997
 31
0.0
  0
ARC
  5
143
330
1F
100
AcDbEntity
  8
0
  6
Continuous
 62
     7
370
    30
100
AcDbCircle
 10
49.7818761197
 20
131.559225251
 30
0.0
 40
0.2499999999999941
100
AcDbArc
 50
274.407390345
 51
26.3524554786
  0
ARC
  5
144
330
1F
100
AcDbEntity
  8
0
  6
Continuous
 62
     7
370
    30
100
AcDbCircle
 10
49.7725878443
 20
132.9599598786
 30
0.0
 40
0.249999999999992
100
AcDbArc
 50
334.407390345
 51
86.3524554786
  0
LINE
  5
145
330
1F
100
AcDbEntity
  8
0
  6
Continuous
 62
     7
370
    30
100
AcDbLine
 10
47.6911496083
 20
133.2211821845
 30
0.0
 11
47.3272325183
 21
133.1931326112
 31
0.0
  0
LINE
  5
146
330
1F
100
AcDbEntity
  8
0
  6
Continuous
 62
     7
370
    30
100
AcDbLine
 10
49.8403920504
 20
132.5227810575
 30
0.0
 11
49.9980603056
 21
132.8519677317
 31
0.0
  0
LINE
  5
147
330
1F
100
AcDbEntity
  8
0
  6
Continuous
 62
     7
370
    30
100
AcDbLine
 10
48.1609385172
 20
131.0106829314
 30
0.0
 11
48.3671882833
 21
130.7095453649
 31
0.0
  0
ARC
  5
148
330
1F
100
AcDbEntity
  8
0
  6
Continuous
 62
     7
370
    30
100
AcDbCircle
 10
47.6659140253
 20
130.6716387435
 30
0.0
 40
0.5999999999999583
100
AcDbArc
 50
34.407390345
 51
86.3524554786
  0
ARC
  5
149
330
1F
100
AcDbEntity
  8
0
  6
Continuous
 62
     7
370
    30
100
AcDbCircle
 10
50.381525446
 20
132.2635996365
 30
0.0
 40
0.5999999999999768
100
AcDbArc
 50
154.407390345
 51
206.3524554786
  0
ARC
  5
14A
330
1F
100
AcDbEntity
  8
0
  6
Continuous
 62
     7
370
    30
100
AcDbCircle
 10
48.5548719352
 20
133.6522833099
 30
0.0
 40
0.2500000000001161
100
AcDbArc
 50
34.407390345
 51
146.3524554785
  0
ARC
  5
14B
330
1F
100
AcDbEntity
  8
0
  6
Continuous
 62
     7
370
    30
100
AcDbCircle
 10
47.3464443015
 20
132.9438721137
 30
0.0
 40
0.2500000000000638
100
AcDbArc
 50
94.407390345
 51
206.3524554786
  0
LINE
  5
14C
330
1F
100
AcDbEntity
  8
0
  6
Continuous
 62
     7
370
    30
100
AcDbLine
 10
47.1224239739
 20
132.8328993677
 30
0.0
 11
47.2844433682
 21
132.5058328493
 31
0.0
  0
LINE
  5
14D
330
1F
100
AcDbEntity
  8
0
  6
Continuous
 62
     7
370
    30
100
AcDbLine
 10
47.3398277248
 20
131.2936438753
 30
0.0
 11
47.7040852132
 21
131.2704232095
 31
0.0
  0
LINE
  5
14E
330
1F
100
AcDbEntity
  8
0
  6
Continuous
 62
     7
370
    30
100
AcDbLine
 10
49.4371703537
 20
131.2819157301
 30
0.0
 11
49.8010883751
 21
131.3099643721
 31
0.0
  0
LINE
  5
14F
330
1F
100
AcDbEntity
  8
0
  6
Continuous
 62
     7
370
    30
100
AcDbLine
 10
49.7884922372
 20
133.2094535737
 30
0.0
 11
49.4242352145
 21
133.2326742395
 31
0.0
  0
ARC
  5
150
330
1F
100
AcDbEntity
  8
0
  6
Continuous
 62
     7
370
    30
100
AcDbCircle
 10
46.7467949752
 20
132.2394977282
 30
0.0
 40
0.6000000000000212
100
AcDbArc
 50
334.407390345
 51
26.3524554786
  0
ARC
  5
151
330
1F
100
AcDbEntity
  8
0
  6
Continuous
 62
     7
370
    30
100
AcDbCircle
 10
49.4832792607
 20
130.6836896977
 30
0.0
 40
0.6000000000000438
100
AcDbArc
 50
94.407390345
 51
146.3524554786
  0
LINE
  5
152
330
1F
100
AcDbEntity
  8
0
  6
Continuous
 62
     7
370
    30
100
AcDbLine
 10
47.2879279116
 20
131.9803159258
 30
0.0
 11
47.1302605877
 21
131.6511297173
 31
0.0
  0
ARC
  5
153
330
1F
100
AcDbEntity
  8
0
  6
Continuous
 62
     7
370
    30
100
AcDbCircle
 10
47.3557325768
 20
131.5431374862
 30
0.0
 40
0.250000000000026
100
AcDbArc
 50
154.407390345
 51
266.3524554785
  0
CIRCLE
  5
154
330
1F
100
AcDbEntity
  8
0
  6
Continuous
 62
     7
370
    30
100
AcDbCircle
 10
48.5641602106
 20
132.2515486824
 30
0.0
 40
2.600000000000053
  0
LINE
  5
155
330
1F
100
AcDbEntity
  8
0
  6
Continuous
 62
     7
370
    30
100
AcDbLine
 10
47.73566869
 20
131.7658658645
 30
0.0
 11
47.355732386
 21
131.5431372768
 31
0.0
  0
LINE
  5
156
330
1F
100
AcDbEntity
  8
0
  6
Continuous
 62
     7
370
    30
100
AcDbLine
 10
49.3926522034
 20
132.7372315845
 30
0.0
 11
49.7725880416
 21
132.9599597065
 31
0.0
  0
SPLINE
  5
157
330
1F
100
AcDbEntity
  8
0
  6
Continuous
 62
     7
370
    30
100
AcDbSpline
210
0.0
220
0.0
230
1.0
 70
     8
 71
     3
 72
    11
 73
     7
 74
     0
 42
0.00000001
 43
0.00000001
 12
1.0
 22
0.0
 32
0.0
 13
1.0
 23
0.0
 33
0.0
 40
0.0
 40
0.0
 40
0.0
 40
0.0
 40
0.2497642016735813
 40
0.499552848684445
 40
0.7497741542101838
 40
1.0
 40
1.0
 40
1.0
 40
1.0
 10
49.39265220335151
 20
132.7372315845188
 30
0.0
 10
49.32316987871216
 20
132.6964994135885
 30
0.0
 10
49.18419842894383
 20
132.6150310851212
 30
0.0
 10
48.97701115869687
 20
132.4935724794425
 30
0.0
 10
48.77029991761488
 20
132.372393051414
 30
0.0
 10
48.63287386401923
 20
132.2918304104386
 30
0.0
 10
48.56416021382834
 20
132.251548724502
 30
0.0
  0
SPLINE
  5
158
330
1F
100
AcDbEntity
  8
0
  6
Continuous
 62
     7
370
    30
100
AcDbSpline
210
0.0
220
0.0
230
1.0
 70
     8
 71
     3
 72
    11
 73
     7
 74
     0
 42
0.00000001
 43
0.00000001
 12
1.0
 22
0.0
 32
0.0
 13
1.0
 23
0.0
 33
0.0
 40
0.0
 40
0.0
 40
0.0
 40
0.0
 40
0.2498548311367194
 40
0.4997051842041536
 40
0.7498653127877757
 40
1.0
 40
1.0
 40
1.0
 40
1.0
 10
48.56416021382834
 20
132.251548724502
 30
0.0
 10
48.56363295559599
 20
132.3310791523639
 30
0.0
 10
48.56257844858119
 20
132.4901385826888
 30
0.0
 10
48.56098998859335
 20
132.7296253425981
 30
0.0
 10
48.55939701215324
 20
132.9699002301615
 30
0.0
 10
48.5583271830661
 20
133.1312260055304
 30
0.0
 10
48.5577922957244
 20
133.2118847912845
 30
0.0
  0
LINE
  5
159
330
1F
100
AcDbEntity
  8
0
  6
Continuous
 62
     7
370
    30
100
AcDbLine
 10
48.5577922957
 20
133.2118847913
 30
0.0
 11
48.5548721338
 21
133.6522834881
 31
0.0
  0
LINE
  5
15A
330
1F
100
AcDbEntity
  8
0
  6
Continuous
 62
     7
370
    30
100
AcDbLine
 10
49.3990196558
 20
131.7768955177
 30
0.0
 11
49.7818761217
 21
131.5592254086
 31
0.0
  0
SPLINE
  5
15B
330
1F
100
AcDbEntity
  8
0
  6
Continuous
 62
     7
370
    30
100
AcDbSpline
210
0.0
220
0.0
230
1.0
 70
     8
 71
     3
 72
    11
 73
     7
 74
     0
 42
0.00000001
 43
0.00000001
 12
1.0
 22
0.0
 32
0.0
 13
1.0
 23
0.0
 33
0.0
 40
0.0
 40
0.0
 40
0.0
 40
0.0
 40
0.2498547140307101
 40
0.4997049499942339
 40
0.749864961328755
 40
1.0
 40
1.0
 40
1.0
 40
1.0
 10
48.56416021382834
 20
132.251548724502
 30
0.0
 10
48.56468747207857
 20
132.1720182967099
 30
0.0
 10
48.56574197912915
 20
132.0129588665245
 30
0.0
 10
48.56733043884856
 20
131.7734721055678
 30
0.0
 10
48.56892341730518
 20
131.5331970718637
 30
0.0
 10
48.56999324485704
 20
131.3718711344185
 30
0.0
 10
48.57052813193227
 20
131.2912121920582
 30
0.0
  0
SPLINE
  5
15C
330
1F
100
AcDbEntity
  8
0
  6
Continuous
 62
     7
370
    30
100
AcDbSpline
210
0.0
220
0.0
230
1.0
 70
     8
 71
     3
 72
    11
 73
     7
 74
     0
 42
0.00000001
 43
0.00000001
 12
1.0
 22
0.0
 32
0.0
 13
1.0
 23
0.0
 33
0.0
 40
0.0
 40
0.0
 40
0.0
 40
0.0
 40
0.2498552262991342
 40
0.4997055245004636
 40
0.7498654196442688
 40
1.0
 40
1.0
 40
1.0
 40
1.0
 10
48.56416021382834
 20
132.251548724502
 30
0.0
 10
48.49554840981014
 20
132.2113267216047
 30
0.0
 10
48.35832615506015
 20
132.1308835091413
 30
0.0
 10
48.15171856063083
 20
132.0097647485992
 30
0.0
 10
47.94443110564504
 20
131.8882476212532
 30
0.0
 10
47.80525381441276
 20
131.8066584072759
 30
0.0
 10
47.73566868996645
 20
131.7658658644852
 30
0.0
  0
SPLINE
  5
15D
330
1F
100
AcDbEntity
  8
0
  6
Continuous
 62
     7
370
    30
100
AcDbSpline
210
0.0
220
0.0
230
1.0
 70
     8
 71
     3
 72
    11
 73
     7
 74
     0
 42
0.00000001
 43
0.00000001
 12
1.0
 22
0.0
 32
0.0
 13
1.0
 23
0.0
 33
0.0
 40
0.0
 40
0.0
 40
0.0
 40
0.0
 40
0.2498550599035015
 40
0.4997050953632318
 40
0.749864833117301
 40
1.0
 40
1.0
 40
1.0
 40
1.0
 10
48.56416021382834
 20
132.251548724502
 30
0.0
 10
48.63329932020131
 20
132.2122401534284
 30
0.0
 10
48.77157614259896
 20
132.1336238017545
 30
0.0
 10
48.97977150830354
 20
132.0152555590034
 30
0.0
 10
49.18865234265169
 20
131.8964981850769
 30
0.0
 10
49.32889951405595
 20
131.8167617681576
 30
0.0
 10
49.39901965579416
 20
131.7768955177363
 30
0.0
  0
LINE
  5
15E
330
1F
100
AcDbEntity
  8
0
  6
Continuous
 62
     7
370
    30
100
AcDbLine
 10
48.5705281319
 20
131.2912121921
 30
0.0
 11
48.5734482939
 21
130.8508139609
 31
0.0
  0
SPLINE
  5
15F
330
1F
100
AcDbEntity
  8
0
  6
Continuous
 62
     7
370
    30
100
AcDbSpline
210
0.0
220
0.0
230
1.0
 70
     8
 71
     3
 72
    11
 73
     7
 74
     0
 42
0.00000001
 43
0.00000001
 12
1.0
 22
0.0
 32
0.0
 13
1.0
 23
0.0
 33
0.0
 40
0.0
 40
0.0
 40
0.0
 40
0.0
 40
0.1807588270691623
 40
0.3615266003615989
 40
0.7235131271446931
 40
1.0
 40
1.0
 40
1.0
 40
1.0
 10
47.72930077186252
 20
132.7262019312676
 30
0.0
 10
47.7799944859067
 20
132.6973802272227
 30
0.0
 10
47.88138442295847
 20
132.639735392672
 30
0.0
 10
48.08327645434411
 20
132.5249517498635
 30
0.0
 10
48.31094933843353
 20
132.3955100322927
 30
0.0
 10
48.48764379533942
 20
132.2950516098182
 30
0.0
 10
48.56416021382834
 20
132.251548724502
 30
0.0
  0
LINE
  5
160
330
1F
100
AcDbEntity
  8
0
  6
Continuous
 62
     7
370
    30
100
AcDbLine
 10
47.7293007719
 20
132.7262019313
 30
0.0
 11
47.346444306
 21
132.9438720404
 31
0.0
  0
ARC
  5
161
330
1F
100
AcDbEntity
  8
0
  6
Continuous
 62
     7
370
    30
100
AcDbCircle
 10
48.5641602106
 20
146.2407672773
 30
0.0
 40
1.450000000000035
100
AcDbArc
 50
149.1842149376
 51
6.3978973977
  0
ARC
  5
162
330
1F
100
AcDbEntity
  8
0
  6
Continuous
 62
     7
370
    30
100
AcDbCircle
 10
48.5641602106
 20
146.2407672773
 30
0.0
 40
1.450000000000059
100
AcDbArc
 50
6.3978973977
 51
87.3712103529
  0
LINE
  5
163
330
1F
100
AcDbEntity
  8
0
  6
Continuous
 62
     7
370
    30
100
AcDbLine
 10
54.0778808939
 20
138.0106580018
 30
0.0
 11
54.0778808939
 21
151.2595505028
 31
0.0
  0
LINE
  5
164
330
1F
100
AcDbEntity
  8
0
  6
Continuous
 62
     7
370
    30
100
AcDbLine
 10
54.0778808939
 20
138.0106580018
 30
0.0
 11
41.2782784845
 21
138.0106580018
 31
0.0
  0
LINE
  5
165
330
1F
100
AcDbEntity
  8
0
  6
Continuous
 62
     7
370
    30
100
AcDbLine
 10
41.2782784845
 20
150.6022844969
 30
0.0
 11
51.8148480626
 21
150.6022844969
 31
0.0
  0
LWPOLYLINE
  5
166
330
1F
100
AcDbEntity
  8
0
  6
Continuous
 62
     7
370
    30
100
AcDbPolyline
 90
        6
 70
   128
 43
0.0
 10
51.559532498
 20
151.044530472
 10
51.6003579544
 20
150.9738151489
 10
51.6463392126
 20
150.8941684424
 10
51.6974408822
 20
150.8056518196
 10
51.7536247792
 20
150.7083323358
 10
51.8148480626
 20
150.6022844969
  0
ELLIPSE
  5
167
330
1F
100
AcDbEntity
  8
0
  6
Continuous
 62
     7
370
    30
100
AcDbEllipse
 10
59.1048359553
 20
139.2461579798
 30
0.0
 11
-7.393230007717499
 21
11.92433205066755
 31
0.0
210
0.0
220
0.0
230
1.0
 40
0.2251930405
 41
6.210953891439688
 42
6.345139533523762
  0
LINE
  5
168
330
1F
100
AcDbEntity
  8
0
  6
Continuous
 62
     7
370
    30
100
AcDbLine
 10
51.9246770712
 20
151.2595505028
 30
0.0
 11
54.0778808939
 21
151.2595505028
 31
0.0
  0
SPLINE
  5
169
330
1F
100
AcDbEntity
  8
0
  6
Continuous
 62
     7
370
    30
100
AcDbSpline
210
0.0
220
0.0
230
1.0
 70
     8
 71
     3
 72
    50
 73
    46
 74
     0
 42
0.00000001
 43
0.00000001
 12
1.0
 22
0.0
 32
0.0
 13
1.0
 23
0.0
 33
0.0
 40
-0.0312500000000002
 40
-0.0312500000000002
 40
0.0
 40
0.0
 40
0.0312499999999999
 40
0.0312499999999999
 40
0.0624999999999998
 40
0.0624999999999998
 40
0.1249999999999994
 40
0.1249999999999994
 40
0.1874999999999989
 40
0.1874999999999989
 40
0.2499999999999984
 40
0.2499999999999984
 40
0.312499999999998
 40
0.312499999999998
 40
0.3749999999999976
 40
0.3749999999999976
 40
0.4062499999999973
 40
0.4062499999999973
 40
0.4374999999999969
 40
0.4374999999999969
 40
0.4999999999999967
 40
0.4999999999999967
 40
0.5312499999999967
 40
0.5312499999999967
 40
0.5624999999999968
 40
0.5624999999999968
 40
0.5937499999999968
 40
0.5937499999999968
 40
0.6249999999999968
 40
0.6249999999999968
 40
0.6874999999999974
 40
0.6874999999999974
 40
0.749999999999998
 40
0.749999999999998
 40
0.8124999999999986
 40
0.8124999999999986
 40
0.8437499999999988
 40
0.8437499999999988
 40
0.8749999999999989
 40
0.8749999999999989
 40
0.9374999999999996
 40
0.9374999999999996
 40
0.9687499999999998
 40
0.9687499999999998
 40
1.0
 40
1.0
 40
1.03125
 40
1.03125
 10
48.79489931308516
 20
144.3906579798456
 30
0.0
 10
48.55165762741132
 20
144.3906579798456
 30
0.0
 10
48.43258069662149
 20
144.4039411420336
 30
0.0
 10
48.19927624378534
 20
144.4556976286966
 30
0.0
 10
48.08448793785561
 20
144.4948136392123
 30
0.0
 10
47.76478722733051
 20
144.643382156125
 30
0.0
 10
47.57728201674109
 20
144.7871917550658
 30
0.0
 10
47.28348106202281
 20
145.1236798084294
 30
0.0
 10
47.17657358449046
 20
145.3152173738635
 30
0.0
 10
47.04277100648336
 20
145.7122755831404
 30
0.0
 10
47.0162401952859
 20
145.9145747819886
 30
0.0
 10
47.03342967688901
 20
146.3100438599327
 30
0.0
 10
47.0769205115291
 20
146.5013459553996
 30
0.0
 10
47.22845746440323
 20
146.8610751933748
 30
0.0
 10
47.33375444930233
 20
147.0255151868873
 30
0.0
 10
47.54433027721544
 20
147.2483077874001
 30
0.0
 10
47.62215094865252
 20
147.3169058939198
 30
0.0
 10
47.79363147313402
 20
147.4406218955601
 30
0.0
 10
47.88876891259059
 20
147.4965579238389
 30
0.0
 10
48.19537613185292
 20
147.6358096738421
 30
0.0
 10
48.43275263482482
 20
147.6906771084637
 30
0.0
 10
48.793738166914
 20
147.690648407714
 30
0.0
 10
48.91535421210043
 20
147.6770529747673
 30
0.0
 10
49.14547203695397
 20
147.6260356887086
 30
0.0
 10
49.25659007113804
 20
147.5881466435872
 30
0.0
 10
49.45980678191641
 20
147.4954249038186
 30
0.0
 10
49.55442758670271
 20
147.439735223663
 30
0.0
 10
49.7269651978246
 20
147.3148577992326
 30
0.0
 10
49.80400508857077
 20
147.2465530368871
 30
0.0
 10
50.01219503169304
 20
147.0259014712781
 30
0.0
 10
50.12020864764968
 20
146.8572146882851
 30
0.0
 10
50.27047787955389
 20
146.4981793927721
 30
0.0
 10
50.31376330077395
 20
146.3049969113131
 30
0.0
 10
50.32997968223209
 20
145.9125695569278
 30
0.0
 10
50.30239517171603
 20
145.7074440311295
 30
0.0
 10
50.20326222777054
 20
145.4143290787298
 30
0.0
 10
50.16069026786013
 20
145.3183313518351
 30
0.0
 10
50.05391705472924
 20
145.1307202279909
 30
0.0
 10
49.98973817817103
 20
145.0397587029699
 30
0.0
 10
49.7704319515121
 20
144.7883735318514
 30
0.0
 10
49.58256023153368
 20
144.6438907246027
 30
0.0
 10
49.26289400278807
 20
144.4951268266594
 30
0.0
 10
49.14770671937966
 20
144.4558241915572
 30
0.0
 10
48.91439231863092
 20
144.404001506363
 30
0.0
 10
48.79489931308516
 20
144.3906579798456
 30
0.0
 10
48.55165762741132
 20
144.3906579798456
 30
0.0
  0
SPLINE
  5
16A
330
1F
100
AcDbEntity
  8
0
  6
Continuous
 62
     7
370
    30
100
AcDbSpline
210
0.0
220
0.0
230
1.0
 70
    24
 71
     3
 72
    16
 73
    12
 74
     0
 42
0.00000001
 43
0.00000001
 12
1.0
 22
0.0
 32
0.0
 13
1.0
 23
0.0
 33
0.0
 40
0.0
 40
0.0
 40
0.0
 40
0.0
 40
0.1462570473167558
 40
0.2509814127893024
 40
0.3587321808392206
 40
0.4636916748738586
 40
0.5716690432537801
 40
0.6771176464863795
 40
0.7855923220034675
 40
0.8915782704568936
 40
1.0
 40
1.0
 40
1.0
 40
1.0
 10
41.27827848449747
 20
138.0106580017802
 30
0.0
 10
41.26285528174748
 20
138.0106580017802
 30
0.0
 10
41.23638861031561
 20
138.0106580017802
 30
0.0
 10
41.20036526870003
 20
138.0106580017802
 30
0.0
 10
41.17066176500906
 20
138.0106580017802
 30
0.0
 10
41.14372640556591
 20
138.0106580017802
 30
0.0
 10
41.12077058503264
 20
138.0106580017802
 30
0.0
 10
41.10201916220376
 20
138.0106580017802
 30
0.0
 10
41.08846341252107
 20
138.0106580017802
 30
0.0
 10
41.0797781733512
 20
138.0106580017802
 30
0.0
 10
41.07879464267082
 20
138.0106580017802
 30
0.0
 10
41.07829729062437
 20
138.0106580017802
 30
0.0
  0
SPLINE
  5
16B
330
1F
100
AcDbEntity
  8
0
  6
Continuous
 62
     7
370
    30
100
AcDbSpline
210
0.0
220
0.0
230
1.0
 70
     8
 71
     3
 72
    17
 73
    13
 74
     0
 42
0.00000001
 43
0.00000001
 12
1.0
 22
0.0
 32
0.0
 13
1.0
 23
0.0
 33
0.0
 40
0.0
 40
0.0
 40
0.0
 40
0.0
 40
0.0778390246646428
 40
0.1932926037806227
 40
0.3121829214883426
 40
0.4258584104724257
 40
0.5431597813444321
 40
0.6513254756398092
 40
0.7630216067257212
 40
0.8648460098054037
 40
0.9698858962013744
 40
1.0
 40
1.0
 40
1.0
 40
1.0
 10
41.07896911617068
 20
150.3893552853462
 30
0.0
 10
41.07894449896388
 20
150.3977805337121
 30
0.0
 10
41.0788833686501
 20
150.4187024067851
 30
0.0
 10
41.08599440837541
 20
150.4519584070023
 30
0.0
 10
41.09923143183646
 20
150.4872912280099
 30
0.0
 10
41.11871052026905
 20
150.5199305914572
 30
0.0
 10
41.1428395301085
 20
150.5477757549702
 30
0.0
 10
41.17136312345966
 20
150.5707242585779
 30
0.0
 10
41.20208141637789
 20
150.5874317068746
 30
0.0
 10
41.23491989816061
 20
150.5982266974677
 30
0.0
 10
41.26042283933596
 20
150.6019947354878
 30
0.0
 10
41.27502494209377
 20
150.6022316984159
 30
0.0
 10
41.27827848449747
 20
150.6022844969031
 30
0.0
  0
SPLINE
  5
16C
330
1F
100
AcDbEntity
  8
0
  6
Continuous
 62
     7
370
    30
100
AcDbSpline
210
0.0
220
0.0
230
1.0
 70
    24
 71
     3
 72
     8
 73
     4
 74
     0
 42
0.00000001
 43
0.00000001
 12
1.0
 22
0.0
 32
0.0
 13
1.0
 23
0.0
 33
0.0
 40
0.0
 40
0.0
 40
0.0
 40
0.0
 40
1.0
 40
1.0
 40
1.0
 40
1.0
 10
54.07788101062668
 20
138.0106579798457
 30
0.0
 10
54.96717569550844
 20
138.0106579798457
 30
0.0
 10
55.85632218537777
 20
138.0106579798457
 30
0.0
 10
56.74523925428274
 20
138.0106579798457
 30
0.0
  0
SPLINE
  5
16D
330
1F
100
AcDbEntity
  8
0
  6
Continuous
 62
     7
370
    30
100
AcDbSpline
210
0.0
220
0.0
230
1.0
 70
     8
 71
     3
 72
     8
 73
     4
 74
     0
 42
0.00000001
 43
0.00000001
 12
1.0
 22
0.0
 32
0.0
 13
1.0
 23
0.0
 33
0.0
 40
0.0
 40
0.0
 40
0.0
 40
0.0
 40
1.0
 40
1.0
 40
1.0
 40
1.0
 10
56.74523925428274
 20
149.7156374320438
 30
0.0
 10
55.8562031948276
 20
150.2304189654703
 30
0.0
 10
54.96707299704752
 20
150.7450382412946
 30
0.0
 10
54.07788101062668
 20
151.2595505065218
 30
0.0
  0
LINE
  5
16E
330
1F
100
AcDbEntity
  8
0
  6
Continuous
 62
     7
370
    30
100
AcDbLine
 10
56.7452399703
 20
138.0106580018
 30
0.0
 11
56.7452399703
 21
149.7156374662
 31
0.0
  0
LINE
  5
16F
330
1F
100
AcDbEntity
  8
0
  6
Continuous
 62
     7
370
    30
100
AcDbLine
 10
67.6385531845
 20
128.7766784935
 30
0.0
 11
56.7452399703
 21
128.7766784935
 31
0.0
  0
SPLINE
  5
170
330
1F
100
AcDbEntity
  8
0
  6
Continuous
 62
     7
370
    30
100
AcDbSpline
210
0.0
220
0.0
230
1.0
 70
     8
 71
     3
 72
    71
 73
    67
 74
     0
 42
0.00000001
 43
0.00000001
 12
1.0
 22
0.0
 32
0.0
 13
1.0
 23
0.0
 33
0.0
 40
0.0
 40
0.0
 40
0.0
 40
0.0
 40
0.015022717059795
 40
0.0300574701090822
 40
0.0450962220641414
 40
0.0601308322213514
 40
0.0751534298919569
 40
0.0906008339016925
 40
0.1060616947154894
 40
0.1215268508251954
 40
0.1369873499388981
 40
0.1524344928811404
 40
0.1674614251169376
 40
0.1825014682305651
 40
0.1975455570657354
 40
0.2125848697271411
 40
0.2276112348865538
 40
0.2431108327935778
 40
0.2586264279910338
 40
0.2741467586313213
 40
0.2896610436332654
 40
0.3051594536377743
 40
0.3195164061673725
 40
0.3338877298343869
 40
0.3482632690598255
 40
0.362633436542687
 40
0.3769894116104306
 40
0.3918664766232304
 40
0.4067610390982253
 40
0.4216610924771312
 40
0.4365550061213934
 40
0.4514314772118935
 40
0.4642901173461347
 40
0.4771601344118001
 40
0.4900341041787513
 40
0.5029043404753027
 40
0.5157631964568513
 40
0.529009527265326
 40
0.5422673429636328
 40
0.5555294643170685
 40
0.5687881705073486
 40
0.5820352178220435
 40
0.5979079609563643
 40
0.6137925087165313
 40
0.6296778625599869
 40
0.6455516669161087
 40
0.6617901854498062
 40
0.6780396417489402
 40
0.6942898288595026
 40
0.7105293546074706
 40
0.7284141011574963
 40
0.746311555499967
 40
0.7642097061024016
 40
0.782095398968143
 40
0.8003811343920623
 40
0.8186792260851473
 40
0.8369776639300773
 40
0.855263880809165
 40
0.8733272324240514
 40
0.8914076419320796
 40
0.9094938890951938
 40
0.9275745123196788
 40
0.9456380635752504
 40
0.9643000115124263
 40
0.9829806323940479
 40
1.0
 40
1.0
 40
1.0
 40
1.0
 10
58.14227784892942
 20
138.0106580017802
 30
0.0
 10
58.24506831180023
 20
138.0096883805304
 30
0.0
 10
58.4507315918141
 20
138.007748361184
 30
0.0
 10
58.75896358600681
 20
137.9921204737596
 30
0.0
 10
59.06661779513613
 20
137.9672392838336
 30
0.0
 10
59.37320178066562
 20
137.9322269591459
 30
0.0
 10
59.68123293198279
 20
137.8869303082823
 30
0.0
 10
59.99043546559545
 20
137.8309228230555
 30
0.0
 10
60.30050905801317
 20
137.76400100001
 30
0.0
 10
60.60820942096159
 20
137.6867945288355
 30
0.0
 10
60.91299849544599
 20
137.5994470900084
 30
0.0
 10
61.21174926613295
 20
137.5029396317332
 30
0.0
 10
61.5042988911654
 20
137.3976105982748
 30
0.0
 10
61.79055383833168
 20
137.2839353850297
 30
0.0
 10
62.07285788727015
 20
137.1611384270533
 30
0.0
 10
62.35070799416519
 20
137.0294628785865
 30
0.0
 10
62.62659669566612
 20
136.8876244394594
 30
0.0
 10
62.90007021139055
 20
136.73537362901
 30
0.0
 10
63.17069996841028
 20
136.5726831244244
 30
0.0
 10
63.43529178865867
 20
136.4014833695313
 30
0.0
 10
63.69329043146887
 20
136.2222269058702
 30
0.0
 10
63.93811574847247
 20
136.0398528078038
 30
0.0
 10
64.17004960438837
 20
135.8552458127804
 30
0.0
 10
64.38957269834737
 20
135.66936043092
 30
0.0
 10
64.60240740829869
 20
135.4778769972811
 30
0.0
 10
64.80815457288286
 20
135.2813429657308
 30
0.0
 10
65.00892170631758
 20
135.0777695297478
 30
0.0
 10
65.20416114741253
 20
134.8672928283886
 30
0.0
 10
65.39350108539391
 20
134.6502786687974
 30
0.0
 10
65.57447959045201
 20
134.4298607353245
 30
0.0
 10
65.74680615088772
 20
134.2068371117919
 30
0.0
 10
65.90289055792535
 20
133.9920159566745
 30
0.0
 10
66.04397476132833
 20
133.7861918448595
 30
0.0
 10
66.17148869399159
 20
133.5899060987966
 30
0.0
 10
66.29245953637763
 20
133.3933804659044
 30
0.0
 10
66.40685323572599
 20
133.1971596168281
 30
0.0
 10
66.51576231925895
 20
132.9997291017552
 30
0.0
 10
66.61901789801621
 20
132.8014896137631
 30
0.0
 10
66.7166184217838
 20
132.6028379482773
 30
0.0
 10
66.80770538573539
 20
132.4061561217198
 30
0.0
 10
66.89239918162038
 20
132.2119691478742
 30
0.0
 10
66.97602410211215
 20
132.0080716779256
 30
0.0
 10
67.05730867323678
 20
131.7955901848964
 30
0.0
 10
67.13514491296638
 20
131.5758699625579
 30
0.0
 10
67.20520551243027
 20
131.3618857032305
 30
0.0
 10
67.26836760376534
 20
131.1526216615349
 30
0.0
 10
67.32488591785152
 20
130.9487390105809
 30
0.0
 10
67.37511859370873
 20
130.7507425672384
 30
0.0
 10
67.41912585015722
 20
130.5605842503546
 30
0.0
 10
67.45868720540668
 20
130.3725391905749
 30
0.0
 10
67.49366795191025
 20
130.1879881467277
 30
0.0
 10
67.52406235348946
 20
130.0082706997709
 30
0.0
 10
67.54936213987658
 20
129.8395642806425
 30
0.0
 10
67.57032156854922
 20
129.6810457731654
 30
0.0
 10
67.58745323172313
 20
129.5333126345268
 30
0.0
 10
67.60119335510738
 20
129.3967928723412
 30
0.0
 10
67.61192177170886
 20
129.2727826412207
 30
0.0
 10
67.62010576870388
 20
129.1619587536544
 30
0.0
 10
67.62630598764247
 20
129.0643545141768
 30
0.0
 10
67.63087447068078
 20
128.9798165466621
 30
0.0
 10
67.6341224129021
 20
128.9080202476869
 30
0.0
 10
67.6363259092892
 20
128.8491336840933
 30
0.0
 10
67.63780094851823
 20
128.8026511097522
 30
0.0
 10
67.63879846391217
 20
128.7696286756432
 30
0.0
 10
67.6393808631077
 20
128.7495717042875
 30
0.0
 10
67.63941699186122
 20
128.7477022224689
 30
0.0
 10
67.63943421563532
 20
128.7468109785315
 30
0.0
  0
LINE
  5
171
330
1F
100
AcDbEntity
  8
0
  6
Continuous
 62
     7
370
    30
100
AcDbLine
 10
67.6385531845
 20
149.7156374662
 30
0.0
 11
56.7452399703
 21
149.7156374662
 31
0.0
  0
SPLINE
  5
172
330
1F
100
AcDbEntity
  8
0
  6
Continuous
 62
     7
370
    30
100
AcDbSpline
210
0.0
220
0.0
230
1.0
 70
     8
 71
     3
 72
    10
 73
     6
 74
     0
 42
0.00000001
 43
0.00000001
 12
1.0
 22
0.0
 32
0.0
 13
1.0
 23
0.0
 33
0.0
 40
0.0
 40
0.0
 40
0.0
 40
0.0
 40
0.042745720814522
 40
0.5216122103186573
 40
1.0
 40
1.0
 40
1.0
 40
1.0
 10
67.63943421563532
 20
149.7455049811598
 30
0.0
 10
67.63943898589947
 20
149.7456904303342
 30
0.0
 10
67.63949719589047
 20
149.747953406648
 30
0.0
 10
67.63924559378736
 20
149.7399626746904
 30
0.0
 10
67.63878391062339
 20
149.7237431653627
 30
0.0
 10
67.63855318447973
 20
149.7156374661919
 30
0.0
  0
LINE
  5
173
330
1F
100
AcDbEntity
  8
0
  6
Continuous
 62
     7
370
    30
100
AcDbLine
 10
74.3782776119
 20
128.7461581214
 30
0.0
 11
74.3782776119
 21
149.7461578383
 31
0.0
  0
LINE
  5
174
330
1F
100
AcDbEntity
  8
0
  6
Continuous
 62
     7
370
    30
100
AcDbLine
 10
71.8782781335
 20
149.1742652415
 30
0.0
 11
61.878278357
 21
149.1742652415
 31
0.0
  0
LINE
  5
175
330
1F
100
AcDbEntity
  8
0
  6
Continuous
 62
     7
370
    30
100
AcDbLine
 10
61.878278357
 20
149.1742652415
 30
0.0
 11
61.878278357
 21
140.8882276428
 31
0.0
  0
LINE
  5
176
330
1F
100
AcDbEntity
  8
0
  6
Continuous
 62
     7
370
    30
100
AcDbLine
 10
61.878278357
 20
140.8882276428
 30
0.0
 11
71.8782781335
 21
140.8882276428
 31
0.0
  0
LINE
  5
177
330
1F
100
AcDbEntity
  8
0
  6
Continuous
 62
     7
370
    30
100
AcDbLine
 10
71.8782781335
 20
140.8882276428
 30
0.0
 11
71.8782781335
 21
149.1742652415
 31
0.0
  0
LINE
  5
178
330
1F
100
AcDbEntity
  8
0
  6
Continuous
 62
     7
370
    30
100
AcDbLine
 10
56.7452399703
 20
138.0106580018
 30
0.0
 11
58.1422778489
 21
138.0106580018
 31
0.0
  0
LINE
  5
179
330
1F
100
AcDbEntity
  8
0
  6
Continuous
 62
     7
370
    30
100
AcDbLine
 10
74.8782786252
 20
129.2461582034
 30
0.0
 11
74.8782786252
 21
149.2461577563
 31
0.0
  0
LINE
  5
17A
330
1F
100
AcDbEntity
  8
0
  6
Continuous
 62
     7
370
    30
100
AcDbLine
 10
79.8782775821
 20
133.3961581385
 30
0.0
 11
79.8782775821
 21
145.0961578211
 31
0.0
  0
LINE
  5
17B
330
1F
100
AcDbEntity
  8
0
  6
Continuous
 62
     7
370
    30
100
AcDbLine
 10
79.4782782616
 20
132.9961578867
 30
0.0
 11
79.4782782616
 21
145.496158073
 31
0.0
  0
LINE
  5
17C
330
1F
100
AcDbEntity
  8
0
  6
Continuous
 62
     7
370
    30
100
AcDbLine
 10
76.7050715806
 20
145.496158073
 30
0.0
 11
76.7050715806
 21
132.9961578867
 31
0.0
  0
LINE
  5
17D
330
1F
100
AcDbEntity
  8
0
  6
Continuous
 62
     7
370
    30
100
AcDbLine
 10
84.1782795908
 20
133.2461579277
 30
0.0
 11
84.1782795908
 21
145.246158032
 31
0.0
  0
LINE
  5
17E
330
1F
100
AcDbEntity
  8
0
  6
Continuous
 62
     7
370
    30
100
AcDbLine
 10
95.8782802047
 20
133.2461579277
 30
0.0
 11
95.8782802047
 21
145.246158032
 31
0.0
  0
LINE
  5
17F
330
1F
100
AcDbEntity
  8
0
  6
Continuous
 62
     7
370
    30
100
AcDbLine
 10
96.878278506
 20
134.2461580916
 30
0.0
 11
96.878278506
 21
144.2461578681
 31
0.0
  0
LINE
  5
180
330
1F
100
AcDbEntity
  8
0
  6
Continuous
 62
     7
370
    30
100
AcDbLine
 10
55.6989763575
 20
133.6396175011
 30
0.0
 11
57.3399844291
 21
133.624010863
 31
0.0
  0
ARC
  5
181
330
1F
100
AcDbEntity
  8
0
  6
Continuous
 62
     7
370
    30
100
AcDbCircle
 10
57.3582784702
 20
135.5476579798
 30
0.0
 40
1.923734210232482
100
AcDbArc
 50
269.4551111627
 51
0.0
  0
LINE
  5
182
330
1F
100
AcDbEntity
  8
0
  6
Continuous
 62
     7
370
    30
100
AcDbLine
 10
59.2820117893
 20
135.5476578737
 30
0.0
 11
59.2820117893
 21
135.7476579996
 31
0.0
  0
ARC
  5
183
330
1F
100
AcDbEntity
  8
0
  6
Continuous
 62
     7
370
    30
100
AcDbCircle
 10
57.3582784702
 20
135.7476579798
 30
0.0
 40
1.923734210232482
100
AcDbArc
 50
0.0
 51
90.0
  0
LINE
  5
184
330
1F
100
AcDbEntity
  8
0
  6
Continuous
 62
     7
370
    30
100
AcDbLine
 10
57.3582793297
 20
137.6713922054
 30
0.0
 11
56.7111554267
 21
137.6713922054
 31
0.0
  0
LINE
  5
185
330
1F
100
AcDbEntity
  8
0
  6
Continuous
 62
     7
370
    30
100
AcDbLine
 10
45.6137871081
 20
137.6713922054
 30
0.0
 11
43.5782784773
 21
137.6713922054
 31
0.0
  0
SPLINE
  5
186
330
1F
100
AcDbEntity
  8
0
  6
Continuous
 62
     7
370
    30
100
AcDbSpline
210
0.0
220
0.0
230
1.0
 70
     8
 71
     3
 72
     8
 73
     4
 74
     0
 42
0.00000001
 43
0.00000001
 12
1.0
 22
0.0
 32
0.0
 13
1.0
 23
0.0
 33
0.0
 40
0.0
 40
0.0
 40
0.0
 40
0.0
 40
1.0
 40
1.0
 40
1.0
 40
1.0
 10
56.74523925428274
 20
128.7766785276474
 30
0.0
 10
55.8562031948276
 20
128.2618969942209
 30
0.0
 10
54.96707299704752
 20
127.7472777183967
 30
0.0
 10
54.07788101062668
 20
127.2327654531694
 30
0.0
  0
LINE
  5
187
330
1F
100
AcDbEntity
  8
0
  6
Continuous
 62
     7
370
    30
100
AcDbLine
 10
51.9996466758
 20
127.2327654569
 30
0.0
 11
54.0778808939
 21
127.2327654569
 31
0.0
  0
LINE
  5
188
330
1F
100
AcDbEntity
  8
0
  6
Continuous
 62
     7
370
    30
100
AcDbLine
 10
43.5782784773
 20
138.0106580018
 30
0.0
 11
43.5782784773
 21
137.6713922054
 31
0.0
  0
LINE
  5
189
330
1F
100
AcDbEntity
  8
0
  6
Continuous
 62
     7
370
    30
100
AcDbLine
 10
57.3582793297
 20
137.2476580127
 30
0.0
 11
57.2093552621
 21
137.2476580127
 31
0.0
  0
LINE
  5
18A
330
1F
100
AcDbEntity
  8
0
  6
Continuous
 62
     7
370
    30
100
AcDbLine
 10
45.1150405864
 20
137.2476580127
 30
0.0
 11
43.5782784773
 21
137.2476580127
 31
0.0
  0
LINE
  5
18B
330
1F
100
AcDbEntity
  8
0
  6
Continuous
 62
     7
370
    30
100
AcDbLine
 10
43.5782784773
 20
137.6713922054
 30
0.0
 11
43.5782784773
 21
137.2476580127
 31
0.0
  0
ARC
  5
18C
330
1F
100
AcDbEntity
  8
0
  6
Continuous
 62
     7
370
    30
100
AcDbCircle
 10
57.3582784702
 20
135.7476579798
 30
0.0
 40
1.5
100
AcDbArc
 50
0.0
 51
90.0
  0
LINE
  5
18D
330
1F
100
AcDbEntity
  8
0
  6
Continuous
 62
     7
370
    30
100
AcDbLine
 10
58.8582786443
 20
135.5476578737
 30
0.0
 11
58.8582786443
 21
135.7476579996
 31
0.0
  0
ARC
  5
18E
330
1F
100
AcDbEntity
  8
0
  6
Continuous
 62
     7
370
    30
100
AcDbCircle
 10
57.3582784702
 20
135.5476579798
 30
0.0
 40
1.5
100
AcDbArc
 50
269.4551111627
 51
0.0
  0
LINE
  5
18F
330
1F
100
AcDbEntity
  8
0
  6
Continuous
 62
     7
370
    30
100
AcDbLine
 10
55.9422797235
 20
134.0610567986
 30
0.0
 11
57.3440133305
 21
134.0477258472
 31
0.0
  0
LINE
  5
190
330
1F
100
AcDbEntity
  8
0
  6
Continuous
 62
     7
370
    30
100
AcDbLine
 10
43.5782784773
 20
137.2476580127
 30
0.0
 11
43.5782784773
 21
134.5857662654
 31
0.0
  0
CIRCLE
  5
191
330
1F
100
AcDbEntity
  8
0
  6
Continuous
 62
     7
370
    30
100
AcDbCircle
 10
48.5641602106
 20
132.2515486824
 30
0.0
 40
2.838163490354225
  0
CIRCLE
  5
192
330
1F
100
AcDbEntity
  8
0
  6
Continuous
 62
     7
370
    30
100
AcDbCircle
 10
48.5641602106
 20
132.2515486824
 30
0.0
 40
2.75
  0
ARC
  5
193
330
1F
100
AcDbEntity
  8
0
  6
Continuous
 62
     7
370
    30
100
AcDbCircle
 10
51.1623532248
 20
150.7406998391
 30
0.0
 40
0.062177826491079
100
AcDbArc
 50
29.9985128081
 51
89.9985128081
  0
LINE
  5
194
330
1F
100
AcDbEntity
  8
0
  6
Continuous
 62
     7
370
    30
100
AcDbLine
 10
51.1623550849
 20
150.8028774096
 30
0.0
 11
40.770049993
 21
150.8031474932
 31
0.0
  0
LINE
  5
195
330
1F
100
AcDbEntity
  8
0
  6
Continuous
 62
     7
370
    30
100
AcDbLine
 10
51.3140582191
 20
150.6022844969
 30
0.0
 11
51.2162013622
 21
150.7717870681
 31
0.0
  0
LINE
  5
196
330
1F
100
AcDbEntity
  8
0
  6
Continuous
 62
     7
370
    30
100
AcDbLine
 10
40.7161999904
 20
150.7098820566
 30
0.0
 11
41.0782784677
 21
150.0827061518
 31
0.0
  0
ARC
  5
197
330
1F
100
AcDbEntity
  8
0
  6
Continuous
 62
     7
370
    30
100
AcDbCircle
 10
40.7700483829
 20
150.7409695859
 30
0.0
 40
0.062177826491079
100
AcDbArc
 50
89.9985128081
 51
209.9985128081
  0
LWPOLYLINE
  5
198
330
1F
100
AcDbEntity
  8
0
  6
Continuous
 62
     8
370
     0
100
AcDbPolyline
 90
        9
 70
   128
 43
0.0
 10
48.9838025244
 20
131.0161395504
 10
48.9854016053
 20
131.0150741174
 10
48.9901392432
 20
131.0119215904
 10
48.9978319677
 20
131.0068011789
 10
49.0081845494
 20
130.9999103232
 10
49.0207993137
 20
130.9915144502
 10
49.0351910414
 20
130.9819348662
 10
49.0508074584
 20
130.9715403749
 10
49.0670487927
 20
130.9607305138
  0
LINE
  5
199
330
1F
100
AcDbEntity
  8
0
  6
Continuous
 62
     8
370
     0
100
AcDbLine
 10
49.0670487927
 20
130.9607305138
 30
0.0
 11
48.864810233
 21
130.6568855925
 31
0.0
  0
LWPOLYLINE
  5
19A
330
1F
100
AcDbEntity
  8
0
  6
Continuous
 62
     8
370
     0
100
AcDbPolyline
 90
        9
 70
   128
 43
0.0
 10
48.7815639647
 20
130.7122936978
 10
48.7831635112
 20
130.7112291961
 10
48.7879006835
 20
130.7080757378
 10
48.795593408
 20
130.7029553263
 10
48.8059459897
 20
130.6960644706
 10
48.818560754
 20
130.6876685976
 10
48.832953413
 20
130.6780890136
 10
48.84856983
 20
130.6676945223
 10
48.864810233
 20
130.6568855925
  0
ARC
  5
19B
330
1F
100
AcDbEntity
  8
0
  6
Continuous
 62
     8
370
     0
100
AcDbCircle
 10
48.573448486
 20
130.8508140548
 30
0.0
 40
0.3499999999999955
100
AcDbArc
 50
214.407390345
 51
326.3524554786
  0
LWPOLYLINE
  5
19C
330
1F
100
AcDbEntity
  8
0
  6
Continuous
 62
     8
370
     0
100
AcDbPolyline
 90
        9
 70
   128
 43
0.0
 10
48.284684279
 20
130.653038299
 10
48.3007798614
 20
130.6640623643
 10
48.3162570456
 20
130.6746626778
 10
48.3305211822
 20
130.6844322516
 10
48.3430232564
 20
130.6929948314
 10
48.3532841029
 20
130.7000225915
 10
48.3609079095
 20
130.7052445172
 10
48.3656031722
 20
130.7084603741
 10
48.3671882833
 20
130.7095453649
  0
ARC
  5
19D
330
1F
100
AcDbEntity
  8
0
  6
Continuous
 62
     8
370
     0
100
AcDbCircle
 10
47.6450411605
 20
133.8194076671
 30
0.0
 40
0.5000000000000109
100
AcDbArc
 50
274.407390345
 51
326.3524554786
  0
LINE
  5
19E
330
1F
100
AcDbEntity
  8
0
  6
Continuous
 62
     8
370
     0
100
AcDbLine
 10
47.31954771
 20
133.2928372121
 30
0.0
 11
47.6834648
 21
133.3208863198
 31
0.0
  0
ARC
  5
19F
330
1F
100
AcDbEntity
  8
0
  6
Continuous
 62
     8
370
     0
100
AcDbCircle
 10
47.3464443015
 20
132.9438721137
 30
0.0
 40
0.3500000000000518
100
AcDbArc
 50
94.407390345
 51
206.3524554786
  0
LINE
  5
1A0
330
1F
100
AcDbEntity
  8
0
  6
Continuous
 62
     8
370
     0
100
AcDbLine
 10
47.1948352354
 20
132.4614436871
 30
0.0
 11
47.0328163067
 21
132.7885102055
 31
0.0
  0
ARC
  5
1A1
330
1F
100
AcDbEntity
  8
0
  6
Continuous
 62
     8
370
     0
100
AcDbCircle
 10
46.7467949752
 20
132.2394977282
 30
0.0
 40
0.5000000000000887
100
AcDbArc
 50
334.407390345
 51
26.3524554785
  0
LINE
  5
1A2
330
1F
100
AcDbEntity
  8
0
  6
Continuous
 62
     8
370
     0
100
AcDbLine
 10
47.0400717752
 20
131.6943267866
 30
0.0
 11
47.1977390992
 21
132.0235129951
 31
0.0
  0
ARC
  5
1A3
330
1F
100
AcDbEntity
  8
0
  6
Continuous
 62
     8
370
     0
100
AcDbCircle
 10
47.3557325768
 20
131.5431374862
 30
0.0
 40
0.3500000000000044
100
AcDbArc
 50
154.407390345
 51
266.3524554786
  0
LINE
  5
1A4
330
1F
100
AcDbEntity
  8
0
  6
Continuous
 62
     8
370
     0
100
AcDbLine
 10
47.6977233486
 20
131.1706254764
 30
0.0
 11
47.3334658602
 21
131.1938461422
 31
0.0
  0
ARC
  5
1A5
330
1F
100
AcDbEntity
  8
0
  6
Continuous
 62
     8
370
     0
100
AcDbCircle
 10
47.6659140253
 20
130.6716387435
 30
0.0
 40
0.4999999999999871
100
AcDbArc
 50
34.407390345
 51
86.3524554786
  0
LINE
  5
1A6
330
1F
100
AcDbEntity
  8
0
  6
Continuous
 62
     8
370
     0
100
AcDbLine
 10
48.284684279
 20
130.653038299
 30
0.0
 11
48.078434513
 21
130.9541758655
 31
0.0
  0
ARC
  5
1A7
330
1F
100
AcDbEntity
  8
0
  6
Continuous
 62
     8
370
     0
100
AcDbCircle
 10
49.4832792607
 20
130.6836896977
 30
0.0
 40
0.5000000000000773
100
AcDbArc
 50
94.407390345
 51
146.3524554786
  0
LINE
  5
1A8
330
1F
100
AcDbEntity
  8
0
  6
Continuous
 62
     8
370
     0
100
AcDbLine
 10
49.8087727176
 20
131.2102607026
 30
0.0
 11
49.4448556276
 21
131.1822111292
 31
0.0
  0
ARC
  5
1A9
330
1F
100
AcDbEntity
  8
0
  6
Continuous
 62
     8
370
     0
100
AcDbCircle
 10
49.7818761197
 20
131.559225251
 30
0.0
 40
0.3500000000000204
100
AcDbArc
 50
274.407390345
 51
26.3524554786
  0
LINE
  5
1AA
330
1F
100
AcDbEntity
  8
0
  6
Continuous
 62
     8
370
     0
100
AcDbLine
 10
49.9334851923
 20
132.0416537619
 30
0.0
 11
50.0955045866
 21
131.7145872435
 31
0.0
  0
ARC
  5
1AB
330
1F
100
AcDbEntity
  8
0
  6
Continuous
 62
     8
370
     0
100
AcDbCircle
 10
50.381525446
 20
132.2635996365
 30
0.0
 40
0.500000000000046
100
AcDbArc
 50
154.407390345
 51
206.3524554786
  0
LINE
  5
1AC
330
1F
100
AcDbEntity
  8
0
  6
Continuous
 62
     8
370
     0
100
AcDbLine
 10
50.0882486524
 20
132.8087706624
 30
0.0
 11
49.9305813285
 21
132.4795844539
 31
0.0
  0
ARC
  5
1AD
330
1F
100
AcDbEntity
  8
0
  6
Continuous
 62
     8
370
     0
100
AcDbCircle
 10
49.7725878443
 20
132.9599598786
 30
0.0
 40
0.3500000000001129
100
AcDbArc
 50
334.407390345
 51
86.3524554785
  0
LINE
  5
1AE
330
1F
100
AcDbEntity
  8
0
  6
Continuous
 62
     8
370
     0
100
AcDbLine
 10
49.430597079
 20
133.3324715069
 30
0.0
 11
49.7948541017
 21
133.3092508412
 31
0.0
  0
ARC
  5
1AF
330
1F
100
AcDbEntity
  8
0
  6
Continuous
 62
     8
370
     0
100
AcDbCircle
 10
49.4624063958
 20
133.8314586212
 30
0.0
 40
0.5000000000001678
100
AcDbArc
 50
214.407390345
 51
266.3524554785
  0
LINE
  5
1B0
330
1F
100
AcDbEntity
  8
0
  6
Continuous
 62
     8
370
     0
100
AcDbLine
 10
48.8436366143
 20
133.85005915
 30
0.0
 11
49.0498863803
 21
133.5489220491
 31
0.0
  0
ARC
  5
1B1
330
1F
100
AcDbEntity
  8
0
  6
Continuous
 62
     8
370
     0
100
AcDbCircle
 10
48.5548719352
 20
133.6522833099
 30
0.0
 40
0.3500000000000094
100
AcDbArc
 50
34.407390345
 51
146.3524554786
  0
LINE
  5
1B2
330
1F
100
AcDbEntity
  8
0
  6
Continuous
 62
     8
370
     0
100
AcDbLine
 10
48.0612721006
 20
133.5423664695
 30
0.0
 11
48.2635101946
 21
133.8462123221
 31
0.0
  0
CIRCLE
  5
1B3
330
1F
100
AcDbEntity
  8
0
  6
Continuous
 62
     8
370
     0
100
AcDbCircle
 10
48.5641602106
 20
132.2515486824
 30
0.0
 40
1.920548829067167
  0
LWPOLYLINE
  5
1B4
330
1F
100
AcDbEntity
  8
0
  6
Continuous
 62
     8
370
     0
100
AcDbPolyline
 90
        9
 70
   128
 43
0.0
 10
48.9673823761
 20
133.4924145176
 10
48.9689674871
 20
133.4935004397
 10
48.9736622842
 20
133.4967158309
 10
48.9812860908
 20
133.5019377566
 10
48.9915464716
 20
133.5089650511
 10
49.0040494772
 20
133.5175280965
 10
49.0183136137
 20
133.5272976703
 10
49.0337903323
 20
133.5378979838
 10
49.0498863803
 20
133.5489220491
  0
LWPOLYLINE
  5
1B5
330
1F
100
AcDbEntity
  8
0
  6
Continuous
 62
     8
370
     0
100
AcDbPolyline
 90
        9
 70
   128
 43
0.0
 10
49.4242352145
 20
133.2326742395
 10
49.4243572178
 20
133.2345918326
 10
49.4247195022
 20
133.240270572
 10
49.4253071668
 20
133.2494929938
 10
49.426098791
 20
133.2619042641
 10
49.4270627098
 20
133.2770270801
 10
49.4281626018
 20
133.2942807621
 10
49.429355626
 20
133.3130017428
 10
49.430597079
 20
133.3324715069
  0
LWPOLYLINE
  5
1B6
330
1F
100
AcDbEntity
  8
0
  6
Continuous
 62
     8
370
     0
100
AcDbPolyline
 90
        9
 70
   128
 43
0.0
 10
48.7611321444
 20
133.7935516185
 10
48.7627172554
 20
133.7946375406
 10
48.7674125182
 20
133.7978529318
 10
48.7750363248
 20
133.8030748575
 10
48.7852971712
 20
133.810102152
 10
48.7977997111
 20
133.8186651974
 10
48.8120629164
 20
133.8284347712
 10
48.8275405662
 20
133.8390350847
 10
48.8436366143
 20
133.85005915
  0
LWPOLYLINE
  5
1B7
330
1F
100
AcDbEntity
  8
0
  6
Continuous
 62
     8
370
     0
100
AcDbPolyline
 90
        9
 70
   128
 43
0.0
 10
48.2635101946
 20
133.8462123221
 10
48.2797510633
 20
133.835402461
 10
48.2953674803
 20
133.8250084354
 10
48.309759208
 20
133.8154288514
 10
48.322374438
 20
133.8070325128
 10
48.3327270197
 20
133.8001421227
 10
48.3404197442
 20
133.7950217112
 10
48.3451569164
 20
133.7918687186
 10
48.346756463
 20
133.7908037512
  0
LWPOLYLINE
  5
1B8
330
1F
100
AcDbEntity
  8
0
  6
Continuous
 62
     8
370
     0
100
AcDbPolyline
 90
        9
 70
   128
 43
0.0
 10
48.0612721006
 20
133.5423664695
 10
48.0775125036
 20
133.5315566084
 10
48.0931289206
 20
133.5211625828
 10
48.107521114
 20
133.5115829988
 10
48.1201358782
 20
133.5031866601
 10
48.1304889256
 20
133.4962962701
 10
48.1381816501
 20
133.4911758586
 10
48.1429188224
 20
133.488022866
 10
48.1445183689
 20
133.4869583643
  0
LWPOLYLINE
  5
1B9
330
1F
100
AcDbEntity
  8
0
  6
Continuous
 62
     8
370
     0
100
AcDbPolyline
 90
        9
 70
   128
 43
0.0
 10
47.6834648
 20
133.3208863198
 10
47.6849642294
 20
133.3014347165
 10
47.6864059167
 20
133.2827309652
 10
47.6877344484
 20
133.2654935813
 10
47.6888990673
 20
133.2503847352
 10
47.6898546042
 20
133.2379851064
 10
47.6905647377
 20
133.2287715322
 10
47.6910019936
 20
133.2230979151
 10
47.6911496083
 20
133.2211821845
  0
LWPOLYLINE
  5
1BA
330
1F
100
AcDbEntity
  8
0
  6
Continuous
 62
     8
370
     0
100
AcDbPolyline
 90
        9
 70
   128
 43
0.0
 10
49.8438770594
 20
131.9972645997
 10
49.8455990749
 20
131.9981176912
 10
49.850698066
 20
132.000643438
 10
49.858978455
 20
132.0047454483
 10
49.8701226609
 20
132.0102658628
 10
49.883701344
 20
132.0169923401
 10
49.8991938951
 20
132.0246669038
 10
49.9160033362
 20
132.0329938589
 10
49.9334851923
 20
132.0416537619
  0
LWPOLYLINE
  5
1BB
330
1F
100
AcDbEntity
  8
0
  6
Continuous
 62
     8
370
     0
100
AcDbPolyline
 90
        9
 70
   128
 43
0.0
 10
50.0058964538
 20
131.6701980813
 10
50.0076184692
 20
131.6710511728
 10
50.0127174603
 20
131.6735769196
 10
50.0209978493
 20
131.6776789299
 10
50.0321420552
 20
131.6831993445
 10
50.0457207384
 20
131.6899262874
 10
50.0612123581
 20
131.6976003854
 10
50.0780227306
 20
131.7059273406
 10
50.0955045866
 20
131.7145872435
  0
LWPOLYLINE
  5
1BC
330
1F
100
AcDbEntity
  8
0
  6
Continuous
 62
     8
370
     0
100
AcDbPolyline
 90
        9
 70
   128
 43
0.0
 10
49.8010883751
 20
131.3099643721
 10
49.801235524
 20
131.3080486416
 10
49.8016732456
 20
131.3023750244
 10
49.8023829134
 20
131.2931614502
 10
49.8033384504
 20
131.2807618214
 10
49.8045035349
 20
131.2656529753
 10
49.8058316009
 20
131.2484151258
 10
49.8072732883
 20
131.2297113745
 10
49.8087727176
 20
131.2102607026
  0
CIRCLE
  5
1BD
330
1F
100
AcDbEntity
  8
0
  6
Continuous
 62
     8
370
     0
100
AcDbCircle
 10
48.5641602106
 20
132.2515486824
 30
0.0
 40
1.970548829067138
  0
LWPOLYLINE
  5
1BE
330
1F
100
AcDbEntity
  8
0
  6
Continuous
 62
     8
370
     0
100
AcDbPolyline
 90
        9
 70
   128
 43
0.0
 10
49.7884922372
 20
133.2094535737
 10
49.7886151718
 20
133.2113711669
 10
49.788976525
 20
133.2170499063
 10
49.7895651208
 20
133.2262723281
 10
49.7903558137
 20
133.2386835984
 10
49.7913197326
 20
133.2538064143
 10
49.7924196245
 20
133.2710600964
 10
49.7936135801
 20
133.2897815427
 10
49.7948541017
 20
133.3092508412
  0
LWPOLYLINE
  5
1BF
330
1F
100
AcDbEntity
  8
0
  6
Continuous
 62
     8
370
     0
100
AcDbPolyline
 90
        9
 70
   128
 43
0.0
 10
49.9980603056
 20
132.8519677317
 10
49.9997925656
 20
132.8511374577
 10
50.0049250843
 20
132.8486792317
 10
50.01325949
 20
132.8446875832
 10
50.0244754078
 20
132.8393152489
 10
50.0381425666
 20
132.8327694482
 10
50.0537347691
 20
132.8253011725
 10
50.0706541063
 20
132.8171977347
 10
50.0882486524
 20
132.8087706624
  0
LWPOLYLINE
  5
1C0
330
1F
100
AcDbEntity
  8
0
  6
Continuous
 62
     8
370
     0
100
AcDbPolyline
 90
        9
 70
   128
 43
0.0
 10
47.31954771
 20
133.2928372121
 10
47.3210466737
 20
133.2733856088
 10
47.3224883611
 20
133.2546818576
 10
47.3238168927
 20
133.2374444737
 10
47.3249815116
 20
133.2223356276
 10
47.3259370486
 20
133.2099359988
 10
47.3266476477
 20
133.2007224246
 10
47.3270849036
 20
133.1950488074
 10
47.3272325183
 20
133.1931326112
  0
LWPOLYLINE
  5
1C1
330
1F
100
AcDbEntity
  8
0
  6
Continuous
 62
     8
370
     0
100
AcDbPolyline
 90
        9
 70
   128
 43
0.0
 10
49.8403920504
 20
132.5227810575
 10
49.8421252417
 20
132.5219512491
 10
49.8472577604
 20
132.5194930232
 10
49.8555921661
 20
132.5155013746
 10
49.8668080839
 20
132.5101290404
 10
49.8804752426
 20
132.5035832396
 10
49.8960674452
 20
132.4961149639
 10
49.9129867824
 20
132.4880115262
 10
49.9305813285
 20
132.4795844539
  0
LWPOLYLINE
  5
1C2
330
1F
100
AcDbEntity
  8
0
  6
Continuous
 62
     8
370
     0
100
AcDbPolyline
 90
        9
 70
   128
 43
0.0
 10
48.078434513
 20
130.9541758655
 10
48.0945300954
 20
130.9651999308
 10
48.1100072796
 20
130.9758002444
 10
48.1242709505
 20
130.9855688869
 10
48.1367734904
 20
130.9941323979
 10
48.1470338712
 20
131.0011592268
 10
48.1546581434
 20
131.0063811525
 10
48.1593529405
 20
131.0095970093
 10
48.1609385172
 20
131.0106829314
  0
LWPOLYLINE
  5
1C3
330
1F
100
AcDbEntity
  8
0
  6
Continuous
 62
     8
370
     0
100
AcDbPolyline
 90
        9
 70
   128
 43
0.0
 10
47.6977233486
 20
131.1706254764
 10
47.698964336
 20
131.1900957062
 10
47.7001578259
 20
131.2088171526
 10
47.7012577178
 20
131.2260699033
 10
47.7022221023
 20
131.2411936505
 10
47.7030132609
 20
131.2536044552
 10
47.7036009254
 20
131.2628264113
 10
47.7039632099
 20
131.2685056164
 10
47.7040852132
 20
131.2704232095
  0
LWPOLYLINE
  5
1C4
330
1F
100
AcDbEntity
  8
0
  6
Continuous
 62
     8
370
     0
100
AcDbPolyline
 90
        9
 70
   128
 43
0.0
 10
47.0328163067
 20
132.7885102055
 10
47.0502976971
 20
132.7971701084
 10
47.0671076039
 20
132.8054970636
 10
47.0825996893
 20
132.8131711616
 10
47.0961788381
 20
132.8198981045
 10
47.1073225783
 20
132.8254180534
 10
47.1156029674
 20
132.8295200637
 10
47.1207024241
 20
132.8320462762
 10
47.1224239739
 20
132.8328993677
  0
LWPOLYLINE
  5
1C5
330
1F
100
AcDbEntity
  8
0
  6
Continuous
 62
     8
370
     0
100
AcDbPolyline
 90
        9
 70
   128
 43
0.0
 10
47.1948352354
 20
132.4614436871
 10
47.2123166258
 20
132.4701035901
 10
47.2291265326
 20
132.4784305452
 10
47.244618618
 20
132.4861051089
 10
47.2581977668
 20
132.4928315862
 10
47.269341507
 20
132.4983520007
 10
47.2776223617
 20
132.502454011
 10
47.2827213528
 20
132.5049797578
 10
47.2844433682
 20
132.5058328493
  0
LWPOLYLINE
  5
1C6
330
1F
100
AcDbEntity
  8
0
  6
Continuous
 62
     8
370
     0
100
AcDbPolyline
 90
        9
 70
   128
 43
0.0
 10
47.3334658602
 20
131.1938461422
 10
47.3347073132
 20
131.2133163719
 10
47.3359008031
 20
131.232036887
 10
47.3370006951
 20
131.249290569
 10
47.3379646139
 20
131.2644143163
 10
47.3387557725
 20
131.2768251209
 10
47.339343437
 20
131.2860470771
 10
47.3397057215
 20
131.2917262821
 10
47.3398277248
 20
131.2936438753
  0
LWPOLYLINE
  5
1C7
330
1F
100
AcDbEntity
  8
0
  6
Continuous
 62
     8
370
     0
100
AcDbPolyline
 90
        9
 70
   128
 43
0.0
 10
49.4371703537
 20
131.2819157301
 10
49.437318434
 20
131.2799999996
 10
49.4377552243
 20
131.2743254511
 10
49.4384658234
 20
131.2651118769
 10
49.4394213604
 20
131.2527122481
 10
49.4405864449
 20
131.237603402
 10
49.4419145109
 20
131.2203664838
 10
49.4433561983
 20
131.2016627325
 10
49.4448556276
 20
131.1822111292
  0
LWPOLYLINE
  5
1C8
330
1F
100
AcDbEntity
  8
0
  6
Continuous
 62
     8
370
     0
100
AcDbPolyline
 90
        9
 70
   128
 43
0.0
 10
47.1977390992
 20
132.0235129951
 10
47.2153341109
 20
132.0150859228
 10
47.2322529825
 20
132.0069824851
 10
47.247845185
 20
131.9995142094
 10
47.2615123438
 20
131.992967943
 10
47.2727282616
 20
131.9875960744
 10
47.2810626673
 20
131.9836044258
 10
47.286195186
 20
131.9811461999
 10
47.2879279116
 20
131.9803159258
  0
LWPOLYLINE
  5
1C9
330
1F
100
AcDbEntity
  8
0
  6
Continuous
 62
     8
370
     0
100
AcDbPolyline
 90
        9
 70
   128
 43
0.0
 10
47.0400717752
 20
131.6943267866
 10
47.057666787
 20
131.6858992486
 10
47.0745856585
 20
131.6777958109
 10
47.0901778611
 20
131.6703280008
 10
47.1038450198
 20
131.6637817344
 10
47.1150609376
 20
131.6584098658
 10
47.1233953433
 20
131.6544182173
 10
47.1285273964
 20
131.6519599913
 10
47.1302605877
 20
131.6511297173
  0
LINE
  5
1CA
330
1F
100
AcDbEntity
  8
0
  6
Continuous
 62
     8
370
     0
100
AcDbLine
 10
47.355732386
 20
131.5431372768
 30
0.0
 11
47.3398277248
 21
131.2936438753
 31
0.0
  0
LINE
  5
1CB
330
1F
100
AcDbEntity
  8
0
  6
Continuous
 62
     8
370
     0
100
AcDbLine
 10
47.73566869
 20
131.7658658645
 30
0.0
 11
47.7040852132
 21
131.2704232095
 31
0.0
  0
LINE
  5
1CC
330
1F
100
AcDbEntity
  8
0
  6
Continuous
 62
     8
370
     0
100
AcDbLine
 10
49.7725880416
 20
132.9599597065
 30
0.0
 11
49.7884922372
 21
133.2094535737
 31
0.0
  0
LINE
  5
1CD
330
1F
100
AcDbEntity
  8
0
  6
Continuous
 62
     8
370
     0
100
AcDbLine
 10
49.3926522034
 20
132.7372315845
 30
0.0
 11
49.4242352145
 21
133.2326742395
 31
0.0
  0
LINE
  5
1CE
330
1F
100
AcDbEntity
  8
0
  6
Continuous
 62
     8
370
     0
100
AcDbLine
 10
48.5577922957
 20
133.2118847913
 30
0.0
 11
48.9673823761
 21
133.4924145176
 31
0.0
  0
LINE
  5
1CF
330
1F
100
AcDbEntity
  8
0
  6
Continuous
 62
     8
370
     0
100
AcDbLine
 10
47.355732386
 20
131.5431372768
 30
0.0
 11
47.1302605877
 21
131.6511297173
 31
0.0
  0
LINE
  5
1D0
330
1F
100
AcDbEntity
  8
0
  6
Continuous
 62
     8
370
     0
100
AcDbLine
 10
48.5548721338
 20
133.6522834881
 30
0.0
 11
48.7611321444
 21
133.7935516185
 31
0.0
  0
LINE
  5
1D1
330
1F
100
AcDbEntity
  8
0
  6
Continuous
 62
     8
370
     0
100
AcDbLine
 10
48.5548721338
 20
133.6522834881
 30
0.0
 11
48.346756463
 21
133.7908037512
 31
0.0
  0
LINE
  5
1D2
330
1F
100
AcDbEntity
  8
0
  6
Continuous
 62
     8
370
     0
100
AcDbLine
 10
48.5577922957
 20
133.2118847913
 30
0.0
 11
48.1445183689
 21
133.4869583643
 31
0.0
  0
LINE
  5
1D3
330
1F
100
AcDbEntity
  8
0
  6
Continuous
 62
     8
370
     0
100
AcDbLine
 10
49.7818761217
 20
131.5592254086
 30
0.0
 11
50.0058964538
 21
131.6701980813
 31
0.0
  0
LINE
  5
1D4
330
1F
100
AcDbEntity
  8
0
  6
Continuous
 62
     8
370
     0
100
AcDbLine
 10
49.3990196558
 20
131.7768955177
 30
0.0
 11
49.8438770594
 21
131.9972645997
 31
0.0
  0
LINE
  5
1D5
330
1F
100
AcDbEntity
  8
0
  6
Continuous
 62
     8
370
     0
100
AcDbLine
 10
49.7818761217
 20
131.5592254086
 30
0.0
 11
49.8010883751
 21
131.3099643721
 31
0.0
  0
LINE
  5
1D6
330
1F
100
AcDbEntity
  8
0
  6
Continuous
 62
     8
370
     0
100
AcDbLine
 10
49.7725880416
 20
132.9599597065
 30
0.0
 11
49.9980603056
 21
132.8519677317
 31
0.0
  0
LINE
  5
1D7
330
1F
100
AcDbEntity
  8
0
  6
Continuous
 62
     8
370
     0
100
AcDbLine
 10
49.3926522034
 20
132.7372315845
 30
0.0
 11
49.8403920504
 21
132.5227810575
 31
0.0
  0
LINE
  5
1D8
330
1F
100
AcDbEntity
  8
0
  6
Continuous
 62
     8
370
     0
100
AcDbLine
 10
48.5705281319
 20
131.2912121921
 30
0.0
 11
48.1609385172
 21
131.0106829314
 31
0.0
  0
LINE
  5
1D9
330
1F
100
AcDbEntity
  8
0
  6
Continuous
 62
     8
370
     0
100
AcDbLine
 10
49.3990196558
 20
131.7768955177
 30
0.0
 11
49.4371703537
 21
131.2819157301
 31
0.0
  0
LINE
  5
1DA
330
1F
100
AcDbEntity
  8
0
  6
Continuous
 62
     8
370
     0
100
AcDbLine
 10
48.5705281319
 20
131.2912121921
 30
0.0
 11
48.9838025244
 21
131.0161395504
 31
0.0
  0
LINE
  5
1DB
330
1F
100
AcDbEntity
  8
0
  6
Continuous
 62
     8
370
     0
100
AcDbLine
 10
48.5734482939
 20
130.8508139609
 30
0.0
 11
48.7815639647
 21
130.7122936978
 31
0.0
  0
LINE
  5
1DC
330
1F
100
AcDbEntity
  8
0
  6
Continuous
 62
     8
370
     0
100
AcDbLine
 10
48.5734482939
 20
130.8508139609
 30
0.0
 11
48.3671882833
 21
130.7095453649
 31
0.0
  0
LINE
  5
1DD
330
1F
100
AcDbEntity
  8
0
  6
Continuous
 62
     8
370
     0
100
AcDbLine
 10
47.7293007719
 20
132.7262019313
 30
0.0
 11
47.6911496083
 21
133.2211821845
 31
0.0
  0
LINE
  5
1DE
330
1F
100
AcDbEntity
  8
0
  6
Continuous
 62
     8
370
     0
100
AcDbLine
 10
47.346444306
 20
132.9438720404
 30
0.0
 11
47.3272325183
 21
133.1931326112
 31
0.0
  0
LINE
  5
1DF
330
1F
100
AcDbEntity
  8
0
  6
Continuous
 62
     8
370
     0
100
AcDbLine
 10
47.73566869
 20
131.7658658645
 30
0.0
 11
47.2879279116
 21
131.9803159258
 31
0.0
  0
LINE
  5
1E0
330
1F
100
AcDbEntity
  8
0
  6
Continuous
 62
     8
370
     0
100
AcDbLine
 10
47.7293007719
 20
132.7262019313
 30
0.0
 11
47.2844433682
 21
132.5058328493
 31
0.0
  0
LINE
  5
1E1
330
1F
100
AcDbEntity
  8
0
  6
Continuous
 62
     8
370
     0
100
AcDbLine
 10
47.346444306
 20
132.9438720404
 30
0.0
 11
47.1224239739
 21
132.8328993677
 31
0.0
  0
LINE
  5
1E2
330
1F
100
AcDbEntity
  8
0
  6
Continuous
 62
     8
370
     0
100
AcDbLine
 10
41.2782784845
 20
138.0106580018
 30
0.0
 11
41.2782784845
 21
150.6022844969
 31
0.0
  0
LINE
  5
1E3
330
1F
100
AcDbEntity
  8
0
  6
Continuous
 62
     8
370
     0
100
AcDbLine
 10
76.0349626364
 20
133.1757136195
 30
0.0
 11
76.0349626364
 21
145.3166023402
 31
0.0
  0
LINE
  5
1E4
330
1F
100
AcDbEntity
  8
0
  6
Continuous
 62
     8
370
     0
100
AcDbLine
 10
75.8796701851
 20
133.1961580126
 30
0.0
 11
75.8796701851
 21
145.2961579471
 31
0.0
  0
LINE
  5
1E5
330
1F
100
AcDbEntity
  8
0
  6
Continuous
 62
     8
370
     0
100
AcDbLine
 10
57.3582793297
 20
137.6713922054
 30
0.0
 11
57.3582793297
 21
137.2476580127
 31
0.0
  0
LINE
  5
1E6
330
1F
100
AcDbEntity
  8
0
  6
Continuous
 62
     8
370
     0
100
AcDbLine
 10
59.2820117893
 20
135.7476579996
 30
0.0
 11
58.8582786443
 21
135.7476579996
 31
0.0
  0
LINE
  5
1E7
330
1F
100
AcDbEntity
  8
0
  6
Continuous
 62
     8
370
     0
100
AcDbLine
 10
59.2820117893
 20
135.5476578737
 30
0.0
 11
58.8582786443
 21
135.5476578737
 31
0.0
  0
LINE
  5
1E8
330
1F
100
AcDbEntity
  8
0
  6
Continuous
 62
     8
370
     0
100
AcDbLine
 10
57.3399844291
 20
133.624010863
 30
0.0
 11
57.3440133305
 21
134.0477258472
 31
0.0
  0
LINE
  5
1E9
330
1F
100
AcDbEntity
  8
0
  6
Continuous
 62
     8
370
     0
100
AcDbLine
 10
41.1109992276
 20
138.0106271517
 30
0.0
 11
41.1109992276
 21
130.31205689
 31
0.0
  0
ARC
  5
1EA
330
1F
100
AcDbEntity
  8
0
  6
Continuous
 62
     8
370
     0
100
AcDbCircle
 10
40.7700483829
 20
127.7513463738
 30
0.0
 40
0.8947101905787497
100
AcDbArc
 50
150.0014871919
 51
270.0014871919
  0
LINE
  5
1EB
330
1F
100
AcDbEntity
  8
0
  6
Continuous
 62
     8
370
     0
100
AcDbLine
 10
45.1911138082
 20
137.1988161972
 30
0.0
 11
39.995194966
 21
128.1986810772
 31
0.0
  0
ARC
  5
1EC
330
1F
100
AcDbEntity
  8
0
  6
Continuous
 62
     8
370
     0
100
AcDbCircle
 10
45.9659671963
 20
136.7514812442
 30
0.0
 40
0.894710190578762
100
AcDbArc
 50
90.0014871919
 51
150.0014871919
  0
LINE
  5
1ED
330
1F
100
AcDbEntity
  8
0
  6
Continuous
 62
     8
370
     0
100
AcDbLine
 10
56.3582484322
 20
137.6464611658
 30
0.0
 11
45.9659439223
 21
137.6461914315
 31
0.0
  0
ARC
  5
1EE
330
1F
100
AcDbEntity
  8
0
  6
Continuous
 62
     8
370
     0
100
AcDbCircle
 10
56.3582720382
 20
136.7517509909
 30
0.0
 40
0.8947101905787378
100
AcDbArc
 50
330.0014871919
 51
90.0014871919
  0
LINE
  5
1EF
330
1F
100
AcDbEntity
  8
0
  6
Continuous
 62
     8
370
     0
100
AcDbLine
 10
51.9372061538
 20
127.3042807861
 30
0.0
 11
57.1331246468
 21
136.3044159061
 31
0.0
  0
ARC
  5
1F0
330
1F
100
AcDbEntity
  8
0
  6
Continuous
 62
     8
370
     0
100
AcDbCircle
 10
51.1623532248
 20
127.7516161206
 30
0.0
 40
0.8947101905787734
100
AcDbArc
 50
270.0014871919
 51
330.0014871919
  0
LINE
  5
1F1
330
1F
100
AcDbEntity
  8
0
  6
Continuous
 62
     8
370
     0
100
AcDbLine
 10
40.7700716026
 20
126.856635934
 30
0.0
 11
51.1623765053
 21
126.8569060175
 31
0.0
  0
LINE
  5
1F2
330
1F
100
AcDbEntity
  8
0
  6
Continuous
 62
     8
370
     0
100
AcDbLine
 10
45.9659439223
 20
137.6564520451
 30
0.0
 11
56.3582484322
 21
137.6567217794
 31
0.0
  0
LINE
  5
1F3
330
1F
100
AcDbEntity
  8
0
  6
Continuous
 62
     8
370
     0
100
AcDbLine
 10
56.3582484322
 20
137.6567217794
 30
0.0
 11
56.3582484322
 21
137.6464611658
 31
0.0
  0
LINE
  5
1F4
330
1F
100
AcDbEntity
  8
0
  6
Continuous
 62
     8
370
     0
100
AcDbLine
 10
45.9659439223
 20
137.6564520451
 30
0.0
 11
45.9659439223
 21
137.6461914315
 31
0.0
  0
ARC
  5
1F5
330
1F
100
AcDbEntity
  8
0
  6
Continuous
 62
     8
370
     0
100
AcDbCircle
 10
56.3582720382
 20
136.7517509909
 30
0.0
 40
0.904970794878518
100
AcDbArc
 50
330.0014871919
 51
90.0014871919
  0
LINE
  5
1F6
330
1F
100
AcDbEntity
  8
0
  6
Continuous
 62
     8
370
     0
100
AcDbLine
 10
57.1420113268
 20
136.2992859485
 30
0.0
 11
57.1331246468
 21
136.3044159061
 31
0.0
  0
LWPOLYLINE
  5
1F7
330
1F
100
AcDbEntity
  8
0
  6
Continuous
 62
     8
370
     0
100
AcDbPolyline
 90
        9
 70
   128
 43
0.0
 10
39.995194966
 20
128.1986810772
 10
39.9940617793
 20
128.199335797
 10
39.9929305716
 20
128.1999886541
 10
39.9918037877
 20
128.2006387173
 10
39.9906834066
 20
128.2012859865
 10
39.9895716403
 20
128.2019276677
 10
39.9884705842
 20
128.2025637611
 10
39.9873823337
 20
128.2031914725
 10
39.9863089845
 20
128.2038117333
  0
LINE
  5
1F8
330
1F
100
AcDbEntity
  8
0
  6
Continuous
 62
     8
370
     0
100
AcDbLine
 10
39.9863089845
 20
128.2038117333
 30
0.0
 11
45.1822275939
 21
137.2039463876
 31
0.0
  0
LWPOLYLINE
  5
1F9
330
1F
100
AcDbEntity
  8
0
  6
Continuous
 62
     8
370
     0
100
AcDbPolyline
 90
        9
 70
   128
 43
0.0
 10
45.1911138082
 20
137.1988161972
 10
45.1899803886
 20
137.1994704514
 10
45.1888492974
 20
137.2001235413
 10
45.1877223971
 20
137.2007740701
 10
45.1866024817
 20
137.2014208737
 10
45.1854904825
 20
137.2020627877
 10
45.1843891936
 20
137.2026984154
 10
45.1833009431
 20
137.2033265925
 10
45.1822275939
 20
137.2039463876
  0
ARC
  5
1FA
330
1F
100
AcDbEntity
  8
0
  6
Continuous
 62
     8
370
     0
100
AcDbCircle
 10
45.9659671963
 20
136.7514812442
 30
0.0
 40
0.9049707948785279
100
AcDbArc
 50
90.0014871919
 51
150.0014871919
  0
LINE
  5
1FB
330
1F
100
AcDbEntity
  8
0
  6
Continuous
 62
     8
370
     0
100
AcDbLine
 10
57.1420113268
 20
136.2992859485
 30
0.0
 11
51.9460928338
 21
127.2991510614
 31
0.0
  0
LWPOLYLINE
  5
1FC
330
1F
100
AcDbEntity
  8
0
  6
Continuous
 62
     8
370
     0
100
AcDbPolyline
 90
        9
 70
   128
 43
0.0
 10
51.9460928338
 20
127.2991510614
 10
51.9450190189
 20
127.2997703909
 10
51.9439312341
 20
127.3003990336
 10
51.9428294795
 20
127.3010351269
 10
51.9417184117
 20
127.3016768082
 10
51.9405980306
 20
127.302323146
 10
51.9394711303
 20
127.3029741405
 10
51.9383395734
 20
127.3036269976
 10
51.9372061538
 20
127.3042807861
  0
LWPOLYLINE
  5
1FD
330
1F
100
AcDbEntity
  8
0
  6
Continuous
 62
     8
370
     0
100
AcDbPolyline
 90
        9
 70
   128
 43
0.0
 10
40.7700716026
 20
126.856635934
 10
40.7700716462
 20
126.8553274258
 10
40.7700716753
 20
126.8540217115
 10
40.7700717044
 20
126.8527206539
 10
40.7700717481
 20
126.8514270468
 10
40.7700717772
 20
126.850142753
 10
40.7700718063
 20
126.8488714977
 10
40.7700718354
 20
126.8476151435
 10
40.7700718791
 20
126.8463755532
  0
ARC
  5
1FE
330
1F
100
AcDbEntity
  8
0
  6
Continuous
 62
     8
370
     0
100
AcDbCircle
 10
40.7700483829
 20
127.7513463738
 30
0.0
 40
0.9049707948785085
100
AcDbArc
 50
150.0014871919
 51
270.0014871919
  0
ARC
  5
1FF
330
1F
100
AcDbEntity
  8
0
  6
Continuous
 62
     8
370
     0
100
AcDbCircle
 10
51.1623532248
 20
127.7516161206
 30
0.0
 40
0.9049707948785535
100
AcDbArc
 50
270.0014871919
 51
330.0014871919
  0
LINE
  5
200
330
1F
100
AcDbEntity
  8
0
  6
Continuous
 62
     8
370
     0
100
AcDbLine
 10
51.1623765053
 20
126.8569060175
 30
0.0
 11
51.1623765053
 21
126.8466456367
 31
0.0
  0
LINE
  5
201
330
1F
100
AcDbEntity
  8
0
  6
Continuous
 62
     8
370
     0
100
AcDbLine
 10
51.1623765053
 20
126.8466456367
 30
0.0
 11
40.7700718791
 21
126.8463755532
 31
0.0
  0
ARC
  5
202
330
1F
100
AcDbEntity
  8
0
  6
Continuous
 62
     8
370
     0
100
AcDbCircle
 10
45.9659671963
 20
136.7514812442
 30
0.0
 40
0.965281964328482
100
AcDbArc
 50
90.0014871919
 51
150.0014871919
  0
LINE
  5
203
330
1F
100
AcDbEntity
  8
0
  6
Continuous
 62
     8
370
     0
100
AcDbLine
 10
45.9659439223
 20
137.6564520451
 30
0.0
 11
45.9659420597
 21
137.7167632145
 31
0.0
  0
LINE
  5
204
330
1F
100
AcDbEntity
  8
0
  6
Continuous
 62
     8
370
     0
100
AcDbLine
 10
45.1822275939
 20
137.2039463876
 30
0.0
 11
45.1299957643
 21
137.2341005171
 31
0.0
  0
LINE
  5
205
330
1F
100
AcDbEntity
  8
0
  6
Continuous
 62
     8
370
     0
100
AcDbLine
 10
56.3582465695
 20
137.7170329488
 30
0.0
 11
45.9659420597
 21
137.7167632145
 31
0.0
  0
LINE
  5
206
330
1F
100
AcDbEntity
  8
0
  6
Continuous
 62
     8
370
     0
100
AcDbLine
 10
56.3582484322
 20
137.6567217794
 30
0.0
 11
56.3582465695
 21
137.7170329488
 31
0.0
  0
LINE
  5
207
330
1F
100
AcDbEntity
  8
0
  6
Continuous
 62
     8
370
     0
100
AcDbLine
 10
45.1299957643
 20
137.2341005171
 30
0.0
 11
39.9340771549
 21
128.2339660956
 31
0.0
  0
LINE
  5
208
330
1F
100
AcDbEntity
  8
0
  6
Continuous
 62
     8
370
     0
100
AcDbLine
 10
39.9340771549
 20
128.2339660956
 30
0.0
 11
39.9863089845
 21
128.2038117333
 31
0.0
  0
ARC
  5
209
330
1F
100
AcDbEntity
  8
0
  6
Continuous
 62
     8
370
     0
100
AcDbCircle
 10
56.3582720382
 20
136.7517509909
 30
0.0
 40
0.965281964328482
100
AcDbArc
 50
330.0014871919
 51
90.0014871919
  0
LINE
  5
20A
330
1F
100
AcDbEntity
  8
0
  6
Continuous
 62
     8
370
     0
100
AcDbLine
 10
57.1420113268
 20
136.2992859485
 30
0.0
 11
57.194243622
 21
136.269131819
 31
0.0
  0
LINE
  5
20B
330
1F
100
AcDbEntity
  8
0
  6
Continuous
 62
     8
370
     0
100
AcDbLine
 10
51.9983241977
 20
127.268996699
 30
0.0
 11
57.194243622
 21
136.269131819
 31
0.0
  0
LINE
  5
20C
330
1F
100
AcDbEntity
  8
0
  6
Continuous
 62
     8
370
     0
100
AcDbLine
 10
51.9983241977
 20
127.268996699
 30
0.0
 11
51.9460928338
 21
127.2991510614
 31
0.0
  0
ARC
  5
20D
330
1F
100
AcDbEntity
  8
0
  6
Continuous
 62
     8
370
     0
100
AcDbCircle
 10
40.7700483829
 20
127.7513463738
 30
0.0
 40
0.9652819643284695
100
AcDbArc
 50
150.0014871919
 51
270.0014871919
  0
LINE
  5
20E
330
1F
100
AcDbEntity
  8
0
  6
Continuous
 62
     8
370
     0
100
AcDbLine
 10
40.7700734361
 20
126.7860640346
 30
0.0
 11
40.7700718791
 21
126.8463755532
 31
0.0
  0
ARC
  5
20F
330
1F
100
AcDbEntity
  8
0
  6
Continuous
 62
     8
370
     0
100
AcDbCircle
 10
51.1623532248
 20
127.7516161206
 30
0.0
 40
0.9652819643285083
100
AcDbArc
 50
270.0014871919
 51
330.0014871919
  0
LINE
  5
210
330
1F
100
AcDbEntity
  8
0
  6
Continuous
 62
     8
370
     0
100
AcDbLine
 10
51.162378368
 20
126.7863341181
 30
0.0
 11
51.1623765053
 21
126.8466456367
 31
0.0
  0
LINE
  5
211
330
1F
100
AcDbEntity
  8
0
  6
Continuous
 62
     8
370
     0
100
AcDbLine
 10
40.7700734361
 20
126.7860640346
 30
0.0
 11
51.162378368
 21
126.7863341181
 31
0.0
  0
LWPOLYLINE
  5
212
330
1F
100
AcDbEntity
  8
0
  6
Continuous
 62
     8
370
     0
100
AcDbPolyline
 90
        8
 70
   128
 43
0.0
 10
45.965941594
 20
137.7365025964
 10
45.965941594
 20
137.7363242482
 10
45.965941594
 20
137.735210852
 10
45.965941594
 20
137.7331129315
 10
45.965941594
 20
137.7301025477
 10
45.9659420597
 20
137.726282961
 10
45.9659420597
 20
137.7217851386
 10
45.9659420597
 20
137.7167632145
  0
LWPOLYLINE
  5
213
330
1F
100
AcDbEntity
  8
0
  6
Continuous
 62
     8
370
     0
100
AcDbPolyline
 90
        8
 70
   128
 43
0.0
 10
45.1129008727
 20
137.2439697425
 10
45.1130554723
 20
137.2438805683
 10
45.1140198568
 20
137.2433238703
 10
45.1158364015
 20
137.2422749682
 10
45.118443639
 20
137.2407699509
 10
45.1217516968
 20
137.238860274
 10
45.1256469535
 20
137.2366113628
 10
45.1299957643
 20
137.2341005171
  0
LWPOLYLINE
  5
214
330
1F
100
AcDbEntity
  8
0
  6
Continuous
 62
     8
370
     0
100
AcDbPolyline
 90
        8
 70
   128
 43
0.0
 10
39.9169820305
 20
128.2438353209
 10
39.9171365137
 20
128.243745914
 10
39.9181007818
 20
128.2431889831
 10
39.9199176757
 20
128.2421403139
 10
39.9225247968
 20
128.2406352966
 10
39.9258326218
 20
128.238725154
 10
39.9297279949
 20
128.2364769413
 10
39.9340771549
 20
128.2339660956
  0
LWPOLYLINE
  5
215
330
1F
100
AcDbEntity
  8
0
  6
Continuous
 62
     8
370
     0
100
AcDbPolyline
 90
        8
 70
   128
 43
0.0
 10
57.194243622
 20
136.269131819
 10
57.1985928985
 20
136.2666209734
 10
57.2024876895
 20
136.2643720622
 10
57.2057957473
 20
136.2624623853
 10
57.2084034505
 20
136.2609571351
 10
57.2102195295
 20
136.2599082331
 10
57.2111843797
 20
136.259351535
 10
57.2113389792
 20
136.2592623609
  0
LINE
  5
216
330
1F
100
AcDbEntity
  8
0
  6
Continuous
 62
     8
370
     0
100
AcDbLine
 10
56.3582465695
 20
137.7367723307
 30
0.0
 11
56.3582465695
 21
137.7170329488
 31
0.0
  0
LWPOLYLINE
  5
217
330
1F
100
AcDbEntity
  8
0
  6
Continuous
 62
     8
370
     0
100
AcDbPolyline
 90
        8
 70
   128
 43
0.0
 10
51.9983241977
 20
127.268996699
 10
52.0026734742
 20
127.2664858534
 10
52.0065691965
 20
127.2642367094
 10
52.0098772543
 20
127.2623274981
 10
52.0124840262
 20
127.2608224808
 10
52.0143010365
 20
127.2597738116
 10
52.0152649554
 20
127.2592168807
 10
52.0154195549
 20
127.2591274737
  0
LINE
  5
218
330
1F
100
AcDbEntity
  8
0
  6
Continuous
 62
     8
370
     0
100
AcDbLine
 10
40.7700734361
 20
126.7860640346
 30
0.0
 11
40.7700739454
 21
126.7663246526
 31
0.0
  0
LINE
  5
219
330
1F
100
AcDbEntity
  8
0
  6
Continuous
 62
     8
370
     0
100
AcDbLine
 10
51.162378368
 20
126.7863341181
 30
0.0
 11
51.162378368
 21
126.7665947362
 31
0.0
  0
LINE
  5
21A
330
1F
100
AcDbEntity
  8
0
  6
Continuous
 62
     8
370
     0
100
AcDbLine
 10
51.1623550849
 20
150.8028774096
 30
0.0
 11
51.162378368
 21
151.7246986313
 31
0.0
  0
ARC
  5
21B
330
1F
100
AcDbEntity
  8
0
  6
Continuous
 62
     8
370
     0
100
AcDbCircle
 10
51.1623532248
 20
150.7406998391
 30
0.0
 40
0.98399913481739
100
AcDbArc
 50
31.8223799929
 51
89.9985128081
  0
LINE
  5
21C
330
1F
100
AcDbEntity
  8
0
  6
Continuous
 62
     8
370
     0
100
AcDbLine
 10
51.2162013622
 20
150.7717870681
 30
0.0
 11
51.5918056192
 21
150.9886287658
 31
0.0
  0
LINE
  5
21D
330
1F
100
AcDbEntity
  8
0
  6
Continuous
 62
     8
370
     0
100
AcDbLine
 10
40.770049993
 20
150.8031474932
 30
0.0
 11
40.7700739309
 21
151.7249687149
 31
0.0
  0
LINE
  5
21E
330
1F
100
AcDbEntity
  8
0
  6
Continuous
 62
     8
370
     0
100
AcDbLine
 10
51.162378368
 20
151.7246986313
 30
0.0
 11
40.7700739309
 21
151.7249687149
 31
0.0
  0
LINE
  5
21F
330
1F
100
AcDbEntity
  8
0
  6
Continuous
 62
     8
370
     0
100
AcDbLine
 10
40.7161999904
 20
150.7098820566
 30
0.0
 11
39.917867369
 21
150.2489919348
 31
0.0
  0
ARC
  5
220
330
1F
100
AcDbEntity
  8
0
  6
Continuous
 62
     8
370
     0
100
AcDbCircle
 10
40.7700483829
 20
150.7409695859
 30
0.0
 40
0.9839991348173616
100
AcDbArc
 50
89.9985128081
 51
209.9985128081
  0
LINE
  5
221
330
1F
100
AcDbEntity
  8
0
  6
Continuous
 62
     8
370
     0
100
AcDbLine
 10
39.917867369
 20
150.2489919348
 30
0.0
 11
41.0782784677
 21
148.2389808207
 31
0.0
  0
LINE
  5
222
330
1F
100
AcDbEntity
  8
0
  6
Continuous
 62
     8
370
     0
100
AcDbLine
 10
51.162378368
 20
151.7257212235
 30
0.0
 11
51.162378368
 21
151.7246986313
 31
0.0
  0
LINE
  5
223
330
1F
100
AcDbEntity
  8
0
  6
Continuous
 62
     8
370
     0
100
AcDbLine
 10
40.7700739454
 20
151.7259913071
 30
0.0
 11
40.7700739309
 21
151.7249687149
 31
0.0
  0
LINE
  5
224
330
1F
100
AcDbEntity
  8
0
  6
Continuous
 62
     8
370
     0
100
AcDbLine
 10
39.917867369
 20
150.2489919348
 30
0.0
 11
39.9169820305
 21
150.2484806387
 31
0.0
  0
LINE
  5
225
330
1F
100
AcDbEntity
  8
DÜNNE_LINIE
 62
     7
370
     0
100
AcDbLine
 10
40.9782784702
 20
139.2461579798
 30
0.0
 11
98.4332372598
 21
139.2461579798
 31
0.0
  0
LINE
  5
226
330
1F
100
AcDbEntity
  8
DÜNNE_LINIE
 62
     7
100
AcDbLine
 10
61.8782784702
 20
140.8882276886
 30
0.0
 11
71.8782784702
 21
149.1742652454
 31
0.0
  0
LINE
  5
227
330
1F
100
AcDbEntity
  8
DÜNNE_LINIE
 62
     7
100
AcDbLine
 10
61.8782784702
 20
149.1742652454
 30
0.0
 11
71.8782784702
 21
140.8882276886
 31
0.0
  0
DIMENSION
  5
228
330
1F
100
AcDbEntity
  8
DÜNNE_LINIE
 62
     7
100
AcDbDimension
  2
_D_2
 10
74.8782784702
 20
116.7662994465
 30
0.0
 11
57.1259235577
 21
116.7662994465
 31
0.0
 70
   160
  1
<>
 71
     2
 42
-1.0
  3
SLDDIMSTYLE2
100
AcDbAlignedDimension
 13
39.7700483829
 23
127.7513463738
 33
0.0
 14
74.8782784702
 24
129.2461579798
 34
0.0
 50
0.0
100
AcDbRotatedDimension
  0
INSERT
  5
23E
330
1F
100
AcDbEntity
  8
DÜNNE_LINIE
 62
     7
100
AcDbBlockReference
  2
SW_CENTERMARKSYMBOL_0
 10
48.5641602106
 20
132.2515486824
 30
0.0
  0
LINE
  5
23F
330
1F
100
AcDbEntity
  8
0
  6
Continuous
 62
     7
370
     0
100
AcDbLine
 10
82.3163238521
 20
144.1711579798
 30
0.0
 11
96.8782784702
 21
144.1711579798
 31
0.0
  0
LINE
  5
240
330
1F
100
AcDbEntity
  8
0
  6
Continuous
 62
     7
370
     0
100
AcDbLine
 10
82.3163238521
 20
134.3211579798
 30
0.0
 11
96.8782784702
 21
134.3211579798
 31
0.0
  0
ARC
  5
241
330
1F
100
AcDbEntity
  8
0
  6
Continuous
 62
     7
370
     0
100
AcDbCircle
 10
48.6732784702
 20
132.4516579798
 30
0.0
 40
2.000000000000024
100
AcDbArc
 50
75.0
 51
345.0
  0
ARC
  5
242
330
1F
100
AcDbEntity
  8
0
  6
HIDDEN
 62
     7
370
     0
100
AcDbCircle
 10
48.6732784702
 20
146.0406579798
 30
0.0
 40
2.000000000000052
100
AcDbArc
 50
75.0
 51
345.0
  0
ARC
  5
243
330
1F
100
AcDbEntity
  8
0
  6
Continuous
 62
     7
370
    30
100
AcDbCircle
 10
170.2983716326
 20
218.5191273206
 30
0.0
 40
0.030000000000014
100
AcDbArc
 50
344.999999928
 51
70.0000000071
  0
LINE
  5
244
330
1F
100
AcDbEntity
  8
0
  6
Continuous
 62
     7
370
    30
100
AcDbLine
 10
169.4055281802
 20
215.0710786011
 30
0.0
 11
169.3122627436
 21
215.0710786011
 31
0.0
  0
LINE
  5
245
330
1F
100
AcDbEntity
  8
0
  6
Continuous
 62
     7
370
    30
100
AcDbLine
 10
169.4055281802
 20
215.0710786011
 30
0.0
 11
170.3273494019
 21
218.5113627713
 31
0.0
  0
LINE
  5
246
330
1F
100
AcDbEntity
  8
0
  6
Continuous
 62
     7
370
    30
100
AcDbLine
 10
170.3086326121
 20
218.5473181091
 30
0.0
 11
170.2483210935
 21
218.5692695568
 31
0.0
  0
LINE
  5
247
330
1F
100
AcDbEntity
  8
0
  6
Continuous
 62
     7
370
    30
100
AcDbLine
 10
168.8960155694
 20
218.5710787673
 30
0.0
 11
170.2380607127
 21
218.5710787673
 31
0.0
  0
ARC
  5
248
330
1F
100
AcDbEntity
  8
0
  6
Continuous
 62
     7
370
    30
100
AcDbCircle
 10
170.2380604631
 20
218.5410787911
 30
0.0
 40
0.0300000000000067
100
AcDbArc
 50
70.000000007
 51
90.0
  0
LINE
  5
249
330
1F
100
AcDbEntity
  8
0
  6
Continuous
 62
     7
370
    30
100
AcDbLine
 10
169.3122627436
 20
215.0710786011
 30
0.0
 11
164.3547004311
 21
215.0710786011
 31
0.0
  0
LINE
  5
24A
330
1F
100
AcDbEntity
  8
0
  6
Continuous
 62
     7
370
    30
100
AcDbLine
 10
159.8958804494
 20
218.5710787673
 30
0.0
 11
168.8960155694
 21
218.5710787673
 31
0.0
  0
ARC
  5
24B
330
1F
100
AcDbEntity
  8
0
  6
Continuous
 62
     7
370
    30
100
AcDbCircle
 10
159.3881940428
 20
218.5191273206
 30
0.0
 40
0.0300000000000334
100
AcDbArc
 50
109.999999993
 51
195.000000072
  0
LINE
  5
24C
330
1F
100
AcDbEntity
  8
0
  6
Continuous
 62
     7
370
    30
100
AcDbLine
 10
159.4485052152
 20
218.5710787673
 30
0.0
 11
159.8958804494
 21
218.5710787673
 31
0.0
  0
ARC
  5
24D
330
1F
100
AcDbEntity
  8
0
  6
Continuous
 62
     7
370
    30
100
AcDbCircle
 10
159.387924296
 20
218.5191273206
 30
0.0
 40
0.029999999999997
100
AcDbArc
 50
109.9999999929
 51
195.000000072
  0
LINE
  5
24E
330
1F
100
AcDbEntity
  8
0
  6
Continuous
 62
     7
370
    30
100
AcDbLine
 10
160.280767897
 20
215.0710786011
 30
0.0
 11
159.3589465589
 21
218.5113627713
 31
0.0
  0
LINE
  5
24F
330
1F
100
AcDbEntity
  8
0
  6
Continuous
 62
     7
370
    30
100
AcDbLine
 10
159.4379748673
 20
218.5692695568
 30
0.0
 11
159.3776636979
 21
218.5473181091
 31
0.0
  0
ARC
  5
250
330
1F
100
AcDbEntity
  8
0
  6
Continuous
 62
     7
370
    30
100
AcDbCircle
 10
159.4482354655
 20
218.5410787911
 30
0.0
 40
0.0300000000000011
100
AcDbArc
 50
89.9999999999
 51
109.9999999929
  0
LINE
  5
251
330
1F
100
AcDbEntity
  8
0
  6
Continuous
 62
     7
370
    30
100
AcDbLine
 10
159.4482354809
 20
218.5710787673
 30
0.0
 11
159.4485052152
 21
218.5710787673
 31
0.0
  0
ARC
  5
252
330
1F
100
AcDbEntity
  8
0
  6
Continuous
 62
     7
370
    30
100
AcDbCircle
 10
145.3987057011
 20
219.6230302616
 30
0.0
 40
0.029999999999997
100
AcDbArc
 50
164.999999928
 51
250.0000000071
  0
LINE
  5
253
330
1F
100
AcDbEntity
  8
0
  6
Continuous
 62
     7
370
    30
100
AcDbLine
 10
146.2915491535
 20
223.0710789811
 30
0.0
 11
146.3848145901
 21
223.0710789811
 31
0.0
  0
LINE
  5
254
330
1F
100
AcDbEntity
  8
0
  6
Continuous
 62
     7
370
    30
100
AcDbLine
 10
146.2915491535
 20
223.0710789811
 30
0.0
 11
145.3697279318
 21
219.6307948109
 31
0.0
  0
LINE
  5
255
330
1F
100
AcDbEntity
  8
0
  6
Continuous
 62
     7
370
    30
100
AcDbLine
 10
145.3884447216
 20
219.5948394731
 30
0.0
 11
145.4487562402
 21
219.5728880254
 31
0.0
  0
LINE
  5
256
330
1F
100
AcDbEntity
  8
0
  6
Continuous
 62
     7
370
    30
100
AcDbLine
 10
146.8010617642
 20
219.5710788148
 30
0.0
 11
145.459016621
 21
219.5710788148
 31
0.0
  0
ARC
  5
257
330
1F
100
AcDbEntity
  8
0
  6
Continuous
 62
     7
370
    30
100
AcDbCircle
 10
145.4590168705
 20
219.6010787911
 30
0.0
 40
0.0300000000000067
100
AcDbArc
 50
250.000000007
 51
270.0
  0
LINE
  5
258
330
1F
100
AcDbEntity
  8
0
  6
Continuous
 62
     7
370
    30
100
AcDbLine
 10
146.3848145901
 20
223.0710789811
 30
0.0
 11
151.3423769026
 21
223.0710789811
 31
0.0
  0
LINE
  5
259
330
1F
100
AcDbEntity
  8
0
  6
Continuous
 62
     7
370
    30
100
AcDbLine
 10
155.8011968842
 20
219.5710788148
 30
0.0
 11
146.8010617642
 21
219.5710788148
 31
0.0
  0
ARC
  5
25A
330
1F
100
AcDbEntity
  8
0
  6
Continuous
 62
     7
370
    30
100
AcDbCircle
 10
156.3088832909
 20
219.6230302616
 30
0.0
 40
0.0300000000000334
100
AcDbArc
 50
289.999999993
 51
15.000000072
  0
LINE
  5
25B
330
1F
100
AcDbEntity
  8
0
  6
Continuous
 62
     7
370
    30
100
AcDbLine
 10
156.2485721184
 20
219.5710788148
 30
0.0
 11
155.8011968842
 21
219.5710788148
 31
0.0
  0
ARC
  5
25C
330
1F
100
AcDbEntity
  8
0
  6
Continuous
 62
     7
370
    30
100
AcDbCircle
 10
156.3091530376
 20
219.6230302616
 30
0.0
 40
0.0300000000000067
100
AcDbArc
 50
289.999999993
 51
15.000000072
  0
LINE
  5
25D
330
1F
100
AcDbEntity
  8
0
  6
Continuous
 62
     7
370
    30
100
AcDbLine
 10
155.4163094366
 20
223.0710789811
 30
0.0
 11
156.3381307748
 21
219.6307948109
 31
0.0
  0
LINE
  5
25E
330
1F
100
AcDbEntity
  8
0
  6
Continuous
 62
     7
370
    30
100
AcDbLine
 10
156.2591024664
 20
219.5728880254
 30
0.0
 11
156.3194136357
 21
219.5948394731
 31
0.0
  0
ARC
  5
25F
330
1F
100
AcDbEntity
  8
0
  6
Continuous
 62
     7
370
    30
100
AcDbCircle
 10
156.2488418682
 20
219.6010787911
 30
0.0
 40
0.0300000000000237
100
AcDbArc
 50
270.0
 51
289.9999999929
  0
LINE
  5
260
330
1F
100
AcDbEntity
  8
0
  6
Continuous
 62
     7
370
    30
100
AcDbLine
 10
156.2488418527
 20
219.5710788148
 30
0.0
 11
156.2485721184
 21
219.5710788148
 31
0.0
  0
ARC
  5
261
330
1F
100
AcDbEntity
  8
0
  6
Continuous
 62
     7
370
    30
100
AcDbCircle
 10
157.8485386668
 20
219.0710787911
 30
0.0
 40
12.04000000000002
100
AcDbArc
 50
264.1101525106
 51
340.596064805
  0
SPLINE
  5
262
330
1F
100
AcDbEntity
  8
0
  6
Continuous
 62
     7
370
    30
100
AcDbSpline
210
0.0
220
0.0
230
1.0
 70
    24
 71
     3
 72
    10
 73
     6
 74
     0
 42
0.00000001
 43
0.00000001
 12
1.0
 22
0.0
 32
0.0
 13
1.0
 23
0.0
 33
0.0
 40
0.0
 40
0.0
 40
0.0
 40
0.0
 40
0.5
 40
0.5
 40
1.0
 40
1.0
 40
1.0
 40
1.0
 10
156.6130386668295
 20
207.0946377608869
 30
0.0
 10
156.6130386668295
 20
207.0946377608869
 30
0.0
 10
156.6130386668295
 20
207.1374110583055
 30
0.0
 10
156.6130386668295
 20
207.2637251429727
 30
0.0
 10
156.6130386668295
 20
207.3457645273643
 30
0.0
 10
156.6130386668295
 20
207.4059497258912
 30
0.0
  0
ARC
  5
263
330
1F
100
AcDbEntity
  8
0
  6
Continuous
 62
     7
370
    30
100
AcDbCircle
 10
157.8485386668
 20
219.0710787911
 30
0.0
 40
12.04
100
AcDbArc
 50
84.1101525106
 51
160.596064805
  0
SPLINE
  5
264
330
1F
100
AcDbEntity
  8
0
  6
Continuous
 62
     7
370
    30
100
AcDbSpline
210
0.0
220
0.0
230
1.0
 70
    24
 71
     3
 72
    10
 73
     6
 74
     0
 42
0.00000001
 43
0.00000001
 12
1.0
 22
0.0
 32
0.0
 13
1.0
 23
0.0
 33
0.0
 40
0.0
 40
0.0
 40
0.0
 40
0.0
 40
0.5
 40
0.5
 40
1.0
 40
1.0
 40
1.0
 40
1.0
 10
159.0840386668296
 20
231.0475198212987
 30
0.0
 10
159.0840386668296
 20
231.0475198212987
 30
0.0
 10
159.0840386668296
 20
231.0048497101151
 30
0.0
 10
159.0840386668296
 20
230.8785498291434
 30
0.0
 10
159.0840386668296
 20
230.7963224447693
 30
0.0
 10
159.0840386668296
 20
230.7362078562944
 30
0.0
  0
ARC
  5
265
330
1F
100
AcDbEntity
  8
0
  6
Continuous
 62
     7
370
    30
100
AcDbCircle
 10
157.8485386668
 20
219.0710787911
 30
0.0
 40
7.965499999999988
100
AcDbArc
 50
81.0770330585
 51
149.8566220545
  0
SPLINE
  5
266
330
1F
100
AcDbEntity
  8
0
  6
Continuous
 62
     7
370
    30
100
AcDbSpline
210
0.0
220
0.0
230
1.0
 70
    24
 71
     3
 72
     8
 73
     4
 74
     0
 42
0.00000001
 43
0.00000001
 12
1.0
 22
0.0
 32
0.0
 13
1.0
 23
0.0
 33
0.0
 40
0.0
 40
0.0
 40
0.0
 40
0.0
 40
1.0
 40
1.0
 40
1.0
 40
1.0
 10
159.0840386668296
 20
230.7362078562944
 30
0.0
 10
159.0840386668296
 20
229.4718654397522
 30
0.0
 10
159.0840386668296
 20
228.2069960436431
 30
0.0
 10
159.0840386668296
 20
226.940178485467
 30
0.0
  0
ARC
  5
267
330
1F
100
AcDbEntity
  8
0
  6
Continuous
 62
     7
370
    30
100
AcDbCircle
 10
157.8485386668
 20
219.0710787911
 30
0.0
 40
7.965500000000024
100
AcDbArc
 50
261.0770330585
 51
329.8566220545
  0
SPLINE
  5
268
330
1F
100
AcDbEntity
  8
0
  6
Continuous
 62
     7
370
    30
100
AcDbSpline
210
0.0
220
0.0
230
1.0
 70
    24
 71
     3
 72
     8
 73
     4
 74
     0
 42
0.00000001
 43
0.00000001
 12
1.0
 22
0.0
 32
0.0
 13
1.0
 23
0.0
 33
0.0
 40
0.0
 40
0.0
 40
0.0
 40
0.0
 40
1.0
 40
1.0
 40
1.0
 40
1.0
 10
156.6130386668295
 20
207.4059497258912
 30
0.0
 10
156.6130386668295
 20
208.6702920424858
 30
0.0
 10
156.6130386668295
 20
209.9351617496613
 30
0.0
 10
156.6130386668295
 20
211.2019790967186
 30
0.0
  0
LINE
  5
269
330
1F
100
AcDbEntity
  8
0
  6
Continuous
 62
     7
370
    30
100
AcDbLine
 10
156.2737728924
 20
219.8710787709
 30
0.0
 11
155.8500386997
 21
221.4710789051
 31
0.0
  0
LINE
  5
26A
330
1F
100
AcDbEntity
  8
0
  6
Continuous
 62
     7
370
    30
100
AcDbLine
 10
155.8500386997
 20
223.0710789811
 30
0.0
 11
155.8500386997
 21
221.4710789051
 31
0.0
  0
LINE
  5
26B
330
1F
100
AcDbEntity
  8
0
  6
Continuous
 62
     7
370
    30
100
AcDbLine
 10
159.0840386449
 20
218.2710788113
 30
0.0
 11
159.4233044413
 21
218.2710788113
 31
0.0
  0
LINE
  5
26C
330
1F
100
AcDbEntity
  8
0
  6
Continuous
 62
     7
370
    30
100
AcDbLine
 10
159.4233044413
 20
218.2710788113
 30
0.0
 11
159.847038634
 21
216.6710786771
 31
0.0
  0
LINE
  5
26D
330
1F
100
AcDbEntity
  8
0
  6
Continuous
 62
     7
370
    30
100
AcDbLine
 10
159.847038634
 20
215.0710786011
 30
0.0
 11
159.847038634
 21
216.6710786771
 31
0.0
  0
LINE
  5
26E
330
1F
100
AcDbEntity
  8
0
  6
Continuous
 62
     7
370
    30
100
AcDbLine
 10
156.6130386888
 20
219.8710787709
 30
0.0
 11
156.2737728924
 21
219.8710787709
 31
0.0
  0
LINE
  5
26F
330
1F
100
AcDbEntity
  8
0
  6
Continuous
 62
     7
370
    30
100
AcDbLine
 10
156.6130386888
 20
211.2019795243
 30
0.0
 11
156.6130386888
 21
219.8710787709
 31
0.0
  0
LINE
  5
270
330
1F
100
AcDbEntity
  8
0
  6
Continuous
 62
     7
370
    30
100
AcDbLine
 10
159.0840386449
 20
226.9401780579
 30
0.0
 11
159.0840386449
 21
218.2710788113
 31
0.0
  0
LINE
  5
271
330
1F
100
AcDbEntity
  8
0
  6
Continuous
 62
     7
370
    30
100
AcDbLine
 10
155.8500386997
 20
223.0710789811
 30
0.0
 11
151.3423769026
 21
223.0710789811
 31
0.0
  0
LINE
  5
272
330
1F
100
AcDbEntity
  8
0
  6
Continuous
 62
     7
370
    30
100
AcDbLine
 10
159.847038634
 20
215.0710786011
 30
0.0
 11
164.3547004311
 21
215.0710786011
 31
0.0
  0
LINE
  5
273
330
1F
100
AcDbEntity
  8
0
  6
Continuous
 62
     7
370
    30
100
AcDbLine
 10
155.8450281842
 20
221.4710789051
 30
0.0
 11
155.8500386997
 21
221.4710789051
 31
0.0
  0
LINE
  5
274
330
1F
100
AcDbEntity
  8
0
  6
Continuous
 62
     7
370
    30
100
AcDbLine
 10
159.8520491494
 20
216.6710786771
 30
0.0
 11
159.847038634
 21
216.6710786771
 31
0.0
  0
SPLINE
  5
275
330
1F
100
AcDbEntity
  8
0
  6
Continuous
 62
     7
370
    30
100
AcDbSpline
210
0.0
220
0.0
230
1.0
 70
     8
 71
     3
 72
    65
 73
    61
 74
     0
 42
0.00000001
 43
0.00000001
 12
1.0
 22
0.0
 32
0.0
 13
1.0
 23
0.0
 33
0.0
 40
0.0
 40
0.0
 40
0.0
 40
0.0
 40
0.0124028290950929
 40
0.0248469880769302
 40
0.0372519641717733
 40
0.0495997942751546
 40
0.0619825958054353
 40
0.0743419075291187
 40
0.0890515456841168
 40
0.1038122195419186
 40
0.1185929752711969
 40
0.1333301289432444
 40
0.15227735654745
 40
0.1712791321759776
 40
0.190317228924286
 40
0.2093519479987238
 40
0.2283271602281358
 40
0.2541366903056596
 40
0.2800337726239301
 40
0.3059634168767968
 40
0.3318658013929862
 40
0.3576796928011864
 40
0.3792636696971204
 40
0.4009376405131407
 40
0.4226463744837999
 40
0.4443417117680478
 40
0.4659847062597809
 40
0.487548068231283
 40
0.5054743871051897
 40
0.5234593629015932
 40
0.5414555255689398
 40
0.55942412839085
 40
0.577336716588152
 40
0.5960617231147931
 40
0.6148496966055941
 40
0.6336271490200779
 40
0.6523381854736235
 40
0.6674094562069524
 40
0.682551947956103
 40
0.6977114433187869
 40
0.712839828522821
 40
0.7278991197881493
 40
0.744144976068747
 40
0.7604633030617316
 40
0.7767770247446293
 40
0.7930166100783368
 40
0.8075101129180411
 40
0.8220586191884682
 40
0.8366080064820436
 40
0.8511026274623357
 40
0.8651662035123416
 40
0.879274951753577
 40
0.893387731319011
 40
0.9074567766755056
 40
0.9223413872186439
 40
0.9372672567377384
 40
0.9521994687206761
 40
0.9670927856199771
 40
0.9839478443665848
 40
0.9999999999999999
 40
0.9999999999999999
 40
0.9999999999999999
 40
0.9999999999999999
 10
156.5912899783402
 20
217.8831720741426
 30
0.0
 10
156.5912202831829
 20
217.8519892179253
 30
0.0
 10
156.5910806606235
 20
217.7895195950113
 30
0.0
 10
156.5899404232819
 20
217.697096712452
 30
0.0
 10
156.5880902568203
 20
217.6071632518518
 30
0.0
 10
156.5854182717994
 20
217.5209097599842
 30
0.0
 10
156.5819399306959
 20
217.4388046940791
 30
0.0
 10
156.5773546480846
 20
217.3562094838004
 30
0.0
 10
156.5713954243219
 20
217.2744087609732
 30
0.0
 10
156.5638370226979
 20
217.1944013148747
 30
0.0
 10
156.5550121241323
 20
217.1206398435545
 30
0.0
 10
156.5439296268831
 20
217.0464455204886
 30
0.0
 10
156.5299980541085
 20
216.9732646778038
 30
0.0
 10
156.5126757702389
 20
216.9026860119043
 30
0.0
 10
156.493078510789
 20
216.8401539072271
 30
0.0
 10
156.4712196513988
 20
216.7852944599024
 30
0.0
 10
156.4441638397534
 20
216.731913463628
 30
0.0
 10
156.4106276547026
 20
216.6826699980638
 30
0.0
 10
156.369460230288
 20
216.6409970686995
 30
0.0
 10
156.3240400438595
 20
216.6115737252906
 30
0.0
 10
156.274562879205
 20
216.5944659874053
 30
0.0
 10
156.2240480532836
 20
216.5899234264303
 30
0.0
 10
156.1731534215707
 20
216.5959896176138
 30
0.0
 10
156.1227590073445
 20
216.6108247803816
 30
0.0
 10
156.0700664335972
 20
216.6350042385147
 30
0.0
 10
156.0154931024174
 20
216.6687704078963
 30
0.0
 10
155.9594623663955
 20
216.7123594937323
 30
0.0
 10
155.9055074380692
 20
216.7630571443969
 30
0.0
 10
155.854120118213
 20
216.8193652743651
 30
0.0
 10
155.8057878046942
 20
216.8795742059457
 30
0.0
 10
155.7576747763424
 20
216.947262777698
 30
0.0
 10
155.710313898709
 20
217.0223589981412
 30
0.0
 10
155.6634623608114
 20
217.1061308479772
 30
0.0
 10
155.6176782385826
 20
217.1992216133064
 30
0.0
 10
155.5736646682197
 20
217.3017345385079
 30
0.0
 10
155.5327963537203
 20
217.4118368510745
 30
0.0
 10
155.4982151770292
 20
217.5214318556942
 30
0.0
 10
155.4697714176836
 20
217.6288068707282
 30
0.0
 10
155.4467884467468
 20
217.7323058972128
 30
0.0
 10
155.427439849427
 20
217.8393024778889
 30
0.0
 10
155.4121149918387
 20
217.9489289923454
 30
0.0
 10
155.4008839141787
 20
218.0634680393202
 30
0.0
 10
155.3946203502373
 20
218.1826303605455
 30
0.0
 10
155.3937423018255
 20
218.3056163934467
 30
0.0
 10
155.3984370664468
 20
218.428229950556
 30
0.0
 10
155.4084347605178
 20
218.5448622341334
 30
0.0
 10
155.4231878420009
 20
218.6546893862818
 30
0.0
 10
155.4416566052168
 20
218.7574892729562
 30
0.0
 10
155.4641016149228
 20
218.8566522862876
 30
0.0
 10
155.4899958595478
 20
218.9503787703173
 30
0.0
 10
155.5189988179775
 20
219.038110915297
 30
0.0
 10
155.5505221767933
 20
219.1198188238941
 30
0.0
 10
155.584419442169
 20
219.195964904012
 30
0.0
 10
155.6209681413107
 20
219.2674683961943
 30
0.0
 10
155.6599333335335
 20
219.3335896691206
 30
0.0
 10
155.7009555557807
 20
219.3940059410896
 30
0.0
 10
155.7428588330668
 20
219.4475064455551
 30
0.0
 10
155.7870578828354
 20
219.4959030102891
 30
0.0
 10
155.8324643092428
 20
219.5381486339382
 30
0.0
 10
155.8634071489967
 20
219.5602820993456
 30
0.0
 10
155.878501081705
 20
219.5710788148415
 30
0.0
  0
SPLINE
  5
276
330
1F
100
AcDbEntity
  8
0
  6
Continuous
 62
     7
370
    30
100
AcDbSpline
210
0.0
220
0.0
230
1.0
 70
     8
 71
     3
 72
    27
 73
    23
 74
     0
 42
0.00000001
 43
0.00000001
 12
1.0
 22
0.0
 32
0.0
 13
1.0
 23
0.0
 33
0.0
 40
0.0
 40
0.0
 40
0.0
 40
0.0
 40
0.0334863051695316
 40
0.0982865573777728
 40
0.1632912257684598
 40
0.2284027569835137
 40
0.2935185638936447
 40
0.3585321411717193
 40
0.4233389590467482
 40
0.4758555666967416
 40
0.5285079576539528
 40
0.5811663335814028
 40
0.6337419251939412
 40
0.6861939041589841
 40
0.7255125155356994
 40
0.7649210966328772
 40
0.8042878043517017
 40
0.8435499040556995
 40
0.8832844000110289
 40
0.9231055836617373
 40
0.9627800919356199
 40
1.0
 40
1.0
 40
1.0
 40
1.0
 10
156.2540087139755
 20
219.5719898811502
 30
0.0
 10
156.2623013150914
 20
219.565604220753
 30
0.0
 10
156.2866411522656
 20
219.54686149671
 30
0.0
 10
156.3230304238915
 20
219.5052129801324
 30
0.0
 10
156.3634001366536
 20
219.4479831560624
 30
0.0
 10
156.4000147039068
 20
219.3810898378693
 30
0.0
 10
156.4331288609407
 20
219.3054830107789
 30
0.0
 10
156.4627094618536
 20
219.2213209151842
 30
0.0
 10
156.4871886345403
 20
219.1346552224397
 30
0.0
 10
156.5073436461974
 20
219.0472676815364
 30
0.0
 10
156.5239827536144
 20
218.9603514551793
 30
0.0
 10
156.5386424005883
 20
218.8672944331832
 30
0.0
 10
156.5513691586801
 20
218.76795791902
 30
0.0
 10
156.5613110245392
 20
218.6709715880877
 30
0.0
 10
156.5690140020368
 20
218.5778692990771
 30
0.0
 10
156.5749814401113
 20
218.489948815543
 30
0.0
 10
156.5800100104792
 20
218.3978313844958
 30
0.0
 10
156.5841274655874
 20
218.3012078787748
 30
0.0
 10
156.5873368714242
 20
218.1999799442667
 30
0.0
 10
156.5896286301644
 20
218.0946072007407
 30
0.0
 10
156.5910346643994
 20
217.9885050076644
 30
0.0
 10
156.591206704295
 20
217.917527814514
 30
0.0
 10
156.5912899783402
 20
217.8831720741426
 30
0.0
  0
SPLINE
  5
277
330
1F
100
AcDbEntity
  8
0
  6
Continuous
 62
     7
370
    30
100
AcDbSpline
210
0.0
220
0.0
230
1.0
 70
     8
 71
     3
 72
    73
 73
    69
 74
     0
 42
0.00000001
 43
0.00000001
 12
1.0
 22
0.0
 32
0.0
 13
1.0
 23
0.0
 33
0.0
 40
0.0
 40
0.0
 40
0.0
 40
0.0
 40
0.014665323412458
 40
0.0293423964756476
 40
0.0440233733097868
 40
0.0587003068803322
 40
0.073365513743895
 40
0.0884454207130518
 40
0.1035384643460272
 40
0.1186357010889047
 40
0.1337283916267084
 40
0.1488080437392233
 40
0.1634774820477461
 40
0.1781597193235155
 40
0.1928459060722482
 40
0.2075274302734101
 40
0.2221963149964168
 40
0.2373271741588981
 40
0.2524736500328554
 40
0.267624748692448
 40
0.2827699455407245
 40
0.2978996450611452
 40
0.3119150426237708
 40
0.3259444694313842
 40
0.3399780115083864
 40
0.3540063096377148
 40
0.368020752992512
 40
0.3825438894512805
 40
0.3970841071038815
 40
0.4116296850306168
 40
0.4261692692883067
 40
0.4406918259543139
 40
0.4532445562934708
 40
0.4658083929044236
 40
0.4783760881810543
 40
0.4909401388073436
 40
0.5034930798587542
 40
0.5164242776282035
 40
0.5293666870595028
 40
0.542313299713476
 40
0.5552565784517544
 40
0.5681884756815877
 40
0.5836836028667138
 40
0.5991902538431161
 40
0.6146976917259133
 40
0.630193854886147
 40
0.6460460555957779
 40
0.6619089338590696
 40
0.6777725255476297
 40
0.6936257095096885
 40
0.7110849741195453
 40
0.7285566442007505
 40
0.7460289939777466
 40
0.763489182390266
 40
0.7813398962630649
 40
0.7992026724467473
 40
0.8170657865472482
 40
0.8349169704212942
 40
0.8525505910433728
 40
0.8702008637476722
 40
0.8878568352279966
 40
0.9055073165643927
 40
0.923141132077662
 40
0.9413591082876774
 40
0.9595953132088021
 40
0.9778376305452982
 40
0.9960738419093628
 40
1.0
 40
1.0
 40
1.0
 40
1.0
 10
156.6130386887639
 20
208.6440210480203
 30
0.0
 10
156.6120690675142
 20
208.6441300608457
 30
0.0
 10
156.6101290481678
 20
208.644348173836
 30
0.0
 10
156.5945011607434
 20
208.6461792430184
 30
0.0
 10
156.5696199708173
 20
208.6491947467086
 30
0.0
 10
156.5346076461297
 20
208.6535692226977
 30
0.0
 10
156.4893109952661
 20
208.6593948464865
 30
0.0
 10
156.4333035100393
 20
208.6668107650693
 30
0.0
 10
156.3663816869937
 20
208.6760830060761
 30
0.0
 10
156.2891752158193
 20
208.6873568758882
 30
0.0
 10
156.2018277769922
 20
208.7008516294475
 30
0.0
 10
156.1053203187169
 20
208.7166331930186
 30
0.0
 10
155.9999912852585
 20
208.7348703481478
 30
0.0
 10
155.8863160720134
 20
208.7557931198856
 30
0.0
 10
155.7635191140371
 20
208.7798720207553
 30
0.0
 10
155.6318435655703
 20
208.8074080556042
 30
0.0
 10
155.4900051264431
 20
208.839030040872
 30
0.0
 10
155.3377543159937
 20
208.8752511317657
 30
0.0
 10
155.1750638114081
 20
208.9166397252583
 30
0.0
 10
155.003864056515
 20
208.9632082973775
 30
0.0
 10
154.8246075928539
 20
209.0153309224868
 30
0.0
 10
154.6422334947875
 20
209.0719756260829
 30
0.0
 10
154.4576264997641
 20
209.1330708455106
 30
0.0
 10
154.2717411179037
 20
209.1984174752553
 30
0.0
 10
154.0802576842648
 20
209.2698552500123
 30
0.0
 10
153.8837236527145
 20
209.3476334486925
 30
0.0
 10
153.6801502167315
 20
209.4330471098902
 30
0.0
 10
153.4696735153723
 20
209.5267790108537
 30
0.0
 10
153.2526593557811
 20
209.6293545701064
 30
0.0
 10
153.0322414223082
 20
209.7398094471833
 30
0.0
 10
152.8092177987756
 20
209.8582417599414
 30
0.0
 10
152.5943966436582
 20
209.9791035924535
 30
0.0
 10
152.3885725318432
 20
210.1013608370463
 30
0.0
 10
152.1922867857803
 20
210.2238325452277
 30
0.0
 10
151.9957611528881
 20
210.3525664397223
 30
0.0
 10
151.7995403038118
 20
210.4874729207241
 30
0.0
 10
151.6021097887389
 20
210.6299555889628
 30
0.0
 10
151.4038703007468
 20
210.7803025376165
 30
0.0
 10
151.205218635261
 20
210.9386360500388
 30
0.0
 10
151.0085368087035
 20
211.1033256071433
 30
0.0
 10
150.8143498348579
 20
211.2741508284715
 30
0.0
 10
150.6104523649092
 20
211.4626639922847
 30
0.0
 10
150.3979708718801
 20
211.6702957008322
 30
0.0
 10
150.1782506495416
 20
211.8982752220044
 30
0.0
 10
149.9642663902141
 20
212.1341056847789
 30
0.0
 10
149.7550023485186
 20
212.3792932549686
 30
0.0
 10
149.5511196975645
 20
212.6338112266823
 30
0.0
 10
149.353123254222
 20
212.8974863398845
 30
0.0
 10
149.1629649373386
 20
213.1679616209425
 30
0.0
 10
148.9749198775574
 20
213.4541716186195
 30
0.0
 10
148.7903688337167
 20
213.7566118529145
 30
0.0
 10
148.6106513867349
 20
214.0755752380186
 30
0.0
 10
148.4419449676996
 20
214.4009386627729
 30
0.0
 10
148.2834264598728
 20
214.7346360131762
 30
0.0
 10
148.1356933225676
 20
215.0764513316591
 30
0.0
 10
147.9991735553794
 20
215.4260819080439
 30
0.0
 10
147.875163342924
 20
215.780448809804
 30
0.0
 10
147.7643393860278
 20
216.1375433509675
 30
0.0
 10
147.6667354022904
 20
216.496965851375
 30
0.0
 10
147.5821964818182
 20
216.8583011559984
 30
0.0
 10
147.5104037411631
 20
217.2225178143912
 30
0.0
 10
147.4515039050223
 20
217.5889300048129
 30
0.0
 10
147.4050713621668
 20
217.9611086031217
 30
0.0
 10
147.3718561764298
 20
218.3388161338045
 30
0.0
 10
147.3519089542825
 20
218.7217631364077
 30
0.0
 10
147.3470966934037
 20
219.10523674607
 30
0.0
 10
147.3505513115574
 20
219.3885621178262
 30
0.0
 10
147.3599899753241
 20
219.5436112084227
 30
0.0
 10
147.3616620747893
 20
219.5710788148415
 30
0.0
  0
SPLINE
  5
278
330
1F
100
AcDbEntity
  8
0
  6
Continuous
 62
     7
370
    30
100
AcDbSpline
210
0.0
220
0.0
230
1.0
 70
     8
 71
     3
 72
    65
 73
    61
 74
     0
 42
0.00000001
 43
0.00000001
 12
1.0
 22
0.0
 32
0.0
 13
1.0
 23
0.0
 33
0.0
 40
0.0
 40
0.0
 40
0.0
 40
0.0
 40
0.0124028290950929
 40
0.0248469880769302
 40
0.0372519641717733
 40
0.0495997942751546
 40
0.0619825958054353
 40
0.0743419075291187
 40
0.0890515456841168
 40
0.1038122195419186
 40
0.1185929752711969
 40
0.1333301289432444
 40
0.15227735654745
 40
0.1712791321759776
 40
0.190317228924286
 40
0.2093519479987238
 40
0.2283271602281358
 40
0.2541366903056596
 40
0.2800337726239301
 40
0.3059634168767968
 40
0.3318658013929862
 40
0.3576796928011864
 40
0.3792636696971204
 40
0.4009376405131407
 40
0.4226463744837999
 40
0.4443417117680478
 40
0.4659847062597809
 40
0.487548068231283
 40
0.5054743871051897
 40
0.5234593629015932
 40
0.5414555255689398
 40
0.55942412839085
 40
0.577336716588152
 40
0.5960617231147931
 40
0.6148496966055941
 40
0.6336271490200779
 40
0.6523381854736235
 40
0.6674094562069524
 40
0.682551947956103
 40
0.6977114433187869
 40
0.712839828522821
 40
0.7278991197881493
 40
0.744144976068747
 40
0.7604633030617316
 40
0.7767770247446293
 40
0.7930166100783368
 40
0.8075101129180411
 40
0.8220586191884682
 40
0.8366080064820436
 40
0.8511026274623357
 40
0.8651662035123416
 40
0.879274951753577
 40
0.893387731319011
 40
0.9074567766755056
 40
0.9223413872186439
 40
0.9372672567377384
 40
0.9521994687206761
 40
0.9670927856199771
 40
0.9839478443665848
 40
0.9999999999999999
 40
0.9999999999999999
 40
0.9999999999999999
 40
0.9999999999999999
 10
159.1057873553186
 20
220.2589855080431
 30
0.0
 10
159.1058570504759
 20
220.2901683642604
 30
0.0
 10
159.1059966730354
 20
220.3526379871743
 30
0.0
 10
159.1071369103769
 20
220.4450608697336
 30
0.0
 10
159.1089870768385
 20
220.5349943303338
 30
0.0
 10
159.1116590618595
 20
220.6212478222014
 30
0.0
 10
159.115137402963
 20
220.7033528881065
 30
0.0
 10
159.1197226855743
 20
220.7859480983852
 30
0.0
 10
159.1256819093369
 20
220.8677488212125
 30
0.0
 10
159.1332403109609
 20
220.9477562673109
 30
0.0
 10
159.1420652095265
 20
221.0215177386311
 30
0.0
 10
159.1531477067757
 20
221.095712061697
 30
0.0
 10
159.1670792795504
 20
221.1688929043818
 30
0.0
 10
159.1844015634199
 20
221.2394715702813
 30
0.0
 10
159.2039988228698
 20
221.3020036749586
 30
0.0
 10
159.2258576822601
 20
221.3568631222832
 30
0.0
 10
159.2529134939054
 20
221.4102441185576
 30
0.0
 10
159.2864496789562
 20
221.4594875841218
 30
0.0
 10
159.3276171033708
 20
221.5011605134862
 30
0.0
 10
159.3730372897993
 20
221.530583856895
 30
0.0
 10
159.4225144544539
 20
221.5476915947803
 30
0.0
 10
159.4730292803752
 20
221.5522341557553
 30
0.0
 10
159.5239239120881
 20
221.5461679645719
 30
0.0
 10
159.5743183263143
 20
221.531332801804
 30
0.0
 10
159.6270109000616
 20
221.5071533436709
 30
0.0
 10
159.6815842312414
 20
221.4733871742893
 30
0.0
 10
159.7376149672633
 20
221.4297980884533
 30
0.0
 10
159.7915698955896
 20
221.3791004377887
 30
0.0
 10
159.8429572154457
 20
221.3227923078205
 30
0.0
 10
159.8912895289646
 20
221.2625833762399
 30
0.0
 10
159.9394025573163
 20
221.1948948044876
 30
0.0
 10
159.9867634349498
 20
221.1197985840444
 30
0.0
 10
160.0336149728473
 20
221.0360267342084
 30
0.0
 10
160.0793990950762
 20
220.9429359688792
 30
0.0
 10
160.123412665439
 20
220.8404230436777
 30
0.0
 10
160.1642809799385
 20
220.7303207311111
 30
0.0
 10
160.1988621566295
 20
220.6207257264914
 30
0.0
 10
160.2273059159752
 20
220.5133507114574
 30
0.0
 10
160.2502888869119
 20
220.4098516849728
 30
0.0
 10
160.2696374842317
 20
220.3028551042967
 30
0.0
 10
160.2849623418201
 20
220.1932285898403
 30
0.0
 10
160.29619341948
 20
220.0786895428654
 30
0.0
 10
160.3024569834215
 20
219.9595272216401
 30
0.0
 10
160.3033350318333
 20
219.8365411887389
 30
0.0
 10
160.298640267212
 20
219.7139276316296
 30
0.0
 10
160.2886425731409
 20
219.5972953480522
 30
0.0
 10
160.2738894916578
 20
219.4874681959038
 30
0.0
 10
160.2554207284419
 20
219.3846683092294
 30
0.0
 10
160.232975718736
 20
219.285505295898
 30
0.0
 10
160.2070814741109
 20
219.1917788118683
 30
0.0
 10
160.1780785156813
 20
219.1040466668886
 30
0.0
 10
160.1465551568654
 20
219.0223387582915
 30
0.0
 10
160.1126578914898
 20
218.9461926781736
 30
0.0
 10
160.076109192348
 20
218.8746891859913
 30
0.0
 10
160.0371440001252
 20
218.808567913065
 30
0.0
 10
159.9961217778781
 20
218.748151641096
 30
0.0
 10
159.954218500592
 20
218.6946511366305
 30
0.0
 10
159.9100194508234
 20
218.6462545718965
 30
0.0
 10
159.8646130244159
 20
218.6040089482474
 30
0.0
 10
159.8336701846621
 20
218.58187548284
 30
0.0
 10
159.8185762519537
 20
218.5710787673441
 30
0.0
  0
SPLINE
  5
279
330
1F
100
AcDbEntity
  8
0
  6
Continuous
 62
     7
370
    30
100
AcDbSpline
210
0.0
220
0.0
230
1.0
 70
     8
 71
     3
 72
    27
 73
    23
 74
     0
 42
0.00000001
 43
0.00000001
 12
1.0
 22
0.0
 32
0.0
 13
1.0
 23
0.0
 33
0.0
 40
0.0
 40
0.0
 40
0.0
 40
0.0
 40
0.0334863051695316
 40
0.0982865573777728
 40
0.1632912257684598
 40
0.2284027569835137
 40
0.2935185638936447
 40
0.3585321411717193
 40
0.4233389590467482
 40
0.4758555666967416
 40
0.5285079576539528
 40
0.5811663335814028
 40
0.6337419251939412
 40
0.6861939041589841
 40
0.7255125155356994
 40
0.7649210966328772
 40
0.8042878043517017
 40
0.8435499040556995
 40
0.8832844000110289
 40
0.9231055836617373
 40
0.9627800919356199
 40
1.0
 40
1.0
 40
1.0
 40
1.0
 10
159.4430686196833
 20
218.5701677010355
 30
0.0
 10
159.4347760185674
 20
218.5765533614326
 30
0.0
 10
159.4104361813932
 20
218.5952960854756
 30
0.0
 10
159.3740469097673
 20
218.6369446020532
 30
0.0
 10
159.3336771970052
 20
218.6941744261232
 30
0.0
 10
159.297062629752
 20
218.7610677443163
 30
0.0
 10
159.2639484727181
 20
218.8366745714067
 30
0.0
 10
159.2343678718053
 20
218.9208366670014
 30
0.0
 10
159.2098886991185
 20
219.0075023597459
 30
0.0
 10
159.1897336874614
 20
219.0948899006492
 30
0.0
 10
159.1730945800444
 20
219.1818061270063
 30
0.0
 10
159.1584349330705
 20
219.2748631490024
 30
0.0
 10
159.1457081749787
 20
219.3741996631656
 30
0.0
 10
159.1357663091196
 20
219.4711859940979
 30
0.0
 10
159.1280633316221
 20
219.5642882831085
 30
0.0
 10
159.1220958935476
 20
219.6522087666426
 30
0.0
 10
159.1170673231796
 20
219.7443261976898
 30
0.0
 10
159.1129498680714
 20
219.8409497034108
 30
0.0
 10
159.1097404622346
 20
219.9421776379189
 30
0.0
 10
159.1074487034945
 20
220.047550381445
 30
0.0
 10
159.1060426692595
 20
220.1536525745212
 30
0.0
 10
159.1058706293638
 20
220.2246297676716
 30
0.0
 10
159.1057873553186
 20
220.2589855080431
 30
0.0
  0
SPLINE
  5
27A
330
1F
100
AcDbEntity
  8
0
  6
Continuous
 62
     7
370
    30
100
AcDbSpline
210
0.0
220
0.0
230
1.0
 70
     8
 71
     3
 72
    73
 73
    69
 74
     0
 42
0.00000001
 43
0.00000001
 12
1.0
 22
0.0
 32
0.0
 13
1.0
 23
0.0
 33
0.0
 40
0.0
 40
0.0
 40
0.0
 40
0.0
 40
0.014665323412458
 40
0.0293423964756476
 40
0.0440233733097868
 40
0.0587003068803322
 40
0.073365513743895
 40
0.0884454207130518
 40
0.1035384643460272
 40
0.1186357010889047
 40
0.1337283916267084
 40
0.1488080437392233
 40
0.1634774820477461
 40
0.1781597193235155
 40
0.1928459060722482
 40
0.2075274302734101
 40
0.2221963149964168
 40
0.2373271741588981
 40
0.2524736500328554
 40
0.267624748692448
 40
0.2827699455407245
 40
0.2978996450611452
 40
0.3119150426237708
 40
0.3259444694313842
 40
0.3399780115083864
 40
0.3540063096377148
 40
0.368020752992512
 40
0.3825438894512805
 40
0.3970841071038815
 40
0.4116296850306168
 40
0.4261692692883067
 40
0.4406918259543139
 40
0.4532445562934708
 40
0.4658083929044236
 40
0.4783760881810543
 40
0.4909401388073436
 40
0.5034930798587542
 40
0.5164242776282035
 40
0.5293666870595028
 40
0.542313299713476
 40
0.5552565784517544
 40
0.5681884756815877
 40
0.5836836028667138
 40
0.5991902538431161
 40
0.6146976917259133
 40
0.630193854886147
 40
0.6460460555957779
 40
0.6619089338590696
 40
0.6777725255476297
 40
0.6936257095096885
 40
0.7110849741195453
 40
0.7285566442007505
 40
0.7460289939777466
 40
0.763489182390266
 40
0.7813398962630649
 40
0.7992026724467473
 40
0.8170657865472482
 40
0.8349169704212942
 40
0.8525505910433728
 40
0.8702008637476722
 40
0.8878568352279966
 40
0.9055073165643927
 40
0.923141132077662
 40
0.9413591082876774
 40
0.9595953132088021
 40
0.9778376305452982
 40
0.9960738419093628
 40
1.0
 40
1.0
 40
1.0
 40
1.0
 10
159.0840386448949
 20
229.4981365341653
 30
0.0
 10
159.0850082661447
 20
229.4980275213399
 30
0.0
 10
159.086948285491
 20
229.4978094083496
 30
0.0
 10
159.1025761729155
 20
229.4959783391672
 30
0.0
 10
159.1274573628415
 20
229.492962835477
 30
0.0
 10
159.1624696875292
 20
229.4885883594879
 30
0.0
 10
159.2077663383927
 20
229.4827627356991
 30
0.0
 10
159.2637738236195
 20
229.4753468171163
 30
0.0
 10
159.3306956466651
 20
229.4660745761095
 30
0.0
 10
159.4079021178395
 20
229.4548007062974
 30
0.0
 10
159.4952495566666
 20
229.4413059527381
 30
0.0
 10
159.5917570149419
 20
229.425524389167
 30
0.0
 10
159.6970860484003
 20
229.4072872340378
 30
0.0
 10
159.8107612616454
 20
229.3863644623
 30
0.0
 10
159.9335582196217
 20
229.3622855614303
 30
0.0
 10
160.0652337680885
 20
229.3347495265814
 30
0.0
 10
160.2070722072157
 20
229.3031275413136
 30
0.0
 10
160.359323017665
 20
229.2669064504199
 30
0.0
 10
160.5220135222507
 20
229.2255178569273
 30
0.0
 10
160.6932132771437
 20
229.1789492848081
 30
0.0
 10
160.8724697408049
 20
229.1268266596988
 30
0.0
 10
161.0548438388712
 20
229.0701819561027
 30
0.0
 10
161.2394508338946
 20
229.009086736675
 30
0.0
 10
161.4253362157551
 20
228.9437401069303
 30
0.0
 10
161.6168196493939
 20
228.8723023321733
 30
0.0
 10
161.8133536809442
 20
228.7945241334931
 30
0.0
 10
162.0169271169272
 20
228.7091104722954
 30
0.0
 10
162.2274038182864
 20
228.615378571332
 30
0.0
 10
162.4444179778776
 20
228.5128030120792
 30
0.0
 10
162.6648359113505
 20
228.4023481350023
 30
0.0
 10
162.8878595348831
 20
228.2839158222442
 30
0.0
 10
163.1026806900005
 20
228.1630539897321
 30
0.0
 10
163.3085048018155
 20
228.0407967451393
 30
0.0
 10
163.5047905478784
 20
227.9183250369579
 30
0.0
 10
163.7013161807706
 20
227.7895911424633
 30
0.0
 10
163.8975370298469
 20
227.6546846614615
 30
0.0
 10
164.0949675449198
 20
227.5122019932229
 30
0.0
 10
164.2932070329119
 20
227.3618550445691
 30
0.0
 10
164.4918586983977
 20
227.2035215321468
 30
0.0
 10
164.6885405249552
 20
227.0388319750423
 30
0.0
 10
164.8827274988007
 20
226.8680067537141
 30
0.0
 10
165.0866249687494
 20
226.6794935899009
 30
0.0
 10
165.2991064617785
 20
226.4718618813534
 30
0.0
 10
165.5188266841171
 20
226.2438823601812
 30
0.0
 10
165.7328109434445
 20
226.0080518974067
 30
0.0
 10
165.9420749851401
 20
225.762864327217
 30
0.0
 10
166.1459576360941
 20
225.5083463555033
 30
0.0
 10
166.3439540794367
 20
225.2446712423011
 30
0.0
 10
166.53411239632
 20
224.9741959612431
 30
0.0
 10
166.7221574561013
 20
224.6879859635661
 30
0.0
 10
166.9067084999419
 20
224.3855457292711
 30
0.0
 10
167.0864259469238
 20
224.066582344167
 30
0.0
 10
167.2551323659591
 20
223.7412189194127
 30
0.0
 10
167.4136508737859
 20
223.4075215690094
 30
0.0
 10
167.561384011091
 20
223.0657062505265
 30
0.0
 10
167.6979037782792
 20
222.7160756741417
 30
0.0
 10
167.8219139907346
 20
222.3617087723816
 30
0.0
 10
167.9327379476309
 20
222.0046142312181
 30
0.0
 10
168.0303419313682
 20
221.6451917308107
 30
0.0
 10
168.1148808518404
 20
221.2838564261872
 30
0.0
 10
168.1866735924955
 20
220.9196397677944
 30
0.0
 10
168.2455734286363
 20
220.5532275773727
 30
0.0
 10
168.2920059714918
 20
220.1810489790639
 30
0.0
 10
168.3252211572288
 20
219.8033414483811
 30
0.0
 10
168.3451683793762
 20
219.4203944457779
 30
0.0
 10
168.349980640255
 20
219.0369208361157
 30
0.0
 10
168.3465260221013
 20
218.7535954643594
 30
0.0
 10
168.3370873583346
 20
218.5985463737629
 30
0.0
 10
168.3354152588694
 20
218.5710787673441
 30
0.0
  0
SPLINE
  5
27B
330
1F
100
AcDbEntity
  8
0
  6
Continuous
 62
     7
370
    30
100
AcDbSpline
210
0.0
220
0.0
230
1.0
 70
     8
 71
     3
 72
    21
 73
    17
 74
     0
 42
0.00000001
 43
0.00000001
 12
1.0
 22
0.0
 32
0.0
 13
1.0
 23
0.0
 33
0.0
 40
0.0
 40
0.0
 40
0.0
 40
0.0
 40
0.0307218557844623
 40
0.110065471627069
 40
0.1894778286608676
 40
0.2688094519622609
 40
0.3468835732771358
 40
0.4250360313479624
 40
0.5031061711300691
 40
0.5842009693998262
 40
0.665386994808688
 40
0.7464816210270588
 40
0.8095157670842421
 40
0.8725496078953158
 40
0.9362747312528308
 40
0.9999999999999999
 40
0.9999999999999999
 40
0.9999999999999999
 40
0.9999999999999999
 10
156.2719825411736
 20
219.5574534782634
 30
0.0
 10
156.2703270269317
 20
219.5521960019422
 30
0.0
 10
156.2643959088018
 20
219.5333603360592
 30
0.0
 10
156.2533501919402
 20
219.4938920511711
 30
0.0
 10
156.2396393577473
 20
219.4388015357386
 30
0.0
 10
156.2266031480744
 20
219.3765331427767
 30
0.0
 10
156.2150571448648
 20
219.3076558383241
 30
0.0
 10
156.2058571298433
 20
219.2326548367395
 30
0.0
 10
156.1997047626235
 20
219.1505978104788
 30
0.0
 10
156.1977313582052
 20
219.0616580794801
 30
0.0
 10
156.2009224451014
 20
218.9665755291385
 30
0.0
 10
156.2094250518786
 20
218.8747121149603
 30
0.0
 10
156.2223470747089
 20
218.7878312026928
 30
0.0
 10
156.23857925282
 20
218.7068080818156
 30
0.0
 10
156.2591223019233
 20
218.6245331463712
 30
0.0
 10
156.2769227111758
 20
218.5691991706384
 30
0.0
 10
156.2858229259549
 20
218.5415321512108
 30
0.0
  0
ARC
  5
27C
330
1F
100
AcDbEntity
  8
0
  6
Continuous
 62
     7
370
    30
100
AcDbCircle
 10
157.9986546156
 20
218.6116476572
 30
0.0
 40
1.714266193193961
100
AcDbArc
 50
182.344118746
 51
214.617561374
  0
SPLINE
  5
27D
330
1F
100
AcDbEntity
  8
0
  6
Continuous
 62
     7
370
    30
100
AcDbSpline
210
0.0
220
0.0
230
1.0
 70
     8
 71
     3
 72
    21
 73
    17
 74
     0
 42
0.00000001
 43
0.00000001
 12
1.0
 22
0.0
 32
0.0
 13
1.0
 23
0.0
 33
0.0
 40
0.0
 40
0.0
 40
0.0
 40
0.0
 40
0.0307218557844623
 40
0.110065471627069
 40
0.1894778286608676
 40
0.2688094519622609
 40
0.3468835732771358
 40
0.4250360313479624
 40
0.5031061711300691
 40
0.5842009693998262
 40
0.665386994808688
 40
0.7464816210270588
 40
0.8095157670842421
 40
0.8725496078953158
 40
0.9362747312528308
 40
0.9999999999999999
 40
0.9999999999999999
 40
0.9999999999999999
 40
0.9999999999999999
 10
159.4250947924851
 20
218.5847041039222
 30
0.0
 10
159.4267503067271
 20
218.5899615802434
 30
0.0
 10
159.4326814248569
 20
218.6087972461264
 30
0.0
 10
159.4437271417186
 20
218.6482655310145
 30
0.0
 10
159.4574379759114
 20
218.703356046447
 30
0.0
 10
159.4704741855843
 20
218.7656244394089
 30
0.0
 10
159.482020188794
 20
218.8345017438615
 30
0.0
 10
159.4912202038155
 20
218.9095027454461
 30
0.0
 10
159.4973725710353
 20
218.9915597717068
 30
0.0
 10
159.4993459754535
 20
219.0804995027055
 30
0.0
 10
159.4961548885574
 20
219.1755820530471
 30
0.0
 10
159.4876522817802
 20
219.2674454672253
 30
0.0
 10
159.4747302589498
 20
219.3543263794928
 30
0.0
 10
159.4584980808388
 20
219.43534950037
 30
0.0
 10
159.4379550317354
 20
219.5176244358144
 30
0.0
 10
159.420154622483
 20
219.5729584115472
 30
0.0
 10
159.4112544077038
 20
219.6006254309748
 30
0.0
  0
ARC
  5
27E
330
1F
100
AcDbEntity
  8
0
  6
Continuous
 62
     7
370
    30
100
AcDbCircle
 10
157.6984227181
 20
219.5305099249
 30
0.0
 40
1.714266193193968
100
AcDbArc
 50
2.344118746
 51
34.617561374
  0
ARC
  5
27F
330
1F
100
AcDbEntity
  8
0
  6
Continuous
 62
     7
370
    30
100
AcDbCircle
 10
157.8485386668
 20
219.0710787911
 30
0.0
 40
1.650000000000018
100
AcDbArc
 50
198.7196218344
 51
220.2694277143
  0
ARC
  5
280
330
1F
100
AcDbEntity
  8
0
  6
Continuous
 62
     7
370
    30
100
AcDbCircle
 10
157.8485386668
 20
219.0710787911
 30
0.0
 40
1.650000000000002
100
AcDbArc
 50
18.7196218344
 51
40.2694277143
  0
CIRCLE
  5
281
330
1F
100
AcDbEntity
  8
DÜNNE_LINIE
  6
CENTERX2
 62
     7
370
     0
100
AcDbCircle
 10
157.8485386668
 20
219.0710787911
 30
0.0
 40
12.5
  0
DIMENSION
  5
282
330
1F
100
AcDbEntity
  8
DÜNNE_LINIE
 62
     7
100
AcDbDimension
  2
_D_3
 10
170.3485386668
 20
197.0310787911
 30
0.0
 11
157.8485386668
 21
197.0310787911
 31
0.0
 70
   160
  1
%%c<>
 71
     2
 42
-1.0
  3
SLDDIMSTYLE1
100
AcDbAlignedDimension
 13
145.3485386668
 23
219.0710787911
 33
0.0
 14
170.3485386668
 24
219.0710787911
 34
0.0
100
AcDbRotatedDimension
  0
INSERT
  5
298
330
1F
100
AcDbEntity
  8
DÜNNE_LINIE
 62
     7
100
AcDbBlockReference
  2
SW_CENTERMARKSYMBOL_1
 10
157.8485386668
 20
219.0710787911
 30
0.0
  0
OLE2FRAME
  5
299
330
1F
100
AcDbEntity
  8
0
100
AcDbOle2Frame
 70
     2
  3
Unknown
 10
88.9102843065
 20
26.7767108722
 30
0.0
 11
111.6184138457
 21
6.5540482477
 31
0.0
 72
     0
 73
     1
 90
     2688
310
8055D29B1B19423A56406DB11286D6C63A40000000000000000060B3AA1794E7
310
5B406DB11286D6C63A40000000000000000060B3AA1794E75B406EBD816C5837
310
1A400000000000000000D29B1B19423A56406EBD816C58371A40000000000000
310
00000000000001000000000100000100000001000000000001000000000A0000
310
D0CF11E0A1B11AE1000000000000000000000000000000003E000300FEFF0900
310
0600000000000000000000000100000001000000000000000010000002000000
310
01000000FEFFFFFF0000000000000000FFFFFFFFFFFFFFFFFFFFFFFFFFFFFFFF
310
FFFFFFFFFFFFFFFFFFFFFFFFFFFFFFFFFFFFFFFFFFFFFFFFFFFFFFFFFFFFFFFF
310
FFFFFFFFFFFFFFFFFFFFFFFFFFFFFFFFFFFFFFFFFFFFFFFFFFFFFFFFFFFFFFFF
310
FFFFFFFFFFFFFFFFFFFFFFFFFFFFFFFFFFFFFFFFFFFFFFFFFFFFFFFFFFFFFFFF
310
FFFFFFFFFFFFFFFFFFFFFFFFFFFFFFFFFFFFFFFFFFFFFFFFFFFFFFFFFFFFFFFF
310
FFFFFFFFFFFFFFFFFFFFFFFFFFFFFFFFFFFFFFFFFFFFFFFFFFFFFFFFFFFFFFFF
310
FFFFFFFFFFFFFFFFFFFFFFFFFFFFFFFFFFFFFFFFFFFFFFFFFFFFFFFFFFFFFFFF
310
FFFFFFFFFFFFFFFFFFFFFFFFFFFFFFFFFFFFFFFFFFFFFFFFFFFFFFFFFFFFFFFF
310
FFFFFFFFFFFFFFFFFFFFFFFFFFFFFFFFFFFFFFFFFFFFFFFFFFFFFFFFFFFFFFFF
310
FFFFFFFFFFFFFFFFFFFFFFFFFFFFFFFFFFFFFFFFFFFFFFFFFFFFFFFFFFFFFFFF
310
FFFFFFFFFFFFFFFFFFFFFFFFFFFFFFFFFFFFFFFFFFFFFFFFFFFFFFFFFFFFFFFF
310
FFFFFFFFFFFFFFFFFFFFFFFFFFFFFFFFFFFFFFFFFFFFFFFFFFFFFFFFFFFFFFFF
310
FFFFFFFFFFFFFFFFFFFFFFFFFFFFFFFFFFFFFFFFFFFFFFFFFFFFFFFFFFFFFFFF
310
FFFFFFFFFFFFFFFFFFFFFFFFFFFFFFFFFFFFFFFFFFFFFFFFFFFFFFFFFFFFFFFF
310
FDFFFFFFFEFFFFFFFEFFFFFFFEFFFFFFFFFFFFFFFFFFFFFFFFFFFFFFFFFFFFFF
310
FFFFFFFFFFFFFFFFFFFFFFFFFFFFFFFFFFFFFFFFFFFFFFFFFFFFFFFFFFFFFFFF
310
FFFFFFFFFFFFFFFFFFFFFFFFFFFFFFFFFFFFFFFFFFFFFFFFFFFFFFFFFFFFFFFF
310
FFFFFFFFFFFFFFFFFFFFFFFFFFFFFFFFFFFFFFFFFFFFFFFFFFFFFFFFFFFFFFFF
310
FFFFFFFFFFFFFFFFFFFFFFFFFFFFFFFFFFFFFFFFFFFFFFFFFFFFFFFFFFFFFFFF
310
FFFFFFFFFFFFFFFFFFFFFFFFFFFFFFFFFFFFFFFFFFFFFFFFFFFFFFFFFFFFFFFF
310
FFFFFFFFFFFFFFFFFFFFFFFFFFFFFFFFFFFFFFFFFFFFFFFFFFFFFFFFFFFFFFFF
310
FFFFFFFFFFFFFFFFFFFFFFFFFFFFFFFFFFFFFFFFFFFFFFFFFFFFFFFFFFFFFFFF
310
FFFFFFFFFFFFFFFFFFFFFFFFFFFFFFFFFFFFFFFFFFFFFFFFFFFFFFFFFFFFFFFF
310
FFFFFFFFFFFFFFFFFFFFFFFFFFFFFFFFFFFFFFFFFFFFFFFFFFFFFFFFFFFFFFFF
310
FFFFFFFFFFFFFFFFFFFFFFFFFFFFFFFFFFFFFFFFFFFFFFFFFFFFFFFFFFFFFFFF
310
FFFFFFFFFFFFFFFFFFFFFFFFFFFFFFFFFFFFFFFFFFFFFFFFFFFFFFFFFFFFFFFF
310
FFFFFFFFFFFFFFFFFFFFFFFFFFFFFFFFFFFFFFFFFFFFFFFFFFFFFFFFFFFFFFFF
310
FFFFFFFFFFFFFFFFFFFFFFFFFFFFFFFFFFFFFFFFFFFFFFFFFFFFFFFFFFFFFFFF
310
FFFFFFFFFFFFFFFFFFFFFFFFFFFFFFFFFFFFFFFFFFFFFFFFFFFFFFFFFFFFFFFF
310
FFFFFFFFFFFFFFFFFFFFFFFFFFFFFFFFFFFFFFFFFFFFFFFFFFFFFFFFFFFFFFFF
310
52006F006F007400200045006E00740072007900000000000000000000000000
310
0000000000000000000000000000000000000000000000000000000000000000
310
16000500FFFFFFFFFFFFFFFFFFFFFFFF40399411DE36CF11953E00C0A84029E9
310
000000000000000000000000509D0A6B9F7ECD01030000004000000000000000
310
0000000000000000000000000000000000000000000000000000000000000000
310
0000000000000000000000000000000000000000000000000000000000000000
310
00000001FFFFFFFFFFFFFFFFFFFFFFFF00000000000000000000000000000000
310
0000000000000000000000000000000000000000FEFFFFFF1400000000000000
310
0000000000000000000000000000000000000000000000000000000000000000
310
0000000000000000000000000000000000000000000000000000000000000000
310
00000000FFFFFFFFFFFFFFFFFFFFFFFF00000000000000000000000000000000
310
0000000000000000000000000000000000000000000000000000000000000000
310
0000000000000000000000000000000000000000000000000000000000000000
310
0000000000000000000000000000000000000000000000000000000000000000
310
00000000FFFFFFFFFFFFFFFFFFFFFFFF00000000000000000000000000000000
310
0000000000000000000000000000000000000000000000000000000000000000
310
FFFFFFFFFFFFFFFFFFFFFFFFFFFFFFFFFFFFFFFFFFFFFFFFFFFFFFFFFFFFFFFF
310
FFFFFFFFFFFFFFFFFFFFFFFFFFFFFFFFFFFFFFFFFFFFFFFFFFFFFFFFFFFFFFFF
310
FFFFFFFFFFFFFFFFFFFFFFFFFFFFFFFFFFFFFFFFFFFFFFFFFFFFFFFFFFFFFFFF
310
FFFFFFFFFFFFFFFFFFFFFFFFFFFFFFFFFFFFFFFFFFFFFFFFFFFFFFFFFFFFFFFF
310
FFFFFFFFFFFFFFFFFFFFFFFFFFFFFFFFFFFFFFFFFFFFFFFFFFFFFFFFFFFFFFFF
310
FFFFFFFFFFFFFFFFFFFFFFFFFFFFFFFFFFFFFFFFFFFFFFFFFFFFFFFFFFFFFFFF
310
FFFFFFFFFFFFFFFFFFFFFFFFFFFFFFFFFFFFFFFFFFFFFFFFFFFFFFFFFFFFFFFF
310
FFFFFFFFFFFFFFFFFFFFFFFFFFFFFFFFFFFFFFFFFFFFFFFFFFFFFFFFFFFFFFFF
310
FFFFFFFFFFFFFFFFFFFFFFFFFFFFFFFFFFFFFFFFFFFFFFFFFFFFFFFFFFFFFFFF
310
FFFFFFFFFFFFFFFFFFFFFFFFFFFFFFFFFFFFFFFFFFFFFFFFFFFFFFFFFFFFFFFF
310
FFFFFFFFFFFFFFFFFFFFFFFFFFFFFFFFFFFFFFFFFFFFFFFFFFFFFFFFFFFFFFFF
310
FFFFFFFFFFFFFFFFFFFFFFFFFFFFFFFFFFFFFFFFFFFFFFFFFFFFFFFFFFFFFFFF
310
FFFFFFFFFFFFFFFFFFFFFFFFFFFFFFFFFFFFFFFFFFFFFFFFFFFFFFFFFFFFFFFF
310
FFFFFFFFFFFFFFFFFFFFFFFFFFFFFFFFFFFFFFFFFFFFFFFFFFFFFFFFFFFFFFFF
310
FFFFFFFFFFFFFFFFFFFFFFFFFFFFFFFFFFFFFFFFFFFFFFFFFFFFFFFFFFFFFFFF
310
FFFFFFFFFFFFFFFFFFFFFFFFFFFFFFFFFFFFFFFFFFFFFFFFFFFFFFFFFFFFFFFF
310
0100000200000000000000000000000000000000000000000000000000000000
310
0000000000000000000000000000000000000000000000000000000000000000
310
0000000000000000000000000000000000000000000000000000000000000000
310
0000000000000000000000000000000000000000000000000000000000000000
310
0000000000000000000000000000000000000000000000000000000000000000
310
0000000000000000000000000000000000000000000000000000000000000000
310
0000000000000000000000000000000000000000000000000000000000000000
310
0000000000000000000000000000000000000000000000000000000000000000
310
0000000000000000000000000000000000000000000000000000000000000000
310
0000000000000000000000000000000000000000000000000000000000000000
310
0000000000000000000000000000000000000000000000000000000000000000
310
0000000000000000000000000000000000000000000000000000000000000000
310
0000000000000000000000000000000000000000000000000000000000000000
310
0000000000000000000000000000000000000000000000000000000000000000
310
0000000000000000000000000000000000000000000000000000000000000000
310
0000000000000000000000000000000000000000000000000000000000000000
  1
OLE
  0
ENDSEC
  0
SECTION
  2
OBJECTS
  0
DICTIONARY
  5
C
330
0
100
AcDbDictionary
281
     1
  3
ACAD_GROUP
350
D
  3
ACAD_LAYOUT
350
1A
  3
ACAD_MLINESTYLE
350
17
  3
ACAD_PLOTSETTINGS
350
19
  3
ACAD_PLOTSTYLENAME
350
E
  0
DICTIONARY
  5
D
102
{ACAD_REACTORS
330
C
102
}
330
C
100
AcDbDictionary
281
     1
  0
DICTIONARY
  5
1A
102
{ACAD_REACTORS
330
C
102
}
330
C
100
AcDbDictionary
281
     1
  3
Layout1
350
1E
  3
Layout2
350
26
  3
Model
350
22
  0
DICTIONARY
  5
17
102
{ACAD_REACTORS
330
C
102
}
330
C
100
AcDbDictionary
281
     1
  3
Standard
350
18
  0
DICTIONARY
  5
19
102
{ACAD_REACTORS
330
C
102
}
330
C
100
AcDbDictionary
281
     1
  0
ACDBDICTIONARYWDFLT
  5
E
102
{ACAD_REACTORS
330
C
102
}
330
C
100
AcDbDictionary
281
     1
  3
Normal
350
F
100
AcDbDictionaryWithDefault
340
F
  0
LAYOUT
  5
1E
102
{ACAD_REACTORS
330
1A
102
}
330
1A
100
AcDbPlotSettings
  1

  2
none_device
  4

  6

 40
0.0
 41
0.0
 42
0.0
 43
0.0
 44
0.0
 45
0.0
 46
0.0
 47
0.0
 48
0.0
 49
0.0
140
0.0
141
0.0
142
1.0
143
1.0
 70
   688
 72
     0
 73
     0
 74
     5
  7

 75
    16
147
1.0
148
0.0
149
0.0
100
AcDbLayout
  1
Layout1
 70
     1
 71
     1
 10
0.0
 20
0.0
 11
420.0
 21
297.0
 12
0.0
 22
0.0
 32
0.0
 14
1.0000000000E+20
 24
1.0000000000E+20
 34
1.0000000000E+20
 15
-1.0000000000E+20
 25
-1.0000000000E+20
 35
-1.0000000000E+20
146
0.0
 13
0.0
 23
0.0
 33
0.0
 16
1.0
 26
0.0
 36
0.0
 17
0.0
 27
1.0
 37
0.0
 76
     0
330
1B
  0
LAYOUT
  5
26
102
{ACAD_REACTORS
330
1A
102
}
330
1A
100
AcDbPlotSettings
  1

  2
none_device
  4

  6

 40
0.0
 41
0.0
 42
0.0
 43
0.0
 44
0.0
 45
0.0
 46
0.0
 47
0.0
 48
0.0
 49
0.0
140
0.0
141
0.0
142
1.0
143
1.0
 70
   688
 72
     0
 73
     0
 74
     5
  7

 75
    16
147
1.0
148
0.0
149
0.0
100
AcDbLayout
  1
Layout2
 70
     1
 71
     2
 10
0.0
 20
0.0
 11
0.0
 21
0.0
 12
0.0
 22
0.0
 32
0.0
 14
0.0
 24
0.0
 34
0.0
 15
0.0
 25
0.0
 35
0.0
146
0.0
 13
0.0
 23
0.0
 33
0.0
 16
1.0
 26
0.0
 36
0.0
 17
0.0
 27
1.0
 37
0.0
 76
     0
330
23
  0
LAYOUT
  5
22
102
{ACAD_REACTORS
330
1A
102
}
330
1A
100
AcDbPlotSettings
  1

  2
none_device
  4

  6

 40
0.0
 41
0.0
 42
0.0
 43
0.0
 44
0.0
 45
0.0
 46
0.0
 47
0.0
 48
0.0
 49
0.0
140
0.0
141
0.0
142
1.0
143
1.0
 70
  1712
 72
     0
 73
     0
 74
     0
  7

 75
     0
147
1.0
148
0.0
149
0.0
100
AcDbLayout
  1
Model
 70
     1
 71
     0
 10
0.0
 20
0.0
 11
210.0
 21
297.0
 12
0.0
 22
0.0
 32
0.0
 14
0.0
 24
0.0
 34
0.0
 15
210.0
 25
297.0
 35
0.0
146
0.0
 13
0.0
 23
0.0
 33
0.0
 16
1.0
 26
0.0
 36
0.0
 17
0.0
 27
1.0
 37
0.0
 76
     0
330
1F
331
29
  0
MLINESTYLE
  5
18
102
{ACAD_REACTORS
330
17
102
}
330
17
100
AcDbMlineStyle
  2
Standard
 70
     0
  3

 62
   256
 51
90.0
 52
90.0
 71
     2
 49
0.5
 62
   256
  6
BYLAYER
 49
-0.5
 62
   256
  6
BYLAYER
  0
ACDBPLACEHOLDER
  5
F
102
{ACAD_REACTORS
330
E
102
}
330
E
  0
ENDSEC
  0
EOF
